  0
SECTION
  2
HEADER
  9
$ACADVER
  1
AC1027
  9
$ACADMAINTVER
 70
    55
  9
$DWGCODEPAGE
  3
ANSI_949
  9
$LASTSAVEDBY
  1
DESKTOP
  9
$REQUIREDVERSIONS
160
                 0
  9
$INSBASE
 10
0.0
 20
0.0
 30
0.0
  9
$EXTMIN
 10
-2.766088953634834
 20
-2.748961421664148
 30
-0.0000000000000053
  9
$EXTMAX
 10
269.4535238495484
 20
189.15386154539
 30
0.0000000000000099
  9
$LIMMIN
 10
0.0
 20
0.0
  9
$LIMMAX
 10
420.0
 20
297.0
  9
$ORTHOMODE
 70
     0
  9
$REGENMODE
 70
     1
  9
$FILLMODE
 70
     1
  9
$QTEXTMODE
 70
     0
  9
$MIRRTEXT
 70
     0
  9
$LTSCALE
 40
5.0
  9
$ATTMODE
 70
     1
  9
$TEXTSIZE
 40
3.0
  9
$TRACEWID
 40
1.0
  9
$TEXTSTYLE
  7
Standard
  9
$CLAYER
  8
0
  9
$CELTYPE
  6
Continuous
  9
$CECOLOR
 62
     7
  9
$CELTSCALE
 40
1.0
  9
$DISPSILH
 70
     0
  9
$DIMSCALE
 40
1.0
  9
$DIMASZ
 40
2.5
  9
$DIMEXO
 40
0.625
  9
$DIMDLI
 40
3.75
  9
$DIMRND
 40
0.0
  9
$DIMDLE
 40
0.0
  9
$DIMEXE
 40
1.25
  9
$DIMTP
 40
0.0
  9
$DIMTM
 40
0.000000001
  9
$DIMTXT
 40
3.0
  9
$DIMCEN
 40
-0.5
  9
$DIMTSZ
 40
0.0
  9
$DIMTOL
 70
     0
  9
$DIMLIM
 70
     0
  9
$DIMTIH
 70
     0
  9
$DIMTOH
 70
     0
  9
$DIMSE1
 70
     0
  9
$DIMSE2
 70
     0
  9
$DIMTAD
 70
     1
  9
$DIMZIN
 70
     8
  9
$DIMBLK
  1

  9
$DIMASO
 70
     1
  9
$DIMSHO
 70
     1
  9
$DIMPOST
  1

  9
$DIMAPOST
  1

  9
$DIMALT
 70
     0
  9
$DIMALTD
 70
     3
  9
$DIMALTF
 40
0.03937007874016
  9
$DIMLFAC
 40
1.0
  9
$DIMTOFL
 70
     1
  9
$DIMTVP
 40
0.0
  9
$DIMTIX
 70
     0
  9
$DIMSOXD
 70
     0
  9
$DIMSAH
 70
     0
  9
$DIMBLK1
  1

  9
$DIMBLK2
  1

  9
$DIMSTYLE
  2
Standard
  9
$DIMCLRD
 70
     3
  9
$DIMCLRE
 70
     3
  9
$DIMCLRT
 70
     2
  9
$DIMTFAC
 40
0.7
  9
$DIMGAP
 40
0.625
  9
$DIMJUST
 70
     0
  9
$DIMSD1
 70
     0
  9
$DIMSD2
 70
     0
  9
$DIMTOLJ
 70
     0
  9
$DIMTZIN
 70
     8
  9
$DIMALTZ
 70
     0
  9
$DIMALTTZ
 70
     0
  9
$DIMUPT
 70
     0
  9
$DIMDEC
 70
     8
  9
$DIMTDEC
 70
     8
  9
$DIMALTU
 70
     2
  9
$DIMALTTD
 70
     3
  9
$DIMTXSTY
  7
Standard
  9
$DIMAUNIT
 70
     1
  9
$DIMADEC
 70
     0
  9
$DIMALTRND
 40
0.0
  9
$DIMAZIN
 70
     0
  9
$DIMDSEP
 70
    46
  9
$DIMATFIT
 70
     3
  9
$DIMFRAC
 70
     0
  9
$DIMLDRBLK
  1

  9
$DIMLUNIT
 70
     2
  9
$DIMLWD
 70
    -1
  9
$DIMLWE
 70
    -1
  9
$DIMTMOVE
 70
     0
  9
$DIMFXL
 40
1.0
  9
$DIMFXLON
 70
     0
  9
$DIMJOGANG
 40
0.7853981633974483
  9
$DIMTFILL
 70
     0
  9
$DIMTFILLCLR
 70
     0
  9
$DIMARCSYM
 70
     1
  9
$DIMLTYPE
  6

  9
$DIMLTEX1
  6

  9
$DIMLTEX2
  6

  9
$DIMTXTDIRECTION
 70
     0
  9
$LUNITS
 70
     2
  9
$LUPREC
 70
     4
  9
$SKETCHINC
 40
0.0
  9
$FILLETRAD
 40
0.0
  9
$AUNITS
 70
     0
  9
$AUPREC
 70
     0
  9
$MENU
  1
.
  9
$ELEVATION
 40
0.0
  9
$PELEVATION
 40
0.0
  9
$THICKNESS
 40
0.0
  9
$LIMCHECK
 70
     0
  9
$CHAMFERA
 40
1.5
  9
$CHAMFERB
 40
1.5
  9
$CHAMFERC
 40
0.0
  9
$CHAMFERD
 40
0.0087266462599716
  9
$SKPOLY
 70
     0
  9
$TDCREATE
 40
2455072.745932974
  9
$TDUCREATE
 40
2455072.370932974
  9
$TDUPDATE
 40
2461001.782945648
  9
$TDUUPDATE
 40
2461001.407945648
  9
$TDINDWG
 40
132.0881849306
  9
$TDUSRTIMER
 40
132.0881847454
  9
$USRTIMER
 70
     1
  9
$ANGBASE
 50
0.0
  9
$ANGDIR
 70
     0
  9
$PDMODE
 70
     0
  9
$PDSIZE
 40
0.0
  9
$PLINEWID
 40
0.0
  9
$SPLFRAME
 70
     0
  9
$SPLINETYPE
 70
     6
  9
$SPLINESEGS
 70
     8
  9
$HANDSEED
  5
3CC20
  9
$SURFTAB1
 70
     6
  9
$SURFTAB2
 70
     6
  9
$SURFTYPE
 70
     6
  9
$SURFU
 70
     6
  9
$SURFV
 70
     6
  9
$UCSBASE
  2

  9
$UCSNAME
  2

  9
$UCSORG
 10
0.0
 20
0.0
 30
0.0
  9
$UCSXDIR
 10
1.0
 20
0.0
 30
0.0
  9
$UCSYDIR
 10
0.0
 20
1.0
 30
0.0
  9
$UCSORTHOREF
  2

  9
$UCSORTHOVIEW
 70
     0
  9
$UCSORGTOP
 10
0.0
 20
0.0
 30
0.0
  9
$UCSORGBOTTOM
 10
0.0
 20
0.0
 30
0.0
  9
$UCSORGLEFT
 10
0.0
 20
0.0
 30
0.0
  9
$UCSORGRIGHT
 10
0.0
 20
0.0
 30
0.0
  9
$UCSORGFRONT
 10
0.0
 20
0.0
 30
0.0
  9
$UCSORGBACK
 10
0.0
 20
0.0
 30
0.0
  9
$PUCSBASE
  2

  9
$PUCSNAME
  2

  9
$PUCSORG
 10
0.0
 20
0.0
 30
0.0
  9
$PUCSXDIR
 10
1.0
 20
0.0
 30
0.0
  9
$PUCSYDIR
 10
0.0
 20
1.0
 30
0.0
  9
$PUCSORTHOREF
  2

  9
$PUCSORTHOVIEW
 70
     0
  9
$PUCSORGTOP
 10
0.0
 20
0.0
 30
0.0
  9
$PUCSORGBOTTOM
 10
0.0
 20
0.0
 30
0.0
  9
$PUCSORGLEFT
 10
0.0
 20
0.0
 30
0.0
  9
$PUCSORGRIGHT
 10
0.0
 20
0.0
 30
0.0
  9
$PUCSORGFRONT
 10
0.0
 20
0.0
 30
0.0
  9
$PUCSORGBACK
 10
0.0
 20
0.0
 30
0.0
  9
$USERI1
 70
     0
  9
$USERI2
 70
     0
  9
$USERI3
 70
     0
  9
$USERI4
 70
     0
  9
$USERI5
 70
     0
  9
$USERR1
 40
0.0
  9
$USERR2
 40
0.0
  9
$USERR3
 40
0.0
  9
$USERR4
 40
0.0
  9
$USERR5
 40
0.0
  9
$WORLDVIEW
 70
     1
  9
$SHADEDGE
 70
     3
  9
$SHADEDIF
 70
    70
  9
$TILEMODE
 70
     1
  9
$MAXACTVP
 70
    64
  9
$PINSBASE
 10
0.0
 20
0.0
 30
0.0
  9
$PLIMCHECK
 70
     0
  9
$PEXTMIN
 10
1.000000000000000E+20
 20
1.000000000000000E+20
 30
1.000000000000000E+20
  9
$PEXTMAX
 10
-1.000000000000000E+20
 20
-1.000000000000000E+20
 30
-1.000000000000000E+20
  9
$PLIMMIN
 10
-20.0
 20
-7.5
  9
$PLIMMAX
 10
277.0
 20
202.5
  9
$UNITMODE
 70
     0
  9
$VISRETAIN
 70
     1
  9
$PLINEGEN
 70
     0
  9
$PSLTSCALE
 70
     1
  9
$TREEDEPTH
 70
  3020
  9
$CMLSTYLE
  2
Standard
  9
$CMLJUST
 70
     0
  9
$CMLSCALE
 40
20.0
  9
$PROXYGRAPHICS
 70
     1
  9
$MEASUREMENT
 70
     1
  9
$CELWEIGHT
370
    -1
  9
$ENDCAPS
280
     0
  9
$JOINSTYLE
280
     0
  9
$LWDISPLAY
290
     0
  9
$INSUNITS
 70
     4
  9
$HYPERLINKBASE
  1

  9
$STYLESHEET
  1
ksm0910.ctb
  9
$XEDIT
290
     1
  9
$CEPSNTYPE
380
     0
  9
$PSTYLEMODE
290
     1
  9
$FINGERPRINTGUID
  2
{D2C70C36-9B4F-4E20-9CCB-531AA1EE4AC8}
  9
$VERSIONGUID
  2
{2FE7CE66-A277-4A72-8EDC-00C41626B1C9}
  9
$EXTNAMES
290
     1
  9
$PSVPSCALE
 40
0.0
  9
$OLESTARTUP
290
     0
  9
$SORTENTS
280
   127
  9
$INDEXCTL
280
     0
  9
$HIDETEXT
280
     1
  9
$XCLIPFRAME
280
     2
  9
$HALOGAP
280
     0
  9
$OBSCOLOR
 70
   257
  9
$OBSLTYPE
280
     0
  9
$INTERSECTIONDISPLAY
280
     0
  9
$INTERSECTIONCOLOR
 70
   257
  9
$DIMASSOC
280
     1
  9
$PROJECTNAME
  1

  9
$CAMERADISPLAY
290
     0
  9
$LENSLENGTH
 40
50.0
  9
$CAMERAHEIGHT
 40
0.0
  9
$STEPSPERSEC
 40
2.0
  9
$STEPSIZE
 40
6.0
  9
$3DDWFPREC
 40
2.0
  9
$PSOLWIDTH
 40
5.0
  9
$PSOLHEIGHT
 40
80.0
  9
$LOFTANG1
 40
1.570796326794896
  9
$LOFTANG2
 40
1.570796326794896
  9
$LOFTMAG1
 40
0.0
  9
$LOFTMAG2
 40
0.0
  9
$LOFTPARAM
 70
     7
  9
$LOFTNORMALS
280
     1
  9
$LATITUDE
 40
37.795
  9
$LONGITUDE
 40
-122.394
  9
$NORTHDIRECTION
 40
0.0
  9
$TIMEZONE
 70
 -8000
  9
$LIGHTGLYPHDISPLAY
280
     1
  9
$TILEMODELIGHTSYNCH
280
     1
  9
$CMATERIAL
347
3D
  9
$SOLIDHIST
280
     1
  9
$SHOWHIST
280
     1
  9
$DWFFRAME
280
     2
  9
$DGNFRAME
280
     0
  9
$REALWORLDSCALE
290
     1
  9
$INTERFERECOLOR
 62
     1
  9
$INTERFEREOBJVS
345
46
  9
$INTERFEREVPVS
346
47
  9
$CSHADOW
280
     0
  9
$SHADOWPLANELOCATION
 40
0.0
  0
ENDSEC
  0
SECTION
  2
CLASSES
  0
CLASS
  1
ACDBDICTIONARYWDFLT
  2
AcDbDictionaryWithDefault
  3
ObjectDBX Classes
 90
        0
 91
        1
280
     0
281
     0
  0
CLASS
  1
DICTIONARYVAR
  2
AcDbDictionaryVar
  3
ObjectDBX Classes
 90
        0
 91
       18
280
     0
281
     0
  0
CLASS
  1
TABLESTYLE
  2
AcDbTableStyle
  3
ObjectDBX Classes
 90
     4095
 91
        1
280
     0
281
     0
  0
CLASS
  1
MATERIAL
  2
AcDbMaterial
  3
ObjectDBX Classes
 90
     1153
 91
        3
280
     0
281
     0
  0
CLASS
  1
VISUALSTYLE
  2
AcDbVisualStyle
  3
ObjectDBX Classes
 90
     4095
 91
       26
280
     0
281
     0
  0
CLASS
  1
SCALE
  2
AcDbScale
  3
ObjectDBX Classes
 90
     1153
 91
       17
280
     0
281
     0
  0
CLASS
  1
MLEADERSTYLE
  2
AcDbMLeaderStyle
  3
ACDB_MLEADERSTYLE_CLASS
 90
     4095
 91
        1
280
     0
281
     0
  0
CLASS
  1
CELLSTYLEMAP
  2
AcDbCellStyleMap
  3
ObjectDBX Classes
 90
     1152
 91
        2
280
     0
281
     0
  0
CLASS
  1
SORTENTSTABLE
  2
AcDbSortentsTable
  3
ObjectDBX Classes
 90
        0
 91
        1
280
     0
281
     0
  0
CLASS
  1
DIMASSOC
  2
AcDbDimAssoc
  3
"AcDbDimAssoc|Product Desc:     AcDim ARX App For Dimension|Company:          Autodesk, Inc.|WEB Address:      www.autodesk.com"
 90
        0
 91
        0
280
     0
281
     0
  0
CLASS
  1
SOLID_BACKGROUND
  2
AcDbSolidBackground
  3
SCENEOE
 90
     4095
 91
        0
280
     0
281
     0
  0
CLASS
  1
NPOCOLLECTION
  2
AcDbImpNonPersistentObjectsCollection
  3
ObjectDBX Classes
 90
     1153
 91
        0
280
     0
281
     0
  0
CLASS
  1
ACAD_EVALUATION_GRAPH
  2
AcDbEvalGraph
  3
ObjectDBX Classes
 90
     1153
 91
        0
280
     0
281
     0
  0
CLASS
  1
ACAECUSTOBJ
  2
AcAeEditorObj
  3
AcAeEditorObj
 90
     1024
 91
        0
280
     1
281
     0
  0
CLASS
  1
ACDB_DYNAMICBLOCKPURGEPREVENTER_VERSION
  2
AcDbDynamicBlockPurgePreventer
  3
ObjectDBX Classes
 90
     1153
 91
        0
280
     0
281
     0
  0
CLASS
  1
HELIX
  2
AcDbHelix
  3
ObjectDBX Classes
 90
     4095
 91
        0
280
     0
281
     1
  0
CLASS
  1
MULTILEADER
  2
AcDbMLeader
  3
ACDB_MLEADER_CLASS
 90
     1025
 91
        0
280
     0
281
     1
  0
CLASS
  1
ACMDIMBREAKPERSREACTOR
  2
AcmDimBreakPersReactor
  3
amgDimApp().moduleName()
 90
     1023
 91
        0
280
     1
281
     0
  0
CLASS
  1
ACDB_MTEXTOBJECTCONTEXTDATA_CLASS
  2
AcDbMTextObjectContextData
  3
ObjectDBX Classes
 90
     1153
 91
        0
280
     0
281
     0
  0
CLASS
  1
BREAKDATA
  2
AcDbBreakData
  3
ObjectDBX Classes
 90
     1024
 91
        0
280
     0
281
     0
  0
CLASS
  1
EXACXREFPANELOBJECT
  2
ExAcXREFPanelObject
  3
EXAC_ESW
 90
     1025
 91
        0
280
     1
281
     0
  0
CLASS
  1
ACDBSECTIONVIEWSTYLE
  2
AcDbSectionViewStyle
  3
ObjectDBX Classes
 90
     1025
 91
        2
280
     0
281
     0
  0
CLASS
  1
ACDBDETAILVIEWSTYLE
  2
AcDbDetailViewStyle
  3
ObjectDBX Classes
 90
     1025
 91
        2
280
     0
281
     0
  0
CLASS
  1
ACDBASSOCACTION
  2
AcDbAssocAction
  3
ObjectDBX Classes
 90
     1025
 91
        1
280
     0
281
     0
  0
CLASS
  1
ACDBASSOCARRAYACTIONBODY
  2
AcDbAssocArrayActionBody
  3
ObjectDBX Classes
 90
     1025
 91
        1
280
     0
281
     0
  0
CLASS
  1
ACDBASSOCDEPENDENCY
  2
AcDbAssocDependency
  3
ObjectDBX Classes
 90
     1025
 91
        3
280
     0
281
     0
  0
CLASS
  1
ACDBASSOCVERTEXACTIONPARAM
  2
AcDbAssocVertexActionParam
  3
ObjectDBX Classes
 90
     1025
 91
        3
280
     0
281
     0
  0
CLASS
  1
ACDBASSOCARRAYPOLARPARAMETERS
  2
AcDbAssocArrayPolarParameters
  3
ObjectDBX Classes
 90
     1025
 91
        0
280
     0
281
     0
  0
CLASS
  1
ACDBASSOCNETWORK
  2
AcDbAssocNetwork
  3
ObjectDBX Classes
 90
     1025
 91
        2
280
     0
281
     0
  0
CLASS
  1
ACARRAYJIGENTITY
  2
AcArrayJigEntity
  3
ACAD_ARRAY
 90
      129
 91
        0
280
     0
281
     1
  0
ENDSEC
  0
SECTION
  2
TABLES
  0
TABLE
  2
VPORT
  5
2C
102
{ACAD_XDICTIONARY
360
31
102
}
330
0
100
AcDbSymbolTable
 70
     1
  0
VPORT
  5
2D
330
2C
100
AcDbSymbolTableRecord
100
AcDbViewportTableRecord
  2
*Active
 70
     0
 10
0.0
 20
0.0
 11
1.0
 21
1.0
 12
133.3531740187567
 22
93.19877175651056
 13
0.0
 23
0.0
 14
2.0
 24
2.0
 15
2.0
 25
2.0
 16
0.0
 26
0.0
 36
1.0
 17
0.0
 27
0.0
 37
0.0
 40
193.4175197332411
 41
2.15871121718377
 42
50.0
 43
0.0
 44
0.0
 50
0.0
 51
0.0
 71
     0
 72
  1000
 73
     1
 74
     3
 75
     0
 76
     0
 77
     0
 78
     1
281
     0
 65
     1
110
0.0
120
0.0
130
0.0
111
1.0
121
0.0
131
0.0
112
0.0
122
1.0
132
0.0
 79
     0
146
0.0
348
2E
 60
     3
 61
     5
292
     1
282
     1
141
0.0
142
0.0
 63
   250
421
  3355443
1001
ACAD_NAV_VCDISPLAY
1070
     3
  0
ENDTAB
  0
TABLE
  2
LTYPE
  5
27
330
0
100
AcDbSymbolTable
 70
     3
  0
LTYPE
  5
28
330
27
100
AcDbSymbolTableRecord
100
AcDbLinetypeTableRecord
  2
ByBlock
 70
     0
  3

 72
    65
 73
     0
 40
0.0
  0
LTYPE
  5
29
330
27
100
AcDbSymbolTableRecord
100
AcDbLinetypeTableRecord
  2
ByLayer
 70
     0
  3

 72
    65
 73
     0
 40
0.0
  0
LTYPE
  5
14
330
27
100
AcDbSymbolTableRecord
100
AcDbLinetypeTableRecord
  2
Continuous
 70
     0
  3
Solid line
 72
    65
 73
     0
 40
0.0
  0
LTYPE
  5
39E15
330
27
100
AcDbSymbolTableRecord
100
AcDbLinetypeTableRecord
  2
CENTER
 70
     0
  3
____ _ ____ _ ____ _ ____ _ ____ _ ____ _ ____ 
 72
    65
 73
     4
 40
2.0
 49
1.25
 74
     0
 49
-0.25
 74
     0
 49
0.25
 74
     0
 49
-0.25
 74
     0
  0
LTYPE
  5
3BE46
330
27
100
AcDbSymbolTableRecord
100
AcDbLinetypeTableRecord
  2
HIDDEN
 70
     0
  3
Hidden __ __ __ __ __ __ __ __ __ __ __ __ __ _
 72
    65
 73
     2
 40
9.524999999999998
 49
6.349999999999999
 74
     0
 49
-3.174999999999999
 74
     0
  0
ENDTAB
  0
TABLE
  2
LAYER
  5
21
102
{ACAD_XDICTIONARY
360
22
102
}
330
0
100
AcDbSymbolTable
 70
     3
  0
LAYER
  5
6
102
{ACAD_XDICTIONARY
360
7
102
}
330
21
100
AcDbSymbolTableRecord
100
AcDbLayerTableRecord
  2
0
 70
     0
 62
     7
  6
Continuous
370
    -3
390
9
347
C
348
0
  0
LAYER
  5
1A4
330
21
100
AcDbSymbolTableRecord
100
AcDbLayerTableRecord
  2
DEFPOINTS
 70
     0
 62
     7
  6
Continuous
290
     0
370
    -3
390
9
347
C
348
0
  0
LAYER
  5
283CB
330
21
100
AcDbSymbolTableRecord
100
AcDbLayerTableRecord
  2
Layer 1
 70
     0
 62
     7
  6
Continuous
370
     0
390
9
347
C
348
0
  0
ENDTAB
  0
TABLE
  2
STYLE
  5
24
330
0
100
AcDbSymbolTable
 70
     4
  0
STYLE
  5
25
330
24
100
AcDbSymbolTableRecord
100
AcDbTextStyleTableRecord
  2
Standard
 70
     0
 40
3.0
 41
1.0
 50
0.0
 71
     0
 42
3.0
  3
isocp.shx
  4
whgtxt.shx
  0
STYLE
  5
35
330
24
100
AcDbSymbolTableRecord
100
AcDbTextStyleTableRecord
  2
ROMANS
 70
     0
 40
2.5
 41
1.0
 50
0.0
 71
     0
 42
2.5
  3
romans.shx
  4

  0
STYLE
  5
5C
330
24
100
AcDbSymbolTableRecord
100
AcDbTextStyleTableRecord
  2
굴림
 70
     0
 40
3.0
 41
1.0
 50
0.0
 71
     0
 42
3.0
  3

  4

1001
ACAD
1000
Gulim
1071
    33074
  0
ENDTAB
  0
TABLE
  2
VIEW
  5
2A
330
0
100
AcDbSymbolTable
 70
     0
  0
ENDTAB
  0
TABLE
  2
UCS
  5
2B
330
0
100
AcDbSymbolTable
 70
     0
  0
ENDTAB
  0
TABLE
  2
APPID
  5
32
330
0
100
AcDbSymbolTable
 70
    45
  0
APPID
  5
13
330
32
100
AcDbSymbolTableRecord
100
AcDbRegAppTableRecord
  2
ACAD
 70
     0
  0
APPID
  5
1A
330
32
100
AcDbSymbolTableRecord
100
AcDbRegAppTableRecord
  2
ACAD_PSEXT
 70
     0
  0
APPID
  5
37
330
32
100
AcDbSymbolTableRecord
100
AcDbRegAppTableRecord
  2
ACAD_DSTYLE_DIMJAG
 70
     0
  0
APPID
  5
38
330
32
100
AcDbSymbolTableRecord
100
AcDbRegAppTableRecord
  2
ACAD_DSTYLE_DIMTALN
 70
     0
  0
APPID
  5
36
330
32
100
AcDbSymbolTableRecord
100
AcDbRegAppTableRecord
  2
ACAD_DSTYLE_DIMJOGGED_JOGANGLE_SYMBOL
 70
     0
  0
APPID
  5
183
330
32
100
AcDbSymbolTableRecord
100
AcDbRegAppTableRecord
  2
AcAecLayerStandard
 70
     0
  0
APPID
  5
3DE
330
32
100
AcDbSymbolTableRecord
100
AcDbRegAppTableRecord
  2
ACAD_DSTYLE_DIMRADIAL_EXTENSION
 70
     0
  0
APPID
  5
530
330
32
100
AcDbSymbolTableRecord
100
AcDbRegAppTableRecord
  2
GRADIENTCOLOR1ACI
 70
     0
  0
APPID
  5
531
330
32
100
AcDbSymbolTableRecord
100
AcDbRegAppTableRecord
  2
GRADIENTCOLOR2ACI
 70
     0
  0
APPID
  5
30
330
32
100
AcDbSymbolTableRecord
100
AcDbRegAppTableRecord
  2
ACAD_NAV_VCDISPLAY
 70
     0
  0
APPID
  5
C34
330
32
100
AcDbSymbolTableRecord
100
AcDbRegAppTableRecord
  2
ACAD_MLEADERVER
 70
     0
  0
APPID
  5
C97
330
32
100
AcDbSymbolTableRecord
100
AcDbRegAppTableRecord
  2
ACAD_EXEMPT_FROM_CAD_STANDARDS
 70
     0
  0
APPID
  5
D79
330
32
100
AcDbSymbolTableRecord
100
AcDbRegAppTableRecord
  2
AcadAnnoMonitorAlertIconDisabled
 70
     0
  0
APPID
  5
1A45
330
32
100
AcDbSymbolTableRecord
100
AcDbRegAppTableRecord
  2
GENIUS_GENODEF_13
 70
     0
  0
APPID
  5
1A46
330
32
100
AcDbSymbolTableRecord
100
AcDbRegAppTableRecord
  2
GENIUS_GENOBJ-N-FIL_13
 70
     0
  0
APPID
  5
1A47
330
32
100
AcDbSymbolTableRecord
100
AcDbRegAppTableRecord
  2
ACAD_DSTYLE_DIMBREAK
 70
     0
  0
APPID
  5
1A48
330
32
100
AcDbSymbolTableRecord
100
AcDbRegAppTableRecord
  2
GENIUS_GENOBJ-N-HTC_13
 70
     0
  0
APPID
  5
1A49
330
32
100
AcDbSymbolTableRecord
100
AcDbRegAppTableRecord
  2
GENIUS_GENHATCH_13
 70
     0
  0
APPID
  5
1A4A
330
32
100
AcDbSymbolTableRecord
100
AcDbRegAppTableRecord
  2
GENIUS_GENREC_14
 70
     0
  0
APPID
  5
1A4B
330
32
100
AcDbSymbolTableRecord
100
AcDbRegAppTableRecord
  2
GENIUS_GENOBJ-N-REC_13
 70
     0
  0
APPID
  5
1A4C
330
32
100
AcDbSymbolTableRecord
100
AcDbRegAppTableRecord
  2
ACAUTHENVIRON
 70
     0
  0
APPID
  5
1A4D
330
32
100
AcDbSymbolTableRecord
100
AcDbRegAppTableRecord
  2
AcDbDynamicBlockTrueName
 70
     0
  0
APPID
  5
1A4E
330
32
100
AcDbSymbolTableRecord
100
AcDbRegAppTableRecord
  2
AcDbDynamicBlockGUID
 70
     0
  0
APPID
  5
1A4F
330
32
100
AcDbSymbolTableRecord
100
AcDbRegAppTableRecord
  2
AcDbBlockRepETag
 70
     0
  0
APPID
  5
1A50
330
32
100
AcDbSymbolTableRecord
100
AcDbRegAppTableRecord
  2
DCO15
 70
     0
  0
APPID
  5
1A51
330
32
100
AcDbSymbolTableRecord
100
AcDbRegAppTableRecord
  2
ACAD_DSTYLE_DIMTEXT_FILL
 70
     0
  0
APPID
  5
1A52
330
32
100
AcDbSymbolTableRecord
100
AcDbRegAppTableRecord
  2
ACAD_DSTYLE_DIM_LINETYPE
 70
     0
  0
APPID
  5
1A53
330
32
100
AcDbSymbolTableRecord
100
AcDbRegAppTableRecord
  2
ACAD_DSTYLE_DIM_EXT1_LINETYPE
 70
     0
  0
APPID
  5
1A54
330
32
100
AcDbSymbolTableRecord
100
AcDbRegAppTableRecord
  2
ACAD_DSTYLE_DIM_EXT2_LINETYPE
 70
     0
  0
APPID
  5
1A55
330
32
100
AcDbSymbolTableRecord
100
AcDbRegAppTableRecord
  2
ACAD_DSTYLE_DIMINSPECT
 70
     0
  0
APPID
  5
1A56
330
32
100
AcDbSymbolTableRecord
100
AcDbRegAppTableRecord
  2
AcadAnnotative
 70
     0
  0
APPID
  5
1A57
330
32
100
AcDbSymbolTableRecord
100
AcDbRegAppTableRecord
  2
GENIUS_GENDTOL_13
 70
     0
  0
APPID
  5
1A58
330
32
100
AcDbSymbolTableRecord
100
AcDbRegAppTableRecord
  2
GENIUS_GENFIL_13
 70
     0
  0
APPID
  5
1A59
330
32
100
AcDbSymbolTableRecord
100
AcDbRegAppTableRecord
  2
GENIUS_GENOBJ-N-CHA_13
 70
     0
  0
APPID
  5
1A5A
330
32
100
AcDbSymbolTableRecord
100
AcDbRegAppTableRecord
  2
AcadAnnotativeDecomposition
 70
     0
  0
APPID
  5
1A5B
330
32
100
AcDbSymbolTableRecord
100
AcDbRegAppTableRecord
  2
MCAD_NO_VIS
 70
     0
  0
APPID
  5
1A5C
330
32
100
AcDbSymbolTableRecord
100
AcDbRegAppTableRecord
  2
ACAD_TEMP_GRAPHIC
 70
     0
  0
APPID
  5
1A5D
330
32
100
AcDbSymbolTableRecord
100
AcDbRegAppTableRecord
  2
ACATTRIBSERVICES
 70
     0
  0
APPID
  5
1A5E
330
32
100
AcDbSymbolTableRecord
100
AcDbRegAppTableRecord
  2
DESIGNERASSEMBLIES
 70
     0
  0
APPID
  5
1A5F
330
32
100
AcDbSymbolTableRecord
100
AcDbRegAppTableRecord
  2
GENIUS_GENDIMSH_14
 70
     0
  0
APPID
  5
1A60
330
32
100
AcDbSymbolTableRecord
100
AcDbRegAppTableRecord
  2
ACAD_DSTYLE_DIMARC_LENGTH_SYMBOL
 70
     0
  0
APPID
  5
1A61
330
32
100
AcDbSymbolTableRecord
100
AcDbRegAppTableRecord
  2
ACAD_SPLINE_DATA
 70
     0
  0
APPID
  5
1A62
330
32
100
AcDbSymbolTableRecord
100
AcDbRegAppTableRecord
  2
GENIUS_GENOREF_13
 70
     0
  0
APPID
  5
1A63
330
32
100
AcDbSymbolTableRecord
100
AcDbRegAppTableRecord
  2
ACAD_DSTYLE_DIMANGULAR_EXTENSION
 70
     0
  0
APPID
  5
318CC
330
32
100
AcDbSymbolTableRecord
100
AcDbRegAppTableRecord
  2
HATCHBACKGROUNDCOLOR
 70
     0
  0
ENDTAB
  0
TABLE
  2
DIMSTYLE
  5
33
330
0
100
AcDbSymbolTable
 70
     3
100
AcDbDimStyleTable
 71
     1
340
34
  0
DIMSTYLE
105
34
102
{ACAD_REACTORS
330
3C2EF
102
}
330
33
100
AcDbSymbolTableRecord
100
AcDbDimStyleTableRecord
  2
Standard
 70
     0
 41
2.5
 73
     0
 77
     3
 78
     8
140
2.5
141
-1.0
147
1.0
175
     1
176
     3
177
     3
178
     2
179
     8
271
     8
272
     8
275
     1
340
35
1001
ACAD_DSTYLE_DIMJOGGED_JOGANGLE_SYMBOL
1070
   384
1040
0.7853981633974483
1001
ACAD_DSTYLE_DIMJAG
1070
   388
1040
1.5
1001
ACAD_DSTYLE_DIMTALN
1070
   392
1070
     0
  0
DIMSTYLE
105
1A8
102
{ACAD_REACTORS
330
3C2EA
330
3C2EC
330
3C2ED
330
3C2EE
102
}
330
33
100
AcDbSymbolTableRecord
100
AcDbDimStyleTableRecord
  2
Standard$0
 70
     0
 41
2.5
 73
     0
 77
     3
 78
     8
140
2.5
141
-1.0
147
1.0
175
     1
176
     3
177
     3
178
     2
179
     8
271
     8
272
     8
275
     1
340
35
  0
ENDTAB
  0
TABLE
  2
BLOCK_RECORD
  5
1
330
0
100
AcDbSymbolTable
 70
     8
  0
BLOCK_RECORD
  5
2
102
{ACAD_XDICTIONARY
360
3
102
}
330
1
100
AcDbSymbolTableRecord
100
AcDbBlockTableRecord
  2
*Model_Space
340
16
 70
     0
280
     1
281
     0
  0
BLOCK_RECORD
  5
1B
330
1
100
AcDbSymbolTableRecord
100
AcDbBlockTableRecord
  2
*Paper_Space
340
1E
 70
     0
280
     1
281
     0
  0
BLOCK_RECORD
  5
3C3C3
330
1
100
AcDbSymbolTableRecord
100
AcDbBlockTableRecord
  2
*D0
340
0
 70
     0
280
     1
281
     0
  0
BLOCK_RECORD
  5
3C3CF
330
1
100
AcDbSymbolTableRecord
100
AcDbBlockTableRecord
  2
*D1
340
0
 70
     0
280
     1
281
     0
  0
BLOCK_RECORD
  5
3C3D9
330
1
100
AcDbSymbolTableRecord
100
AcDbBlockTableRecord
  2
*D2
340
0
 70
     0
280
     1
281
     0
  0
BLOCK_RECORD
  5
3C3E3
330
1
100
AcDbSymbolTableRecord
100
AcDbBlockTableRecord
  2
*D3
340
0
 70
     0
280
     1
281
     0
  0
BLOCK_RECORD
  5
3C3EF
330
1
100
AcDbSymbolTableRecord
100
AcDbBlockTableRecord
  2
*D4
340
0
 70
     0
280
     1
281
     0
  0
BLOCK_RECORD
  5
3C6F7
102
{ACAD_REACTORS
330
3C70A
102
}
330
1
100
AcDbSymbolTableRecord
100
AcDbBlockTableRecord
  2
*U5
340
0
102
{BLKREFS
331
3C702
331
3C703
331
3C704
331
3C705
102
}
 70
     0
280
     1
281
     0
  0
BLOCK_RECORD
  5
3C6FF
102
{ACAD_XDICTIONARY
360
3C700
102
}
102
{ACAD_REACTORS
330
3C709
102
}
330
1
100
AcDbSymbolTableRecord
100
AcDbBlockTableRecord
  2
*U6
340
0
102
{BLKREFS
331
3C6DA
102
}
 70
     0
280
     1
281
     1
  0
ENDTAB
  0
ENDSEC
  0
SECTION
  2
BLOCKS
  0
BLOCK
  5
5
330
2
100
AcDbEntity
  8
0
100
AcDbBlockBegin
  2
*Model_Space
 70
     0
 10
0.0
 20
0.0
 30
0.0
  3
*Model_Space
  1

  0
ENDBLK
  5
15
330
2
100
AcDbEntity
  8
0
100
AcDbBlockEnd
  0
BLOCK
  5
1C
330
1B
100
AcDbEntity
 67
     1
  8
0
100
AcDbBlockBegin
  2
*Paper_Space
 70
     0
 10
0.0
 20
0.0
 30
0.0
  3
*Paper_Space
  1

  0
ENDBLK
  5
1D
330
1B
100
AcDbEntity
 67
     1
  8
0
100
AcDbBlockEnd
  0
BLOCK
  5
3C3C4
330
3C3C3
100
AcDbEntity
  8
0
 62
     7
100
AcDbBlockBegin
  2
*D0
 70
     1
 10
0.0
 20
0.0
 30
0.0
  3
*D0
  1

  0
LINE
  5
3CB19
330
3C3C3
100
AcDbEntity
  8
0
  6
Continuous
 62
     3
440
 16777216
100
AcDbLine
 10
125.7248384930312
 20
64.2998948944919
 30
0.0
 11
148.2307266810453
 21
64.2998948944919
 31
0.0
  0
LINE
  5
3CB1A
330
3C3C3
100
AcDbEntity
  8
0
  6
Continuous
 62
     3
440
 16777216
100
AcDbLine
 10
125.7248384930312
 20
124.2998948944919
 30
0.0
 11
148.2307266810453
 21
124.2998948944919
 31
0.0
  0
LINE
  5
3CB1B
330
3C3C3
100
AcDbEntity
  8
0
  6
Continuous
 62
     3
440
 16777216
100
AcDbLine
 10
146.9807266810453
 20
66.7998948944919
 30
0.0
 11
146.9807266810453
 21
121.7998948944919
 31
0.0
  0
SOLID
  5
3CB1C
330
3C3C3
100
AcDbEntity
  8
0
  6
Continuous
 62
     3
440
 16777216
100
AcDbTrace
 10
146.5640600143786
 20
66.7998948944919
 30
0.0
 11
147.397393347712
 21
66.7998948944919
 31
0.0
 12
146.9807266810453
 22
64.2998948944919
 32
0.0
 13
146.9807266810453
 23
64.2998948944919
 33
0.0
  0
SOLID
  5
3CB1D
330
3C3C3
100
AcDbEntity
  8
0
  6
Continuous
 62
     3
440
 16777216
100
AcDbTrace
 10
146.5640600143786
 20
121.7998948944919
 30
0.0
 11
147.397393347712
 21
121.7998948944919
 31
0.0
 12
146.9807266810453
 22
124.2998948944919
 32
0.0
 13
146.9807266810453
 23
124.2998948944919
 33
0.0
  0
MTEXT
  5
3CB1E
330
3C3C3
100
AcDbEntity
  8
0
  6
Continuous
 62
     2
440
 16777216
100
AcDbMText
 10
144.8554314054547
 20
94.29989489449191
 30
0.0
 40
3.0
 41
0.0
 46
0.0
 71
     5
 72
     1
  1
%%C2.36
 11
0.0000000000000001
 21
1.0
 31
0.0
 73
     1
 44
1.0
  0
POINT
  5
3CB1F
330
3C3C3
100
AcDbEntity
  8
DEFPOINTS
  6
Continuous
 62
     0
440
 16777216
100
AcDbPoint
 10
125.0998384930312
 20
64.2998948944919
 30
0.0
  0
POINT
  5
3CB20
330
3C3C3
100
AcDbEntity
  8
DEFPOINTS
  6
Continuous
 62
     0
440
 16777216
100
AcDbPoint
 10
125.0998384930312
 20
124.2998948944919
 30
0.0
  0
POINT
  5
3CB21
330
3C3C3
100
AcDbEntity
  8
DEFPOINTS
  6
Continuous
 62
     0
440
 16777216
100
AcDbPoint
 10
146.9807266810453
 20
124.2998948944919
 30
0.0
  0
ENDBLK
  5
3C3C5
330
3C3C3
100
AcDbEntity
  8
0
 62
     7
100
AcDbBlockEnd
  0
BLOCK
  5
3C3D0
330
3C3CF
100
AcDbEntity
  8
0
 62
     7
100
AcDbBlockBegin
  2
*D1
 70
     1
 10
0.0
 20
0.0
 30
0.0
  3
*D1
  1

  0
LINE
  5
3CB22
330
3C3CF
100
AcDbEntity
  8
0
  6
Continuous
 62
     3
440
 16777216
100
AcDbLine
 10
104.8248384930266
 20
75.29989489448462
 30
0.0
 11
107.4986371891559
 21
75.29989489448462
 31
0.0
  0
LINE
  5
3CB23
330
3C3CF
100
AcDbEntity
  8
0
  6
Continuous
 62
     3
440
 16777216
100
AcDbLine
 10
106.2486371891559
 20
77.79989489448462
 30
0.0
 11
106.2486371891559
 21
90.3196420140307
 31
0.0
  0
SOLID
  5
3CB24
330
3C3CF
100
AcDbEntity
  8
0
  6
Continuous
 62
     3
440
 16777216
100
AcDbTrace
 10
105.8319705224893
 20
77.79989489448462
 30
0.0
 11
106.6653038558226
 21
77.79989489448462
 31
0.0
 12
106.2486371891559
 22
75.29989489448462
 32
0.0
 13
106.2486371891559
 23
75.29989489448462
 33
0.0
  0
MTEXT
  5
3CB25
330
3C3CF
100
AcDbEntity
  8
0
  6
Continuous
 62
     2
440
 16777216
100
AcDbMText
 10
104.1236371891559
 20
85.49346091166853
 30
0.0
 40
3.0
 41
0.0
 46
0.0
 71
     5
 72
     1
  1
%%C1.50
 11
0.0000000000000001
 21
1.0
 31
0.0
 73
     1
 44
1.0
  0
POINT
  5
3CB26
330
3C3CF
100
AcDbEntity
  8
DEFPOINTS
  6
Continuous
 62
     0
440
 16777216
100
AcDbPoint
 10
104.1998384930266
 20
75.29989489448462
 30
0.0
  0
POINT
  5
3CB27
330
3C3CF
100
AcDbEntity
  8
DEFPOINTS
  6
Continuous
 62
     0
440
 16777216
100
AcDbPoint
 10
104.1998384930316
 20
113.2998948944919
 30
0.0
  0
POINT
  5
3CB28
330
3C3CF
100
AcDbEntity
  8
DEFPOINTS
  6
Continuous
 62
     0
440
 16777216
100
AcDbPoint
 10
106.248637189156
 20
113.2998948944919
 30
0.0
  0
ENDBLK
  5
3C3D1
330
3C3CF
100
AcDbEntity
  8
0
 62
     7
100
AcDbBlockEnd
  0
BLOCK
  5
3C3DA
330
3C3D9
100
AcDbEntity
  8
0
 62
     7
100
AcDbBlockBegin
  2
*D2
 70
     1
 10
0.0
 20
0.0
 30
0.0
  3
*D2
  1

  0
LINE
  5
3CB29
330
3C3D9
100
AcDbEntity
  8
0
  6
Continuous
 62
     3
440
 16777216
100
AcDbLine
 10
125.7248384930312
 20
107.5078948944997
 30
0.0
 11
140.2307266810508
 21
107.5078948944997
 31
0.0
  0
LINE
  5
3CB2A
330
3C3D9
100
AcDbEntity
  8
0
  6
Continuous
 62
     3
440
 16777216
100
AcDbLine
 10
138.9807266810508
 20
105.0078948944997
 30
0.0
 11
138.9807266810508
 21
84.08824717870709
 31
0.0
  0
SOLID
  5
3CB2B
330
3C3D9
100
AcDbEntity
  8
0
  6
Continuous
 62
     3
440
 16777216
100
AcDbTrace
 10
138.5640600143841
 20
105.0078948944997
 30
0.0
 11
139.3973933477175
 21
105.0078948944997
 31
0.0
 12
138.9807266810508
 22
107.5078948944997
 32
0.0
 13
138.9807266810508
 23
107.5078948944997
 33
0.0
  0
MTEXT
  5
3CB2C
330
3C3D9
100
AcDbEntity
  8
0
  6
Continuous
 62
     2
440
 16777216
100
AcDbMText
 10
136.8557266810508
 20
89.06324717870711
 30
0.0
 40
3.0
 41
0.0
 46
0.0
 71
     5
 72
     1
  1
%%C1.04
 11
0.0000000000000001
 21
1.0
 31
0.0
 73
     1
 44
1.0
  0
POINT
  5
3CB2D
330
3C3D9
100
AcDbEntity
  8
DEFPOINTS
  6
Continuous
 62
     0
440
 16777216
100
AcDbPoint
 10
125.0998384930312
 20
81.09189489448409
 30
0.0
  0
POINT
  5
3CB2E
330
3C3D9
100
AcDbEntity
  8
DEFPOINTS
  6
Continuous
 62
     0
440
 16777216
100
AcDbPoint
 10
125.0998384930312
 20
107.5078948944997
 30
0.0
  0
POINT
  5
3CB2F
330
3C3D9
100
AcDbEntity
  8
DEFPOINTS
  6
Continuous
 62
     0
440
 16777216
100
AcDbPoint
 10
138.9807266810508
 20
107.5078948944997
 30
0.0
  0
ENDBLK
  5
3C3DB
330
3C3D9
100
AcDbEntity
  8
0
 62
     7
100
AcDbBlockEnd
  0
BLOCK
  5
3C3E4
330
3C3E3
100
AcDbEntity
  8
0
 62
     7
100
AcDbBlockBegin
  2
*D3
 70
     1
 10
0.0
 20
0.0
 30
0.0
  3
*D3
  1

  0
LINE
  5
3CB30
330
3C3E3
100
AcDbEntity
  8
0
  6
Continuous
 62
     3
440
 16777216
100
AcDbLine
 10
107.5998384930317
 20
108.432894894499
 30
0.0
 11
107.5998384930317
 21
136.6455739118905
 31
0.0
  0
LINE
  5
3CB31
330
3C3E3
100
AcDbEntity
  8
0
  6
Continuous
 62
     3
440
 16777216
100
AcDbLine
 10
125.5998384930312
 20
124.4248948944919
 30
0.0
 11
125.5998384930312
 21
136.6455739118905
 31
0.0
  0
LINE
  5
3CB32
330
3C3E3
100
AcDbEntity
  8
0
  6
Continuous
 62
     3
440
 16777216
100
AcDbLine
 10
110.0998384930317
 20
135.3955739118905
 30
0.0
 11
123.0998384930312
 21
135.3955739118905
 31
0.0
  0
SOLID
  5
3CB33
330
3C3E3
100
AcDbEntity
  8
0
  6
Continuous
 62
     3
440
 16777216
100
AcDbTrace
 10
110.0998384930317
 20
135.8122405785572
 30
0.0
 11
110.0998384930317
 21
134.9789072452239
 31
0.0
 12
107.5998384930317
 22
135.3955739118905
 32
0.0
 13
107.5998384930317
 23
135.3955739118905
 33
0.0
  0
SOLID
  5
3CB34
330
3C3E3
100
AcDbEntity
  8
0
  6
Continuous
 62
     3
440
 16777216
100
AcDbTrace
 10
123.0998384930312
 20
135.8122405785572
 30
0.0
 11
123.0998384930312
 21
134.9789072452239
 31
0.0
 12
125.5998384930312
 22
135.3955739118905
 32
0.0
 13
125.5998384930312
 23
135.3955739118905
 33
0.0
  0
MTEXT
  5
3CB35
330
3C3E3
100
AcDbEntity
  8
0
  6
Continuous
 62
     2
440
 16777216
100
AcDbMText
 10
116.5998384930315
 20
137.5205739118905
 30
0.0
 40
3.0
 41
0.0
 46
0.0
 71
     5
 72
     1
  1
.71
 73
     1
 44
1.0
  0
POINT
  5
3CB36
330
3C3E3
100
AcDbEntity
  8
DEFPOINTS
  6
Continuous
 62
     0
440
 16777216
100
AcDbPoint
 10
107.5998384930317
 20
107.807894894499
 30
0.0
  0
POINT
  5
3CB37
330
3C3E3
100
AcDbEntity
  8
DEFPOINTS
  6
Continuous
 62
     0
440
 16777216
100
AcDbPoint
 10
125.5998384930312
 20
123.7998948944919
 30
0.0
  0
POINT
  5
3CB38
330
3C3E3
100
AcDbEntity
  8
DEFPOINTS
  6
Continuous
 62
     0
440
 16777216
100
AcDbPoint
 10
125.5998384930312
 20
135.3955739118905
 30
0.0
  0
ENDBLK
  5
3C3E5
330
3C3E3
100
AcDbEntity
  8
0
 62
     7
100
AcDbBlockEnd
  0
BLOCK
  5
3C3F0
330
3C3EF
100
AcDbEntity
  8
0
 62
     7
100
AcDbBlockBegin
  2
*D4
 70
     1
 10
0.0
 20
0.0
 30
0.0
  3
*D4
  1

  0
LINE
  5
3CB39
330
3C3EF
100
AcDbEntity
  8
0
  6
Continuous
 62
     3
440
 16777216
100
AcDbLine
 10
237.7317167827141
 20
111.9313668071582
 30
0.0
 11
222.1116849420943
 21
104.8405443495534
 31
0.0
  0
LINE
  5
3CB3A
330
3C3EF
100
AcDbEntity
  8
0
  6
Continuous
 62
     3
440
 16777216
100
AcDbLine
 10
175.6727052347094
 20
83.75924543945391
 30
0.0
 11
173.396284660818
 21
82.72584843405685
 31
0.0
  0
MTEXT
  5
3CB3B
330
3C3EF
100
AcDbEntity
  8
0
  6
Continuous
 62
     2
440
 16777216
100
AcDbMText
 10
232.0500819172156
 20
111.6858566135782
 30
0.0
 40
3.0
 41
0.0
 46
0.0
 71
     5
 72
     1
  1
%%C1.811
 11
0.9105682295565893
 21
0.4133588021588253
 31
0.0
 73
     1
 44
1.0
  0
LINE
  5
3CB3C
330
3C3EF
100
AcDbEntity
  8
0
  6
Continuous
 62
     3
440
 16777216
100
AcDbLine
 10
177.9491258086009
 20
84.79264244485097
 30
0.0
 11
219.8352643682028
 21
103.8071473441564
 31
0.0
  0
SOLID
  5
3CB3D
330
3C3EF
100
AcDbEntity
  8
0
  6
Continuous
 62
     3
440
 16777216
100
AcDbTrace
 10
175.5004724004766
 20
84.13864886843581
 30
0.0
 11
175.8449380689422
 21
83.37984201047198
 31
0.0
 12
177.9491258086009
 22
84.79264244485097
 32
0.0
 13
177.9491258086009
 23
84.79264244485097
 33
0.0
  0
SOLID
  5
3CB3E
330
3C3EF
100
AcDbEntity
  8
0
  6
Continuous
 62
     3
440
 16777216
100
AcDbTrace
 10
221.9394521078615
 20
105.2199477785354
 30
0.0
 11
222.2839177763272
 21
104.4611409205715
 31
0.0
 12
219.8352643682028
 22
103.8071473441564
 32
0.0
 13
219.8352643682028
 23
103.8071473441564
 33
0.0
  0
POINT
  5
3CB3F
330
3C3EF
100
AcDbEntity
  8
DEFPOINTS
  6
Continuous
 62
     0
440
 16777216
100
AcDbPoint
 10
219.8352643682028
 20
103.8071473441564
 30
0.0
  0
POINT
  5
3CB40
330
3C3EF
100
AcDbEntity
  8
DEFPOINTS
  6
Continuous
 62
     0
440
 16777216
100
AcDbPoint
 10
177.9491258086009
 20
84.79264244485097
 30
0.0
  0
ENDBLK
  5
3C3F1
330
3C3EF
100
AcDbEntity
  8
0
 62
     7
100
AcDbBlockEnd
  0
BLOCK
  5
3C6F8
330
3C6F7
100
AcDbEntity
  8
0
 62
     7
100
AcDbBlockBegin
  2
*U5
 70
     1
 10
0.0
 20
0.0
 30
0.0
  3
*U5
  1

  0
CIRCLE
  5
3C6F9
330
3C6F7
100
AcDbEntity
  8
0
  6
Continuous
 62
     7
100
AcDbCircle
 10
0.0
 20
0.0
 30
0.0
 40
2.549999999999999
  0
CIRCLE
  5
3C6FA
330
3C6F7
100
AcDbEntity
  8
0
  6
Continuous
 62
     7
100
AcDbCircle
 10
0.0
 20
0.0
 30
0.0
 40
3.5
  0
ARC
  5
3C6FB
330
3C6F7
100
AcDbEntity
  8
0
  6
Continuous
 62
     3
100
AcDbCircle
 10
0.0
 20
0.0
 30
0.0
 40
3.0
100
AcDbArc
 50
251.904771502054
 51
164.1406431985433
  0
ENDBLK
  5
3C6FC
330
3C6F7
100
AcDbEntity
  8
0
 62
     7
100
AcDbBlockEnd
  0
BLOCK
  5
3C701
330
3C6FF
100
AcDbEntity
  8
0
 62
     7
100
AcDbBlockBegin
  2
*U6
 70
     1
 10
0.0
 20
0.0
 30
0.0
  3
*U6
  1

  0
INSERT
  5
3C702
330
3C6FF
100
AcDbEntity
  8
0
  6
ByBlock
347
3E
 62
     0
440
 16777216
370
    -2
380
     1
100
AcDbBlockReference
  2
*U5
 10
3337.414315791387
 20
-851.6397942331115
 30
0.0
  0
INSERT
  5
3C703
330
3C6FF
100
AcDbEntity
  8
0
  6
ByBlock
347
3E
 62
     0
440
 16777216
370
    -2
380
     1
100
AcDbBlockReference
  2
*U5
 10
3304.887403856806
 20
-851.6397942331115
 30
0.0
 50
90.00000000000003
  0
INSERT
  5
3C704
330
3C6FF
100
AcDbEntity
  8
0
  6
ByBlock
347
3E
 62
     0
440
 16777216
370
    -2
380
     1
100
AcDbBlockReference
  2
*U5
 10
3304.887403856806
 20
-884.1667061676927
 30
0.0
 41
1.0
 42
1.0
 43
1.0
 50
180.0
  0
INSERT
  5
3C705
330
3C6FF
100
AcDbEntity
  8
0
  6
ByBlock
347
3E
 62
     0
440
 16777216
370
    -2
380
     1
100
AcDbBlockReference
  2
*U5
 10
3337.414315791387
 20
-884.1667061676927
 30
0.0
 41
1.0
 42
1.0
 43
1.0
 50
270.0
  0
ENDBLK
  5
3C706
330
3C6FF
100
AcDbEntity
  8
0
 62
     7
100
AcDbBlockEnd
  0
ENDSEC
  0
SECTION
  2
ENTITIES
  0
DIMENSION
  5
3C2EA
330
2
100
AcDbEntity
  8
0
  6
Continuous
 62
     7
100
AcDbDimension
280
     0
  2
*D0
 10
146.9807266810453
 20
124.2998948944919
 30
0.0
 11
144.8554314054547
 21
94.29989489449191
 31
0.0
 70
    32
  1
%%C2.36
 71
     5
 42
60.0
 73
     0
 74
     0
 75
     0
  3
Standard$0
100
AcDbAlignedDimension
 13
125.0998384930312
 23
64.2998948944919
 33
0.0
 14
125.0998384930312
 24
124.2998948944919
 34
0.0
 50
90.0
100
AcDbRotatedDimension
1001
ACAD
1000
DSTYLE
1002
{
1070
    42
1040
0.625
1070
    43
1040
3.75
1070
    44
1040
1.25
1070
    48
1040
0.000000001
1070
    74
1070
     0
1070
    77
1070
     1
1070
    90
1070
     1
1070
   140
1040
3.0
1070
   141
1040
-0.5
1070
   143
1040
0.03937007874016
1070
   146
1040
0.7
1070
   147
1040
0.625
1070
   171
1070
     3
1070
   172
1070
     1
1070
   175
1070
     0
1070
   274
1070
     3
1070
   283
1070
     0
1070
   284
1070
     8
1070
   340
1005
25
1070
   371
1070
    -1
1070
   372
1070
    -1
1002
}
  0
DIMENSION
  5
3C2EC
330
2
100
AcDbEntity
  8
0
  6
Continuous
 62
     7
100
AcDbDimension
280
     0
  2
*D1
 10
106.248637189156
 20
113.2998948944919
 30
0.0
 11
106.2486371891559
 21
85.49346091166853
 31
0.0
 70
   160
  1
%%C1.50
 71
     5
 42
38.00000000000728
 73
     0
 74
     0
 75
     0
  3
Standard$0
100
AcDbAlignedDimension
 13
104.1998384930266
 23
75.29989489448462
 33
0.0
 14
104.1998384930316
 24
113.2998948944919
 34
0.0
 50
90.0
100
AcDbRotatedDimension
1001
ACAD
1000
DSTYLE
1002
{
1070
    42
1040
0.625
1070
    43
1040
3.75
1070
    44
1040
1.25
1070
    48
1040
0.000000001
1070
    74
1070
     0
1070
    76
1070
     1
1070
    77
1070
     1
1070
    90
1070
     1
1070
   140
1040
3.0
1070
   141
1040
-0.5
1070
   143
1040
0.03937007874016
1070
   146
1040
0.7
1070
   147
1040
0.625
1070
   171
1070
     3
1070
   172
1070
     1
1070
   175
1070
     0
1070
   274
1070
     3
1070
   282
1070
     1
1070
   283
1070
     0
1070
   284
1070
     8
1070
   340
1005
25
1070
   371
1070
    -1
1070
   372
1070
    -1
1002
}
  0
DIMENSION
  5
3C2ED
330
2
100
AcDbEntity
  8
0
  6
Continuous
 62
     7
100
AcDbDimension
280
     0
  2
*D2
 10
138.9807266810508
 20
107.5078948944997
 30
0.0
 11
138.9807266810508
 21
89.06324717870711
 31
0.0
 70
   160
  1
%%C1.04
 71
     5
 42
26.41600000001563
 73
     0
 74
     0
 75
     0
  3
Standard$0
100
AcDbAlignedDimension
 13
125.0998384930312
 23
81.09189489448409
 33
0.0
 14
125.0998384930312
 24
107.5078948944997
 34
0.0
 50
90.0
100
AcDbRotatedDimension
1001
ACAD
1000
DSTYLE
1002
{
1070
    42
1040
0.625
1070
    43
1040
3.75
1070
    44
1040
1.25
1070
    48
1040
0.000000001
1070
    74
1070
     0
1070
    75
1070
     1
1070
    77
1070
     1
1070
    90
1070
     1
1070
   140
1040
3.0
1070
   141
1040
-0.5
1070
   143
1040
0.03937007874016
1070
   146
1040
0.7
1070
   147
1040
0.625
1070
   171
1070
     3
1070
   172
1070
     1
1070
   175
1070
     0
1070
   274
1070
     3
1070
   281
1070
     1
1070
   283
1070
     0
1070
   284
1070
     8
1070
   340
1005
25
1070
   371
1070
    -1
1070
   372
1070
    -1
1002
}
  0
DIMENSION
  5
3C2EE
330
2
100
AcDbEntity
  8
0
  6
Continuous
 62
     7
100
AcDbDimension
280
     0
  2
*D3
 10
125.5998384930312
 20
135.3955739118905
 30
0.0
 11
116.5998384930315
 21
137.5205739118905
 31
0.0
 70
    32
  1
.71
 71
     5
 42
17.99999999999954
 73
     0
 74
     0
 75
     0
  3
Standard$0
100
AcDbAlignedDimension
 13
107.5998384930317
 23
107.807894894499
 33
0.0
 14
125.5998384930312
 24
123.7998948944919
 34
0.0
100
AcDbRotatedDimension
1001
ACAD
1000
DSTYLE
1002
{
1070
    42
1040
0.625
1070
    43
1040
3.75
1070
    44
1040
1.25
1070
    48
1040
0.000000001
1070
    74
1070
     0
1070
    77
1070
     1
1070
    90
1070
     1
1070
   140
1040
3.0
1070
   141
1040
-0.5
1070
   143
1040
0.03937007874016
1070
   146
1040
0.7
1070
   147
1040
0.625
1070
   171
1070
     3
1070
   172
1070
     1
1070
   175
1070
     0
1070
   274
1070
     3
1070
   283
1070
     0
1070
   284
1070
     8
1070
   340
1005
25
1070
   371
1070
    -1
1070
   372
1070
    -1
1002
}
  0
DIMENSION
  5
3C2EF
330
2
100
AcDbEntity
  8
0
  6
Continuous
 62
     7
100
AcDbDimension
280
     0
  2
*D4
 10
177.9491258086009
 20
84.79264244485097
 30
0.0
 11
232.9284693718031
 21
109.7508991257704
 31
0.0
 70
   163
  1
%%C1.811
 71
     5
 42
45.99999999999872
 73
     0
 74
     0
 75
     0
  3
Standard
100
AcDbDiametricDimension
 15
219.8352643682028
 25
103.8071473441564
 35
0.0
 40
0.0
1001
ACAD_DSTYLE_DIMRADIAL_EXTENSION
1070
   387
1070
     1
1070
   388
1040
0.0
1070
   390
1040
0.0
1001
ACAD
1000
DSTYLE
1002
{
1070
    42
1040
0.625
1070
    43
1040
3.75
1070
    44
1040
1.25
1070
    48
1040
0.000000001
1070
    74
1070
     0
1070
    77
1070
     1
1070
    90
1070
     1
1070
   140
1040
3.0
1070
   141
1040
-0.5
1070
   143
1040
0.03937007874016
1070
   146
1040
0.7
1070
   147
1040
0.625
1070
   171
1070
     3
1070
   172
1070
     1
1070
   175
1070
     0
1070
   274
1070
     3
1070
   283
1070
     0
1070
   284
1070
     8
1070
   288
1070
     1
1070
   340
1005
25
1070
   371
1070
    -1
1070
   372
1070
    -1
1002
}
  0
LEADER
  5
3C2F5
330
2
100
AcDbEntity
  8
0
  6
Continuous
 62
     7
100
AcDbLeader
  3
Standard
 73
     0
 40
3.0
 41
15.0023622047244
 76
     3
 10
180.6955698638994
 20
113.4810308687342
 30
0.0
 10
173.1471334350872
 20
128.8518940645831
 30
0.0
 10
172.3515429653953
 20
128.8518940645831
 30
0.0
340
3C2F6
213
0.0
223
1.5
233
0.0
1001
ACAD
1000
DSTYLE
1002
{
1070
    42
1040
0.625
1070
    43
1040
3.75
1070
    44
1040
1.25
1070
    48
1040
0.000000001
1070
    74
1070
     0
1070
    77
1070
     0
1070
    90
1070
     1
1070
   140
1040
3.0
1070
   141
1040
-0.5
1070
   143
1040
0.03937007874016
1070
   146
1040
0.7
1070
   147
1040
0.625
1070
   171
1070
     3
1070
   172
1070
     1
1070
   175
1070
     0
1070
   179
1070
     0
1070
   274
1070
     3
1070
   283
1070
     0
1070
   284
1070
     8
1070
   340
1005
25
1070
   371
1070
    -1
1070
   372
1070
    -1
1002
}
  0
MTEXT
  5
3C2F6
102
{ACAD_REACTORS
330
3C2F5
102
}
330
2
100
AcDbEntity
  8
0
  6
Continuous
 62
     2
100
AcDbMText
 10
171.7265429653953
 20
127.3518940645831
 30
0.0
 40
3.0
 41
3.0
 46
0.0
 71
     9
 72
     1
  1
4-M6*1.0
 73
     1
 44
1.0
  0
LEADER
  5
3C2F7
330
2
100
AcDbEntity
  8
0
  6
Continuous
 62
     7
100
AcDbLeader
  3
Standard
 73
     0
 40
3.0
 41
15.0023622047244
 76
     3
 10
198.8921950884046
 20
117.2998948944937
 30
0.0
 10
192.1613399117
 20
136.6707580903426
 30
0.0
 10
191.3657494420081
 20
136.6707580903426
 30
0.0
340
3C2F8
213
0.0
223
1.5
233
0.0
1001
ACAD
1000
DSTYLE
1002
{
1070
    42
1040
0.625
1070
    43
1040
3.75
1070
    44
1040
1.25
1070
    48
1040
0.000000001
1070
    74
1070
     0
1070
    77
1070
     0
1070
    90
1070
     1
1070
   140
1040
3.0
1070
   141
1040
-0.5
1070
   143
1040
0.03937007874016
1070
   146
1040
0.7
1070
   147
1040
0.625
1070
   171
1070
     3
1070
   172
1070
     1
1070
   175
1070
     0
1070
   179
1070
     0
1070
   274
1070
     3
1070
   283
1070
     0
1070
   284
1070
     8
1070
   340
1005
25
1070
   371
1070
    -1
1070
   372
1070
    -1
1002
}
  0
MTEXT
  5
3C2F8
102
{ACAD_REACTORS
330
3C2F7
102
}
330
2
100
AcDbEntity
  8
0
  6
Continuous
 62
     2
100
AcDbMText
 10
190.7407494420081
 20
135.1707580903426
 30
0.0
 40
3.0
 41
3.0
 46
0.0
 71
     9
 72
     1
  1
4-M6*1.0
 73
     1
 44
1.0
  0
LINE
  5
3C619
330
2
100
AcDbEntity
  8
0
  6
CENTER
 62
     3
100
AcDbLine
 10
43.59983849303126
 20
94.29989489449189
 30
0.0
 11
127.5998384930312
 21
94.29989489449189
 31
0.0
  0
HATCH
  5
3C61A
330
2
100
AcDbEntity
  8
0
  6
Continuous
 62
     4
100
AcDbHatch
 10
0.0
 20
0.0
 30
0.0
210
0.0
220
0.0
230
1.0
  2
ANSI31
 70
     0
 71
     0
 91
        5
 92
        7
 72
     1
 73
     1
 93
       54
 10
90.59983849303126
 20
102.7998948945665
 42
0.0
 10
90.59983849303126
 20
98.29989489456465
 42
0.0
 10
90.94624865458673
 20
97.69989489449153
 42
0.0
 10
98.64498914908246
 20
97.69989489449153
 42
0.0
 10
102.5998384930312
 20
104.5498948944901
 42
0.0
 10
107.0998384930312
 20
104.5498948944901
 42
0.0
 10
107.5998384930317
 20
105.0498948944901
 42
0.0
 10
107.5998384930317
 20
107.807894894499
 42
0.0
 10
114.5998384930317
 20
107.807894894499
 42
0.0
 10
114.5998384930317
 20
107.5078948944997
 42
0.0
 10
116.0998384930312
 20
107.5078948944997
 42
0.0
 10
116.0998384930312
 20
117.2498948944908
 42
0.0
 10
116.049838493031
 20
117.2998948944919
 42
0.0
 10
115.0998384930317
 20
117.2998948944919
 42
0.0
 10
115.0998384930321
 20
123.6998948944915
 42
0.0
 10
114.4998384930322
 20
124.2998948944919
 42
0.0
 10
113.5998384930312
 20
124.2998948944919
 42
0.4142135623730951
 10
112.5998384930312
 20
123.2998948944919
 42
0.0
 10
112.5998384930312
 20
114.2998948944919
 42
-0.4142135623730951
 10
111.5998384930312
 20
113.2998948944919
 42
0.0
 10
96.99983849303272
 20
113.2998948945665
 42
-0.4142135623730951
 10
96.59983849303262
 20
113.6998948945661
 42
0.0
 10
96.59983849303126
 20
118.7998948945665
 42
0.414213562373018
 10
96.09983849303127
 20
119.2998948945664
 42
0.0
 10
91.97733756779006
 20
119.2998948945664
 42
0.0
 10
90.47483849303125
 20
116.6974901587586
 42
0.0
 10
90.47483849303125
 20
116.2998948945665
 42
-0.4142135623730951
 10
89.97483849303126
 20
115.7998948945665
 42
0.0
 10
87.22483849303126
 20
115.7998948945665
 42
-0.4142135623730951
 10
86.72483849303125
 20
116.2998948945665
 42
0.0
 10
86.72483849303125
 20
116.6974901587586
 42
0.0
 10
85.22233941827243
 20
119.2998948945664
 42
0.0
 10
71.09983849303126
 20
119.2998948945664
 42
0.0
 10
70.59983849303126
 20
118.7998948945665
 42
0.0
 10
70.59983849303126
 20
115.2296420542739
 42
0.0
 10
70.79983849303198
 20
113.8065681097964
 42
0.0
 10
70.79983849303335
 20
113.7296420542739
 42
-0.4142135623730951
 10
70.19983849303343
 20
113.1296420542735
 42
0.0
 10
69.21945373530206
 20
113.1296420542735
 42
0.0
 10
68.09983849303126
 20
113.4296420542728
 42
0.0
 10
46.54980238251801
 20
112.3500097285091
 42
0.3996270516290893
 10
45.59983849303125
 20
111.3512623191786
 42
0.0
 10
45.59983849303125
 20
107.8772451637564
 42
0.0
 10
46.59983849303126
 20
107.2998948945665
 42
0.0
 10
55.60381308924798
 20
107.2998948945665
 42
0.0
 10
57.19152632951818
 20
110.0498948945665
 42
-0.2679491924311488
 10
57.62453903141022
 20
110.2998948945665
 42
0.0
 10
65.40368607032724
 20
110.2998948945665
 42
-0.2679491924311297
 10
70.59983849303353
 20
107.2998948945665
 42
0.0
 10
78.19983849303071
 20
107.2998948945665
 42
-0.6180339887501184
 10
80.59983849303126
 20
106.0998948945675
 42
0.0
 10
80.59983849303126
 20
102.2998948945665
 42
0.0
 10
86.59983849303126
 20
102.2998948945665
 42
0.0
 10
86.59983849303126
 20
102.7998948945665
 42
0.0
 97
        0
 92
       23
 72
     0
 73
     1
 93
        4
 10
86.59983849303126
 20
101.8998948945668
 10
86.59983849303126
 20
102.2998948945665
 10
80.59983849303126
 20
102.2998948945665
 10
81.29265881605851
 20
101.8998948945668
 97
        0
 92
        7
 72
     0
 73
     1
 93
        4
 10
116.5498384930311
 20
116.7998948944919
 10
116.0998384930312
 20
117.2498948944926
 10
116.0998384930312
 20
107.5078948944997
 10
116.5498384930315
 20
107.5078948944997
 97
        0
 92
        7
 72
     0
 73
     1
 93
        4
 10
122.0998384930312
 20
117.2498948944908
 10
121.6498384930314
 20
116.7998948944919
 10
121.6498384930314
 20
107.5078948944997
 10
122.0998384930312
 20
107.5078948944997
 97
        0
 92
        7
 72
     0
 73
     1
 93
       10
 10
122.0998384930312
 20
107.5078948944997
 10
125.0998384930312
 20
107.5078948944997
 10
125.5998384930312
 20
107.7965700290938
 10
125.5998384930312
 20
123.7998948944919
 10
125.0998384930312
 20
124.2998948944919
 10
123.6998384930311
 20
124.2998948944919
 10
123.0998384930312
 20
123.6998948944915
 10
123.0998384930312
 20
117.2998948944919
 10
122.1498384930314
 20
117.2998948944919
 10
122.0998384930312
 20
117.2498948944926
 97
        0
 75
     1
 76
     1
 52
0.0
 41
1.0
 77
     0
 78
     1
 53
45.0
 43
-2623.317280886191
 44
13193.76640134612
 45
-2.245064030267288
 46
2.245064030267288
 79
     0
 47
0.289801362153051
 98
        5
 10
90.08546875683032
 20
108.2654159566741
 10
83.21566858981759
 20
102.0586977184107
 10
116.3359697317887
 20
111.9480329838229
 10
121.9346857575242
 20
111.6647217101422
 10
123.5646897932697
 20
112.0188697507987
1001
GRADIENTCOLOR1ACI
1070
     5
1001
GRADIENTCOLOR2ACI
1070
     2
1001
ACAD
1010
0.0
1020
0.0
1030
0.0
  0
LINE
  5
3C61B
330
2
100
AcDbEntity
  8
0
  6
ByBlock
 62
     0
100
AcDbLine
 10
102.5998384930312
 20
104.5498948944901
 30
0.0
 11
107.0998384930312
 21
104.5498948944901
 31
0.0
  0
LINE
  5
3C61C
330
2
100
AcDbEntity
  8
0
  6
Continuous
100
AcDbLine
 10
96.59983849303126
 20
113.6998948945315
 30
0.0
 11
96.59983849303126
 21
118.7998948945665
 31
0.0
  0
LINE
  5
3C61D
330
2
100
AcDbEntity
  8
0
  6
Continuous
100
AcDbLine
 10
96.59983849303126
 20
94.29989489456648
 30
0.0
 11
96.59983849303126
 21
69.79989489456648
 31
0.0
  0
LINE
  5
3C61E
330
2
100
AcDbEntity
  8
0
  6
Continuous
100
AcDbLine
 10
90.59983849303126
 20
102.7998948945665
 30
0.0
 11
90.59983849303126
 21
94.29989489456648
 31
0.0
  0
ARC
  5
3C61F
330
2
100
AcDbEntity
  8
0
  6
Continuous
100
AcDbCircle
 10
96.09983849303127
 20
118.7998948945665
 30
0.0
 40
0.5
100
AcDbArc
 50
0.0
 51
90.0
  0
ARC
  5
3C620
330
2
100
AcDbEntity
  8
0
  6
Continuous
100
AcDbCircle
 10
96.09983849303127
 20
69.79989489456648
 30
0.0
 40
0.5
100
AcDbArc
 50
270.0
 51
0.0
  0
LINE
  5
3C621
330
2
100
AcDbEntity
  8
0
  6
Continuous
100
AcDbLine
 10
70.59983849303126
 20
113.2776813134519
 30
0.0
 11
70.59983849303126
 21
118.7998948945665
 31
0.0
  0
LINE
  5
3C622
330
2
100
AcDbEntity
  8
0
  6
Continuous
100
AcDbLine
 10
71.09983849303126
 20
119.2998948945664
 30
0.0
 11
85.22233941827243
 21
119.2998948945664
 31
0.0
  0
LINE
  5
3C623
330
2
100
AcDbEntity
  8
0
  6
Continuous
100
AcDbLine
 10
45.59983849303125
 20
94.29989489449189
 30
0.0
 11
45.59983849303125
 21
111.3512623191786
 31
0.0
  0
ARC
  5
3C624
330
2
100
AcDbEntity
  8
0
  6
Continuous
100
AcDbCircle
 10
63.09983849303126
 20
94.29989489456648
 30
0.0
 40
3.0
100
AcDbArc
 50
180.0
 51
0.0
  0
ARC
  5
3C625
330
2
100
AcDbEntity
  8
0
  6
Continuous
100
AcDbCircle
 10
63.09983849303126
 20
94.29989489456648
 30
0.0
 40
3.5
100
AcDbArc
 50
180.0
 51
0.0
  0
LINE
  5
3C626
330
2
100
AcDbEntity
  8
0
  6
Continuous
100
AcDbLine
 10
69.21945373530206
 20
113.1296420542735
 30
0.0
 11
70.19983849303343
 21
113.1296420542735
 31
0.0
1001
ACAD
1000
ASC_BOUNDS
1002
{
1070
    19
1002
}
  0
LINE
  5
3C627
330
2
100
AcDbEntity
  8
0
  6
Continuous
100
AcDbLine
 10
68.09983849303126
 20
113.4296420542728
 30
0.0
 11
69.21945373530206
 21
113.1296420542735
 31
0.0
1001
ACAD
1000
ASC_BOUNDS
1002
{
1070
    19
1002
}
  0
LINE
  5
3C628
330
2
100
AcDbEntity
  8
0
  6
Continuous
100
AcDbLine
 10
70.79983849303198
 20
113.7296420542739
 30
0.0
 11
70.79983849303198
 21
113.8065681097964
 31
0.0
1001
ACAD
1000
ASC_BOUNDS
1002
{
1070
    19
1002
}
  0
LINE
  5
3C629
330
2
100
AcDbEntity
  8
0
  6
Continuous
100
AcDbLine
 10
70.59983849303126
 20
115.2296420542739
 30
0.0
 11
70.79983849303198
 21
113.8065681097964
 31
0.0
1001
ACAD
1000
ASC_BOUNDS
1002
{
1070
    19
1002
}
  0
ARC
  5
3C62A
330
2
100
AcDbEntity
  8
0
  6
Continuous
100
AcDbCircle
 10
70.19983849303343
 20
113.7296420542739
 30
0.0
 40
0.6
100
AcDbArc
 50
270.0
 51
0.0
1001
ACAD
1000
ASC_BOUNDS
1002
{
1070
    19
1002
}
  0
LINE
  5
3C62B
330
2
100
AcDbEntity
  8
0
  6
Continuous
100
AcDbLine
 10
86.72483849303125
 20
116.2998948945665
 30
0.0
 11
86.72483849303125
 21
116.6974901587586
 31
0.0
  0
LINE
  5
3C62C
330
2
100
AcDbEntity
  8
0
  6
Continuous
100
AcDbLine
 10
90.47483849303125
 20
116.2998948945665
 30
0.0
 11
90.47483849303125
 21
116.6974901587586
 31
0.0
  0
LINE
  5
3C62D
330
2
100
AcDbEntity
  8
0
  6
Continuous
100
AcDbLine
 10
87.22483849303126
 20
115.7998948945665
 30
0.0
 11
89.97483849303126
 21
115.7998948945665
 31
0.0
  0
LINE
  5
3C62E
330
2
100
AcDbEntity
  8
0
  6
Continuous
100
AcDbLine
 10
90.47483849303125
 20
116.6974901587586
 30
0.0
 11
91.97733756779006
 21
119.2998948945664
 31
0.0
  0
LINE
  5
3C62F
330
2
100
AcDbEntity
  8
0
  6
Continuous
100
AcDbLine
 10
86.72483849303125
 20
116.6974901587586
 30
0.0
 11
85.22233941827243
 21
119.2998948945664
 31
0.0
  0
LINE
  5
3C630
330
2
100
AcDbEntity
  8
0
  6
Continuous
100
AcDbLine
 10
91.97733756779006
 20
119.2998948945664
 30
0.0
 11
96.09983849303127
 21
119.2998948945664
 31
0.0
  0
LINE
  5
3C631
330
2
100
AcDbEntity
  8
0
  6
Continuous
100
AcDbLine
 10
91.97733756779006
 20
69.29989489456648
 30
0.0
 11
91.97733756779006
 21
94.29989489449189
 31
0.0
  0
LINE
  5
3C632
330
2
100
AcDbEntity
  8
0
  6
Continuous
100
AcDbLine
 10
85.22233941827243
 20
69.29989489456648
 30
0.0
 11
85.22233941827243
 21
94.29989489449189
 31
0.0
  0
LINE
  5
3C633
330
2
100
AcDbEntity
  8
0
  6
Continuous
100
AcDbLine
 10
91.97733756779006
 20
69.29989489456648
 30
0.0
 11
96.09983849303127
 21
69.29989489456648
 31
0.0
  0
LINE
  5
3C634
330
2
100
AcDbEntity
  8
0
  6
Continuous
100
AcDbLine
 10
86.72483849303125
 20
71.90229963037609
 30
0.0
 11
85.22233941827243
 21
69.29989489456648
 31
0.0
  0
LINE
  5
3C635
330
2
100
AcDbEntity
  8
0
  6
Continuous
100
AcDbLine
 10
90.47483849303125
 20
71.90229963037609
 30
0.0
 11
91.97733756779006
 21
69.29989489456648
 31
0.0
  0
LINE
  5
3C636
330
2
100
AcDbEntity
  8
0
  6
Continuous
100
AcDbLine
 10
87.22483849303126
 20
72.79989489456648
 30
0.0
 11
89.97483849303126
 21
72.79989489456648
 31
0.0
  0
LINE
  5
3C637
330
2
100
AcDbEntity
  8
0
  6
Continuous
100
AcDbLine
 10
90.47483849302579
 20
94.29989489449189
 30
0.0
 11
90.47483849303125
 21
71.90229963037609
 31
0.0
  0
LINE
  5
3C638
330
2
100
AcDbEntity
  8
0
  6
Continuous
100
AcDbLine
 10
86.72483849303125
 20
94.29989489449189
 30
0.0
 11
86.72483849303125
 21
71.90229963037609
 31
0.0
  0
LINE
  5
3C639
330
2
100
AcDbEntity
  8
0
  6
Continuous
100
AcDbLine
 10
69.21945373530206
 20
75.47014773486125
 30
0.0
 11
69.21945373530206
 21
94.29989489456648
 31
0.0
  0
LINE
  5
3C63A
330
2
100
AcDbEntity
  8
0
  6
Continuous
100
AcDbLine
 10
68.09983849303126
 20
75.17014773486017
 30
0.0
 11
68.09983849303126
 21
94.29989489456648
 31
0.0
  0
LINE
  5
3C63B
330
2
100
AcDbEntity
  8
0
  6
Continuous
100
AcDbLine
 10
45.59983849303125
 20
94.29989489449189
 30
0.0
 11
45.59983849303125
 21
77.24852746995612
 31
0.0
  0
LINE
  5
3C63C
330
2
100
AcDbEntity
  8
0
  6
Continuous
100
AcDbLine
 10
71.09983849303126
 20
69.29989489456648
 30
0.0
 11
85.22233941827243
 21
69.29989489456648
 31
0.0
  0
LINE
  5
3C63D
330
2
100
AcDbEntity
  8
0
  6
Continuous
100
AcDbLine
 10
70.59983849303126
 20
94.29989489456648
 30
0.0
 11
70.59983849303126
 21
69.79989489456648
 31
0.0
  0
LINE
  5
3C63E
330
2
100
AcDbEntity
  8
0
  6
Continuous
100
AcDbLine
 10
46.59983849303126
 20
107.2998948945665
 30
0.0
 11
55.60381308924798
 21
107.2998948945665
 31
0.0
  0
LINE
  5
3C63F
330
2
100
AcDbEntity
  8
0
  6
Continuous
100
AcDbLine
 10
46.59983849303126
 20
94.29989489449189
 30
0.0
 11
46.59983849303126
 21
107.2998948945665
 31
0.0
  0
LINE
  5
3C640
330
2
100
AcDbEntity
  8
0
  6
Continuous
100
AcDbLine
 10
46.59983849303126
 20
107.2998948945665
 30
0.0
 11
45.59983849303125
 21
107.8772451637564
 31
0.0
  0
LINE
  5
3C641
330
2
100
AcDbEntity
  8
0
  6
Continuous
100
AcDbLine
 10
57.62453903141022
 20
110.2998948945665
 30
0.0
 11
65.40368607032679
 21
110.2998948945665
 31
0.0
  0
LINE
  5
3C642
330
2
100
AcDbEntity
  8
0
  6
Continuous
100
AcDbLine
 10
55.60381308924798
 20
107.2998948945665
 30
0.0
 11
57.19152632951909
 21
110.0498948945665
 31
0.0
  0
LINE
  5
3C643
330
2
100
AcDbEntity
  8
0
  6
Continuous
100
AcDbLine
 10
57.33586389681613
 20
110.2081431850315
 30
0.0
 11
57.33586389681613
 21
94.29989489456648
 31
0.0
  0
LINE
  5
3C644
330
2
100
AcDbEntity
  8
0
  6
Continuous
100
AcDbLine
 10
55.60381308924798
 20
107.2998948945665
 30
0.0
 11
55.60381308924798
 21
94.29989489456648
 31
0.0
  0
LINE
  5
3C645
330
2
100
AcDbEntity
  8
0
  6
Continuous
100
AcDbLine
 10
70.59983849303126
 20
107.2998948945665
 30
0.0
 11
70.59983849303126
 21
94.29989489456648
 31
0.0
  0
LINE
  5
3C646
330
2
100
AcDbEntity
  8
0
  6
Continuous
100
AcDbLine
 10
80.59983849303126
 20
106.0998948945675
 30
0.0
 11
80.59983849303126
 21
94.29989489456648
 31
0.0
  0
ARC
  5
3C647
330
2
100
AcDbEntity
  8
0
  6
Continuous
100
AcDbCircle
 10
57.62453903141022
 20
109.7998948945664
 30
0.0
 40
0.5
100
AcDbArc
 50
90.0
 51
150.000000000002
  0
ARC
  5
3C648
330
2
100
AcDbEntity
  8
0
  6
Continuous
100
AcDbCircle
 10
79.09983849303126
 20
106.0998948945675
 30
0.0
 40
1.5
100
AcDbArc
 50
0.0
 51
126.8698976458863
  0
LINE
  5
3C649
330
2
100
AcDbEntity
  8
0
  6
Continuous
 62
     3
100
AcDbLine
 10
80.59983849303126
 20
102.2998948945665
 30
0.0
 11
86.59983849303126
 21
102.2998948945665
 31
0.0
  0
LINE
  5
3C64A
330
2
100
AcDbEntity
  8
0
  6
Continuous
100
AcDbLine
 10
81.29265881605851
 20
101.8998948945668
 30
0.0
 11
86.59983849303126
 21
101.8998948945668
 31
0.0
  0
LINE
  5
3C64B
330
2
100
AcDbEntity
  8
0
  6
Continuous
100
AcDbLine
 10
86.59983849303126
 20
102.7998948945665
 30
0.0
 11
86.59983849303126
 21
94.29989489456648
 31
0.0
  0
LINE
  5
3C64C
330
2
100
AcDbEntity
  8
0
  6
Continuous
100
AcDbLine
 10
86.59983849303126
 20
102.7998948945665
 30
0.0
 11
90.59983849303126
 21
102.7998948945665
 31
0.0
  0
LINE
  5
3C64D
330
2
100
AcDbEntity
  8
0
  6
Continuous
100
AcDbLine
 10
80.59983849303126
 20
102.2998948945665
 30
0.0
 11
81.29265881605851
 21
101.8998948945668
 31
0.0
  0
LINE
  5
3C64E
330
2
100
AcDbEntity
  8
0
  6
Continuous
100
AcDbLine
 10
81.29265881605851
 20
101.8998948945668
 30
0.0
 11
81.29265881605851
 21
94.29989489456648
 31
0.0
  0
LINE
  5
3C64F
330
2
100
AcDbEntity
  8
0
  6
Continuous
100
AcDbLine
 10
71.09983849303126
 20
69.29989489456648
 30
0.0
 11
70.59983849303126
 21
69.79989489456648
 31
0.0
  0
LINE
  5
3C650
330
2
100
AcDbEntity
  8
0
  6
Continuous
100
AcDbLine
 10
70.59983849303126
 20
118.7998948945665
 30
0.0
 11
71.09983849303126
 21
119.2998948945664
 31
0.0
  0
LINE
  5
3C651
330
2
100
AcDbEntity
  8
0
  6
Continuous
100
AcDbLine
 10
71.09983849303126
 20
69.29989489456648
 30
0.0
 11
71.09983849303126
 21
94.29989489456648
 31
0.0
  0
ARC
  5
3C652
330
2
100
AcDbEntity
  8
0
  6
Continuous
100
AcDbCircle
 10
87.22483849303126
 20
116.2998948945665
 30
0.0
 40
0.5
100
AcDbArc
 50
180.0
 51
270.0
  0
ARC
  5
3C653
330
2
100
AcDbEntity
  8
0
  6
Continuous
100
AcDbCircle
 10
89.97483849303126
 20
116.2998948945665
 30
0.0
 40
0.5
100
AcDbArc
 50
270.0
 51
0.0
  0
ARC
  5
3C654
330
2
100
AcDbEntity
  8
0
  6
Continuous
100
AcDbCircle
 10
87.22483849303126
 20
72.29989489456648
 30
0.0
 40
0.5
100
AcDbArc
 50
90.0
 51
180.0
  0
ARC
  5
3C655
330
2
100
AcDbEntity
  8
0
  6
Continuous
100
AcDbCircle
 10
89.97483849303126
 20
72.29989489456648
 30
0.0
 40
0.5
100
AcDbArc
 50
0.0
 51
90.0
  0
ARC
  5
3C656
330
2
100
AcDbEntity
  8
0
  6
Continuous
100
AcDbCircle
 10
63.09983849303126
 20
94.29989489456648
 30
0.0
 40
3.0
100
AcDbArc
 50
0.0
 51
180.0
  0
LINE
  5
3C657
330
2
100
AcDbEntity
  8
0
  6
Continuous
100
AcDbLine
 10
46.54980238251982
 20
112.3500097285073
 30
0.0
 11
68.09983849303126
 21
113.4296420542728
 31
0.0
  0
ARC
  5
3C658
330
2
100
AcDbEntity
  8
0
  6
Continuous
100
AcDbCircle
 10
46.59983849303126
 20
111.3512623191786
 30
0.0
 40
1.0
100
AcDbArc
 50
92.86805555556364
 51
180.0
  0
LINE
  5
3C659
330
2
100
AcDbEntity
  8
0
  6
Continuous
100
AcDbLine
 10
69.21945373530206
 20
75.47014773486125
 30
0.0
 11
70.19983849303343
 21
75.47014773486125
 31
0.0
1001
ACAD
1000
ASC_BOUNDS
1002
{
1070
    19
1002
}
  0
LINE
  5
3C65A
330
2
100
AcDbEntity
  8
0
  6
Continuous
100
AcDbLine
 10
68.09983849303126
 20
75.17014773486017
 30
0.0
 11
69.21945373530206
 21
75.47014773486125
 31
0.0
1001
ACAD
1000
ASC_BOUNDS
1002
{
1070
    19
1002
}
  0
ARC
  5
3C65B
330
2
100
AcDbEntity
  8
0
  6
Continuous
100
AcDbCircle
 10
70.19983849303343
 20
74.87014773485907
 30
0.0
 40
0.6
100
AcDbArc
 50
48.18968510419931
 51
90.0
1001
ACAD
1000
ASC_BOUNDS
1002
{
1070
    19
1002
}
  0
ARC
  5
3C65C
330
2
100
AcDbEntity
  8
0
  6
Continuous
100
AcDbCircle
 10
46.59983849303126
 20
77.24852746995612
 30
0.0
 40
1.0
100
AcDbArc
 50
180.0
 51
267.1319444444363
  0
LINE
  5
3C65D
330
2
100
AcDbEntity
  8
0
  6
Continuous
100
AcDbLine
 10
46.54980238251982
 20
76.24978006062566
 30
0.0
 11
68.09983849303126
 21
75.17014773486017
 31
0.0
  0
LINE
  5
3C65E
330
2
100
AcDbEntity
  8
0
  6
Continuous
100
AcDbLine
 10
70.59983849303126
 20
107.2998948945665
 30
0.0
 11
78.19983849303344
 21
107.2998948945665
 31
0.0
  0
ARC
  5
3C65F
330
2
100
AcDbEntity
  8
0
  6
Continuous
100
AcDbCircle
 10
65.40368607032679
 20
104.2998948945665
 30
0.0
 40
6.0
100
AcDbArc
 50
29.99999999999801
 51
90.0
  0
LINE
  5
3C660
330
2
100
AcDbEntity
  8
0
  6
Continuous
100
AcDbLine
 10
78.19983849303344
 20
107.2998948945665
 30
0.0
 11
78.19983849303344
 21
94.29989489456648
 31
0.0
  0
LINE
  5
3C661
330
2
100
AcDbEntity
  8
0
  6
Continuous
 62
     7
100
AcDbLine
 10
90.59983849303126
 20
98.29989489456465
 30
0.0
 11
90.94624865458673
 21
97.69989489449153
 31
0.0
  0
ARC
  5
3C662
330
2
100
AcDbEntity
  8
0
  6
Continuous
 62
     7
100
AcDbCircle
 10
96.99983849302817
 20
74.8998948944668
 30
0.0
 40
0.4
100
AcDbArc
 50
90.0
 51
180.0
  0
ARC
  5
3C663
330
2
100
AcDbEntity
  8
0
  6
Continuous
 62
     7
100
AcDbCircle
 10
96.99983849303272
 20
113.6998948945661
 30
0.0
 40
0.4
100
AcDbArc
 50
180.0
 51
270.0
  0
LINE
  5
3C664
330
2
100
AcDbEntity
  8
0
  6
Continuous
100
AcDbLine
 10
90.94624865458673
 20
97.69989489449153
 30
0.0
 11
98.64498914908246
 21
97.69989489449153
 31
0.0
  0
LINE
  5
3C665
330
2
100
AcDbEntity
  8
0
100
AcDbLine
 10
112.5998384930312
 20
94.29989489449189
 30
0.0
 11
112.5998384930312
 21
65.2998948944919
 31
0.0
  0
LINE
  5
3C666
330
2
100
AcDbEntity
  8
0
 62
     0
100
AcDbLine
 10
112.5998384930312
 20
114.2998948944919
 30
0.0
 11
112.5998384930312
 21
123.2998948944919
 31
0.0
  0
ARC
  5
3C667
330
2
100
AcDbEntity
  8
0
  6
Continuous
 62
     7
100
AcDbCircle
 10
111.5998384930312
 20
114.2998948944919
 30
0.0
 40
1.0
100
AcDbArc
 50
270.0
 51
0.0
  0
LINE
  5
3C668
330
2
100
AcDbEntity
  8
0
  6
Continuous
100
AcDbLine
 10
96.79983849303154
 20
113.2998948944919
 30
0.0
 11
111.5998384930312
 21
113.2998948944919
 31
0.0
  0
LINE
  5
3C669
330
2
100
AcDbEntity
  8
0
  6
ByBlock
 62
     0
100
AcDbLine
 10
125.0998384930312
 20
107.5078948944997
 30
0.0
 11
114.5998384930317
 21
107.5078948944997
 31
0.0
  0
LINE
  5
3C66A
330
2
100
AcDbEntity
  8
0
  6
ByBlock
 62
     0
100
AcDbLine
 10
123.0998384930312
 20
117.2998948944919
 30
0.0
 11
115.0998384930312
 21
117.2998948944919
 31
0.0
  0
LINE
  5
3C66B
330
2
100
AcDbEntity
  8
0
  6
ByBlock
 62
     0
100
AcDbLine
 10
121.6498384930314
 20
116.7998948944919
 30
0.0
 11
119.0998384930312
 21
116.7998948944919
 31
0.0
  0
LINE
  5
3C66C
330
2
100
AcDbEntity
  8
0
  6
ByBlock
 62
     0
100
AcDbLine
 10
114.5998384930317
 20
107.807894894499
 30
0.0
 11
107.5998384930317
 21
107.807894894499
 31
0.0
  0
LINE
  5
3C66D
330
2
100
AcDbEntity
  8
0
 62
     0
100
AcDbLine
 10
125.0998384930312
 20
64.2998948944919
 30
0.0
 11
113.5998384930312
 21
64.2998948944919
 31
0.0
  0
ARC
  5
3C66E
330
2
100
AcDbEntity
  8
0
  6
Continuous
 62
     7
100
AcDbCircle
 10
113.5998384930312
 20
65.2998948944919
 30
0.0
 40
1.0
100
AcDbArc
 50
180.0
 51
270.0
  0
LINE
  5
3C66F
330
2
100
AcDbEntity
  8
0
 62
     0
100
AcDbLine
 10
125.0998384930312
 20
124.2998948944919
 30
0.0
 11
113.5998384930312
 21
124.2998948944919
 31
0.0
  0
ARC
  5
3C670
330
2
100
AcDbEntity
  8
0
  6
Continuous
 62
     7
100
AcDbCircle
 10
113.5998384930312
 20
123.2998948944919
 30
0.0
 40
1.0
100
AcDbArc
 50
90.0
 51
180.0
  0
LINE
  5
3C671
330
2
100
AcDbEntity
  8
0
 62
     0
100
AcDbLine
 10
125.5998384930312
 20
123.7998948944919
 30
0.0
 11
125.5998384930312
 21
64.7998948944919
 31
0.0
  0
LINE
  5
3C672
330
2
100
AcDbEntity
  8
0
 62
     0
100
AcDbLine
 10
125.0998384930312
 20
107.5078948944997
 30
0.0
 11
125.0998384930312
 21
94.29989489449189
 31
0.0
  0
LINE
  5
3C673
330
2
100
AcDbEntity
  8
0
  6
CENTER
 62
     3
100
AcDbLine
 10
119.0998384930312
 20
126.228405551547
 30
0.0
 11
119.0998384930312
 21
104.7998948944919
 31
0.0
  0
LINE
  5
3C674
330
2
100
AcDbEntity
  8
0
 62
     0
100
AcDbLine
 10
123.0998384930312
 20
123.6998948944915
 30
0.0
 11
123.0998384930312
 21
117.2998948944919
 31
0.0
  0
LINE
  5
3C675
330
2
100
AcDbEntity
  8
0
 62
     0
100
AcDbLine
 10
121.6498384930314
 20
116.7998948944919
 30
0.0
 11
121.6498384930314
 21
107.5078948944997
 31
0.0
  0
LINE
  5
3C676
330
2
100
AcDbEntity
  8
0
 62
     3
100
AcDbLine
 10
122.0998384930312
 20
117.2498948944908
 30
0.0
 11
122.0998384930312
 21
107.5078948944997
 31
0.0
  0
LINE
  5
3C677
330
2
100
AcDbEntity
  8
0
 62
     0
100
AcDbLine
 10
107.5998384930317
 20
107.807894894499
 30
0.0
 11
107.5998384930308
 21
94.29989489449189
 31
0.0
  0
LINE
  5
3C678
330
2
100
AcDbEntity
  8
0
  6
Continuous
 62
     0
100
AcDbLine
 10
107.0998384930312
 20
104.5498948944901
 30
0.0
 11
107.5998384930312
 21
105.0498948944901
 31
0.0
  0
LINE
  5
3C679
330
2
100
AcDbEntity
  8
0
 62
     0
100
AcDbLine
 10
102.5998384930312
 20
104.5498948944901
 30
0.0
 11
102.5998384930312
 21
94.29989489449189
 31
0.0
  0
LINE
  5
3C67A
330
2
100
AcDbEntity
  8
0
 62
     0
100
AcDbLine
 10
114.5998384930317
 20
107.807894894499
 30
0.0
 11
114.5998384930312
 21
94.29989489449189
 31
0.0
  0
LINE
  5
3C67B
330
2
100
AcDbEntity
  8
0
 62
     0
100
AcDbLine
 10
125.0998384930312
 20
124.2998948944919
 30
0.0
 11
125.5998384930312
 21
123.7998948944919
 31
0.0
  0
LINE
  5
3C67C
330
2
100
AcDbEntity
  8
0
 62
     0
100
AcDbLine
 10
125.0998384930312
 20
64.2998948944919
 30
0.0
 11
125.5998384930312
 21
64.7998948944919
 31
0.0
  0
LINE
  5
3C67D
330
2
100
AcDbEntity
  8
0
  6
Continuous
 62
     7
100
AcDbLine
 10
125.0998384930312
 20
64.2998948944919
 30
0.0
 11
125.0998384930312
 21
94.29989489449189
 31
0.0
  0
LINE
  5
3C67E
330
2
100
AcDbEntity
  8
0
  6
Continuous
 62
     7
100
AcDbLine
 10
121.6498384930314
 20
116.7998948944919
 30
0.0
 11
122.1498384930314
 21
117.2998948944919
 31
0.0
  0
LINE
  5
3C67F
330
2
100
AcDbEntity
  8
0
  6
ByBlock
 62
     0
100
AcDbLine
 10
116.5498384930311
 20
116.7998948944919
 30
0.0
 11
119.0998384930312
 21
116.7998948944919
 31
0.0
  0
LINE
  5
3C680
330
2
100
AcDbEntity
  8
0
 62
     0
100
AcDbLine
 10
116.5498384930311
 20
116.7998948944919
 30
0.0
 11
116.5498384930315
 21
107.5078948944997
 31
0.0
  0
LINE
  5
3C681
330
2
100
AcDbEntity
  8
0
 62
     3
100
AcDbLine
 10
116.0998384930312
 20
117.2498948944908
 30
0.0
 11
116.0998384930312
 21
107.5078948944997
 31
0.0
  0
LINE
  5
3C682
330
2
100
AcDbEntity
  8
0
  6
Continuous
 62
     7
100
AcDbLine
 10
116.5498384930311
 20
116.7998948944919
 30
0.0
 11
116.049838493031
 21
117.2998948944919
 31
0.0
  0
LINE
  5
3C683
330
2
100
AcDbEntity
  8
0
  6
Continuous
 62
     7
100
AcDbLine
 10
119.0998384930317
 20
123.6998948944915
 30
0.0
 11
123.0998384930317
 21
123.6998948944915
 31
0.0
  0
LINE
  5
3C684
330
2
100
AcDbEntity
  8
0
  6
Continuous
 62
     7
100
AcDbLine
 10
123.0998384930317
 20
123.6998948944915
 30
0.0
 11
123.6998384930311
 21
124.2998948944919
 31
0.0
  0
LINE
  5
3C685
330
2
100
AcDbEntity
  8
0
 62
     0
100
AcDbLine
 10
115.0998384930321
 20
123.6998948944915
 30
0.0
 11
115.0998384930317
 21
117.2998948944919
 31
0.0
  0
LINE
  5
3C686
330
2
100
AcDbEntity
  8
0
  6
Continuous
 62
     7
100
AcDbLine
 10
119.0998384930317
 20
123.6998948944915
 30
0.0
 11
115.0998384930317
 21
123.6998948944915
 31
0.0
  0
LINE
  5
3C687
330
2
100
AcDbEntity
  8
0
  6
Continuous
 62
     7
100
AcDbLine
 10
115.0998384930317
 20
123.6998948944915
 30
0.0
 11
114.4998384930322
 21
124.2998948944919
 31
0.0
  0
ARC
  5
3C688
330
2
100
AcDbEntity
  8
0
  6
Continuous
 62
     7
100
AcDbCircle
 10
119.0998384930312
 20
94.29989489449189
 30
0.0
 40
4.0
100
AcDbArc
 50
180.0
 51
0.0
  0
ARC
  5
3C689
330
2
100
AcDbEntity
  8
0
  6
Continuous
 62
     3
100
AcDbCircle
 10
119.0998384930312
 20
94.29989489449189
 30
0.0
 40
3.0
100
AcDbArc
 50
246.9535030001108
 51
158.4887115951204
  0
CIRCLE
  5
3C68A
330
2
100
AcDbEntity
  8
0
  6
Continuous
 62
     7
100
AcDbCircle
 10
119.0998384930312
 20
94.29989489449189
 30
0.0
 40
2.549999999999999
  0
LINE
  5
3C68B
330
2
100
AcDbEntity
  8
0
  6
CENTER
 62
     3
100
AcDbLine
 10
119.0998384930312
 20
62.2998948944919
 30
0.0
 11
119.0998384930312
 21
86.2998948944919
 31
0.0
  0
CIRCLE
  5
3C68C
330
2
100
AcDbEntity
  8
0
  6
Continuous
 62
     7
100
AcDbCircle
 10
198.8921950884037
 20
94.29989489449189
 30
0.0
 40
3.40000000000009
  0
CIRCLE
  5
3C68D
330
2
100
AcDbEntity
  8
0
  6
Continuous
 62
     7
100
AcDbCircle
 10
198.8921950884037
 20
94.29989489449189
 30
0.0
 40
30.0
  0
LINE
  5
3C68E
330
2
100
AcDbEntity
  8
0
  6
ByBlock
 62
     0
100
AcDbLine
 10
202.8921950884037
 20
117.2998948944901
 30
0.0
 11
194.8921950884037
 21
117.2998948944901
 31
0.0
  0
LINE
  5
3C68F
330
2
100
AcDbEntity
  8
0
  6
ByBlock
 62
     0
100
AcDbLine
 10
201.4421950884039
 20
116.79989489449
 30
0.0
 11
198.8921950884037
 21
116.79989489449
 31
0.0
  0
LINE
  5
3C690
330
2
100
AcDbEntity
  8
0
 62
     0
100
AcDbLine
 10
202.8921950884037
 20
123.6998948944915
 30
0.0
 11
202.8921950884037
 21
117.2998948944901
 31
0.0
  0
LINE
  5
3C691
330
2
100
AcDbEntity
  8
0
 62
     0
100
AcDbLine
 10
201.4421950884039
 20
116.79989489449
 30
0.0
 11
201.442195088403
 21
107.2593996689816
 31
0.0
  0
LINE
  5
3C692
330
2
100
AcDbEntity
  8
0
 62
     3
100
AcDbLine
 10
201.8921950884037
 20
117.2498948944908
 30
0.0
 11
201.8921950884037
 21
107.1626809068607
 31
0.0
  0
LINE
  5
3C693
330
2
100
AcDbEntity
  8
0
  6
Continuous
 62
     7
100
AcDbLine
 10
201.4421950884039
 20
116.79989489449
 30
0.0
 11
201.9421950884039
 21
117.2998948944901
 31
0.0
  0
LINE
  5
3C694
330
2
100
AcDbEntity
  8
0
  6
ByBlock
 62
     0
100
AcDbLine
 10
196.3421950884035
 20
116.79989489449
 30
0.0
 11
198.8921950884037
 21
116.79989489449
 31
0.0
  0
LINE
  5
3C695
330
2
100
AcDbEntity
  8
0
 62
     0
100
AcDbLine
 10
196.3421950884035
 20
116.79989489449
 30
0.0
 11
196.3421950884031
 21
107.2593996689816
 31
0.0
  0
LINE
  5
3C696
330
2
100
AcDbEntity
  8
0
 62
     3
100
AcDbLine
 10
195.8921950884037
 20
117.2498948944908
 30
0.0
 11
195.8921950884037
 21
107.1626809068607
 31
0.0
  0
LINE
  5
3C697
330
2
100
AcDbEntity
  8
0
  6
Continuous
 62
     7
100
AcDbLine
 10
196.3421950884035
 20
116.79989489449
 30
0.0
 11
195.8421950884035
 21
117.2998948944901
 31
0.0
  0
LINE
  5
3C698
330
2
100
AcDbEntity
  8
0
  6
Continuous
 62
     7
100
AcDbLine
 10
198.8921950884037
 20
123.6998948944915
 30
0.0
 11
202.8921950884037
 21
123.6998948944915
 31
0.0
  0
LINE
  5
3C699
330
2
100
AcDbEntity
  8
0
  6
Continuous
 62
     7
100
AcDbLine
 10
202.8921950884037
 20
123.6998948944915
 30
0.0
 11
203.1836635358327
 21
123.9913633419205
 31
0.0
  0
LINE
  5
3C69A
330
2
100
AcDbEntity
  8
0
 62
     0
100
AcDbLine
 10
194.8921950884041
 20
123.6998948944915
 30
0.0
 11
194.8921950884041
 21
117.2998948944901
 31
0.0
  0
LINE
  5
3C69B
330
2
100
AcDbEntity
  8
0
  6
Continuous
 62
     7
100
AcDbLine
 10
198.8921950884037
 20
123.6998948944915
 30
0.0
 11
194.8921950884037
 21
123.6998948944915
 31
0.0
  0
LINE
  5
3C69C
330
2
100
AcDbEntity
  8
0
  6
Continuous
 62
     7
100
AcDbLine
 10
194.8921950884037
 20
123.6998948944915
 30
0.0
 11
194.6007266409747
 21
123.9913633419205
 31
0.0
  0
LINE
  5
3C69D
330
2
100
AcDbEntity
  8
0
  6
ByBlock
 62
     0
100
AcDbLine
 10
175.8921950884037
 20
98.29989489449189
 30
0.0
 11
175.8921950884037
 21
90.2998948944919
 31
0.0
  0
LINE
  5
3C69E
330
2
100
AcDbEntity
  8
0
  6
ByBlock
 62
     0
100
AcDbLine
 10
176.3921950884037
 20
96.849894894493
 30
0.0
 11
176.3921950884037
 21
94.29989489449189
 31
0.0
  0
LINE
  5
3C69F
330
2
100
AcDbEntity
  8
0
 62
     0
100
AcDbLine
 10
169.4921950884036
 20
98.29989489449189
 30
0.0
 11
175.8921950884037
 21
98.29989489449189
 31
0.0
  0
LINE
  5
3C6A0
330
2
100
AcDbEntity
  8
0
 62
     0
100
AcDbLine
 10
176.3921950884037
 20
96.849894894493
 30
0.0
 11
185.9326903139254
 21
96.84989489448753
 31
0.0
  0
LINE
  5
3C6A1
330
2
100
AcDbEntity
  8
0
 62
     3
100
AcDbLine
 10
175.9421950884038
 20
97.2998948944919
 30
0.0
 11
186.0294090760458
 21
97.2998948944919
 31
0.0
  0
LINE
  5
3C6A2
330
2
100
AcDbEntity
  8
0
  6
Continuous
 62
     7
100
AcDbLine
 10
176.3921950884037
 20
96.84989489449117
 30
0.0
 11
175.8921950884037
 21
97.34989489449118
 31
0.0
  0
LINE
  5
3C6A3
330
2
100
AcDbEntity
  8
0
  6
ByBlock
 62
     0
100
AcDbLine
 10
176.3921950884037
 20
91.74989489449263
 30
0.0
 11
176.3921950884037
 21
94.29989489449189
 31
0.0
  0
LINE
  5
3C6A4
330
2
100
AcDbEntity
  8
0
 62
     0
100
AcDbLine
 10
176.3921950884037
 20
91.74989489449263
 30
0.0
 11
185.9326903139326
 21
91.74989489448899
 31
0.0
  0
LINE
  5
3C6A5
330
2
100
AcDbEntity
  8
0
 62
     3
100
AcDbLine
 10
175.9421950884038
 20
91.2998948944919
 30
0.0
 11
186.0294090760521
 21
91.2998948944919
 31
0.0
  0
LINE
  5
3C6A6
330
2
100
AcDbEntity
  8
0
  6
Continuous
 62
     7
100
AcDbLine
 10
176.3921950884037
 20
91.74989489449263
 30
0.0
 11
175.8921950884037
 21
91.24989489449262
 31
0.0
  0
LINE
  5
3C6A7
330
2
100
AcDbEntity
  8
0
  6
Continuous
 62
     7
100
AcDbLine
 10
169.4921950884036
 20
94.29989489449189
 30
0.0
 11
169.4921950884036
 21
98.29989489449189
 31
0.0
  0
LINE
  5
3C6A8
330
2
100
AcDbEntity
  8
0
  6
Continuous
 62
     7
100
AcDbLine
 10
169.4921950884036
 20
98.29989489449189
 30
0.0
 11
169.2007266409741
 21
98.5913633419209
 31
0.0
  0
LINE
  5
3C6A9
330
2
100
AcDbEntity
  8
0
 62
     0
100
AcDbLine
 10
169.4921950884036
 20
90.2998948944919
 30
0.0
 11
175.8921950884037
 21
90.2998948944919
 31
0.0
  0
LINE
  5
3C6AA
330
2
100
AcDbEntity
  8
0
  6
Continuous
 62
     7
100
AcDbLine
 10
169.4921950884036
 20
94.29989489449189
 30
0.0
 11
169.4921950884036
 21
90.2998948944919
 31
0.0
  0
LINE
  5
3C6AB
330
2
100
AcDbEntity
  8
0
  6
Continuous
 62
     7
100
AcDbLine
 10
169.4921950884036
 20
90.2998948944919
 30
0.0
 11
169.2007266409741
 21
90.0084264470629
 31
0.0
  0
LINE
  5
3C6AC
330
2
100
AcDbEntity
  8
0
  6
ByBlock
 62
     0
100
AcDbLine
 10
194.8921950884037
 20
71.2998948944919
 30
0.0
 11
202.8921950884037
 21
71.2998948944919
 31
0.0
  0
LINE
  5
3C6AD
330
2
100
AcDbEntity
  8
0
  6
ByBlock
 62
     0
100
AcDbLine
 10
196.3421950884035
 20
71.7998948944919
 30
0.0
 11
198.8921950884037
 21
71.7998948944919
 31
0.0
  0
LINE
  5
3C6AE
330
2
100
AcDbEntity
  8
0
 62
     0
100
AcDbLine
 10
194.8921950884037
 20
64.89989489449044
 30
0.0
 11
194.8921950884037
 21
71.2998948944919
 31
0.0
  0
LINE
  5
3C6AF
330
2
100
AcDbEntity
  8
0
 62
     0
100
AcDbLine
 10
196.3421950884035
 20
71.7998948944919
 30
0.0
 11
196.3421950884031
 21
81.34039012003132
 31
0.0
  0
LINE
  5
3C6B0
330
2
100
AcDbEntity
  8
0
 62
     3
100
AcDbLine
 10
195.8921950884037
 20
71.34989489449117
 30
0.0
 11
195.8921950884037
 21
81.43710888215219
 31
0.0
  0
LINE
  5
3C6B1
330
2
100
AcDbEntity
  8
0
  6
Continuous
 62
     7
100
AcDbLine
 10
196.3421950884035
 20
71.7998948944919
 30
0.0
 11
195.8421950884035
 21
71.2998948944919
 31
0.0
  0
LINE
  5
3C6B2
330
2
100
AcDbEntity
  8
0
  6
ByBlock
 62
     0
100
AcDbLine
 10
201.4421950884039
 20
71.7998948944919
 30
0.0
 11
198.8921950884037
 21
71.7998948944919
 31
0.0
  0
LINE
  5
3C6B3
330
2
100
AcDbEntity
  8
0
 62
     0
100
AcDbLine
 10
201.4421950884039
 20
71.7998948944919
 30
0.0
 11
201.4421950884039
 21
81.34039012003132
 31
0.0
  0
LINE
  5
3C6B4
330
2
100
AcDbEntity
  8
0
 62
     3
100
AcDbLine
 10
201.8921950884037
 20
71.34989489449117
 30
0.0
 11
201.8921950884033
 21
81.43710888215219
 31
0.0
  0
LINE
  5
3C6B5
330
2
100
AcDbEntity
  8
0
  6
Continuous
 62
     7
100
AcDbLine
 10
201.4421950884039
 20
71.7998948944919
 30
0.0
 11
201.9421950884039
 21
71.2998948944919
 31
0.0
  0
LINE
  5
3C6B6
330
2
100
AcDbEntity
  8
0
  6
Continuous
 62
     7
100
AcDbLine
 10
198.8921950884037
 20
64.89989489449044
 30
0.0
 11
194.8921950884037
 21
64.89989489449044
 31
0.0
  0
LINE
  5
3C6B7
330
2
100
AcDbEntity
  8
0
  6
Continuous
 62
     7
100
AcDbLine
 10
194.8921950884037
 20
64.89989489449044
 30
0.0
 11
194.6007266409742
 21
64.60842644706144
 31
0.0
  0
LINE
  5
3C6B8
330
2
100
AcDbEntity
  8
0
 62
     0
100
AcDbLine
 10
202.8921950884032
 20
64.89989489449044
 30
0.0
 11
202.8921950884032
 21
71.2998948944919
 31
0.0
  0
LINE
  5
3C6B9
330
2
100
AcDbEntity
  8
0
  6
Continuous
 62
     7
100
AcDbLine
 10
198.8921950884037
 20
64.89989489449044
 30
0.0
 11
202.8921950884037
 21
64.89989489449044
 31
0.0
  0
LINE
  5
3C6BA
330
2
100
AcDbEntity
  8
0
  6
Continuous
 62
     7
100
AcDbLine
 10
202.8921950884037
 20
64.89989489449044
 30
0.0
 11
203.1836635358327
 21
64.60842644706144
 31
0.0
  0
LINE
  5
3C6BB
330
2
100
AcDbEntity
  8
0
  6
ByBlock
 62
     0
100
AcDbLine
 10
221.8921950884037
 20
90.2998948944919
 30
0.0
 11
221.8921950884037
 21
98.29989489449189
 31
0.0
  0
LINE
  5
3C6BC
330
2
100
AcDbEntity
  8
0
  6
ByBlock
 62
     0
100
AcDbLine
 10
221.3921950884037
 20
91.7498948944908
 30
0.0
 11
221.3921950884037
 21
94.29989489449189
 31
0.0
  0
LINE
  5
3C6BD
330
2
100
AcDbEntity
  8
0
 62
     0
100
AcDbLine
 10
228.2921950884038
 20
90.2998948944919
 30
0.0
 11
221.8921950884037
 21
90.2998948944919
 31
0.0
  0
LINE
  5
3C6BE
330
2
100
AcDbEntity
  8
0
 62
     0
100
AcDbLine
 10
221.3921950884037
 20
91.7498948944908
 30
0.0
 11
211.8516998628761
 21
91.74989489449444
 31
0.0
  0
LINE
  5
3C6BF
330
2
100
AcDbEntity
  8
0
 62
     3
100
AcDbLine
 10
221.8421950884035
 20
91.2998948944919
 30
0.0
 11
211.7549811007548
 21
91.29989489449007
 31
0.0
  0
LINE
  5
3C6C0
330
2
100
AcDbEntity
  8
0
  6
Continuous
 62
     7
100
AcDbLine
 10
221.3921950884037
 20
91.74989489449263
 30
0.0
 11
221.8921950884037
 21
91.24989489449262
 31
0.0
  0
LINE
  5
3C6C1
330
2
100
AcDbEntity
  8
0
  6
ByBlock
 62
     0
100
AcDbLine
 10
221.3921950884037
 20
96.84989489449117
 30
0.0
 11
221.3921950884037
 21
94.29989489449189
 31
0.0
  0
LINE
  5
3C6C2
330
2
100
AcDbEntity
  8
0
 62
     0
100
AcDbLine
 10
221.3921950884037
 20
96.84989489449117
 30
0.0
 11
211.8516998628811
 21
96.84989489449117
 31
0.0
  0
LINE
  5
3C6C3
330
2
100
AcDbEntity
  8
0
 62
     3
100
AcDbLine
 10
221.8421950884035
 20
97.2998948944919
 30
0.0
 11
211.7549811007616
 21
97.2998948944919
 31
0.0
  0
LINE
  5
3C6C4
330
2
100
AcDbEntity
  8
0
  6
Continuous
 62
     7
100
AcDbLine
 10
221.3921950884037
 20
96.84989489449117
 30
0.0
 11
221.8921950884037
 21
97.34989489449118
 31
0.0
  0
LINE
  5
3C6C5
330
2
100
AcDbEntity
  8
0
  6
Continuous
 62
     7
100
AcDbLine
 10
228.2921950884038
 20
94.29989489449189
 30
0.0
 11
228.2921950884038
 21
90.2998948944919
 31
0.0
  0
LINE
  5
3C6C6
330
2
100
AcDbEntity
  8
0
  6
Continuous
 62
     7
100
AcDbLine
 10
228.2921950884038
 20
90.2998948944919
 30
0.0
 11
228.5836635358332
 21
90.0084264470629
 31
0.0
  0
LINE
  5
3C6C7
330
2
100
AcDbEntity
  8
0
 62
     0
100
AcDbLine
 10
228.2921950884038
 20
98.29989489449189
 30
0.0
 11
221.8921950884037
 21
98.29989489449189
 31
0.0
  0
LINE
  5
3C6C8
330
2
100
AcDbEntity
  8
0
  6
Continuous
 62
     7
100
AcDbLine
 10
228.2921950884038
 20
94.29989489449189
 30
0.0
 11
228.2921950884038
 21
98.29989489449189
 31
0.0
  0
LINE
  5
3C6C9
330
2
100
AcDbEntity
  8
0
  6
Continuous
 62
     7
100
AcDbLine
 10
228.2921950884038
 20
98.29989489449189
 30
0.0
 11
228.5836635358332
 21
98.5913633419209
 31
0.0
  0
LINE
  5
3C6CA
330
2
100
AcDbEntity
  8
0
  6
Continuous
 62
     3
100
AcDbLine
 10
198.185088307217
 20
93.59278811330524
 30
0.0
 11
177.325438262214
 21
72.73313806830128
 31
0.0
  0
LINE
  5
3C6CB
330
2
100
AcDbEntity
  8
0
  6
Continuous
 62
     3
100
AcDbLine
 10
199.5993018695903
 20
95.00700167567675
 30
0.0
 11
220.4589519145934
 21
115.8666517206807
 31
0.0
  0
LINE
  5
3C6CC
330
2
100
AcDbEntity
  8
0
  6
Continuous
 62
     3
100
AcDbLine
 10
199.5993018695903
 20
93.59278811330524
 30
0.0
 11
220.4589519145934
 21
72.73313806830128
 31
0.0
  0
LINE
  5
3C6CD
330
2
100
AcDbEntity
  8
0
  6
Continuous
 62
     3
100
AcDbLine
 10
198.185088307217
 20
95.00700167567675
 30
0.0
 11
177.325438262214
 21
115.8666517206807
 31
0.0
  0
LINE
  5
3C6CE
330
2
100
AcDbEntity
  8
0
  6
Continuous
 62
     3
100
AcDbLine
 10
198.3921950884037
 20
94.29989489449189
 30
0.0
 11
199.3921950884037
 21
94.29989489449189
 31
0.0
  0
LINE
  5
3C6CF
330
2
100
AcDbEntity
  8
0
  6
Continuous
 62
     3
100
AcDbLine
 10
198.8921950884037
 20
93.7998948944919
 30
0.0
 11
198.8921950884037
 21
94.7998948944919
 31
0.0
  0
LINE
  5
3C6D0
330
2
100
AcDbEntity
  8
0
  6
Continuous
 62
     3
100
AcDbLine
 10
197.8921950884037
 20
94.29989489449189
 30
0.0
 11
168.3921950884037
 21
94.29989489449189
 31
0.0
  0
LINE
  5
3C6D1
330
2
100
AcDbEntity
  8
0
  6
Continuous
 62
     3
100
AcDbLine
 10
199.8921950884037
 20
94.29989489449189
 30
0.0
 11
229.3921950884037
 21
94.29989489449189
 31
0.0
  0
LINE
  5
3C6D2
330
2
100
AcDbEntity
  8
0
  6
Continuous
 62
     3
100
AcDbLine
 10
198.8921950884037
 20
93.29989489449189
 30
0.0
 11
198.8921950884037
 21
63.7998948944919
 31
0.0
  0
LINE
  5
3C6D3
330
2
100
AcDbEntity
  8
0
  6
Continuous
 62
     3
100
AcDbLine
 10
198.8921950884037
 20
95.2998948944919
 30
0.0
 11
198.8921950884037
 21
124.7998948944919
 31
0.0
  0
CIRCLE
  5
3C6D4
330
2
100
AcDbEntity
  8
0
  6
CENTER
 62
     3
100
AcDbCircle
 10
198.8921950884037
 20
94.29989489449189
 30
0.0
 40
23.0
  0
LINE
  5
3C6D5
330
2
100
AcDbEntity
  8
0
  6
Continuous
 62
     7
100
AcDbLine
 10
90.94624865458673
 20
97.69989489449153
 30
0.0
 11
90.94624865458627
 21
94.29989489449189
 31
0.0
  0
LINE
  5
3C6D6
330
2
100
AcDbEntity
  8
0
  6
Continuous
 62
     7
100
AcDbLine
 10
102.5998384930312
 20
104.5498948944901
 30
0.0
 11
98.64498914908246
 21
97.69989489449153
 31
0.0
  0
LINE
  5
3C6D7
330
2
100
AcDbEntity
  8
0
  6
Continuous
 62
     7
100
AcDbLine
 10
98.64498914908246
 20
97.69989489449153
 30
0.0
 11
98.64498914908246
 21
94.29989489449189
 31
0.0
  0
LINE
  5
3C6D8
330
2
100
AcDbEntity
  8
0
  6
Continuous
 62
     7
100
AcDbLine
 10
107.0998384930312
 20
104.5498948944901
 30
0.0
 11
107.0998384930312
 21
94.29989489449189
 31
0.0
  0
CIRCLE
  5
3C6D9
330
2
100
AcDbEntity
  8
0
  6
Continuous
 62
     7
100
AcDbCircle
 10
198.8921950884037
 20
94.29989489449189
 30
0.0
 40
10.24999999999977
  0
INSERT
  5
3C6DA
102
{ACAD_REACTORS
330
3C70B
102
}
330
2
100
AcDbEntity
  8
0
  6
Continuous
 62
     7
100
AcDbBlockReference
  2
*U6
 10
-3122.258664735693
 20
962.2031450948929
 30
0.0
  0
LINE
  5
3C6DC
330
2
100
AcDbEntity
  8
0
  6
Continuous
 62
     7
100
AcDbLine
 10
125.0998384930312
 20
107.5078948944997
 30
0.0
 11
125.5998384930317
 21
107.7965700290938
 31
0.0
  0
LINE
  5
3C6EB
330
2
100
AcDbEntity
  8
0
  6
Continuous
100
AcDbLine
 10
96.99983849302725
 20
75.29989489446643
 30
0.0
 11
111.5998384930763
 21
75.29989489450281
 31
0.0
  0
ARC
  5
3C6EC
330
2
100
AcDbEntity
  8
0
  6
Continuous
 62
     7
100
AcDbCircle
 10
111.5998384930312
 20
74.2998948944919
 30
0.0
 40
1.0
100
AcDbArc
 50
0.0
 51
90.0
  0
CIRCLE
  5
3C6ED
330
2
100
AcDbEntity
  8
0
  6
Continuous
 62
     7
100
AcDbCircle
 10
198.8921950884037
 20
94.29989489450646
 30
0.0
 40
13.20799999998598
  0
ARC
  5
3C6EE
330
2
100
AcDbEntity
  8
0
  6
HIDDEN
 62
     2
 48
0.05
100
AcDbCircle
 10
119.0998384930308
 20
94.29989489451555
 30
0.0
 40
4.0
100
AcDbArc
 50
359.9999999997915
 51
179.9999999997915
  0
LINE
  5
3C6EF
330
2
100
AcDbEntity
  8
0
  6
Continuous
 62
     3
100
AcDbLine
 10
118.0998384930312
 20
94.29989489449189
 30
0.0
 11
120.0998384930312
 21
94.29989489449189
 31
0.0
  0
LINE
  5
3C6F0
330
2
100
AcDbEntity
  8
0
  6
Continuous
 62
     3
100
AcDbLine
 10
119.0998384930312
 20
93.29989489449189
 30
0.0
 11
119.0998384930312
 21
95.2998948944919
 31
0.0
  0
LINE
  5
3C6F1
330
2
100
AcDbEntity
  8
0
  6
Continuous
 62
     3
100
AcDbLine
 10
117.0998384930312
 20
94.29989489449189
 30
0.0
 11
114.0998384930312
 21
94.29989489449189
 31
0.0
  0
LINE
  5
3C6F2
330
2
100
AcDbEntity
  8
0
  6
Continuous
 62
     3
100
AcDbLine
 10
121.0998384930312
 20
94.29989489449189
 30
0.0
 11
124.0998384930312
 21
94.29989489449189
 31
0.0
  0
LINE
  5
3C6F3
330
2
100
AcDbEntity
  8
0
  6
Continuous
 62
     3
100
AcDbLine
 10
119.0998384930312
 20
92.2998948944919
 30
0.0
 11
119.0998384930312
 21
89.29989489449189
 31
0.0
  0
LINE
  5
3C6F4
330
2
100
AcDbEntity
  8
0
  6
Continuous
 62
     3
100
AcDbLine
 10
119.0998384930312
 20
96.2998948944919
 30
0.0
 11
119.0998384930312
 21
99.29989489449191
 31
0.0
  0
CIRCLE
  5
3C6F5
330
2
100
AcDbEntity
  8
0
  6
HIDDEN
 62
     2
 48
0.05
100
AcDbCircle
 10
198.8921950883823
 20
94.29989489447008
 30
0.0
 40
19.0
  0
HATCH
  5
3C6F6
330
2
100
AcDbEntity
  8
0
  6
Continuous
 62
     4
100
AcDbHatch
 10
0.0
 20
0.0
 30
0.0
210
0.0
220
0.0
230
1.0
  2
ANSI31
 70
     0
 71
     0
 91
       47
 92
        7
 72
     1
 73
     1
 93
        9
 10
203.1836635358354
 20
123.9913633419223
 42
0.0
 10
202.8921950884055
 20
123.6998948944915
 42
0.0
 10
202.8921950884055
 20
117.2998948944901
 42
0.0
 10
201.9421950884057
 20
117.2998948944901
 42
0.0
 10
201.8921950884055
 20
117.249894894489
 42
0.0
 10
201.8921950884055
 20
117.1034033964738
 42
-0.1262315218706835
 10
212.4996459100584
 20
112.8427447870058
 42
-0.4367005398171184
 10
217.630524789849
 20
113.038224595934
 42
0.0
 10
220.1053985240023
 20
115.5130983300882
 42
0.1618557854366443
 97
        0
 92
        7
 72
     1
 73
     1
 93
        3
 10
201.8921950884055
 20
117.2498948944908
 42
0.0
 10
201.7624033389575
 20
117.1201031450423
 42
-0.0014224124653197
 10
201.8921950884055
 20
117.1034033964738
 42
0.0
 97
        0
 92
        7
 72
     1
 73
     1
 93
        5
 10
201.8921950884055
 20
117.1034033964738
 42
0.0014224124653198
 10
201.7624033389575
 20
117.1201031450423
 42
0.0
 10
201.4421950884057
 20
116.79989489449
 42
0.0
 10
201.4421950884052
 20
113.1279988882311
 42
-0.0059854571330652
 10
201.8921950884055
 20
113.0615579337595
 42
0.0
 97
        0
 92
        7
 72
     1
 73
     1
 93
        6
 10
201.8921950884055
 20
117.1034033964738
 42
0.0
 10
201.8921950884055
 20
113.0615579337595
 42
-0.1580055272980666
 10
212.327223930929
 20
107.7349237370149
 42
0.0
 10
212.6807773215432
 20
108.0884771276291
 42
-0.1989123673796758
 10
211.6556510556961
 20
110.5633508617816
 42
-0.1791911892625202
 10
212.4996459100584
 20
112.8427447870058
 42
0.1262315218706833
 97
        0
 92
        7
 72
     1
 73
     1
 93
        4
 10
201.8921950884055
 20
113.0615579337595
 42
0.0
 10
201.8921950884055
 20
107.1626809068607
 42
-0.1399692970896515
 10
208.2316614543156
 20
103.639361260401
 42
0.0
 10
212.327223930929
 20
107.7349237370149
 42
0.1580055272980666
 97
        0
 92
        7
 72
     1
 73
     1
 93
        4
 10
201.8921950884055
 20
113.0615579337595
 42
0.0059854571330652
 10
201.4421950884052
 20
113.1279988882311
 42
0.0
 10
201.4421950884048
 20
107.2593996689816
 42
-0.0087127405423445
 10
201.8921950884055
 20
107.1626809068607
 42
0.0
 97
        0
 92
        7
 72
     1
 73
     1
 93
        4
 10
212.327223930929
 20
107.7349237370149
 42
0.0
 10
208.2316614543156
 20
103.639361260401
 42
-0.1399692970895032
 10
211.7549811007639
 20
97.2998948944919
 42
0.0
 10
217.6538581276745
 20
97.2998948944919
 42
0.158005527298045
 97
        0
 92
        7
 72
     1
 73
     1
 93
        5
 10
217.4350449809199
 20
107.9073457161435
 42
-0.3920785470398333
 10
212.6807773215432
 20
108.0884771276291
 42
0.0
 10
212.327223930929
 20
107.7349237370149
 42
-0.158005527298045
 10
217.6538581276745
 20
97.2998948944919
 42
0.0
 10
221.6957035903884
 20
97.2998948944919
 42
0.1262315218706693
 97
        0
 92
        7
 72
     1
 73
     1
 93
       10
 10
220.1053985240023
 20
115.5130983300882
 42
0.0
 10
217.630524789849
 20
113.038224595934
 42
-0.1989123673796514
 10
218.6556510556961
 20
110.5633508617816
 42
-0.2187835123949918
 10
217.4350449809199
 20
107.9073457161435
 42
-0.1262315218706691
 10
221.6957035903884
 20
97.2998948944919
 42
0.0
 10
221.8421950884062
 20
97.2998948944919
 42
0.0
 10
221.8921950884055
 20
97.34989489449118
 42
0.0
 10
221.8921950884055
 20
98.29989489449189
 42
0.0
 10
228.2921950884056
 20
98.29989489449189
 42
0.0
 10
228.5836635358355
 20
98.5913633419209
 42
0.16185578543664
 97
        0
 92
        7
 72
     1
 73
     1
 93
        3
 10
221.8421950884062
 20
97.2998948944919
 42
0.0
 10
221.6957035903884
 20
97.2998948944919
 42
-0.0014224124653463
 10
221.7124033389555
 20
97.17010314504159
 42
0.0
 97
        0
 92
        7
 72
     1
 73
     1
 93
        5
 10
221.6957035903884
 20
97.2998948944919
 42
0.0
 10
217.6538581276745
 20
97.2998948944919
 42
-0.0059854571330727
 10
217.7202990821456
 20
96.84989489449117
 42
0.0
 10
221.3921950884055
 20
96.84989489449117
 42
0.0
 10
221.7124033389555
 20
97.17010314504159
 42
0.0014224124653463
 97
        0
 92
        7
 72
     1
 73
     1
 93
        4
 10
217.6538581276745
 20
97.2998948944919
 42
0.0
 10
211.7549811007639
 20
97.2998948944919
 42
-0.0087127405423424
 10
211.8516998628829
 20
96.84989489449117
 42
0.0
 10
217.7202990821456
 20
96.84989489449117
 42
0.0059854571330727
 97
        0
 92
        7
 72
     1
 73
     1
 93
        4
 10
217.7202990821515
 20
91.74989489449263
 42
0.0
 10
211.8516998628779
 20
91.74989489449444
 42
-0.008712740542417
 10
211.7549811007566
 20
91.29989489449007
 42
0.0
 10
217.6538581276814
 20
91.2998948944919
 42
0.0059854571330751
 97
        0
 92
        7
 72
     1
 73
     1
 93
        5
 10
221.3921950884073
 20
91.7498948944908
 42
0.0
 10
217.7202990821515
 20
91.74989489449263
 42
-0.0059854571330751
 10
217.6538581276814
 20
91.2998948944919
 42
0.0
 10
221.6957035903884
 20
91.2998948944919
 42
0.0014224124653466
 10
221.7124033389555
 20
91.42968664394221
 42
0.0
 97
        0
 92
        7
 72
     1
 73
     1
 93
        4
 10
217.6538581276814
 20
91.2998948944919
 42
0.0
 10
211.7549811007566
 20
91.29989489449007
 42
-0.1399692970893124
 10
208.2316614543001
 20
84.96042852859728
 42
0.0
 10
212.3272239309499
 20
80.86486605194705
 42
0.1580055272982319
 97
        0
 92
        7
 72
     1
 73
     1
 93
        5
 10
221.6957035903884
 20
91.2998948944919
 42
0.0
 10
217.6538581276814
 20
91.2998948944919
 42
-0.1580055272982319
 10
212.3272239309499
 20
80.86486605194705
 42
0.0
 10
212.6807773215432
 20
80.5113126613528
 42
-0.3920785470397422
 10
217.435044980919
 20
80.6924440728385
 42
0.1262315218706847
 97
        0
 92
        7
 72
     1
 73
     1
 93
       10
 10
228.5836635358355
 20
90.0084264470629
 42
0.0
 10
228.2921950884056
 20
90.2998948944919
 42
0.0
 10
221.8921950884055
 20
90.2998948944919
 42
0.0
 10
221.8921950884055
 20
91.24989489449262
 42
0.0
 10
221.8421950884062
 20
91.2998948944919
 42
0.0
 10
221.6957035903884
 20
91.2998948944919
 42
-0.1262315218706843
 10
217.435044980919
 20
80.6924440728385
 42
-0.2187835123950717
 10
218.6556510556961
 20
78.03643892720038
 42
-0.1989123673796513
 10
217.630524789849
 20
75.56156519304796
 42
0.0
 10
220.1053985240014
 20
73.08669145889552
 42
0.1618557854366509
 97
        0
 92
        7
 72
     1
 73
     1
 93
        9
 10
220.1053985240014
 20
73.08669145889552
 42
0.0
 10
217.630524789849
 20
75.56156519304796
 42
-0.436700539817241
 10
212.4996459100576
 20
75.75704500197798
 42
-0.1262315218706708
 10
201.8921950884055
 20
71.49638639250998
 42
0.0
 10
201.8921950884055
 20
71.34989489449117
 42
0.0
 10
201.9421950884057
 20
71.2998948944919
 42
0.0
 10
202.8921950884051
 20
71.2998948944919
 42
0.0
 10
202.8921950884051
 20
64.89989489449044
 42
0.0
 10
203.1836635358341
 20
64.60842644706144
 42
0.1618557854366471
 97
        0
 92
        7
 72
     1
 73
     1
 93
        6
 10
211.6556510556961
 20
78.03643892720038
 42
-0.1989123673796758
 10
212.6807773215432
 20
80.5113126613528
 42
0.0
 10
212.3272239309499
 20
80.86486605194705
 42
-0.1580055272984681
 10
201.8921950884055
 20
75.53823185518059
 42
0.0
 10
201.8921950884055
 20
71.49638639250998
 42
0.1262315218706705
 10
212.4996459100576
 20
75.75704500197798
 42
-0.1791911892624113
 97
        0
 92
        7
 72
     1
 73
     1
 93
        4
 10
212.3272239309499
 20
80.86486605194705
 42
0.0
 10
208.2316614543001
 20
84.96042852859728
 42
-0.1399692970892385
 10
201.8921950884051
 20
81.43710888215219
 42
0.0
 10
201.8921950884055
 20
75.53823185518059
 42
0.1580055272984681
 97
        0
 92
        7
 72
     1
 73
     1
 93
        3
 10
201.8921950884055
 20
71.49638639250998
 42
-0.0014224124653374
 10
201.7624033389556
 20
71.47968664394148
 42
0.0
 10
201.8921950884055
 20
71.34989489449299
 42
0.0
 97
        0
 92
        7
 72
     1
 73
     1
 93
        5
 10
201.8921950884055
 20
75.53823185518059
 42
-0.0059854571330581
 10
201.4421950884057
 20
75.47179090070904
 42
0.0
 10
201.4421950884057
 20
71.7998948944919
 42
0.0
 10
201.7624033389556
 20
71.47968664394148
 42
0.0014224124653374
 10
201.8921950884055
 20
71.49638639250998
 42
0.0
 97
        0
 92
        7
 72
     1
 73
     1
 93
        4
 10
201.8921950884051
 20
81.43710888215219
 42
-0.0087127405423181
 10
201.4421950884057
 20
81.34039012003132
 42
0.0
 10
201.4421950884057
 20
75.47179090070904
 42
0.0059854571330581
 10
201.8921950884055
 20
75.53823185518059
 42
0.0
 97
        0
 92
        7
 72
     1
 73
     1
 93
        3
 10
196.0219868378553
 20
71.47968664394148
 42
-0.0014224124653375
 10
195.8921950884055
 20
71.49638639250998
 42
0.0
 10
195.8921950884055
 20
71.34989489449117
 42
0.0
 97
        0
 92
        7
 72
     1
 73
     1
 93
        5
 10
196.3421950884053
 20
75.47179090070358
 42
-0.0059854571330562
 10
195.8921950884055
 20
75.5382318551733
 42
0.0
 10
195.8921950884055
 20
71.49638639250998
 42
0.0014224124653375
 10
196.0219868378553
 20
71.47968664394148
 42
0.0
 10
196.3421950884053
 20
71.7998948944919
 42
0.0
 97
        0
 92
        7
 72
     1
 73
     1
 93
        4
 10
196.3421950884049
 20
81.34039012003132
 42
-0.0087127405423182
 10
195.8921950884055
 20
81.43710888215219
 42
0.0
 10
195.8921950884055
 20
75.5382318551733
 42
0.0059854571330562
 10
196.3421950884053
 20
75.47179090070358
 42
0.0
 97
        0
 92
        7
 72
     1
 73
     1
 93
        4
 10
195.8921950884055
 20
81.43710888215219
 42
-0.1399692970892295
 10
189.5527287225109
 20
84.96042852859728
 42
0.0
 10
185.4571662458397
 20
80.86486605192522
 42
0.1580055272986418
 10
195.8921950884055
 20
75.5382318551733
 42
0.0
 97
        0
 92
        7
 72
     1
 73
     1
 93
        6
 10
195.8921950884055
 20
75.5382318551733
 42
-0.1580055272986418
 10
185.4571662458397
 20
80.86486605192522
 42
0.0
 10
185.1036128552678
 20
80.5113126613528
 42
-0.1989123673796758
 10
186.1287391211149
 20
78.03643892720038
 42
-0.1791911892624101
 10
185.2847442667535
 20
75.75704500197798
 42
0.1262315218706709
 10
195.8921950884055
 20
71.49638639250998
 42
0.0
 97
        0
 92
        7
 72
     1
 73
     1
 93
        9
 10
194.8921950884055
 20
71.2998948944919
 42
0.0
 10
195.8421950884053
 20
71.2998948944919
 42
0.0
 10
195.8921950884055
 20
71.34989489449117
 42
0.0
 10
195.8921950884055
 20
71.49638639250998
 42
-0.1262315218706705
 10
185.2847442667535
 20
75.75704500197798
 42
-0.4367005398172429
 10
180.153865386962
 20
75.56156519304796
 42
0.0
 10
177.6789916528096
 20
73.08669145889552
 42
0.1618557854366436
 10
194.6007266409765
 20
64.60842644706144
 42
0.0
 10
194.8921950884055
 20
64.89989489449044
 42
0.0
 97
        0
 92
        7
 72
     1
 73
     1
 93
       10
 10
180.349345195892
 20
80.6924440728385
 42
-0.1262315218706851
 10
176.0886865864227
 20
91.2998948944919
 42
0.0
 10
175.9421950884048
 20
91.2998948944919
 42
0.0
 10
175.8921950884055
 20
91.24989489449262
 42
0.0
 10
175.8921950884055
 20
90.2998948944919
 42
0.0
 10
169.4921950884054
 20
90.2998948944919
 42
0.0
 10
169.2007266409755
 20
90.0084264470629
 42
0.161855785436651
 10
177.6789916528096
 20
73.08669145889552
 42
0.0
 10
180.153865386962
 20
75.56156519304796
 42
-0.1989123673796511
 10
179.1287391211149
 20
78.03643892720038
 42
-0.21878351239507
 97
        0
 92
        7
 72
     1
 73
     1
 93
        5
 10
180.1305320490869
 20
91.2998948944919
 42
0.0
 10
176.0886865864227
 20
91.2998948944919
 42
0.1262315218706846
 10
180.349345195892
 20
80.6924440728385
 42
-0.3920785470397456
 10
185.1036128552678
 20
80.5113126613528
 42
0.0
 10
185.4571662458397
 20
80.86486605192522
 42
-0.1580055272986499
 97
        0
 92
        7
 72
     1
 73
     1
 93
        4
 10
186.029409076054
 20
91.2998948944919
 42
0.0
 10
180.1305320490869
 20
91.2998948944919
 42
0.1580055272986499
 10
185.4571662458397
 20
80.86486605192522
 42
0.0
 10
189.5527287225109
 20
84.96042852859728
 42
-0.1399692970893485
 97
        0
 92
        7
 72
     1
 73
     1
 93
        3
 10
176.0719868378555
 20
91.42968664394221
 42
0.0
 10
175.9421950884048
 20
91.2998948944919
 42
0.0
 10
176.0886865864227
 20
91.2998948944919
 42
-0.0014224124653463
 97
        0
 92
        7
 72
     1
 73
     1
 93
        5
 10
180.0640910946172
 20
91.7498948944908
 42
0.0
 10
176.3921950884055
 20
91.74989489449263
 42
0.0
 10
176.0719868378555
 20
91.42968664394221
 42
0.0014224124653463
 10
176.0886865864227
 20
91.2998948944919
 42
0.0
 10
180.1305320490869
 20
91.2998948944919
 42
-0.005985457133052
 97
        0
 92
        7
 72
     1
 73
     1
 93
        4
 10
185.9326903139344
 20
91.74989489448899
 42
0.0
 10
180.0640910946172
 20
91.7498948944908
 42
0.005985457133052
 10
180.1305320490869
 20
91.2998948944919
 42
0.0
 10
186.029409076054
 20
91.2998948944919
 42
-0.0087127405422764
 97
        0
 92
        7
 72
     1
 73
     1
 93
        4
 10
186.0294090760471
 20
97.2998948944919
 42
0.0
 10
180.1305320490937
 20
97.2998948944919
 42
0.0059854571330764
 10
180.0640910946226
 20
96.84989489449117
 42
0.0
 10
185.9326903139272
 20
96.84989489448753
 42
-0.0087127405424126
 97
        0
 92
        7
 72
     1
 73
     1
 93
        5
 10
180.1305320490937
 20
97.2998948944919
 42
0.0
 10
176.0886865864227
 20
97.2998948944919
 42
0.0014224124653463
 10
176.0719868378555
 20
97.17010314504159
 42
0.0
 10
176.3921950884037
 20
96.849894894493
 42
0.0
 10
180.0640910946226
 20
96.84989489449117
 42
-0.0059854571330764
 97
        0
 92
        7
 72
     1
 73
     1
 93
        3
 10
176.0886865864227
 20
97.2998948944919
 42
0.0
 10
175.9421950884048
 20
97.2998948944919
 42
0.0
 10
176.0719868378555
 20
97.17010314504159
 42
-0.0014224124653463
 97
        0
 92
        7
 72
     1
 73
     1
 93
        4
 10
189.5527287224954
 20
103.639361260401
 42
0.0
 10
185.4571662458606
 20
107.7349237370349
 42
0.1580055272984525
 10
180.1305320490937
 20
97.2998948944919
 42
0.0
 10
186.0294090760471
 20
97.2998948944919
 42
-0.1399692970895032
 97
        0
 92
        7
 72
     1
 73
     1
 93
        5
 10
185.4571662458606
 20
107.7349237370349
 42
0.0
 10
185.1036128552678
 20
108.0884771276291
 42
-0.3920785470398357
 10
180.3493451958911
 20
107.9073457161435
 42
0.1262315218706691
 10
176.0886865864227
 20
97.2998948944919
 42
0.0
 10
180.1305320490937
 20
97.2998948944919
 42
-0.1580055272984527
 97
        0
 92
        7
 72
     1
 73
     1
 93
       10
 10
180.3493451958911
 20
107.9073457161435
 42
-0.2187835123949909
 10
179.1287391211149
 20
110.5633508617816
 42
-0.1989123673796515
 10
180.153865386962
 20
113.038224595934
 42
0.0
 10
177.6789916528087
 20
115.5130983300882
 42
0.1618557854366399
 10
169.2007266409755
 20
98.5913633419209
 42
0.0
 10
169.4921950884054
 20
98.29989489449189
 42
0.0
 10
175.8921950884055
 20
98.29989489449189
 42
0.0
 10
175.8921950884055
 20
97.34989489449118
 42
0.0
 10
175.9421950884048
 20
97.2998948944919
 42
0.0
 10
176.0886865864227
 20
97.2998948944919
 42
-0.1262315218706693
 97
        0
 92
        7
 72
     1
 73
     1
 93
        9
 10
195.8921950884055
 20
117.1034033964738
 42
0.0
 10
195.8921950884055
 20
117.249894894489
 42
0.0
 10
195.8421950884053
 20
117.2998948944901
 42
0.0
 10
194.892195088406
 20
117.2998948944901
 42
0.0
 10
194.892195088406
 20
123.6998948944915
 42
0.0
 10
194.6007266409756
 20
123.9913633419223
 42
0.1618557854366443
 10
177.6789916528087
 20
115.5130983300882
 42
0.0
 10
180.153865386962
 20
113.038224595934
 42
-0.4367005398171207
 10
185.2847442667525
 20
112.8427447870058
 42
-0.1262315218706833
 97
        0
 92
        7
 72
     1
 73
     1
 93
        6
 10
195.8921950884055
 20
117.1034033964738
 42
0.1262315218706835
 10
185.2847442667521
 20
112.8427447870058
 42
-0.1791911892625198
 10
186.1287391211149
 20
110.5633508617816
 42
-0.1989123673796757
 10
185.1036128552678
 20
108.0884771276291
 42
0.0
 10
185.4571662458606
 20
107.7349237370349
 42
-0.1580055272982428
 10
195.8921950884055
 20
113.0615579337668
 42
0.0
 97
        0
 92
        7
 72
     1
 73
     1
 93
        4
 10
195.8921950884055
 20
113.0615579337668
 42
0.1580055272982428
 10
185.4571662458606
 20
107.7349237370349
 42
0.0
 10
189.5527287224954
 20
103.639361260401
 42
-0.1399692970896514
 10
195.8921950884055
 20
107.1626809068607
 42
0.0
 97
        0
 92
        7
 72
     1
 73
     1
 93
        4
 10
196.3421950884053
 20
113.1279988882365
 42
0.0059854571330562
 10
195.8921950884055
 20
113.0615579337668
 42
0.0
 10
195.8921950884055
 20
107.1626809068607
 42
-0.0087127405423182
 10
196.3421950884049
 20
107.2593996689816
 42
0.0
 97
        0
 92
        7
 72
     1
 73
     1
 93
        5
 10
196.3421950884053
 20
116.79989489449
 42
0.0
 10
196.0219868378535
 20
117.1201031450423
 42
0.0014224124653198
 10
195.8921950884055
 20
117.1034033964738
 42
0.0
 10
195.8921950884055
 20
113.0615579337668
 42
-0.0059854571330562
 10
196.3421950884053
 20
113.1279988882365
 42
0.0
 97
        0
 92
        7
 72
     1
 73
     1
 93
        3
 10
195.8921950884055
 20
117.249894894489
 42
0.0
 10
195.8921950884055
 20
117.1034033964738
 42
-0.0014224124653197
 10
196.0219868378535
 20
117.1201031450423
 42
0.0
 97
        0
 75
     1
 76
     1
 52
0.0
 41
1.0
 77
     0
 78
     1
 53
45.0
 43
-2623.317280886189
 44
13193.76640134612
 45
-2.245064030267288
 46
2.245064030267288
 79
     0
 47
0.0728100500289263
 98
       47
 10
207.9282141441913
 20
118.0472506673909
 10
201.8780224499173
 20
117.137994803707
 10
201.8275439050744
 20
116.9283184118544
 10
206.1247462581928
 20
114.7681807341873
 10
208.2409137902982
 20
109.190378623091
 10
201.7754928199106
 20
111.7505797677154
 10
213.2017281658159
 20
103.4197213156517
 10
216.4954925296011
 20
105.654851907821
 10
221.4970356998497
 20
108.2150530524454
 10
221.7292999077003
 20
97.25184837344613
 10
221.6307802555498
 20
97.2045743589847
 10
216.9191348965073
 20
97.18456359141464
 10
217.0226080507096
 20
91.52231376292229
 10
219.3768581899026
 20
91.65156737354164
 10
215.181241942581
 20
87.23609848065871
 10
217.8032957012297
 20
85.69709199059479
 10
222.7560901210349
 20
82.95181972429464
 10
212.0980407299762
 20
71.70531269838875
 10
208.4770307219555
 20
76.03120777591584
 10
207.5198254185639
 20
79.40042109091928
 10
201.8578153065723
 20
71.43526226397125
 10
201.8215682518025
 20
73.41458158270734
 10
201.7979801467413
 20
77.80745767350208
 10
195.9481300914453
 20
71.45329853455087
 10
196.1428892122462
 20
74.31863540624954
 10
196.0564781207035
 20
77.601654333434
 10
194.0681581180365
 20
78.68159027343108
 10
191.2153340648624
 20
74.66421035051507
 10
190.8263662123904
 20
69.82604721748839
 10
177.3334983550271
 20
80.02884272893471
 10
181.5695288890242
 20
83.74385881477838
 10
185.1138775555851
 20
85.12619656293873
 10
176.0574604982071
 20
91.35539282511354
 10
177.5365133126001
 20
91.45931971473373
 10
181.399773159585
 20
91.42514572837582
 10
180.6606005739709
 20
97.14275741476786
 10
179.5365487407657
 20
97.12548056611604
 10
176.0481038832045
 20
97.26373332647973
 10
184.043370720869
 20
98.82218101766966
 10
179.5672132773584
 20
101.1483662979376
 10
175.4491232686673
 20
103.1614039498822
 10
187.897352579876
 20
116.9976536330655
 10
189.9116194981002
 20
113.8215233409869
 10
191.1201953744425
 20
108.1402499934197
 10
196.1200873773455
 20
112.0389322703781
 10
196.2414088643822
 20
116.1796043418512
 10
195.9346848715617
 20
117.1513226583852
1001
GRADIENTCOLOR1ACI
1070
     5
1001
GRADIENTCOLOR2ACI
1070
     2
1001
ACAD
1010
0.0
1020
0.0
1030
0.0
  0
LINE
  5
3C936
330
2
100
AcDbEntity
  8
0
  6
Continuous
 62
     3
100
AcDbLine
 10
70.59983849303126
 20
69.11550646499676
 30
0.0
 11
70.59983849303126
 21
51.11185767794109
 31
0.0
  0
MTEXT
  5
3C937
330
2
100
AcDbEntity
  8
0
  6
Continuous
 62
     2
100
AcDbMText
 10
70.60037266217796
 20
48.66304257414435
 30
0.0
 40
3.0
 41
0.0
 46
0.0
 71
     5
 72
     1
  1
0.00
 73
     1
 44
1.0
  0
LINE
  5
3C938
330
2
100
AcDbEntity
  8
0
  6
Continuous
 62
     3
100
AcDbLine
 10
96.59983849303126
 20
69.2825831679686
 30
0.0
 11
96.59983849303126
 21
51.14461629852508
 31
0.0
  0
MTEXT
  5
3C93A
330
2
100
AcDbEntity
  8
0
  6
Continuous
 62
     2
100
AcDbMText
 10
96.30602455988402
 20
48.66304257414435
 30
0.0
 40
3.0
 41
0.0
 46
0.0
 71
     5
 72
     1
  1
1.02
 73
     1
 44
1.0
  0
LINE
  5
3C93C
330
2
100
AcDbEntity
  8
0
  6
Continuous
 62
     3
100
AcDbLine
 10
45.59983849303125
 20
76.52113766290426
 30
0.0
 11
45.59983849303125
 21
51.11185767794109
 31
0.0
  0
MTEXT
  5
3C93D
330
2
100
AcDbEntity
  8
0
  6
Continuous
 62
     2
100
AcDbMText
 10
45.60037266217887
 20
48.66304257414435
 30
0.0
 40
3.0
 41
0.0
 46
0.0
 71
     5
 72
     1
  1
.98
 73
     1
 44
1.0
  0
LINE
  5
3C93E
330
2
100
AcDbEntity
  8
0
  6
Continuous
 62
     3
100
AcDbLine
 10
125.5998384930312
 20
63.76035565461143
 30
0.0
 11
125.5998384930312
 21
51.09627482858582
 31
0.0
  0
MTEXT
  5
3C93F
330
2
100
AcDbEntity
  8
0
  6
Continuous
 62
     2
100
AcDbMText
 10
125.5776330945759
 20
48.66333784973562
 30
0.0
 40
3.0
 41
0.0
 46
0.0
 71
     5
 72
     1
  1
2.16
 73
     1
 44
1.0
  0
LWPOLYLINE
  5
3C9CD
330
2
100
AcDbEntity
  8
0
 62
     0
100
AcDbPolyline
 90
        4
 70
     1
 43
0.0
 10
0.5
 20
0.5
 10
0.5
 20
185.9080841645593
 10
266.19025
 20
185.9080841645593
 10
266.19025
 20
0.5
  0
LINE
  5
3C9CE
330
2
100
AcDbEntity
  8
0
  6
Continuous
 62
     7
100
AcDbLine
 10
199.7676874999999
 20
-2.740124999999977
 30
0.0
 11
199.7676874999999
 21
0.5
 31
0.0
  0
LINE
  5
3C9CF
330
2
100
AcDbEntity
  8
0
  6
Continuous
 62
     7
100
AcDbLine
 10
196.5275624999998
 20
0.5
 30
0.0
 11
196.5275624999998
 21
26.57301183564113
 31
0.0
  0
LINE
  5
3C9D0
330
2
100
AcDbEntity
  8
0
  6
Continuous
 62
     7
100
AcDbLine
 10
66.92256250000003
 20
-2.740124999999977
 30
0.0
 11
66.92256250000003
 21
0.5
 31
0.0
  0
LINE
  5
3C9D1
330
2
100
AcDbEntity
  8
0
  6
Continuous
 62
     7
100
AcDbLine
 10
199.7676874999999
 20
189.1482091645592
 30
0.0
 11
199.7676874999999
 21
185.9080841645593
 31
0.0
  0
LINE
  5
3C9D2
330
2
100
AcDbEntity
  8
0
  6
Continuous
 62
     7
100
AcDbLine
 10
66.92256250000003
 20
189.1482091645592
 30
0.0
 11
66.92256250000003
 21
185.9080841645593
 31
0.0
  0
LINE
  5
3C9D3
330
2
100
AcDbEntity
  8
0
  6
Continuous
 62
     7
100
AcDbLine
 10
-2.740124999999977
 20
46.85202104113983
 30
0.0
 11
0.5
 21
46.85202104113983
 31
0.0
  0
LINE
  5
3C9D4
330
2
100
AcDbEntity
  8
0
  6
Continuous
 62
     7
100
AcDbLine
 10
-2.740124999999977
 20
139.5560631234194
 30
0.0
 11
0.5
 21
139.5560631234194
 31
0.0
  0
LINE
  5
3C9D5
330
2
100
AcDbEntity
  8
0
  6
Continuous
 62
     7
100
AcDbLine
 10
269.430375
 20
46.85202104113983
 30
0.0
 11
266.19025
 21
46.85202104113983
 31
0.0
  0
LINE
  5
3C9D6
330
2
100
AcDbEntity
  8
0
  6
Continuous
 62
     7
100
AcDbLine
 10
269.430375
 20
139.5560631234194
 30
0.0
 11
266.19025
 21
139.5560631234194
 31
0.0
  0
LINE
  5
3C9D7
330
2
100
AcDbEntity
  8
0
  6
Continuous
 62
     7
100
AcDbLine
 10
196.5275624999998
 20
17.88200789042742
 30
0.0
 11
266.19025
 21
17.88200789042742
 31
0.0
  0
LINE
  5
3C9D8
330
2
100
AcDbEntity
  8
0
  6
Continuous
 62
     7
100
AcDbLine
 10
196.5275624999998
 20
26.57301183564113
 30
0.0
 11
266.19025
 21
26.57301183564113
 31
0.0
  0
LINE
  5
3C9D9
330
2
100
AcDbEntity
  8
0
  6
Continuous
 62
     7
100
AcDbLine
 10
196.5275624999998
 20
9.191003945213708
 30
0.0
 11
266.19025
 21
9.191003945213708
 31
0.0
  0
LINE
  5
3C9DA
330
2
100
AcDbEntity
  8
0
  6
Continuous
 62
     7
100
AcDbLine
 10
266.19025
 20
93.20404208227961
 30
0.0
 11
269.430375
 21
93.20404208227961
 31
0.0
  0
LINE
  5
3C9DB
330
2
100
AcDbEntity
  8
0
  6
Continuous
 62
     7
100
AcDbLine
 10
267.8103125
 20
92.10239958227958
 30
0.0
 11
267.8103125
 21
94.30568458227964
 31
0.0
  0
LINE
  5
3C9DC
330
2
100
AcDbEntity
  8
0
  6
Continuous
 62
     7
100
AcDbLine
 10
267.8103125
 20
92.10239958227958
 30
0.0
 11
266.19025
 21
93.20404208227961
 31
0.0
  0
LINE
  5
3C9DD
330
2
100
AcDbEntity
  8
0
  6
Continuous
 62
     7
100
AcDbLine
 10
266.19025
 20
93.20404208227961
 30
0.0
 11
267.8103125
 21
94.30568458227964
 31
0.0
  0
LINE
  5
3C9DE
330
2
100
AcDbEntity
  8
0
  6
Continuous
 62
     7
100
AcDbLine
 10
0.5
 20
93.20404208227961
 30
0.0
 11
-2.740124999999977
 21
93.20404208227961
 31
0.0
  0
LINE
  5
3C9DF
330
2
100
AcDbEntity
  8
0
  6
Continuous
 62
     7
100
AcDbLine
 10
-1.120062500000017
 20
92.10239958227958
 30
0.0
 11
-1.120062500000017
 21
94.30568458227964
 31
0.0
  0
LINE
  5
3C9E0
330
2
100
AcDbEntity
  8
0
  6
Continuous
 62
     7
100
AcDbLine
 10
-1.120062500000017
 20
92.10239958227958
 30
0.0
 11
0.5
 21
93.20404208227961
 31
0.0
  0
LINE
  5
3C9E1
330
2
100
AcDbEntity
  8
0
  6
Continuous
 62
     7
100
AcDbLine
 10
0.5
 20
93.20404208227961
 30
0.0
 11
-1.120062500000017
 21
94.30568458227964
 31
0.0
  0
LINE
  5
3C9E2
330
2
100
AcDbEntity
  8
0
  6
Continuous
 62
     7
100
AcDbLine
 10
133.345125
 20
185.9080841645593
 30
0.0
 11
133.345125
 21
189.1482091645592
 31
0.0
  0
LINE
  5
3C9E3
330
2
100
AcDbEntity
  8
0
  6
Continuous
 62
     7
100
AcDbLine
 10
132.2434824999999
 20
187.5281466645593
 30
0.0
 11
134.4467674999999
 21
187.5281466645593
 31
0.0
  0
LINE
  5
3C9E4
330
2
100
AcDbEntity
  8
0
  6
Continuous
 62
     7
100
AcDbLine
 10
132.2434824999999
 20
187.5281466645593
 30
0.0
 11
133.345125
 21
185.9080841645593
 31
0.0
  0
LINE
  5
3C9E5
330
2
100
AcDbEntity
  8
0
  6
Continuous
 62
     7
100
AcDbLine
 10
133.345125
 20
185.9080841645593
 30
0.0
 11
134.4467674999999
 21
187.5281466645593
 31
0.0
  0
LINE
  5
3C9E6
330
2
100
AcDbEntity
  8
0
  6
Continuous
 62
     7
100
AcDbLine
 10
133.345125
 20
0.5
 30
0.0
 11
133.345125
 21
-2.740124999999977
 31
0.0
  0
LINE
  5
3C9E7
330
2
100
AcDbEntity
  8
0
  6
Continuous
 62
     7
100
AcDbLine
 10
132.2434824999999
 20
-1.120062500000017
 30
0.0
 11
134.4467674999999
 21
-1.120062500000017
 31
0.0
  0
LINE
  5
3C9E8
330
2
100
AcDbEntity
  8
0
  6
Continuous
 62
     7
100
AcDbLine
 10
132.2434824999999
 20
-1.120062500000017
 30
0.0
 11
133.345125
 21
0.5
 31
0.0
  0
LINE
  5
3C9E9
330
2
100
AcDbEntity
  8
0
  6
Continuous
 62
     7
100
AcDbLine
 10
133.345125
 20
0.5
 30
0.0
 11
134.4467674999999
 21
-1.120062500000017
 31
0.0
  0
TEXT
  5
3C9EA
330
2
100
AcDbEntity
  8
0
 62
     2
100
AcDbText
 10
33.03277075827145
 20
-2.125273103603035
 30
0.0
 40
1.814469999999999
  1
4
  7
굴림
100
AcDbText
  0
TEXT
  5
3C9EB
330
2
100
AcDbEntity
  8
0
 62
     2
100
AcDbText
 10
99.51691577836767
 20
-2.125273103603035
 30
0.0
 40
1.814469999999999
  1
3
  7
굴림
100
AcDbText
  0
TEXT
  5
3C9EC
330
2
100
AcDbEntity
  8
0
 62
     2
100
AcDbText
 10
165.8535581136316
 20
-2.125273103603035
 30
0.0
 40
1.814469999999999
  1
2
  7
굴림
100
AcDbText
  0
TEXT
  5
3C9ED
330
2
100
AcDbEntity
  8
0
 62
     2
100
AcDbText
 10
232.4787020852428
 20
-2.125273103603035
 30
0.0
 40
1.814469999999999
  1
1
  7
굴림
100
AcDbText
  0
TEXT
  5
3C9EE
330
2
100
AcDbEntity
  8
0
 62
     2
100
AcDbText
 10
33.03277075827145
 20
186.9411548928954
 30
0.0
 40
1.814469999999999
  1
4
  7
굴림
100
AcDbText
  0
TEXT
  5
3C9EF
330
2
100
AcDbEntity
  8
0
 62
     2
100
AcDbText
 10
99.51691577836767
 20
186.9411548928954
 30
0.0
 40
1.814469999999999
  1
3
  7
굴림
100
AcDbText
  0
TEXT
  5
3C9F0
330
2
100
AcDbEntity
  8
0
 62
     2
100
AcDbText
 10
165.8535581136316
 20
186.9411548928954
 30
0.0
 40
1.814469999999999
  1
2
  7
굴림
100
AcDbText
  0
TEXT
  5
3C9F1
330
2
100
AcDbEntity
  8
0
 62
     2
100
AcDbText
 10
232.4787020852428
 20
186.9411548928954
 30
0.0
 40
1.814469999999999
  1
1
  7
굴림
100
AcDbText
  0
TEXT
  5
3C9F2
330
2
100
AcDbEntity
  8
0
 62
     2
100
AcDbText
 10
-2.119437416200298
 20
23.07183887467312
 30
0.0
 40
1.814469999999999
  1
A
  7
굴림
100
AcDbText
  0
TEXT
  5
3C9F3
330
2
100
AcDbEntity
  8
0
 62
     2
100
AcDbText
 10
-2.119437416200298
 20
69.03932239472533
 30
0.0
 40
1.814469999999999
  1
B
  7
굴림
100
AcDbText
  0
TEXT
  5
3C9F4
330
2
100
AcDbEntity
  8
0
 62
     2
100
AcDbText
 10
-2.119437416200298
 20
115.445442045324
 30
0.0
 40
1.814469999999999
  1
C
  7
굴림
100
AcDbText
  0
TEXT
  5
3C9F5
330
2
100
AcDbEntity
  8
0
 62
     2
100
AcDbText
 10
-2.119437416200298
 20
162.1373210017123
 30
0.0
 40
1.814469999999999
  1
D
  7
굴림
100
AcDbText
  0
TEXT
  5
3C9F6
330
2
100
AcDbEntity
  8
0
 62
     2
100
AcDbText
 10
267.1608767462983
 20
23.07183887467312
 30
0.0
 40
1.814469999999999
  1
A
  7
굴림
100
AcDbText
  0
TEXT
  5
3C9F7
330
2
100
AcDbEntity
  8
0
 62
     2
100
AcDbText
 10
267.1608767462983
 20
69.03932239472533
 30
0.0
 40
1.814469999999999
  1
B
  7
굴림
100
AcDbText
  0
TEXT
  5
3C9F8
330
2
100
AcDbEntity
  8
0
 62
     2
100
AcDbText
 10
267.1608767462983
 20
115.445442045324
 30
0.0
 40
1.814469999999999
  1
C
  7
굴림
100
AcDbText
  0
TEXT
  5
3C9F9
330
2
100
AcDbEntity
  8
0
 62
     2
100
AcDbText
 10
267.1608767462983
 20
162.1373210017123
 30
0.0
 40
1.814469999999999
  1
D
  7
굴림
100
AcDbText
  0
HATCH
  5
3C9FA
330
2
100
AcDbEntity
  8
0
  6
Continuous
 62
     0
100
AcDbHatch
 10
0.0
 20
0.0
 30
0.0
210
0.0
220
0.0
230
1.0
  2
SOLID
 70
     1
 71
     1
 91
        1
 92
        5
 93
       13
 72
     4
 94
        3
 73
     0
 74
     0
 95
        8
 96
        4
 40
1.0
 40
1.0
 40
1.0
 40
1.0
 40
2.0
 40
2.0
 40
2.0
 40
2.0
 10
217.2919402101582
 20
22.06683419947592
 10
217.2919402101582
 20
22.06683419947592
 10
216.5511997120237
 20
18.67468977108518
 10
216.5511997120237
 20
18.67468977108518
 97
        0
 72
     4
 94
        3
 73
     0
 74
     0
 95
        8
 96
        4
 40
0.0
 40
0.0
 40
0.0
 40
0.0
 40
1.0
 40
1.0
 40
1.0
 40
1.0
 10
216.5511997120237
 20
18.67468977108518
 10
216.5511997120237
 20
18.67468977108518
 10
218.180501275468
 20
18.67468977108518
 10
218.180501275468
 20
18.67468977108518
 97
        0
 72
     4
 94
        3
 73
     0
 74
     0
 95
        8
 96
        4
 40
12.0
 40
12.0
 40
12.0
 40
12.0
 40
13.0
 40
13.0
 40
13.0
 40
13.0
 10
218.180501275468
 20
18.67468977108518
 10
218.180501275468
 20
18.67468977108518
 10
219.0324878836319
 20
23.90349000964176
 10
219.0324878836319
 20
23.90349000964176
 97
        0
 72
     4
 94
        3
 73
     0
 74
     0
 95
        8
 96
        4
 40
11.0
 40
11.0
 40
11.0
 40
11.0
 40
12.0
 40
12.0
 40
12.0
 40
12.0
 10
219.0324878836319
 20
23.90349000964176
 10
219.0324878836319
 20
23.90349000964176
 10
217.2769139406475
 20
23.90349000964176
 10
217.2769139406475
 20
23.90349000964176
 97
        0
 72
     4
 94
        3
 73
     0
 74
     0
 95
        8
 96
        4
 40
10.0
 40
10.0
 40
10.0
 40
10.0
 40
11.0
 40
11.0
 40
11.0
 40
11.0
 10
217.2769139406475
 20
23.90349000964176
 10
217.2769139406475
 20
23.90349000964176
 10
215.469739271007
 20
21.02999287232188
 10
215.469739271007
 20
21.02999287232188
 97
        0
 72
     4
 94
        3
 73
     0
 74
     0
 95
        8
 96
        4
 40
9.0
 40
9.0
 40
9.0
 40
9.0
 40
10.0
 40
10.0
 40
10.0
 40
10.0
 10
215.469739271007
 20
21.02999287232188
 10
215.469739271007
 20
21.02999287232188
 10
215.1515738280522
 20
23.90349000964176
 10
215.1515738280522
 20
23.90349000964176
 97
        0
 72
     4
 94
        3
 73
     0
 74
     0
 95
        8
 96
        4
 40
8.0
 40
8.0
 40
8.0
 40
8.0
 40
9.0
 40
9.0
 40
9.0
 40
9.0
 10
215.1515738280522
 20
23.90349000964176
 10
215.1515738280522
 20
23.90349000964176
 10
213.4255926858178
 20
23.90349000964176
 10
213.4255926858178
 20
23.90349000964176
 97
        0
 72
     4
 94
        3
 73
     0
 74
     0
 95
        8
 96
        4
 40
7.0
 40
7.0
 40
7.0
 40
7.0
 40
8.0
 40
8.0
 40
8.0
 40
8.0
 10
213.4255926858178
 20
23.90349000964176
 10
213.4255926858178
 20
23.90349000964176
 10
211.5223130512451
 20
18.67468977108518
 10
211.5223130512451
 20
18.67468977108518
 97
        0
 72
     4
 94
        3
 73
     0
 74
     0
 95
        8
 96
        4
 40
6.0
 40
6.0
 40
6.0
 40
6.0
 40
7.0
 40
7.0
 40
7.0
 40
7.0
 10
211.5223130512451
 20
18.67468977108518
 10
211.5223130512451
 20
18.67468977108518
 10
213.1145805030982
 20
18.67468977108518
 10
213.1145805030982
 20
18.67468977108518
 97
        0
 72
     4
 94
        3
 73
     0
 74
     0
 95
        8
 96
        4
 40
5.0
 40
5.0
 40
5.0
 40
5.0
 40
6.0
 40
6.0
 40
6.0
 40
6.0
 10
213.1145805030982
 20
18.67468977108518
 10
213.1145805030982
 20
18.67468977108518
 10
214.188628394701
 20
22.14078757943872
 10
214.188628394701
 20
22.14078757943872
 97
        0
 72
     4
 94
        3
 73
     0
 74
     0
 95
        8
 96
        4
 40
4.0
 40
4.0
 40
4.0
 40
4.0
 40
5.0
 40
5.0
 40
5.0
 40
5.0
 10
214.188628394701
 20
22.14078757943872
 10
214.188628394701
 20
22.14078757943872
 10
214.5811501905731
 20
18.67468977108518
 10
214.5811501905731
 20
18.67468977108518
 97
        0
 72
     4
 94
        3
 73
     0
 74
     0
 95
        8
 96
        4
 40
3.0
 40
3.0
 40
3.0
 40
3.0
 40
4.0
 40
4.0
 40
4.0
 40
4.0
 10
214.5811501905731
 20
18.67468977108518
 10
214.5811501905731
 20
18.67468977108518
 10
215.0996563311084
 20
18.67468977108518
 10
215.0996563311084
 20
18.67468977108518
 97
        0
 72
     4
 94
        3
 73
     0
 74
     0
 95
        8
 96
        4
 40
2.0
 40
2.0
 40
2.0
 40
2.0
 40
3.0
 40
3.0
 40
3.0
 40
3.0
 10
215.0996563311084
 20
18.67468977108518
 10
215.0996563311084
 20
18.67468977108518
 10
217.2919402101582
 20
22.06683419947592
 10
217.2919402101582
 20
22.06683419947592
 97
        0
 97
       13
330
3CA07
330
3CA06
330
3CA05
330
3CA04
330
3CA03
330
3CA02
330
3CA01
330
3CA00
330
3C9FF
330
3C9FE
330
3C9FD
330
3C9FC
330
3C9FB
 75
     1
 76
     1
 47
0.0269459378258844
 98
        1
 10
217.3864434843398
 20
20.45240664472908
450
        0
451
        0
460
0.0
461
0.0
452
        0
462
1.0
453
        2
463
0.0
 63
     5
421
      255
463
1.0
 63
     2
421
 16776960
470
LINEAR
1001
GRADIENTCOLOR1ACI
1070
     5
1001
GRADIENTCOLOR2ACI
1070
     2
1001
ACAD
1010
0.0
1020
0.0
1030
0.0
  0
SPLINE
  5
3C9FB
102
{ACAD_REACTORS
330
3C9FA
102
}
330
2
100
AcDbEntity
  8
Layer 1
100
AcDbSpline
210
0.0
220
0.0
230
1.0
 70
    24
 71
     3
 72
     8
 73
     4
 74
     0
 42
0.000000001
 43
0.0000000001
 40
0.0
 40
0.0
 40
0.0
 40
0.0
 40
1.0
 40
1.0
 40
1.0
 40
1.0
 10
218.180501275468
 20
18.67468977108518
 30
0.0
 10
218.180501275468
 20
18.67468977108518
 30
0.0
 10
216.5511997120237
 20
18.67468977108518
 30
0.0
 10
216.5511997120237
 20
18.67468977108518
 30
0.0
  0
SPLINE
  5
3C9FC
102
{ACAD_REACTORS
330
3C9FA
102
}
330
2
100
AcDbEntity
  8
Layer 1
100
AcDbSpline
210
0.0
220
0.0
230
1.0
 70
    24
 71
     3
 72
     8
 73
     4
 74
     0
 42
0.000000001
 43
0.0000000001
 40
1.0
 40
1.0
 40
1.0
 40
1.0
 40
2.0
 40
2.0
 40
2.0
 40
2.0
 10
216.5511997120237
 20
18.67468977108518
 30
0.0
 10
216.5511997120237
 20
18.67468977108518
 30
0.0
 10
217.2919402101582
 20
22.06683419947592
 30
0.0
 10
217.2919402101582
 20
22.06683419947592
 30
0.0
  0
SPLINE
  5
3C9FD
102
{ACAD_REACTORS
330
3C9FA
102
}
330
2
100
AcDbEntity
  8
Layer 1
100
AcDbSpline
210
0.0
220
0.0
230
1.0
 70
    24
 71
     3
 72
     8
 73
     4
 74
     0
 42
0.000000001
 43
0.0000000001
 40
2.0
 40
2.0
 40
2.0
 40
2.0
 40
3.0
 40
3.0
 40
3.0
 40
3.0
 10
217.2919402101582
 20
22.06683419947592
 30
0.0
 10
217.2919402101582
 20
22.06683419947592
 30
0.0
 10
215.0996563311084
 20
18.67468977108518
 30
0.0
 10
215.0996563311084
 20
18.67468977108518
 30
0.0
  0
SPLINE
  5
3C9FE
102
{ACAD_REACTORS
330
3C9FA
102
}
330
2
100
AcDbEntity
  8
Layer 1
100
AcDbSpline
210
0.0
220
0.0
230
1.0
 70
    24
 71
     3
 72
     8
 73
     4
 74
     0
 42
0.000000001
 43
0.0000000001
 40
3.0
 40
3.0
 40
3.0
 40
3.0
 40
4.0
 40
4.0
 40
4.0
 40
4.0
 10
215.0996563311084
 20
18.67468977108518
 30
0.0
 10
215.0996563311084
 20
18.67468977108518
 30
0.0
 10
214.5811501905731
 20
18.67468977108518
 30
0.0
 10
214.5811501905731
 20
18.67468977108518
 30
0.0
  0
SPLINE
  5
3C9FF
102
{ACAD_REACTORS
330
3C9FA
102
}
330
2
100
AcDbEntity
  8
Layer 1
100
AcDbSpline
210
0.0
220
0.0
230
1.0
 70
    24
 71
     3
 72
     8
 73
     4
 74
     0
 42
0.000000001
 43
0.0000000001
 40
4.0
 40
4.0
 40
4.0
 40
4.0
 40
5.0
 40
5.0
 40
5.0
 40
5.0
 10
214.5811501905731
 20
18.67468977108518
 30
0.0
 10
214.5811501905731
 20
18.67468977108518
 30
0.0
 10
214.188628394701
 20
22.14078757943872
 30
0.0
 10
214.188628394701
 20
22.14078757943872
 30
0.0
  0
SPLINE
  5
3CA00
102
{ACAD_REACTORS
330
3C9FA
102
}
330
2
100
AcDbEntity
  8
Layer 1
100
AcDbSpline
210
0.0
220
0.0
230
1.0
 70
    24
 71
     3
 72
     8
 73
     4
 74
     0
 42
0.000000001
 43
0.0000000001
 40
5.0
 40
5.0
 40
5.0
 40
5.0
 40
6.0
 40
6.0
 40
6.0
 40
6.0
 10
214.188628394701
 20
22.14078757943872
 30
0.0
 10
214.188628394701
 20
22.14078757943872
 30
0.0
 10
213.1145805030982
 20
18.67468977108518
 30
0.0
 10
213.1145805030982
 20
18.67468977108518
 30
0.0
  0
SPLINE
  5
3CA01
102
{ACAD_REACTORS
330
3C9FA
102
}
330
2
100
AcDbEntity
  8
Layer 1
100
AcDbSpline
210
0.0
220
0.0
230
1.0
 70
    24
 71
     3
 72
     8
 73
     4
 74
     0
 42
0.000000001
 43
0.0000000001
 40
6.0
 40
6.0
 40
6.0
 40
6.0
 40
7.0
 40
7.0
 40
7.0
 40
7.0
 10
213.1145805030982
 20
18.67468977108518
 30
0.0
 10
213.1145805030982
 20
18.67468977108518
 30
0.0
 10
211.5223130512451
 20
18.67468977108518
 30
0.0
 10
211.5223130512451
 20
18.67468977108518
 30
0.0
  0
SPLINE
  5
3CA02
102
{ACAD_REACTORS
330
3C9FA
102
}
330
2
100
AcDbEntity
  8
Layer 1
100
AcDbSpline
210
0.0
220
0.0
230
1.0
 70
    24
 71
     3
 72
     8
 73
     4
 74
     0
 42
0.000000001
 43
0.0000000001
 40
7.0
 40
7.0
 40
7.0
 40
7.0
 40
8.0
 40
8.0
 40
8.0
 40
8.0
 10
211.5223130512451
 20
18.67468977108518
 30
0.0
 10
211.5223130512451
 20
18.67468977108518
 30
0.0
 10
213.4255926858178
 20
23.90349000964176
 30
0.0
 10
213.4255926858178
 20
23.90349000964176
 30
0.0
  0
SPLINE
  5
3CA03
102
{ACAD_REACTORS
330
3C9FA
102
}
330
2
100
AcDbEntity
  8
Layer 1
100
AcDbSpline
210
0.0
220
0.0
230
1.0
 70
    24
 71
     3
 72
     8
 73
     4
 74
     0
 42
0.000000001
 43
0.0000000001
 40
8.0
 40
8.0
 40
8.0
 40
8.0
 40
9.0
 40
9.0
 40
9.0
 40
9.0
 10
213.4255926858178
 20
23.90349000964176
 30
0.0
 10
213.4255926858178
 20
23.90349000964176
 30
0.0
 10
215.1515738280522
 20
23.90349000964176
 30
0.0
 10
215.1515738280522
 20
23.90349000964176
 30
0.0
  0
SPLINE
  5
3CA04
102
{ACAD_REACTORS
330
3C9FA
102
}
330
2
100
AcDbEntity
  8
Layer 1
100
AcDbSpline
210
0.0
220
0.0
230
1.0
 70
    24
 71
     3
 72
     8
 73
     4
 74
     0
 42
0.000000001
 43
0.0000000001
 40
9.0
 40
9.0
 40
9.0
 40
9.0
 40
10.0
 40
10.0
 40
10.0
 40
10.0
 10
215.1515738280522
 20
23.90349000964176
 30
0.0
 10
215.1515738280522
 20
23.90349000964176
 30
0.0
 10
215.469739271007
 20
21.02999287232188
 30
0.0
 10
215.469739271007
 20
21.02999287232188
 30
0.0
  0
SPLINE
  5
3CA05
102
{ACAD_REACTORS
330
3C9FA
102
}
330
2
100
AcDbEntity
  8
Layer 1
100
AcDbSpline
210
0.0
220
0.0
230
1.0
 70
    24
 71
     3
 72
     8
 73
     4
 74
     0
 42
0.000000001
 43
0.0000000001
 40
10.0
 40
10.0
 40
10.0
 40
10.0
 40
11.0
 40
11.0
 40
11.0
 40
11.0
 10
215.469739271007
 20
21.02999287232188
 30
0.0
 10
215.469739271007
 20
21.02999287232188
 30
0.0
 10
217.2769139406475
 20
23.90349000964176
 30
0.0
 10
217.2769139406475
 20
23.90349000964176
 30
0.0
  0
SPLINE
  5
3CA06
102
{ACAD_REACTORS
330
3C9FA
102
}
330
2
100
AcDbEntity
  8
Layer 1
100
AcDbSpline
210
0.0
220
0.0
230
1.0
 70
    24
 71
     3
 72
     8
 73
     4
 74
     0
 42
0.000000001
 43
0.0000000001
 40
11.0
 40
11.0
 40
11.0
 40
11.0
 40
12.0
 40
12.0
 40
12.0
 40
12.0
 10
217.2769139406475
 20
23.90349000964176
 30
0.0
 10
217.2769139406475
 20
23.90349000964176
 30
0.0
 10
219.0324878836319
 20
23.90349000964176
 30
0.0
 10
219.0324878836319
 20
23.90349000964176
 30
0.0
  0
SPLINE
  5
3CA07
102
{ACAD_REACTORS
330
3C9FA
102
}
330
2
100
AcDbEntity
  8
Layer 1
100
AcDbSpline
210
0.0
220
0.0
230
1.0
 70
    24
 71
     3
 72
     8
 73
     4
 74
     0
 42
0.000000001
 43
0.0000000001
 40
12.0
 40
12.0
 40
12.0
 40
12.0
 40
13.0
 40
13.0
 40
13.0
 40
13.0
 10
219.0324878836319
 20
23.90349000964176
 30
0.0
 10
219.0324878836319
 20
23.90349000964176
 30
0.0
 10
218.180501275468
 20
18.67468977108518
 30
0.0
 10
218.180501275468
 20
18.67468977108518
 30
0.0
  0
HATCH
  5
3CA08
330
2
100
AcDbEntity
  8
0
  6
Continuous
 62
     0
100
AcDbHatch
 10
0.0
 20
0.0
 30
0.0
210
0.0
220
0.0
230
1.0
  2
SOLID
 70
     1
 71
     0
 91
        1
 92
        5
 93
        1
 72
     4
 94
        3
 73
     0
 74
     0
 95
       41
 96
       37
 40
0.0
 40
0.0
 40
0.0
 40
0.0
 40
1.0
 40
1.0
 40
1.0
 40
2.0
 40
2.0
 40
2.0
 40
3.0
 40
3.0
 40
3.0
 40
4.0
 40
4.0
 40
4.0
 40
5.0
 40
5.0
 40
5.0
 40
6.0
 40
6.0
 40
6.0
 40
7.0
 40
7.0
 40
7.0
 40
8.0
 40
8.0
 40
8.0
 40
9.0
 40
9.0
 40
9.0
 40
10.0
 40
10.0
 40
10.0
 40
11.0
 40
11.0
 40
11.0
 40
12.0
 40
12.0
 40
12.0
 40
12.0
 10
220.0391904790142
 20
18.67468977108518
 10
220.0391904790142
 20
18.67468977108518
 10
218.3432331884863
 20
18.67468977108518
 10
218.3432331884863
 20
18.67468977108518
 10
218.3432331884863
 20
18.67468977108518
 10
221.7352635897299
 20
23.91078444267998
 10
221.7352635897299
 20
23.91078444267998
 10
221.7352635897299
 20
23.91078444267998
 10
223.4832526148247
 20
23.91078444267998
 10
223.4832526148247
 20
23.91078444267998
 10
223.4832526148247
 20
23.91078444267998
 10
223.8759171146865
 20
18.67468977108518
 10
223.8759171146865
 20
18.67468977108518
 10
223.8759171146865
 20
18.67468977108518
 10
222.2982450088152
 20
18.67468977108518
 10
222.2982450088152
 20
18.67468977108518
 10
222.2982450088152
 20
18.67468977108518
 10
222.2463282420739
 20
19.51909141720182
 10
222.2463282420739
 20
19.51909141720182
 10
222.2463282420739
 20
19.51909141720182
 10
221.1026940970015
 20
19.51909141720182
 10
221.1026940970015
 20
19.51909141720182
 10
221.1026940970015
 20
19.51909141720182
 10
221.6704457448039
 20
20.60756220192883
 10
221.6704457448039
 20
20.60756220192883
 10
221.6704457448039
 20
20.60756220192883
 10
222.1945551299167
 20
20.60756220192883
 10
222.1945551299167
 20
20.60756220192883
 10
222.1945551299167
 20
20.60756220192883
 10
222.1277844791654
 20
22.14078757943872
 10
222.1277844791654
 20
22.14078757943872
 10
222.1277844791654
 20
22.14078757943872
 10
220.0476094915368
 20
18.6864694469923
 10
220.0476094915368
 20
18.6864694469923
 10
220.0476094915368
 20
18.6864694469923
 10
220.0391904790142
 20
18.67468977108518
 10
220.0391904790142
 20
18.67468977108518
 97
        0
 97
        0
 75
     1
 76
     1
 47
0.0269459378258844
 98
        1
 10
223.2263372927054
 20
20.83641396663472
450
        0
451
        0
460
0.0
461
0.0
452
        0
462
1.0
453
        2
463
0.0
 63
     5
421
      255
463
1.0
 63
     2
421
 16776960
470
LINEAR
1001
GRADIENTCOLOR1ACI
1070
     5
1001
GRADIENTCOLOR2ACI
1070
     2
1001
ACAD
1010
0.0
1020
0.0
1030
0.0
  0
SPLINE
  5
3CA09
330
2
100
AcDbEntity
  8
Layer 1
100
AcDbSpline
210
0.0
220
0.0
230
1.0
 70
    11
 71
     3
 72
    41
 73
    37
 74
     0
 42
0.000000001
 43
0.0000000001
 40
0.0
 40
0.0
 40
0.0
 40
0.0
 40
1.0
 40
1.0
 40
1.0
 40
2.0
 40
2.0
 40
2.0
 40
3.0
 40
3.0
 40
3.0
 40
4.0
 40
4.0
 40
4.0
 40
5.0
 40
5.0
 40
5.0
 40
6.0
 40
6.0
 40
6.0
 40
7.0
 40
7.0
 40
7.0
 40
8.0
 40
8.0
 40
8.0
 40
9.0
 40
9.0
 40
9.0
 40
10.0
 40
10.0
 40
10.0
 40
11.0
 40
11.0
 40
11.0
 40
12.0
 40
12.0
 40
12.0
 40
12.0
 10
220.0391904790142
 20
18.67468977108518
 30
0.0
 10
220.0391904790142
 20
18.67468977108518
 30
0.0
 10
218.3432331884863
 20
18.67468977108518
 30
0.0
 10
218.3432331884863
 20
18.67468977108518
 30
0.0
 10
218.3432331884863
 20
18.67468977108518
 30
0.0
 10
221.7352635897298
 20
23.91078444267998
 30
0.0
 10
221.7352635897298
 20
23.91078444267998
 30
0.0
 10
221.7352635897298
 20
23.91078444267998
 30
0.0
 10
223.4832526148247
 20
23.91078444267998
 30
0.0
 10
223.4832526148247
 20
23.91078444267998
 30
0.0
 10
223.4832526148247
 20
23.91078444267998
 30
0.0
 10
223.8759171146865
 20
18.67468977108518
 30
0.0
 10
223.8759171146865
 20
18.67468977108518
 30
0.0
 10
223.8759171146865
 20
18.67468977108518
 30
0.0
 10
222.2982450088152
 20
18.67468977108518
 30
0.0
 10
222.2982450088152
 20
18.67468977108518
 30
0.0
 10
222.2982450088152
 20
18.67468977108518
 30
0.0
 10
222.2463282420739
 20
19.51909141720182
 30
0.0
 10
222.2463282420739
 20
19.51909141720182
 30
0.0
 10
222.2463282420739
 20
19.51909141720182
 30
0.0
 10
221.1026940970015
 20
19.51909141720182
 30
0.0
 10
221.1026940970015
 20
19.51909141720182
 30
0.0
 10
221.1026940970015
 20
19.51909141720182
 30
0.0
 10
221.6704457448039
 20
20.60756220192883
 30
0.0
 10
221.6704457448039
 20
20.60756220192883
 30
0.0
 10
221.6704457448039
 20
20.60756220192883
 30
0.0
 10
222.1945551299167
 20
20.60756220192883
 30
0.0
 10
222.1945551299167
 20
20.60756220192883
 30
0.0
 10
222.1945551299167
 20
20.60756220192883
 30
0.0
 10
222.1277844791654
 20
22.14078757943872
 30
0.0
 10
222.1277844791654
 20
22.14078757943872
 30
0.0
 10
222.1277844791654
 20
22.14078757943872
 30
0.0
 10
220.0476094915368
 20
18.68646944699225
 30
0.0
 10
220.0476094915368
 20
18.68646944699225
 30
0.0
 10
220.0476094915368
 20
18.68646944699225
 30
0.0
 10
220.0391904790142
 20
18.67468977108518
 30
0.0
 10
220.0391904790142
 20
18.67468977108518
 30
0.0
  0
HATCH
  5
3CA0A
330
2
100
AcDbEntity
  8
0
  6
Continuous
 62
     0
100
AcDbHatch
 10
0.0
 20
0.0
 30
0.0
210
0.0
220
0.0
230
1.0
  2
SOLID
 70
     1
 71
     1
 91
        1
 92
        5
 93
        1
 72
     4
 94
        3
 73
     0
 74
     0
 95
       17
 96
       13
 40
0.0
 40
0.0
 40
0.0
 40
0.0
 40
1.0
 40
1.0
 40
1.0
 40
2.0
 40
2.0
 40
2.0
 40
3.0
 40
3.0
 40
3.0
 40
4.0
 40
4.0
 40
4.0
 40
4.0
 10
231.0966584622914
 20
18.67468977108518
 10
231.0966584622914
 20
18.67468977108518
 10
229.4820947261802
 20
18.67468977108518
 10
229.4820947261802
 20
18.67468977108518
 10
229.4820947261802
 20
18.67468977108518
 10
230.8820086495226
 20
23.90349000964176
 10
230.8820086495226
 20
23.90349000964176
 10
230.8820086495226
 20
23.90349000964176
 10
232.4964563289571
 20
23.90349000964176
 10
232.4964563289571
 20
23.90349000964176
 10
232.4964563289571
 20
23.90349000964176
 10
231.0966584622914
 20
18.67468977108518
 10
231.0966584622914
 20
18.67468977108518
 97
        0
 97
        1
330
3CA0B
 75
     1
 76
     1
 47
0.0269459378258844
 98
        1
 10
230.4253623566432
 20
20.10302470765629
450
        0
451
        0
460
0.0
461
0.0
452
        0
462
1.0
453
        2
463
0.0
 63
     5
421
      255
463
1.0
 63
     2
421
 16776960
470
LINEAR
1001
GRADIENTCOLOR1ACI
1070
     5
1001
GRADIENTCOLOR2ACI
1070
     2
1001
ACAD
1010
0.0
1020
0.0
1030
0.0
  0
SPLINE
  5
3CA0B
102
{ACAD_REACTORS
330
3CA0A
102
}
330
2
100
AcDbEntity
  8
Layer 1
100
AcDbSpline
210
0.0
220
0.0
230
1.0
 70
    11
 71
     3
 72
    17
 73
    13
 74
     0
 42
0.000000001
 43
0.0000000001
 40
0.0
 40
0.0
 40
0.0
 40
0.0
 40
1.0
 40
1.0
 40
1.0
 40
2.0
 40
2.0
 40
2.0
 40
3.0
 40
3.0
 40
3.0
 40
4.0
 40
4.0
 40
4.0
 40
4.0
 10
231.0966584622914
 20
18.67468977108518
 30
0.0
 10
231.0966584622914
 20
18.67468977108518
 30
0.0
 10
229.4820947261802
 20
18.67468977108518
 30
0.0
 10
229.4820947261802
 20
18.67468977108518
 30
0.0
 10
229.4820947261802
 20
18.67468977108518
 30
0.0
 10
230.8820086495226
 20
23.90349000964176
 30
0.0
 10
230.8820086495226
 20
23.90349000964176
 30
0.0
 10
230.8820086495226
 20
23.90349000964176
 30
0.0
 10
232.4964563289571
 20
23.90349000964176
 30
0.0
 10
232.4964563289571
 20
23.90349000964176
 30
0.0
 10
232.4964563289571
 20
23.90349000964176
 30
0.0
 10
231.0966584622914
 20
18.67468977108518
 30
0.0
 10
231.0966584622914
 20
18.67468977108518
 30
0.0
  0
HATCH
  5
3CA0C
330
2
100
AcDbEntity
  8
0
  6
Continuous
 62
     0
100
AcDbHatch
 10
0.0
 20
0.0
 30
0.0
210
0.0
220
0.0
230
1.0
  2
SOLID
 70
     1
 71
     1
 91
        1
 92
        5
 93
       14
 72
     4
 94
        3
 73
     0
 74
     0
 95
        8
 96
        4
 40
12.0
 40
12.0
 40
12.0
 40
12.0
 40
13.0
 40
13.0
 40
13.0
 40
13.0
 10
228.2575255883517
 20
20.82741117763772
 10
228.4905333239761
 20
20.8982616185811
 10
228.7217310118395
 20
21.00235373031569
 10
228.9262664088692
 20
21.15862118704342
 97
        0
 72
     4
 94
        3
 73
     0
 74
     0
 95
        8
 96
        4
 40
13.0
 40
13.0
 40
13.0
 40
13.0
 40
14.0
 40
14.0
 40
14.0
 40
14.0
 10
228.9262664088692
 20
21.15862118704342
 10
229.3781462690298
 20
21.50681116830532
 10
229.6152337948465
 20
22.0031664877443
 10
229.6152337948465
 20
22.49176445963468
 97
        0
 72
     4
 94
        3
 73
     0
 74
     0
 95
        8
 96
        4
 40
0.0
 40
0.0
 40
0.0
 40
0.0
 40
1.0
 40
1.0
 40
1.0
 40
1.0
 10
229.6152337948465
 20
22.49176445963468
 10
229.6152337948465
 20
23.54337347804778
 10
228.6894661922208
 20
23.9137437271151
 10
227.8822434043097
 20
23.9137437271151
 97
        0
 72
     4
 94
        3
 73
     0
 74
     0
 95
        8
 96
        4
 40
1.0
 40
1.0
 40
1.0
 40
1.0
 40
2.0
 40
2.0
 40
2.0
 40
2.0
 10
227.8822434043097
 20
23.9137437271151
 10
227.8822434043097
 20
23.9137437271151
 10
225.5714157039745
 20
23.9137437271151
 10
225.5714157039745
 20
23.9137437271151
 97
        0
 72
     4
 94
        3
 73
     0
 74
     0
 95
        8
 96
        4
 40
2.0
 40
2.0
 40
2.0
 40
2.0
 40
3.0
 40
3.0
 40
3.0
 40
3.0
 10
225.5714157039745
 20
23.9137437271151
 10
225.5714157039745
 20
23.9137437271151
 10
224.1642031343237
 20
18.68480614182073
 10
224.1642031343237
 20
18.68480614182073
 97
        0
 72
     4
 94
        3
 73
     0
 74
     0
 95
        8
 96
        4
 40
3.0
 40
3.0
 40
3.0
 40
3.0
 40
4.0
 40
4.0
 40
4.0
 40
4.0
 10
224.1642031343237
 20
18.68480614182073
 10
224.1642031343237
 20
18.68480614182073
 10
225.8235285058725
 20
18.68480614182073
 10
225.8235285058725
 20
18.68480614182073
 97
        0
 72
     4
 94
        3
 73
     0
 74
     0
 95
        8
 96
        4
 40
4.0
 40
4.0
 40
4.0
 40
4.0
 40
5.0
 40
5.0
 40
5.0
 40
5.0
 10
225.8235285058725
 20
18.68480614182073
 10
225.8235285058725
 20
18.68480614182073
 10
226.9118843669322
 20
22.74344729120946
 10
226.9118843669322
 20
22.74344729120946
 97
        0
 72
     4
 94
        3
 73
     0
 74
     0
 95
        8
 96
        4
 40
5.0
 40
5.0
 40
5.0
 40
5.0
 40
6.0
 40
6.0
 40
6.0
 40
6.0
 10
226.9118843669322
 20
22.74344729120946
 10
226.9118843669322
 20
22.74344729120946
 10
227.4007696479909
 20
22.74344729120946
 10
227.4007696479909
 20
22.74344729120946
 97
        0
 72
     4
 94
        3
 73
     0
 74
     0
 95
        8
 96
        4
 40
6.0
 40
6.0
 40
6.0
 40
6.0
 40
7.0
 40
7.0
 40
7.0
 40
7.0
 10
227.9859322314023
 20
22.32147631548588
 10
227.9859322314023
 20
22.67682029504255
 10
227.6894866313809
 20
22.74344729120946
 10
227.4007696479909
 20
22.74344729120946
 97
        0
 72
     4
 94
        3
 73
     0
 74
     0
 95
        8
 96
        4
 40
7.0
 40
7.0
 40
7.0
 40
7.0
 40
8.0
 40
8.0
 40
8.0
 40
8.0
 10
227.9859322314023
 20
22.32147631548588
 10
227.9859322314023
 20
22.12900790353166
 10
227.8379105478094
 20
21.81770841950055
 10
227.3490252667508
 20
21.83270595809432
 97
        0
 72
     4
 94
        3
 73
     0
 74
     0
 95
        8
 96
        4
 40
8.0
 40
8.0
 40
8.0
 40
8.0
 40
9.0
 40
9.0
 40
9.0
 40
9.0
 10
227.3490252667508
 20
21.83270595809432
 10
227.3490252667508
 20
21.83270595809432
 10
227.0358870040415
 20
20.68642856867234
 10
227.0358870040415
 20
20.68642856867234
 97
        0
 72
     4
 94
        3
 73
     0
 74
     0
 95
        8
 96
        4
 40
9.0
 40
9.0
 40
9.0
 40
9.0
 40
10.0
 40
10.0
 40
10.0
 40
10.0
 10
227.0358870040415
 20
20.68642856867234
 10
227.0358870040415
 20
20.68642856867234
 10
227.6339497691166
 20
18.6042702938945
 10
227.6339497691166
 20
18.6042702938945
 97
        0
 72
     4
 94
        3
 73
     0
 74
     0
 95
        8
 96
        4
 40
10.0
 40
10.0
 40
10.0
 40
10.0
 40
11.0
 40
11.0
 40
11.0
 40
11.0
 10
227.6339497691166
 20
18.6042702938945
 10
227.6339497691166
 20
18.6042702938945
 10
229.0021745712758
 20
18.6042702938945
 10
229.0021745712758
 20
18.6042702938945
 97
        0
 72
     4
 94
        3
 73
     0
 74
     0
 95
        8
 96
        4
 40
11.0
 40
11.0
 40
11.0
 40
11.0
 40
12.0
 40
12.0
 40
12.0
 40
12.0
 10
229.0021745712758
 20
18.6042702938945
 10
229.0021745712758
 20
18.6042702938945
 10
228.2575255883517
 20
20.82741117763772
 10
228.2575255883517
 20
20.82741117763772
 97
        0
 97
       13
330
3CA17
330
3CA18
330
3CA19
330
3CA0D
330
3CA0E
330
3CA0F
330
3CA10
330
3CA11
330
3CA12
330
3CA13
330
3CA14
330
3CA15
330
3CA16
 75
     1
 76
     1
 47
0.0269459378258844
 98
        1
 10
227.8917258167204
 20
20.55702736606975
450
        0
451
        0
460
0.0
461
0.0
452
        0
462
1.0
453
        2
463
0.0
 63
     5
421
      255
463
1.0
 63
     2
421
 16776960
470
LINEAR
1001
GRADIENTCOLOR1ACI
1070
     5
1001
GRADIENTCOLOR2ACI
1070
     2
1001
ACAD
1010
0.0
1020
0.0
1030
0.0
  0
SPLINE
  5
3CA0D
102
{ACAD_REACTORS
330
3CA0C
102
}
330
2
100
AcDbEntity
  8
Layer 1
100
AcDbSpline
210
0.0
220
0.0
230
1.0
 70
     8
 71
     3
 72
     8
 73
     4
 74
     0
 42
0.000000001
 43
0.0000000001
 40
0.0
 40
0.0
 40
0.0
 40
0.0
 40
1.0
 40
1.0
 40
1.0
 40
1.0
 10
229.6152337948465
 20
22.49176445963468
 30
0.0
 10
229.6152337948465
 20
23.54337347804778
 30
0.0
 10
228.6894661922208
 20
23.9137437271151
 30
0.0
 10
227.8822434043097
 20
23.9137437271151
 30
0.0
  0
SPLINE
  5
3CA0E
102
{ACAD_REACTORS
330
3CA0C
102
}
330
2
100
AcDbEntity
  8
Layer 1
100
AcDbSpline
210
0.0
220
0.0
230
1.0
 70
    24
 71
     3
 72
     8
 73
     4
 74
     0
 42
0.000000001
 43
0.0000000001
 40
1.0
 40
1.0
 40
1.0
 40
1.0
 40
2.0
 40
2.0
 40
2.0
 40
2.0
 10
227.8822434043097
 20
23.9137437271151
 30
0.0
 10
227.8822434043097
 20
23.9137437271151
 30
0.0
 10
225.5714157039745
 20
23.9137437271151
 30
0.0
 10
225.5714157039745
 20
23.9137437271151
 30
0.0
  0
SPLINE
  5
3CA0F
102
{ACAD_REACTORS
330
3CA0C
102
}
330
2
100
AcDbEntity
  8
Layer 1
100
AcDbSpline
210
0.0
220
0.0
230
1.0
 70
    24
 71
     3
 72
     8
 73
     4
 74
     0
 42
0.000000001
 43
0.0000000001
 40
2.0
 40
2.0
 40
2.0
 40
2.0
 40
3.0
 40
3.0
 40
3.0
 40
3.0
 10
225.5714157039745
 20
23.9137437271151
 30
0.0
 10
225.5714157039745
 20
23.9137437271151
 30
0.0
 10
224.1642031343237
 20
18.68480614182073
 30
0.0
 10
224.1642031343237
 20
18.68480614182073
 30
0.0
  0
SPLINE
  5
3CA10
102
{ACAD_REACTORS
330
3CA0C
102
}
330
2
100
AcDbEntity
  8
Layer 1
100
AcDbSpline
210
0.0
220
0.0
230
1.0
 70
    24
 71
     3
 72
     8
 73
     4
 74
     0
 42
0.000000001
 43
0.0000000001
 40
3.0
 40
3.0
 40
3.0
 40
3.0
 40
4.0
 40
4.0
 40
4.0
 40
4.0
 10
224.1642031343237
 20
18.68480614182073
 30
0.0
 10
224.1642031343237
 20
18.68480614182073
 30
0.0
 10
225.8235285058725
 20
18.68480614182073
 30
0.0
 10
225.8235285058725
 20
18.68480614182073
 30
0.0
  0
SPLINE
  5
3CA11
102
{ACAD_REACTORS
330
3CA0C
102
}
330
2
100
AcDbEntity
  8
Layer 1
100
AcDbSpline
210
0.0
220
0.0
230
1.0
 70
    24
 71
     3
 72
     8
 73
     4
 74
     0
 42
0.000000001
 43
0.0000000001
 40
4.0
 40
4.0
 40
4.0
 40
4.0
 40
5.0
 40
5.0
 40
5.0
 40
5.0
 10
225.8235285058725
 20
18.68480614182073
 30
0.0
 10
225.8235285058725
 20
18.68480614182073
 30
0.0
 10
226.9118843669322
 20
22.74344729120946
 30
0.0
 10
226.9118843669322
 20
22.74344729120946
 30
0.0
  0
SPLINE
  5
3CA12
102
{ACAD_REACTORS
330
3CA0C
102
}
330
2
100
AcDbEntity
  8
Layer 1
100
AcDbSpline
210
0.0
220
0.0
230
1.0
 70
    24
 71
     3
 72
     8
 73
     4
 74
     0
 42
0.000000001
 43
0.0000000001
 40
5.0
 40
5.0
 40
5.0
 40
5.0
 40
6.0
 40
6.0
 40
6.0
 40
6.0
 10
226.9118843669322
 20
22.74344729120946
 30
0.0
 10
226.9118843669322
 20
22.74344729120946
 30
0.0
 10
227.4007696479909
 20
22.74344729120946
 30
0.0
 10
227.4007696479909
 20
22.74344729120946
 30
0.0
  0
SPLINE
  5
3CA13
102
{ACAD_REACTORS
330
3CA0C
102
}
330
2
100
AcDbEntity
  8
Layer 1
100
AcDbSpline
210
0.0
220
0.0
230
1.0
 70
     8
 71
     3
 72
    11
 73
     7
 74
     0
 42
0.000000001
 43
0.0000000001
 40
6.0
 40
6.0
 40
6.0
 40
6.0
 40
7.0
 40
7.0
 40
7.0
 40
8.0
 40
8.0
 40
8.0
 40
8.0
 10
227.4007696479909
 20
22.74344729120946
 30
0.0
 10
227.6894866313809
 20
22.74344729120946
 30
0.0
 10
227.9859322314023
 20
22.67682029504255
 30
0.0
 10
227.9859322314023
 20
22.32147631548588
 30
0.0
 10
227.9859322314023
 20
22.12900790353166
 30
0.0
 10
227.8379105478094
 20
21.81770841950055
 30
0.0
 10
227.3490252667508
 20
21.83270595809432
 30
0.0
  0
SPLINE
  5
3CA14
102
{ACAD_REACTORS
330
3CA0C
102
}
330
2
100
AcDbEntity
  8
Layer 1
100
AcDbSpline
210
0.0
220
0.0
230
1.0
 70
    24
 71
     3
 72
     8
 73
     4
 74
     0
 42
0.000000001
 43
0.0000000001
 40
8.0
 40
8.0
 40
8.0
 40
8.0
 40
9.0
 40
9.0
 40
9.0
 40
9.0
 10
227.3490252667508
 20
21.83270595809432
 30
0.0
 10
227.3490252667508
 20
21.83270595809432
 30
0.0
 10
227.0358870040415
 20
20.68642856867234
 30
0.0
 10
227.0358870040415
 20
20.68642856867234
 30
0.0
  0
SPLINE
  5
3CA15
102
{ACAD_REACTORS
330
3CA0C
102
}
330
2
100
AcDbEntity
  8
Layer 1
100
AcDbSpline
210
0.0
220
0.0
230
1.0
 70
    24
 71
     3
 72
     8
 73
     4
 74
     0
 42
0.000000001
 43
0.0000000001
 40
9.0
 40
9.0
 40
9.0
 40
9.0
 40
10.0
 40
10.0
 40
10.0
 40
10.0
 10
227.0358870040415
 20
20.68642856867234
 30
0.0
 10
227.0358870040415
 20
20.68642856867234
 30
0.0
 10
227.6339497691166
 20
18.6042702938945
 30
0.0
 10
227.6339497691166
 20
18.6042702938945
 30
0.0
  0
SPLINE
  5
3CA16
102
{ACAD_REACTORS
330
3CA0C
102
}
330
2
100
AcDbEntity
  8
Layer 1
100
AcDbSpline
210
0.0
220
0.0
230
1.0
 70
    24
 71
     3
 72
     8
 73
     4
 74
     0
 42
0.000000001
 43
0.0000000001
 40
10.0
 40
10.0
 40
10.0
 40
10.0
 40
11.0
 40
11.0
 40
11.0
 40
11.0
 10
227.6339497691166
 20
18.6042702938945
 30
0.0
 10
227.6339497691166
 20
18.6042702938945
 30
0.0
 10
229.0021745712758
 20
18.6042702938945
 30
0.0
 10
229.0021745712758
 20
18.6042702938945
 30
0.0
  0
SPLINE
  5
3CA17
102
{ACAD_REACTORS
330
3CA0C
102
}
330
2
100
AcDbEntity
  8
Layer 1
100
AcDbSpline
210
0.0
220
0.0
230
1.0
 70
    24
 71
     3
 72
     8
 73
     4
 74
     0
 42
0.000000001
 43
0.0000000001
 40
11.0
 40
11.0
 40
11.0
 40
11.0
 40
12.0
 40
12.0
 40
12.0
 40
12.0
 10
229.0021745712758
 20
18.6042702938945
 30
0.0
 10
229.0021745712758
 20
18.6042702938945
 30
0.0
 10
228.2575255883517
 20
20.82741117763772
 30
0.0
 10
228.2575255883517
 20
20.82741117763772
 30
0.0
  0
SPLINE
  5
3CA18
102
{ACAD_REACTORS
330
3CA0C
102
}
330
2
100
AcDbEntity
  8
Layer 1
100
AcDbSpline
210
0.0
220
0.0
230
1.0
 70
     8
 71
     3
 72
     8
 73
     4
 74
     0
 42
0.000000001
 43
0.0000000001
 40
12.0
 40
12.0
 40
12.0
 40
12.0
 40
13.0
 40
13.0
 40
13.0
 40
13.0
 10
228.2575255883517
 20
20.82741117763772
 30
0.0
 10
228.4905333239761
 20
20.8982616185811
 30
0.0
 10
228.7217310118395
 20
21.00235373031569
 30
0.0
 10
228.9262664088692
 20
21.15862118704342
 30
0.0
  0
SPLINE
  5
3CA19
102
{ACAD_REACTORS
330
3CA0C
102
}
330
2
100
AcDbEntity
  8
Layer 1
100
AcDbSpline
210
0.0
220
0.0
230
1.0
 70
     8
 71
     3
 72
     8
 73
     4
 74
     0
 42
0.000000001
 43
0.0000000001
 40
13.0
 40
13.0
 40
13.0
 40
13.0
 40
14.0
 40
14.0
 40
14.0
 40
14.0
 10
228.9262664088692
 20
21.15862118704342
 30
0.0
 10
229.3781462690298
 20
21.50681116830532
 30
0.0
 10
229.6152337948465
 20
22.0031664877443
 30
0.0
 10
229.6152337948465
 20
22.49176445963468
 30
0.0
  0
LWPOLYLINE
  5
3CA1A
102
{ACAD_REACTORS
330
3CA1B
102
}
330
2
100
AcDbEntity
  8
Layer 1
 62
   103
100
AcDbPolyline
 90
        8
 70
     1
 43
0.0
 10
250.9880479132393
 20
25.60728762062803
 10
226.1418383336141
 20
25.60826447180085
 10
225.7712095062954
 20
24.38918293908989
 10
234.3816354378358
 20
24.38875520743688
 10
232.7338024330255
 20
18.67468977108518
 10
234.3485374216287
 20
18.67468977108518
 10
235.9960543863536
 20
24.38875520743688
 10
250.6155819333411
 20
24.38803370241601
  0
HATCH
  5
3CA1B
330
2
100
AcDbEntity
  8
0
  6
Continuous
 62
    93
100
AcDbHatch
 10
0.0
 20
0.0
 30
0.0
210
0.0
220
0.0
230
1.0
  2
SOLID
 70
     1
 71
     1
 91
        1
 92
        7
 72
     0
 73
     1
 93
        8
 10
226.1418383336141
 20
25.60826447180085
 10
225.7712095062954
 20
24.38918293908989
 10
234.3816354378358
 20
24.38875520743688
 10
232.7338024330255
 20
18.67468977108518
 10
234.3485374216287
 20
18.67468977108518
 10
235.9960543863536
 20
24.38875520743688
 10
250.6155819333411
 20
24.38803370241601
 10
250.9880479132393
 20
25.60728762062803
 97
        1
330
3CA1A
 75
     1
 76
     1
 47
0.0428322549537331
 98
        1
 10
237.0752894295143
 20
25.00589142586006
450
        0
451
        0
460
0.0
461
0.0
452
        0
462
1.0
453
        2
463
0.0
 63
     5
421
      255
463
1.0
 63
     2
421
 16776960
470
LINEAR
1001
GRADIENTCOLOR1ACI
1070
     5
1001
GRADIENTCOLOR2ACI
1070
     2
1001
ACAD
1010
0.0
1020
0.0
1030
0.0
  0
HATCH
  5
3CA1C
330
2
100
AcDbEntity
  8
0
  6
Continuous
 62
     0
100
AcDbHatch
 10
0.0
 20
0.0
 30
0.0
210
0.0
220
0.0
230
1.0
  2
SOLID
 70
     1
 71
     1
 91
        2
 92
        5
 93
        4
 72
     4
 94
        3
 73
     0
 74
     0
 95
        8
 96
        4
 40
0.0
 40
0.0
 40
0.0
 40
0.0
 40
1.0
 40
1.0
 40
1.0
 40
1.0
 10
236.0960954388125
 20
20.7948590488507
 10
236.0960954388125
 20
19.43982281762248
 10
237.0241040529523
 20
18.40125763545768
 10
238.6295589554144
 20
18.40125763545768
 97
        0
 72
     4
 94
        3
 73
     0
 74
     0
 95
        8
 96
        4
 40
3.0
 40
3.0
 40
3.0
 40
3.0
 40
4.0
 40
4.0
 40
4.0
 40
4.0
 10
238.6295589554144
 20
18.40125763545768
 10
240.7581176608991
 20
18.40125763545768
 10
241.8554662989316
 20
20.02889280572492
 10
241.8554662989316
 20
21.50189818152461
 97
        0
 72
     4
 94
        3
 73
     0
 74
     0
 95
        8
 96
        4
 40
2.0
 40
2.0
 40
2.0
 40
2.0
 40
3.0
 40
3.0
 40
3.0
 40
3.0
 10
241.8554662989316
 20
21.50189818152461
 10
241.8554662989316
 20
22.82033441716857
 10
240.927601339376
 20
23.91035347892722
 10
239.2557780189989
 20
23.91035347892722
 97
        0
 72
     4
 94
        3
 73
     0
 74
     0
 95
        8
 96
        4
 40
1.0
 40
1.0
 40
1.0
 40
1.0
 40
2.0
 40
2.0
 40
2.0
 40
2.0
 10
239.2557780189989
 20
23.91035347892722
 10
237.2008566533917
 20
23.91035347892722
 10
236.0960954388125
 20
22.27516207752945
 10
236.0960954388125
 20
20.7948590488507
 97
        0
 97
        1
330
3CA1D
 92
       20
 93
        4
 72
     4
 94
        3
 73
     0
 74
     0
 95
        8
 96
        4
 40
1.0
 40
1.0
 40
1.0
 40
1.0
 40
2.0
 40
2.0
 40
2.0
 40
2.0
 10
237.7089916487378
 20
20.78026374309275
 10
237.7089916487378
 20
21.57571106793955
 10
238.2615746864555
 20
22.71721596412863
 10
239.2705169793413
 20
22.71721596412863
 97
        0
 72
     4
 94
        3
 73
     0
 74
     0
 95
        8
 96
        4
 40
0.0
 40
0.0
 40
0.0
 40
0.0
 40
1.0
 40
1.0
 40
1.0
 40
1.0
 10
239.2705169793413
 20
22.71721596412863
 10
239.8008035115759
 20
22.71721596412863
 10
240.257452703933
 20
22.35641311037114
 10
240.257452703933
 20
21.59771578920743
 97
        0
 72
     4
 94
        3
 73
     0
 74
     0
 95
        8
 96
        4
 40
3.0
 40
3.0
 40
3.0
 40
3.0
 40
4.0
 40
4.0
 40
4.0
 40
4.0
 10
240.257452703933
 20
21.59771578920743
 10
240.257452703933
 20
20.83919085354478
 10
239.8156861265024
 20
19.65335099162513
 10
238.7254914867644
 20
19.65335099162513
 97
        0
 72
     4
 94
        3
 73
     0
 74
     0
 95
        8
 96
        4
 40
2.0
 40
2.0
 40
2.0
 40
2.0
 40
3.0
 40
3.0
 40
3.0
 40
3.0
 10
238.7254914867644
 20
19.65335099162513
 10
238.1804947251045
 20
19.65335099162513
 10
237.7089916487378
 20
20.01429749996697
 10
237.7089916487378
 20
20.78026374309275
 97
        0
 97
        1
330
3CA1E
 75
     1
 76
     1
 47
0.0269459378258844
 98
        2
 10
237.205025177107
 20
19.9982556782864
 10
237.205025177107
 20
19.9982556782864
450
        0
451
        0
460
0.0
461
0.0
452
        0
462
1.0
453
        2
463
0.0
 63
     5
421
      255
463
1.0
 63
     2
421
 16776960
470
LINEAR
1001
GRADIENTCOLOR1ACI
1070
     5
1001
GRADIENTCOLOR2ACI
1070
     2
1001
ACAD
1010
0.0
1020
0.0
1030
0.0
  0
SPLINE
  5
3CA1D
102
{ACAD_REACTORS
330
3CA1C
102
}
330
2
100
AcDbEntity
  8
Layer 1
100
AcDbSpline
210
0.0
220
0.0
230
1.0
 70
     9
 71
     3
 72
    17
 73
    13
 74
     0
 42
0.000000001
 43
0.0000000001
 40
0.0
 40
0.0
 40
0.0
 40
0.0
 40
1.0
 40
1.0
 40
1.0
 40
2.0
 40
2.0
 40
2.0
 40
3.0
 40
3.0
 40
3.0
 40
4.0
 40
4.0
 40
4.0
 40
4.0
 10
238.6295589554144
 20
18.40125763545768
 30
0.0
 10
237.0241040529523
 20
18.40125763545768
 30
0.0
 10
236.0960954388125
 20
19.43982281762248
 30
0.0
 10
236.0960954388125
 20
20.7948590488507
 30
0.0
 10
236.0960954388125
 20
22.27516207752945
 30
0.0
 10
237.2008566533917
 20
23.91035347892722
 30
0.0
 10
239.2557780189989
 20
23.91035347892722
 30
0.0
 10
240.927601339376
 20
23.91035347892722
 30
0.0
 10
241.8554662989316
 20
22.82033441716857
 30
0.0
 10
241.8554662989316
 20
21.50189818152461
 30
0.0
 10
241.8554662989316
 20
20.02889280572492
 30
0.0
 10
240.7581176608991
 20
18.40125763545768
 30
0.0
 10
238.6295589554144
 20
18.40125763545768
 30
0.0
  0
SPLINE
  5
3CA1E
102
{ACAD_REACTORS
330
3CA1C
102
}
330
2
100
AcDbEntity
  8
Layer 1
100
AcDbSpline
210
0.0
220
0.0
230
1.0
 70
     9
 71
     3
 72
    17
 73
    13
 74
     0
 42
0.000000001
 43
0.0000000001
 40
0.0
 40
0.0
 40
0.0
 40
0.0
 40
1.0
 40
1.0
 40
1.0
 40
2.0
 40
2.0
 40
2.0
 40
3.0
 40
3.0
 40
3.0
 40
4.0
 40
4.0
 40
4.0
 40
4.0
 10
240.257452703933
 20
21.59771578920743
 30
0.0
 10
240.257452703933
 20
22.35641311037114
 30
0.0
 10
239.8008035115759
 20
22.71721596412863
 30
0.0
 10
239.2705169793413
 20
22.71721596412863
 30
0.0
 10
238.2615746864555
 20
22.71721596412863
 30
0.0
 10
237.7089916487378
 20
21.57571106793955
 30
0.0
 10
237.7089916487378
 20
20.78026374309275
 30
0.0
 10
237.7089916487378
 20
20.01429749996697
 30
0.0
 10
238.1804947251045
 20
19.65335099162513
 30
0.0
 10
238.7254914867644
 20
19.65335099162513
 30
0.0
 10
239.8156861265024
 20
19.65335099162513
 30
0.0
 10
240.257452703933
 20
20.83919085354478
 30
0.0
 10
240.257452703933
 20
21.59771578920743
 30
0.0
  0
HATCH
  5
3CA1F
330
2
100
AcDbEntity
  8
0
  6
Continuous
 62
     0
100
AcDbHatch
 10
0.0
 20
0.0
 30
0.0
210
0.0
220
0.0
230
1.0
  2
SOLID
 70
     1
 71
     1
 91
        2
 92
        5
 93
        4
 72
     4
 94
        3
 73
     0
 74
     0
 95
        8
 96
        4
 40
0.0
 40
0.0
 40
0.0
 40
0.0
 40
1.0
 40
1.0
 40
1.0
 40
1.0
 10
242.0353218383899
 20
20.7948590488507
 10
242.0353218383899
 20
19.43982281762248
 10
242.9634453761972
 20
18.40125763545768
 10
244.5687566240748
 20
18.40125763545768
 97
        0
 72
     4
 94
        3
 73
     0
 74
     0
 95
        8
 96
        4
 40
3.0
 40
3.0
 40
3.0
 40
3.0
 40
4.0
 40
4.0
 40
4.0
 40
4.0
 10
244.5687566240748
 20
18.40125763545768
 10
246.6973440604765
 20
18.40125763545768
 10
247.794692698509
 20
20.02889280572492
 10
247.794692698509
 20
21.50189818152461
 97
        0
 72
     4
 94
        3
 73
     0
 74
     0
 95
        8
 96
        4
 40
2.0
 40
2.0
 40
2.0
 40
2.0
 40
3.0
 40
3.0
 40
3.0
 40
3.0
 10
247.794692698509
 20
21.50189818152461
 10
247.794692698509
 20
22.82033441716857
 10
246.8666840843692
 20
23.91035347892722
 10
245.1950044185766
 20
23.91035347892722
 97
        0
 72
     4
 94
        3
 73
     0
 74
     0
 95
        8
 96
        4
 40
1.0
 40
1.0
 40
1.0
 40
1.0
 40
2.0
 40
2.0
 40
2.0
 40
2.0
 10
245.1950044185766
 20
23.91035347892722
 10
243.139939398385
 20
23.91035347892722
 10
242.0353218383899
 20
22.27516207752945
 10
242.0353218383899
 20
20.7948590488507
 97
        0
 97
        1
330
3CA21
 92
       20
 93
        4
 72
     4
 94
        3
 73
     0
 74
     0
 95
        8
 96
        4
 40
1.0
 40
1.0
 40
1.0
 40
1.0
 40
2.0
 40
2.0
 40
2.0
 40
2.0
 10
243.6483344220739
 20
20.78026374309275
 10
243.6483344220739
 20
21.57571106793955
 10
244.2006561174384
 20
22.71721596412863
 10
245.209312415166
 20
22.71721596412863
 97
        0
 72
     4
 94
        3
 73
     0
 74
     0
 95
        8
 96
        4
 40
0.0
 40
0.0
 40
0.0
 40
0.0
 40
1.0
 40
1.0
 40
1.0
 40
1.0
 10
245.209312415166
 20
22.71721596412863
 10
245.7398862565691
 20
22.71721596412863
 10
246.1965354489264
 20
22.35641311037114
 10
246.1965354489264
 20
21.59771578920743
 97
        0
 72
     4
 94
        3
 73
     0
 74
     0
 95
        8
 96
        4
 40
3.0
 40
3.0
 40
3.0
 40
3.0
 40
4.0
 40
4.0
 40
4.0
 40
4.0
 10
246.1965354489264
 20
21.59771578920743
 10
246.1965354489264
 20
20.83919085354478
 10
245.7544815623271
 20
19.65335099162513
 10
244.6644305771735
 20
19.65335099162513
 97
        0
 72
     4
 94
        3
 73
     0
 74
     0
 95
        8
 96
        4
 40
2.0
 40
2.0
 40
2.0
 40
2.0
 40
3.0
 40
3.0
 40
3.0
 40
3.0
 10
244.6644305771735
 20
19.65335099162513
 10
244.1194338155135
 20
19.65335099162513
 10
243.6483344220739
 20
20.01429749996697
 10
243.6483344220739
 20
20.78026374309275
 97
        0
 97
        1
330
3CA20
 75
     1
 76
     1
 47
0.0269459378258844
 98
        2
 10
243.5478539098793
 20
20.41733482246053
 10
243.5478539098793
 20
20.41733482246053
450
        0
451
        0
460
0.0
461
0.0
452
        0
462
1.0
453
        2
463
0.0
 63
     5
421
      255
463
1.0
 63
     2
421
 16776960
470
LINEAR
1001
GRADIENTCOLOR1ACI
1070
     5
1001
GRADIENTCOLOR2ACI
1070
     2
1001
ACAD
1010
0.0
1020
0.0
1030
0.0
  0
SPLINE
  5
3CA20
102
{ACAD_REACTORS
330
3CA1F
102
}
330
2
100
AcDbEntity
  8
Layer 1
100
AcDbSpline
210
0.0
220
0.0
230
1.0
 70
     9
 71
     3
 72
    17
 73
    13
 74
     0
 42
0.000000001
 43
0.0000000001
 40
0.0
 40
0.0
 40
0.0
 40
0.0
 40
1.0
 40
1.0
 40
1.0
 40
2.0
 40
2.0
 40
2.0
 40
3.0
 40
3.0
 40
3.0
 40
4.0
 40
4.0
 40
4.0
 40
4.0
 10
246.1965354489264
 20
21.59771578920743
 30
0.0
 10
246.1965354489264
 20
22.35641311037114
 30
0.0
 10
245.7398862565691
 20
22.71721596412863
 30
0.0
 10
245.209312415166
 20
22.71721596412863
 30
0.0
 10
244.2006561174384
 20
22.71721596412863
 30
0.0
 10
243.6483344220739
 20
21.57571106793955
 30
0.0
 10
243.6483344220739
 20
20.78026374309275
 30
0.0
 10
243.6483344220739
 20
20.01429749996697
 30
0.0
 10
244.1194338155135
 20
19.65335099162513
 30
0.0
 10
244.6644305771735
 20
19.65335099162513
 30
0.0
 10
245.7544815623271
 20
19.65335099162513
 30
0.0
 10
246.1965354489264
 20
20.83919085354478
 30
0.0
 10
246.1965354489264
 20
21.59771578920743
 30
0.0
  0
SPLINE
  5
3CA21
102
{ACAD_REACTORS
330
3CA1F
102
}
330
2
100
AcDbEntity
  8
Layer 1
100
AcDbSpline
210
0.0
220
0.0
230
1.0
 70
     9
 71
     3
 72
    17
 73
    13
 74
     0
 42
0.000000001
 43
0.0000000001
 40
0.0
 40
0.0
 40
0.0
 40
0.0
 40
1.0
 40
1.0
 40
1.0
 40
2.0
 40
2.0
 40
2.0
 40
3.0
 40
3.0
 40
3.0
 40
4.0
 40
4.0
 40
4.0
 40
4.0
 10
244.5687566240748
 20
18.40125763545768
 30
0.0
 10
242.9634453761972
 20
18.40125763545768
 30
0.0
 10
242.0353218383899
 20
19.43982281762248
 30
0.0
 10
242.0353218383899
 20
20.7948590488507
 30
0.0
 10
242.0353218383899
 20
22.27516207752945
 30
0.0
 10
243.139939398385
 20
23.91035347892722
 30
0.0
 10
245.1950044185766
 20
23.91035347892722
 30
0.0
 10
246.8666840843692
 20
23.91035347892722
 30
0.0
 10
247.794692698509
 20
22.82033441716857
 30
0.0
 10
247.794692698509
 20
21.50189818152461
 30
0.0
 10
247.794692698509
 20
20.02889280572492
 30
0.0
 10
246.6973440604765
 20
18.40125763545768
 30
0.0
 10
244.5687566240748
 20
18.40125763545768
 30
0.0
  0
HATCH
  5
3CA22
330
2
100
AcDbEntity
  8
0
  6
Continuous
 62
     0
100
AcDbHatch
 10
0.0
 20
0.0
 30
0.0
210
0.0
220
0.0
230
1.0
  2
SOLID
 70
     1
 71
     1
 91
        1
 92
        5
 93
        6
 72
     4
 94
        3
 73
     0
 74
     0
 95
        8
 96
        4
 40
4.0
 40
4.0
 40
4.0
 40
4.0
 40
5.0
 40
5.0
 40
5.0
 40
5.0
 10
249.388197134655
 20
19.76373517414919
 10
249.388197134655
 20
19.76373517414919
 10
250.4562099114949
 20
23.75578114629343
 10
250.4562099114949
 20
23.75578114629343
 97
        0
 72
     4
 94
        3
 73
     0
 74
     0
 95
        8
 96
        4
 40
3.0
 40
3.0
 40
3.0
 40
3.0
 40
4.0
 40
4.0
 40
4.0
 40
4.0
 10
250.4562099114949
 20
23.75578114629343
 10
250.4562099114949
 20
23.75578114629343
 10
248.820874855513
 20
23.75578114629343
 10
248.820874855513
 20
23.75578114629343
 97
        0
 72
     4
 94
        3
 73
     0
 74
     0
 95
        8
 96
        4
 40
2.0
 40
2.0
 40
2.0
 40
2.0
 40
3.0
 40
3.0
 40
3.0
 40
3.0
 10
248.820874855513
 20
23.75578114629343
 10
248.820874855513
 20
23.75578114629343
 10
247.4290917816382
 20
18.55600235359253
 10
247.4290917816382
 20
18.55600235359253
 97
        0
 72
     4
 94
        3
 73
     0
 74
     0
 95
        8
 96
        4
 40
1.0
 40
1.0
 40
1.0
 40
1.0
 40
2.0
 40
2.0
 40
2.0
 40
2.0
 10
247.4290917816382
 20
18.55600235359253
 10
247.4290917816382
 20
18.55600235359253
 10
250.7951501681676
 20
18.55600235359253
 10
250.7951501681676
 20
18.55600235359253
 97
        0
 72
     4
 94
        3
 73
     0
 74
     0
 95
        8
 96
        4
 40
0.0
 40
0.0
 40
0.0
 40
0.0
 40
1.0
 40
1.0
 40
1.0
 40
1.0
 10
250.7951501681676
 20
18.55600235359253
 10
250.7951501681676
 20
18.55600235359253
 10
251.194680667199
 20
19.76373517414919
 10
251.194680667199
 20
19.76373517414919
 97
        0
 72
     4
 94
        3
 73
     0
 74
     0
 95
        8
 96
        4
 40
5.0
 40
5.0
 40
5.0
 40
5.0
 40
6.0
 40
6.0
 40
6.0
 40
6.0
 10
251.194680667199
 20
19.76373517414919
 10
251.194680667199
 20
19.76373517414919
 10
249.388197134655
 20
19.76373517414919
 10
249.388197134655
 20
19.76373517414919
 97
        0
 97
        6
330
3CA27
330
3CA26
330
3CA25
330
3CA24
330
3CA23
330
3CA28
 75
     1
 76
     1
 47
0.0168242271866721
 98
        1
 10
248.8874131184788
 20
20.10292785343307
450
        0
451
        0
460
0.0
461
0.0
452
        0
462
1.0
453
        2
463
0.0
 63
     5
421
      255
463
1.0
 63
     2
421
 16776960
470
LINEAR
1001
GRADIENTCOLOR1ACI
1070
     5
1001
GRADIENTCOLOR2ACI
1070
     2
1001
ACAD
1010
0.0
1020
0.0
1030
0.0
  0
SPLINE
  5
3CA23
102
{ACAD_REACTORS
330
3CA22
102
}
330
2
100
AcDbEntity
  8
Layer 1
100
AcDbSpline
210
0.0
220
0.0
230
1.0
 70
    24
 71
     3
 72
     8
 73
     4
 74
     0
 42
0.000000001
 43
0.0000000001
 40
0.0
 40
0.0
 40
0.0
 40
0.0
 40
1.0
 40
1.0
 40
1.0
 40
1.0
 10
251.194680667199
 20
19.76373517414919
 30
0.0
 10
251.194680667199
 20
19.76373517414919
 30
0.0
 10
250.7951501681676
 20
18.55600235359253
 30
0.0
 10
250.7951501681676
 20
18.55600235359253
 30
0.0
  0
SPLINE
  5
3CA24
102
{ACAD_REACTORS
330
3CA22
102
}
330
2
100
AcDbEntity
  8
Layer 1
100
AcDbSpline
210
0.0
220
0.0
230
1.0
 70
    24
 71
     3
 72
     8
 73
     4
 74
     0
 42
0.000000001
 43
0.0000000001
 40
1.0
 40
1.0
 40
1.0
 40
1.0
 40
2.0
 40
2.0
 40
2.0
 40
2.0
 10
250.7951501681676
 20
18.55600235359253
 30
0.0
 10
250.7951501681676
 20
18.55600235359253
 30
0.0
 10
247.4290917816382
 20
18.55600235359253
 30
0.0
 10
247.4290917816382
 20
18.55600235359253
 30
0.0
  0
SPLINE
  5
3CA25
102
{ACAD_REACTORS
330
3CA22
102
}
330
2
100
AcDbEntity
  8
Layer 1
100
AcDbSpline
210
0.0
220
0.0
230
1.0
 70
    24
 71
     3
 72
     8
 73
     4
 74
     0
 42
0.000000001
 43
0.0000000001
 40
2.0
 40
2.0
 40
2.0
 40
2.0
 40
3.0
 40
3.0
 40
3.0
 40
3.0
 10
247.4290917816382
 20
18.55600235359253
 30
0.0
 10
247.4290917816382
 20
18.55600235359253
 30
0.0
 10
248.820874855513
 20
23.75578114629343
 30
0.0
 10
248.820874855513
 20
23.75578114629343
 30
0.0
  0
SPLINE
  5
3CA26
102
{ACAD_REACTORS
330
3CA22
102
}
330
2
100
AcDbEntity
  8
Layer 1
100
AcDbSpline
210
0.0
220
0.0
230
1.0
 70
    24
 71
     3
 72
     8
 73
     4
 74
     0
 42
0.000000001
 43
0.0000000001
 40
3.0
 40
3.0
 40
3.0
 40
3.0
 40
4.0
 40
4.0
 40
4.0
 40
4.0
 10
248.820874855513
 20
23.75578114629343
 30
0.0
 10
248.820874855513
 20
23.75578114629343
 30
0.0
 10
250.4562099114949
 20
23.75578114629343
 30
0.0
 10
250.4562099114949
 20
23.75578114629343
 30
0.0
  0
SPLINE
  5
3CA27
102
{ACAD_REACTORS
330
3CA22
102
}
330
2
100
AcDbEntity
  8
Layer 1
100
AcDbSpline
210
0.0
220
0.0
230
1.0
 70
    24
 71
     3
 72
     8
 73
     4
 74
     0
 42
0.000000001
 43
0.0000000001
 40
4.0
 40
4.0
 40
4.0
 40
4.0
 40
5.0
 40
5.0
 40
5.0
 40
5.0
 10
250.4562099114949
 20
23.75578114629343
 30
0.0
 10
250.4562099114949
 20
23.75578114629343
 30
0.0
 10
249.388197134655
 20
19.76373517414919
 30
0.0
 10
249.388197134655
 20
19.76373517414919
 30
0.0
  0
SPLINE
  5
3CA28
102
{ACAD_REACTORS
330
3CA22
102
}
330
2
100
AcDbEntity
  8
Layer 1
100
AcDbSpline
210
0.0
220
0.0
230
1.0
 70
    24
 71
     3
 72
     8
 73
     4
 74
     0
 42
0.000000001
 43
0.0000000001
 40
5.0
 40
5.0
 40
5.0
 40
5.0
 40
6.0
 40
6.0
 40
6.0
 40
6.0
 10
249.388197134655
 20
19.76373517414919
 30
0.0
 10
249.388197134655
 20
19.76373517414919
 30
0.0
 10
251.194680667199
 20
19.76373517414919
 30
0.0
 10
251.194680667199
 20
19.76373517414919
 30
0.0
  0
TEXT
  5
3CA29
330
2
100
AcDbEntity
  8
0
 62
     2
100
AcDbText
 10
216.5107526826763
 20
12.44259612545357
 30
0.0
 40
2.540257999999999
  1
www.maritool.com
  7
굴림
100
AcDbText
  0
TEXT
  5
3CA2A
330
2
100
AcDbEntity
  8
0
 62
     2
100
AcDbText
 10
199.1432827353754
 20
3.933672850249706
 30
0.0
 40
2.032206399999999
  1
ITEM#
  7
굴림
100
AcDbText
  0
TEXT
  5
3CA2B
330
2
100
AcDbEntity
  8
0
 62
     2
100
AcDbText
 10
214.0085661489341
 20
3.450826278019405
 30
0.0
 40
3.048309599999998
  1
HSK50E-FL2.36-2.16
  7
굴림
100
AcDbText
  0
VIEWPORT
  5
2C7EC
102
{ACAD_XDICTIONARY
360
2C7ED
102
}
330
1B
100
AcDbEntity
 67
     1
  8
0
  6
Continuous
 62
     7
100
AcDbViewport
 10
212.4908200734394
 20
97.5
 30
0.0
 40
464.9816401468789
 41
210.0
 68
     1
 69
     1
 12
212.4908200734394
 22
97.5
 13
0.0
 23
0.0
 14
2.0
 24
2.0
 15
2.0
 25
2.0
 16
0.0
 26
0.0
 36
1.0
 17
0.0
 27
0.0
 37
0.0
 42
50.0
 43
0.0
 44
0.0
 45
210.0
 50
0.0
 51
0.0
 72
  1000
 90
   823328
  1

281
     0
 71
     1
 74
     0
110
0.0
120
0.0
130
0.0
111
1.0
121
0.0
131
0.0
112
0.0
122
1.0
132
0.0
 79
     0
146
0.0
170
     0
 61
     5
348
2E
292
     1
282
     1
141
0.0
142
0.0
 63
   250
421
  3355443
  0
ENDSEC
  0
SECTION
  2
OBJECTS
  0
DICTIONARY
  5
B
330
0
100
AcDbDictionary
281
     1
  3
ACAD_ASSOCNETWORK
350
3C0B2
  3
ACAD_CIP_PREVIOUS_PRODUCT_INFO
350
BE4
  3
ACAD_COLOR
350
3F
  3
ACAD_DETAILVIEWSTYLE
350
BDC
  3
ACAD_GROUP
350
3A
  3
ACAD_LAYOUT
350
17
  3
ACAD_MATERIAL
350
D
  3
ACAD_MLEADERSTYLE
350
42
  3
ACAD_MLINESTYLE
350
3B
  3
ACAD_PLOTSETTINGS
350
3C
  3
ACAD_PLOTSTYLENAME
350
A
  3
ACAD_SCALELIST
350
40
  3
ACAD_SECTIONVIEWSTYLE
350
BDA
  3
ACAD_TABLESTYLE
350
41
  3
ACAD_VISUALSTYLE
350
2F
  3
ACDB_RECOMPOSE_DATA
350
3CC1F
  3
AcDbVariableDictionary
350
BB8
  3
AEC_PROPERTY_SET_DEFS
350
24C9
  0
DICTIONARY
  5
31
330
2C
100
AcDbDictionary
280
     1
281
     1
  0
DICTIONARY
  5
22
330
21
100
AcDbDictionary
280
     1
281
     1
  3
ACAD_LAYERSTATES
360
23
  0
DICTIONARY
  5
7
330
6
100
AcDbDictionary
280
     1
281
     1
  3
ADSK_XREC_LAYER_RECONCILED
360
8
  0
DICTIONARY
  5
3
330
2
100
AcDbDictionary
280
     1
281
     1
  3
ACAD_ASSOCNETWORK
360
3C4DA
  3
ACAD_SORTENTS
360
BB0
  0
DICTIONARY
  5
3C700
330
3C6FF
100
AcDbDictionary
280
     1
281
     1
  0
DICTIONARY
  5
2C7ED
330
2C7EC
100
AcDbDictionary
280
     1
281
     1
  3
ASDK_XREC_ANNOTATION_SCALE_INFO
360
2C7EE
  0
DICTIONARY
  5
3C0B2
102
{ACAD_REACTORS
330
B
102
}
330
B
100
AcDbDictionary
281
     1
  3
ACAD_ASSOCNETWORK
350
3C0B3
  0
XRECORD
  5
BE4
102
{ACAD_REACTORS
330
B
102
}
330
B
100
AcDbXrecord
280
     1
300
ACD
300
2014
300
ACD_F_S
  0
DICTIONARY
  5
3F
102
{ACAD_REACTORS
330
B
102
}
330
B
100
AcDbDictionary
281
     1
  0
DICTIONARY
  5
BDC
102
{ACAD_REACTORS
330
B
102
}
330
B
100
AcDbDictionary
281
     1
  3
Imperial24
350
283CD
  3
Metric50
350
BDD
  0
DICTIONARY
  5
3A
102
{ACAD_REACTORS
330
B
102
}
330
B
100
AcDbDictionary
281
     1
  0
DICTIONARY
  5
17
102
{ACAD_REACTORS
330
B
102
}
330
B
100
AcDbDictionary
281
     1
  3
Model
350
16
  3
배치1
350
1E
  0
DICTIONARY
  5
D
102
{ACAD_REACTORS
330
B
102
}
330
B
100
AcDbDictionary
281
     1
  3
ByBlock
350
3E
  3
ByLayer
350
3D
  3
Global
350
C
  0
DICTIONARY
  5
42
102
{ACAD_REACTORS
330
B
102
}
330
B
100
AcDbDictionary
281
     1
  3
Standard
350
BD9
  0
DICTIONARY
  5
3B
102
{ACAD_REACTORS
330
B
102
}
330
B
100
AcDbDictionary
281
     1
  3
Standard
350
43
  0
DICTIONARY
  5
3C
102
{ACAD_REACTORS
330
B
102
}
330
B
100
AcDbDictionary
281
     1
  0
ACDBDICTIONARYWDFLT
  5
A
102
{ACAD_REACTORS
330
B
102
}
330
B
100
AcDbDictionary
281
     1
  3
Normal
350
9
100
AcDbDictionaryWithDefault
340
9
  0
DICTIONARY
  5
40
102
{ACAD_REACTORS
330
B
102
}
330
B
100
AcDbDictionary
281
     1
  3
A0
350
48
  3
A1
350
49
  3
A2
350
4A
  3
A3
350
4B
  3
A4
350
4C
  3
A5
350
4D
  3
A6
350
4E
  3
A7
350
4F
  3
A8
350
50
  3
A9
350
51
  3
B0
350
52
  3
B1
350
53
  3
B2
350
54
  3
B3
350
55
  3
B4
350
56
  3
B5
350
57
  3
B6
350
58
  0
DICTIONARY
  5
BDA
102
{ACAD_REACTORS
330
B
102
}
330
B
100
AcDbDictionary
281
     1
  3
Imperial24
350
283CC
  3
Metric50
350
BDB
  0
DICTIONARY
  5
41
102
{ACAD_REACTORS
330
B
102
}
330
B
100
AcDbDictionary
281
     1
  3
Standard
350
44
  0
DICTIONARY
  5
2F
102
{ACAD_REACTORS
330
B
102
}
330
B
100
AcDbDictionary
281
     1
  3
2dWireframe
350
2E
  3
3D Hidden
350
1A64
  3
3dWireframe
350
47
  3
Basic
350
BC7
  3
Brighten
350
BCC
  3
ColorChange
350
BD0
  3
Conceptual
350
BCA
  3
Dim
350
BCB
  3
EdgeColorOff
350
BD8
  3
Facepattern
350
BCF
  3
Flat
350
BC3
  3
FlatWithEdges
350
BC4
  3
Gouraud
350
BC5
  3
GouraudWithEdges
350
BC6
  3
Hidden
350
BC9
  3
JitterOff
350
BD6
  3
Linepattern
350
BCE
  3
OverhangOff
350
BD7
  3
Realistic
350
46
  3
Shaded
350
BD5
  3
Shaded with edges
350
BD4
  3
Shades of Gray
350
BD1
  3
Sketchy
350
BD2
  3
Thicken
350
BCD
  3
Wireframe
350
BC8
  3
X-Ray
350
BD3
  0
XRECORD
  5
3CC1F
102
{ACAD_REACTORS
330
B
102
}
330
B
100
AcDbXrecord
280
     1
 90
        1
330
44
330
BDB
330
BDD
330
283CC
330
283CD
  0
DICTIONARY
  5
BB8
102
{ACAD_REACTORS
330
B
102
}
330
B
100
AcDbDictionary
281
     1
  3
CANNOSCALE
350
BBE
  3
CMLEADERSTYLE
350
BBA
  3
CTABLESTYLE
350
BB9
  3
CVIEWDETAILSTYLE
350
BBB
  3
CVIEWSECTIONSTYLE
350
BBC
  3
DIMASSOC
350
C3B
  3
HIDETEXT
350
C39
  3
HPCOLOR
350
FF3
  3
INDEXCTL
350
C38
  3
LAYEREVAL
350
BC0
  3
LAYERNOTIFY
350
BC1
  3
LIGHTINGUNITS
350
BBF
  3
MSLTSCALE
350
BBD
  3
SOLIDHIST
350
C3C
  3
SORTENTS
350
C37
  0
DICTIONARY
  5
24C9
102
{ACAD_REACTORS
330
B
102
}
330
B
100
AcDbDictionary
281
     1
  0
DICTIONARY
  5
23
102
{ACAD_REACTORS
330
22
102
}
330
22
100
AcDbDictionary
281
     1
  0
XRECORD
  5
8
102
{ACAD_REACTORS
330
7
102
}
330
7
100
AcDbXrecord
280
     1
290
     1
  0
DICTIONARY
  5
3C4DA
102
{ACAD_REACTORS
330
3
102
}
330
3
100
AcDbDictionary
281
     1
  3
ACAD_ASSOCNETWORK
350
3C4DB
  0
SORTENTSTABLE
  5
BB0
102
{ACAD_REACTORS
330
3
102
}
330
3
100
AcDbSortentsTable
330
2
  0
XRECORD
  5
2C7EE
102
{ACAD_REACTORS
330
2C7ED
102
}
330
2C7ED
100
AcDbXrecord
280
     1
 90
        1
340
48
  0
ACDBASSOCNETWORK
  5
3C0B3
102
{ACAD_REACTORS
330
3C0B2
102
}
330
3C0B2
100
AcDbAssocAction
 90
        2
 90
        0
330
0
360
0
 90
        0
 90
        0
 90
        0
 90
        0
 90
        0
 90
        0
 90
        0
100
AcDbAssocNetwork
 90
        0
 90
        2
 90
        1
330
3C4DB
 90
        0
  0
ACDBDETAILVIEWSTYLE
  5
283CD
102
{ACAD_XDICTIONARY
360
3CC1D
102
}
102
{ACAD_REACTORS
330
BDC
102
}
330
BDC
100
AcDbModelDocViewStyle
 70
     0
  3
Imperial24
290
     0
100
AcDbDetailViewStyle
 70
     0
 71
     0
 90
        3
 71
     1
340
25
 62
   256
 40
0.24
340
0
 62
   256
 40
0.24
300

 40
0.36
280
     3
 71
     2
340
14
 90
       25
 62
   256
 71
     3
340
25
 62
   256
 40
0.24
 90
        1
 40
0.75
 90
        1
300
%<\AcVar ViewType \f "%tc1">% %<\AcVar ViewDetailId>%\PSCALE %<\AcVar ViewScale \f "%sn">%
 71
     4
340
14
 90
       25
 62
   256
340
14
 90
       25
 62
   256
280
     0
  0
ACDBDETAILVIEWSTYLE
  5
BDD
102
{ACAD_XDICTIONARY
360
3CC19
102
}
102
{ACAD_REACTORS
330
BDC
102
}
330
BDC
100
AcDbModelDocViewStyle
 70
     0
  3
Metric50
290
     0
100
AcDbDetailViewStyle
 70
     0
 71
     0
 90
        3
 71
     1
340
25
 62
   256
 40
5.0
340
0
 62
   256
 40
5.0
300

 40
0.0
280
     1
 71
     2
340
14
 90
       25
 62
   256
 71
     3
340
25
 62
   256
 40
5.0
 90
        0
 40
15.0
 90
        1
300
%<\AcVar ViewDetailId>% (%<\AcVar ViewScale \f "%sn">%)
 71
     4
340
14
 90
       25
 62
   256
340
14
 90
       25
 62
   256
280
     0
  0
LAYOUT
  5
16
102
{ACAD_XDICTIONARY
360
18
102
}
102
{ACAD_REACTORS
330
17
102
}
330
17
100
AcDbPlotSettings
  1

  2
DWG To PDF.pc3
  4
ISO_expand_A4_(297.00_x_210.00_MM)
  6

 40
5.793749809265136
 41
10.79374980926513
 42
5.79376220703125
 43
10.79374694824219
 44
297.0
 45
210.0
 46
10.74179700476176
 47
0.0
 48
214.2303289092835
 49
-5.650030662565313
140
426.8811481846322
141
146.1562857013982
142
1.0
143
0.8057125389846563
 70
 11956
 72
     1
 73
     0
 74
     4
  7
ksm0910.ctb
 75
     0
147
1.241137442468229
 76
     0
 77
     2
 78
   300
148
-214.2303289092835
149
5.650030662565313
100
AcDbLayout
  1
Model
 70
     1
 71
     0
 10
0.0
 20
0.0
 11
12.0
 21
9.0
 12
0.0
 22
0.0
 32
0.0
 14
0.0
 24
0.0
 34
0.0
 15
0.0
 25
0.0
 35
0.0
146
0.0
 13
0.0
 23
0.0
 33
0.0
 16
1.0
 26
0.0
 36
0.0
 17
0.0
 27
1.0
 37
0.0
 76
     0
330
2
331
2D
1001
ACAD_PSEXT
1000
DWG To PDF.pc3
1000
DWG To PDF
1000
파일
1000

1070
     0
  0
LAYOUT
  5
1E
102
{ACAD_XDICTIONARY
360
1F
102
}
102
{ACAD_REACTORS
330
17
102
}
330
17
100
AcDbPlotSettings
  1

  2
none_device
  4
ISO_A4_(210.00_x_297.00_MM)
  6

 40
7.5
 41
20.0
 42
7.5
 43
20.0
 44
210.0
 45
297.0
 46
0.0
 47
0.0
 48
0.0
 49
0.0
140
0.0
141
0.0
142
1.0
143
1.0
 70
   688
 72
     1
 73
     1
 74
     5
  7
ksm0910.ctb
 75
    16
147
1.0
 76
     0
 77
     2
 78
   300
148
0.0
149
0.0
100
AcDbLayout
  1
배치1
 70
     1
 71
     1
 10
-20.0
 20
-7.5
 11
277.0
 21
202.5
 12
0.0
 22
0.0
 32
0.0
 14
1.000000000000000E+20
 24
1.000000000000000E+20
 34
1.000000000000000E+20
 15
-1.000000000000000E+20
 25
-1.000000000000000E+20
 35
-1.000000000000000E+20
146
0.0
 13
0.0
 23
0.0
 33
0.0
 16
1.0
 26
0.0
 36
0.0
 17
0.0
 27
1.0
 37
0.0
 76
     0
330
1B
331
2C7EC
1001
ACAD_PSEXT
1000
없음
1000
없음
1000
해당 없음
1000
배치가 새로운 플로터 구성을 선택할 때까지 플롯되지 않습니다.
1070
     0
  0
MATERIAL
  5
3E
102
{ACAD_REACTORS
330
D
102
}
330
D
100
AcDbMaterial
  1
ByBlock
 94
       63
  0
MATERIAL
  5
3D
102
{ACAD_REACTORS
330
D
102
}
330
D
100
AcDbMaterial
  1
ByLayer
 94
       63
  0
MATERIAL
  5
C
102
{ACAD_XDICTIONARY
360
E
102
}
102
{ACAD_REACTORS
330
D
102
}
330
D
100
AcDbMaterial
  1
Global
 43
0.0007999999797903
 43
0.0
 43
0.0
 43
0.0
 43
0.0
 43
0.0007999999797903
 43
0.0
 43
0.0
 43
0.0
 43
0.0
 43
1.0
 43
0.0
 43
0.0
 43
0.0
 43
0.0
 43
1.0
 49
0.0007999999797903
 49
0.0
 49
0.0
 49
0.0
 49
0.0
 49
0.0007999999797903
 49
0.0
 49
0.0
 49
0.0
 49
0.0
 49
1.0
 49
0.0
 49
0.0
 49
0.0
 49
0.0
 49
1.0
142
0.0007999999797903
142
0.0
142
0.0
142
0.0
142
0.0
142
0.0007999999797903
142
0.0
142
0.0
142
0.0
142
0.0
142
1.0
142
0.0
142
0.0
142
0.0
142
0.0
142
1.0
144
0.0007999999797903
144
0.0
144
0.0
144
0.0
144
0.0
144
0.0007999999797903
144
0.0
144
0.0
144
0.0
144
0.0
144
1.0
144
0.0
144
0.0
144
0.0
144
0.0
144
1.0
 94
       63
1001
ACAD
1070
    -1
1070
     3
1070
     0
1000

1071
        0
1070
     0
  0
MLEADERSTYLE
  5
BD9
102
{ACAD_REACTORS
330
42
102
}
330
42
100
AcDbMLeaderStyle
179
     2
170
     2
171
     1
172
     0
 90
        2
 40
0.0
 41
0.0
173
     1
 91
-1023410173
340
28
 92
       -2
290
     1
 42
2.0
291
     1
 43
0.36
  3
Standard
 44
4.0
300

342
25
174
     1
178
     6
175
     1
176
     0
 93
-1023410174
 45
3.0
292
     0
297
     0
 46
4.0
 94
-1056964608
 47
1.0
 49
1.0
140
1.0
293
     1
141
0.0
294
     1
177
     0
142
1.0
295
     0
296
     0
143
0.125
271
     0
272
     9
273
     9
298
     1
  0
MLINESTYLE
  5
43
102
{ACAD_REACTORS
330
3B
102
}
330
3B
100
AcDbMlineStyle
  2
STANDARD
 70
     0
  3

 62
   256
 51
90.0
 52
90.0
 71
     2
 49
0.5
 62
   256
  6
BYLAYER
 49
-0.5
 62
   256
  6
BYLAYER
  0
ACDBPLACEHOLDER
  5
9
102
{ACAD_REACTORS
330
A
102
}
330
A
  0
SCALE
  5
48
102
{ACAD_REACTORS
330
40
102
}
330
40
100
AcDbScale
 70
     0
300
1:1
140
1.0
141
1.0
290
     1
  0
SCALE
  5
49
102
{ACAD_REACTORS
330
40
102
}
330
40
100
AcDbScale
 70
     0
300
1:2
140
1.0
141
2.0
290
     0
  0
SCALE
  5
4A
102
{ACAD_REACTORS
330
40
102
}
330
40
100
AcDbScale
 70
     0
300
1:4
140
1.0
141
4.0
290
     0
  0
SCALE
  5
4B
102
{ACAD_REACTORS
330
40
102
}
330
40
100
AcDbScale
 70
     0
300
1:5
140
1.0
141
5.0
290
     0
  0
SCALE
  5
4C
102
{ACAD_REACTORS
330
40
102
}
330
40
100
AcDbScale
 70
     0
300
1:8
140
1.0
141
8.0
290
     0
  0
SCALE
  5
4D
102
{ACAD_REACTORS
330
40
102
}
330
40
100
AcDbScale
 70
     0
300
1:10
140
1.0
141
10.0
290
     0
  0
SCALE
  5
4E
102
{ACAD_REACTORS
330
40
102
}
330
40
100
AcDbScale
 70
     0
300
1:16
140
1.0
141
16.0
290
     0
  0
SCALE
  5
4F
102
{ACAD_REACTORS
330
40
102
}
330
40
100
AcDbScale
 70
     0
300
1:20
140
1.0
141
20.0
290
     0
  0
SCALE
  5
50
102
{ACAD_REACTORS
330
40
102
}
330
40
100
AcDbScale
 70
     0
300
1:30
140
1.0
141
30.0
290
     0
  0
SCALE
  5
51
102
{ACAD_REACTORS
330
40
102
}
330
40
100
AcDbScale
 70
     0
300
1:40
140
1.0
141
40.0
290
     0
  0
SCALE
  5
52
102
{ACAD_REACTORS
330
40
102
}
330
40
100
AcDbScale
 70
     0
300
1:50
140
1.0
141
50.0
290
     0
  0
SCALE
  5
53
102
{ACAD_REACTORS
330
40
102
}
330
40
100
AcDbScale
 70
     0
300
1:100
140
1.0
141
100.0
290
     0
  0
SCALE
  5
54
102
{ACAD_REACTORS
330
40
102
}
330
40
100
AcDbScale
 70
     0
300
2:1
140
2.0
141
1.0
290
     0
  0
SCALE
  5
55
102
{ACAD_REACTORS
330
40
102
}
330
40
100
AcDbScale
 70
     0
300
4:1
140
4.0
141
1.0
290
     0
  0
SCALE
  5
56
102
{ACAD_REACTORS
330
40
102
}
330
40
100
AcDbScale
 70
     0
300
8:1
140
8.0
141
1.0
290
     0
  0
SCALE
  5
57
102
{ACAD_REACTORS
330
40
102
}
330
40
100
AcDbScale
 70
     0
300
10:1
140
10.0
141
1.0
290
     0
  0
SCALE
  5
58
102
{ACAD_REACTORS
330
40
102
}
330
40
100
AcDbScale
 70
     0
300
100:1
140
100.0
141
1.0
290
     0
  0
ACDBSECTIONVIEWSTYLE
  5
283CC
102
{ACAD_XDICTIONARY
360
3CC1B
102
}
102
{ACAD_REACTORS
330
BDA
102
}
330
BDA
100
AcDbModelDocViewStyle
 70
     0
  3
Imperial24
290
     0
100
AcDbSectionViewStyle
 70
     0
 71
     0
 90
       78
 71
     1
340
25
 62
   256
 40
0.24
340
0
340
0
 62
   256
 40
0.24
300
I, O, Q, S, X, Z
 40
0.48
 90
        3
 40
0.18
 90
        1
 71
     2
340
14
 90
       25
 62
   256
340
14
 90
       50
 62
   256
 40
0.24
 40
0.0
 40
0.24
 71
     3
340
25
 62
   256
 40
0.24
 90
        1
 40
0.75
 90
        1
300
%<\AcVar ViewType \f "%tc1">% %<\AcVar ViewSectionStartId>%-%<\AcVar ViewSectionEndId>%\PSCALE %<\AcVar ViewScale \f "%sn">%
 71
     4
 62
   256
 62
   257
300
ANSI31
 40
1.0
 90
        0
290
     0
290
     0
 90
        6
 40
0.0
 40
1.570796326794896
 40
0.2617993877991494
 40
1.308996938995747
 40
-0.2617993877991494
 40
1.832595714594046
  0
ACDBSECTIONVIEWSTYLE
  5
BDB
102
{ACAD_XDICTIONARY
360
3CC17
102
}
102
{ACAD_REACTORS
330
BDA
102
}
330
BDA
100
AcDbModelDocViewStyle
 70
     0
  3
Metric50
290
     0
100
AcDbSectionViewStyle
 70
     0
 71
     0
 90
      102
 71
     1
340
25
 62
   256
 40
5.0
340
0
340
0
 62
   256
 40
5.0
300
I, O, Q, S, X, Z
 40
10.0
 90
        0
 40
2.5
 90
        0
 71
     2
340
14
 90
       25
 62
   256
340
14
 90
       50
 62
   256
 40
5.0
 40
2.5
 40
5.0
 71
     3
340
25
 62
   256
 40
5.0
 90
        0
 40
15.0
 90
        1
300
%<\AcVar ViewSectionStartId>%-%<\AcVar ViewSectionEndId>% (%<\AcVar ViewScale \f "%sn">%)
 71
     4
 62
   256
 62
   257
300
ANSI31
 40
1.0
 90
        0
290
     0
290
     0
 90
        6
 40
0.0
 40
1.570796326794896
 40
0.2617993877991494
 40
1.308996938995747
 40
-0.2617993877991494
 40
1.832595714594046
  0
TABLESTYLE
  5
44
102
{ACAD_XDICTIONARY
360
45
102
}
102
{ACAD_REACTORS
330
41
102
}
330
41
100
AcDbTableStyle
280
     0
  3
Standard
 70
     0
 71
     0
 40
1.5
 41
1.5
280
     0
281
     0
  7
Standard
140
4.5
170
     2
 62
     0
 63
     7
283
     0
 90
      512
 91
        0
  1

274
    -2
284
     1
 64
     0
275
    -2
285
     1
 65
     0
276
    -2
286
     1
 66
     0
277
    -2
287
     1
 67
     0
278
    -2
288
     1
 68
     0
279
    -2
289
     1
 69
     0
  7
Standard
140
6.0
170
     5
 62
     0
 63
     7
283
     0
 90
      512
 91
        0
  1

274
    -2
284
     1
 64
     0
275
    -2
285
     1
 65
     0
276
    -2
286
     1
 66
     0
277
    -2
287
     1
 67
     0
278
    -2
288
     1
 68
     0
279
    -2
289
     1
 69
     0
  7
Standard
140
4.5
170
     5
 62
     0
 63
     7
283
     0
 90
      512
 91
        0
  1

274
    -2
284
     1
 64
     0
275
    -2
285
     1
 65
     0
276
    -2
286
     1
 66
     0
277
    -2
287
     1
 67
     0
278
    -2
288
     1
 68
     0
279
    -2
289
     1
 69
     0
  0
VISUALSTYLE
  5
2E
102
{ACAD_REACTORS
330
2F
102
}
330
2F
100
AcDbVisualStyle
  2
2dWireframe
 70
     4
177
     3
291
     0
 70
    58
 90
        0
176
     1
 90
        2
176
     1
 90
        1
176
     1
 90
        0
176
     1
 40
0.6
176
     1
 40
30.0
176
     1
 62
     7
176
     1
 90
        1
176
     1
 90
        4
176
     1
 62
     7
176
     1
 62
   257
176
     1
 90
        1
176
     1
 90
        1
176
     1
 40
1.0
176
     1
 90
        0
176
     1
 62
   257
176
     1
 40
1.0
176
     1
 90
        1
176
     1
 90
        6
176
     1
 90
        2
176
     1
 62
     7
176
     1
 90
        5
176
     1
 90
        0
176
     1
 90
        0
176
     1
290
     0
176
     1
 90
        1
176
     1
 40
0.0
176
     1
 90
        0
176
     1
290
     1
176
     1
290
     1
176
     1
290
     0
176
     1
290
     0
176
     1
290
     0
176
     1
290
     0
176
     1
290
     0
176
     1
290
     0
176
     1
290
     0
176
     1
 90
       50
176
     1
 40
0.0
176
     1
 40
1.0
176
     1
 90
        0
176
     1
 62
    18
420
        0
176
     1
 90
       50
176
     1
 90
        3
176
     1
 62
     5
420
      255
176
     1
290
     0
176
     1
 90
       50
176
     1
 90
       50
176
     1
 90
       50
176
     1
290
     0
176
     1
 90
       50
176
     1
 62
   256
176
     0
 40
1.0
176
     0
 90
        2
176
     1
  1
strokes_ogs.tif
176
     1
290
     0
176
     1
 40
1.0
176
     1
 40
1.0
176
     1
  0
VISUALSTYLE
  5
1A64
102
{ACAD_REACTORS
330
2F
102
}
330
2F
100
AcDbVisualStyle
  2
3D Hidden
 70
     6
177
     3
291
     0
 70
    58
 90
        1
176
     1
 90
        2
176
     1
 90
        2
176
     1
 90
        0
176
     1
 40
0.6
176
     1
 40
30.0
176
     1
 62
     7
176
     1
 90
        2
176
     1
 90
        2
176
     1
 62
     7
176
     1
 62
   257
176
     1
 90
        2
176
     1
 90
        1
176
     1
 40
40.0
176
     1
 90
        0
176
     1
 62
   257
176
     1
 40
1.0
176
     1
 90
        1
176
     1
 90
        6
176
     1
 90
        2
176
     1
 62
     7
176
     1
 90
        3
176
     1
 90
        0
176
     1
 90
        0
176
     1
290
     0
176
     1
 90
        1
176
     1
 40
0.0
176
     1
 90
        0
176
     1
290
     0
176
     1
290
     1
176
     1
290
     1
176
     1
290
     0
176
     1
290
     0
176
     1
290
     0
176
     1
290
     0
176
     1
290
     0
176
     1
290
     0
176
     1
 90
       50
176
     1
 40
0.0
176
     1
 40
1.0
176
     1
 90
        0
176
     1
 62
    18
420
        0
176
     1
 90
       50
176
     1
 90
        3
176
     1
 62
     5
420
      255
176
     1
290
     0
176
     1
 90
       50
176
     1
 90
       50
176
     1
 90
       50
176
     1
290
     0
176
     1
 90
       50
176
     1
 62
   256
176
     0
 40
1.0
176
     0
 90
        2
176
     1
  1
strokes_ogs.tif
176
     1
290
     0
176
     1
 40
1.0
176
     1
 40
1.0
176
     1
  0
VISUALSTYLE
  5
47
102
{ACAD_REACTORS
330
2F
102
}
330
2F
100
AcDbVisualStyle
  2
3dWireframe
 70
     5
177
     3
291
     0
 70
    58
 90
        0
176
     1
 90
        2
176
     1
 90
        1
176
     1
 90
        0
176
     1
 40
0.6
176
     1
 40
30.0
176
     1
 62
     7
176
     1
 90
        1
176
     1
 90
        4
176
     1
 62
     7
176
     1
 62
   257
176
     1
 90
        1
176
     1
 90
        1
176
     1
 40
1.0
176
     1
 90
        0
176
     1
 62
   257
176
     1
 40
1.0
176
     1
 90
        1
176
     1
 90
        6
176
     1
 90
        2
176
     1
 62
     7
176
     1
 90
        5
176
     1
 90
        0
176
     1
 90
        0
176
     1
290
     0
176
     1
 90
        1
176
     1
 40
0.0
176
     1
 90
        0
176
     1
290
     0
176
     1
290
     1
176
     1
290
     1
176
     1
290
     0
176
     1
290
     0
176
     1
290
     0
176
     1
290
     0
176
     1
290
     0
176
     1
290
     0
176
     1
 90
       50
176
     1
 40
0.0
176
     1
 40
1.0
176
     1
 90
        0
176
     1
 62
    18
420
        0
176
     1
 90
       50
176
     1
 90
        3
176
     1
 62
     5
420
      255
176
     1
290
     0
176
     1
 90
       50
176
     1
 90
       50
176
     1
 90
       50
176
     1
290
     0
176
     1
 90
       50
176
     1
 62
   256
176
     0
 40
1.0
176
     0
 90
        2
176
     1
  1
strokes_ogs.tif
176
     1
290
     0
176
     1
 40
1.0
176
     1
 40
1.0
176
     1
  0
VISUALSTYLE
  5
BC7
102
{ACAD_REACTORS
330
2F
102
}
330
2F
100
AcDbVisualStyle
  2
Basic
 70
     7
177
     3
291
     1
 70
    58
 90
        1
176
     1
 90
        0
176
     1
 90
        1
176
     1
 90
        0
176
     1
 40
0.6
176
     1
 40
30.0
176
     1
 62
     7
176
     1
 90
        0
176
     1
 90
        4
176
     1
 62
     7
176
     1
 62
   257
176
     1
 90
        1
176
     1
 90
        1
176
     1
 40
1.0
176
     1
 90
        8
176
     1
 62
     7
176
     1
 40
1.0
176
     1
 90
        1
176
     1
 90
        6
176
     1
 90
        2
176
     1
 62
     7
176
     1
 90
        5
176
     1
 90
        0
176
     1
 90
        0
176
     1
290
     0
176
     1
 90
        1
176
     1
 40
0.0
176
     1
 90
        0
176
     1
290
     0
176
     1
290
     1
176
     1
290
     1
176
     1
290
     0
176
     1
290
     0
176
     1
290
     0
176
     1
290
     0
176
     1
290
     0
176
     1
290
     0
176
     1
 90
       50
176
     1
 40
0.0
176
     1
 40
1.0
176
     1
 90
        0
176
     1
 62
    18
420
        0
176
     1
 90
       50
176
     1
 90
        3
176
     1
 62
     5
420
      255
176
     1
290
     0
176
     1
 90
       50
176
     1
 90
       50
176
     1
 90
       50
176
     1
290
     0
176
     1
 90
       50
176
     1
 62
   256
176
     0
 40
1.0
176
     0
 90
        2
176
     1
  1
strokes_ogs.tif
176
     1
290
     0
176
     1
 40
1.0
176
     1
 40
1.0
176
     1
  0
VISUALSTYLE
  5
BCC
102
{ACAD_REACTORS
330
2F
102
}
330
2F
100
AcDbVisualStyle
  2
Brighten
 70
    12
177
     3
291
     1
 70
    58
 90
        2
176
     1
 90
        2
176
     1
 90
        0
176
     1
 90
        0
176
     1
 40
0.6
176
     1
 40
30.0
176
     1
 62
     7
176
     1
 90
        1
176
     1
 90
        4
176
     1
 62
     7
176
     1
 62
   257
176
     1
 90
        1
176
     1
 90
        1
176
     1
 40
1.0
176
     1
 90
        8
176
     1
 62
     7
176
     1
 40
1.0
176
     1
 90
        1
176
     1
 90
        6
176
     1
 90
        2
176
     1
 62
     7
176
     1
 90
        5
176
     1
 90
        0
176
     1
 90
        0
176
     1
290
     0
176
     1
 90
        1
176
     1
 40
50.0
176
     1
 90
        0
176
     1
290
     0
176
     1
290
     1
176
     1
290
     1
176
     1
290
     0
176
     1
290
     0
176
     1
290
     0
176
     1
290
     0
176
     1
290
     0
176
     1
290
     0
176
     1
 90
       50
176
     1
 40
0.0
176
     1
 40
1.0
176
     1
 90
        0
176
     1
 62
    18
420
        0
176
     1
 90
       50
176
     1
 90
        3
176
     1
 62
     5
420
      255
176
     1
290
     0
176
     1
 90
       50
176
     1
 90
       50
176
     1
 90
       50
176
     1
290
     0
176
     1
 90
       50
176
     1
 62
   256
176
     0
 40
1.0
176
     0
 90
        2
176
     1
  1
strokes_ogs.tif
176
     1
290
     0
176
     1
 40
1.0
176
     1
 40
1.0
176
     1
  0
VISUALSTYLE
  5
BD0
102
{ACAD_REACTORS
330
2F
102
}
330
2F
100
AcDbVisualStyle
  2
ColorChange
 70
    16
177
     3
291
     1
 70
    58
 90
        2
176
     1
 90
        2
176
     1
 90
        3
176
     1
 90
        0
176
     1
 40
0.6
176
     1
 40
30.0
176
     1
 62
     8
176
     1
 90
        1
176
     1
 90
        4
176
     1
 62
     7
176
     1
 62
   257
176
     1
 90
        1
176
     1
 90
        1
176
     1
 40
1.0
176
     1
 90
        8
176
     1
 62
     8
176
     1
 40
1.0
176
     1
 90
        1
176
     1
 90
        6
176
     1
 90
        2
176
     1
 62
     7
176
     1
 90
        5
176
     1
 90
        0
176
     1
 90
        0
176
     1
290
     0
176
     1
 90
        1
176
     1
 40
0.0
176
     1
 90
        0
176
     1
290
     0
176
     1
290
     1
176
     1
290
     1
176
     1
290
     0
176
     1
290
     0
176
     1
290
     0
176
     1
290
     0
176
     1
290
     0
176
     1
290
     0
176
     1
 90
       50
176
     1
 40
0.0
176
     1
 40
1.0
176
     1
 90
        0
176
     1
 62
    18
420
        0
176
     1
 90
       50
176
     1
 90
        3
176
     1
 62
     5
420
      255
176
     1
290
     0
176
     1
 90
       50
176
     1
 90
       50
176
     1
 90
       50
176
     1
290
     0
176
     1
 90
       50
176
     1
 62
   256
176
     0
 40
1.0
176
     0
 90
        2
176
     1
  1
strokes_ogs.tif
176
     1
290
     0
176
     1
 40
1.0
176
     1
 40
1.0
176
     1
  0
VISUALSTYLE
  5
BCA
102
{ACAD_REACTORS
330
2F
102
}
330
2F
100
AcDbVisualStyle
  2
Conceptual
 70
     9
177
     3
291
     0
 70
    58
 90
        3
176
     1
 90
        2
176
     1
 90
        0
176
     1
 90
        0
176
     1
 40
0.6
176
     1
 40
30.0
176
     1
 62
     7
176
     1
 90
        2
176
     1
 90
        2
176
     1
 62
     7
176
     1
 62
   257
176
     1
 90
        1
176
     1
 90
        1
176
     1
 40
179.0
176
     1
 90
        8
176
     1
 62
     7
176
     1
 40
1.0
176
     1
 90
        1
176
     1
 90
        6
176
     1
 90
        2
176
     1
 62
     7
176
     1
 90
        3
176
     1
 90
        0
176
     1
 90
        0
176
     1
290
     0
176
     1
 90
        1
176
     1
 40
0.0
176
     1
 90
        0
176
     1
290
     0
176
     1
290
     1
176
     1
290
     1
176
     1
290
     0
176
     1
290
     0
176
     1
290
     0
176
     1
290
     0
176
     1
290
     0
176
     1
290
     0
176
     1
 90
       50
176
     1
 40
0.0
176
     1
 40
1.0
176
     1
 90
        0
176
     1
 62
    18
420
        0
176
     1
 90
       50
176
     1
 90
        3
176
     1
 62
     5
420
      255
176
     1
290
     0
176
     1
 90
       50
176
     1
 90
       50
176
     1
 90
       50
176
     1
290
     0
176
     1
 90
       50
176
     1
 62
   256
176
     0
 40
1.0
176
     0
 90
        2
176
     1
  1
strokes_ogs.tif
176
     1
290
     0
176
     1
 40
1.0
176
     1
 40
1.0
176
     1
  0
VISUALSTYLE
  5
BCB
102
{ACAD_REACTORS
330
2F
102
}
330
2F
100
AcDbVisualStyle
  2
Dim
 70
    11
177
     3
291
     1
 70
    58
 90
        2
176
     1
 90
        2
176
     1
 90
        0
176
     1
 90
        0
176
     1
 40
0.6
176
     1
 40
30.0
176
     1
 62
     7
176
     1
 90
        1
176
     1
 90
        4
176
     1
 62
     7
176
     1
 62
   257
176
     1
 90
        1
176
     1
 90
        1
176
     1
 40
1.0
176
     1
 90
        8
176
     1
 62
     7
176
     1
 40
1.0
176
     1
 90
        1
176
     1
 90
        6
176
     1
 90
        2
176
     1
 62
     7
176
     1
 90
        5
176
     1
 90
        0
176
     1
 90
        0
176
     1
290
     0
176
     1
 90
        1
176
     1
 40
-50.0
176
     1
 90
        0
176
     1
290
     0
176
     1
290
     1
176
     1
290
     1
176
     1
290
     0
176
     1
290
     0
176
     1
290
     0
176
     1
290
     0
176
     1
290
     0
176
     1
290
     0
176
     1
 90
       50
176
     1
 40
0.0
176
     1
 40
1.0
176
     1
 90
        0
176
     1
 62
    18
420
        0
176
     1
 90
       50
176
     1
 90
        3
176
     1
 62
     5
420
      255
176
     1
290
     0
176
     1
 90
       50
176
     1
 90
       50
176
     1
 90
       50
176
     1
290
     0
176
     1
 90
       50
176
     1
 62
   256
176
     0
 40
1.0
176
     0
 90
        2
176
     1
  1
strokes_ogs.tif
176
     1
290
     0
176
     1
 40
1.0
176
     1
 40
1.0
176
     1
  0
VISUALSTYLE
  5
BD8
102
{ACAD_REACTORS
330
2F
102
}
330
2F
100
AcDbVisualStyle
  2
EdgeColorOff
 70
    22
177
     3
291
     1
 70
    58
 90
        2
176
     0
 90
        2
176
     0
 90
        0
176
     0
 90
        0
176
     0
 40
0.6
176
     0
 40
30.0
176
     0
 62
     7
176
     0
 90
        1
176
     0
 90
        4
176
     0
 62
     7
176
     0
 62
   257
176
     0
 90
        1
176
     0
 90
        1
176
     0
 40
1.0
176
     0
 90
        8
176
     2
 62
     7
176
     0
 40
1.0
176
     0
 90
        1
176
     0
 90
        6
176
     0
 90
        2
176
     0
 62
     7
176
     0
 90
        5
176
     0
 90
        0
176
     0
 90
        0
176
     0
290
     0
176
     0
 90
        1
176
     0
 40
0.0
176
     0
 90
        0
176
     0
290
     0
176
     0
290
     1
176
     0
290
     1
176
     0
290
     0
176
     0
290
     0
176
     0
290
     0
176
     0
290
     0
176
     0
290
     0
176
     0
290
     0
176
     0
 90
       50
176
     0
 40
0.0
176
     0
 40
1.0
176
     0
 90
        0
176
     0
 62
    18
420
        0
176
     0
 90
       50
176
     0
 90
        3
176
     0
 62
     5
420
      255
176
     0
290
     0
176
     0
 90
       50
176
     0
 90
       50
176
     0
 90
       50
176
     0
290
     0
176
     0
 90
       50
176
     0
 62
   256
176
     0
 40
1.0
176
     0
 90
        2
176
     0
  1
strokes_ogs.tif
176
     0
290
     0
176
     0
 40
1.0
176
     0
 40
1.0
176
     0
  0
VISUALSTYLE
  5
BCF
102
{ACAD_REACTORS
330
2F
102
}
330
2F
100
AcDbVisualStyle
  2
Facepattern
 70
    15
177
     3
291
     1
 70
    58
 90
        2
176
     1
 90
        2
176
     1
 90
        0
176
     1
 90
        0
176
     1
 40
0.6
176
     1
 40
30.0
176
     1
 62
     7
176
     1
 90
        1
176
     1
 90
        4
176
     1
 62
     7
176
     1
 62
   257
176
     1
 90
        1
176
     1
 90
        1
176
     1
 40
1.0
176
     1
 90
        8
176
     1
 62
     7
176
     1
 40
1.0
176
     1
 90
        1
176
     1
 90
        6
176
     1
 90
        2
176
     1
 62
     7
176
     1
 90
        5
176
     1
 90
        0
176
     1
 90
        0
176
     1
290
     0
176
     1
 90
        1
176
     1
 40
0.0
176
     1
 90
        0
176
     1
290
     0
176
     1
290
     1
176
     1
290
     1
176
     1
290
     0
176
     1
290
     0
176
     1
290
     0
176
     1
290
     0
176
     1
290
     0
176
     1
290
     0
176
     1
 90
       50
176
     1
 40
0.0
176
     1
 40
1.0
176
     1
 90
        0
176
     1
 62
    18
420
        0
176
     1
 90
       50
176
     1
 90
        3
176
     1
 62
     5
420
      255
176
     1
290
     0
176
     1
 90
       50
176
     1
 90
       50
176
     1
 90
       50
176
     1
290
     0
176
     1
 90
       50
176
     1
 62
   256
176
     0
 40
1.0
176
     0
 90
        2
176
     1
  1
strokes_ogs.tif
176
     1
290
     0
176
     1
 40
1.0
176
     1
 40
1.0
176
     1
  0
VISUALSTYLE
  5
BC3
102
{ACAD_REACTORS
330
2F
102
}
330
2F
100
AcDbVisualStyle
  2
Flat
 70
     0
177
     3
291
     1
 70
    58
 90
        2
176
     1
 90
        1
176
     1
 90
        1
176
     1
 90
        2
176
     1
 40
0.6
176
     1
 40
30.0
176
     1
 62
     7
176
     1
 90
        0
176
     1
 90
        0
176
     1
 62
     7
176
     1
 62
   257
176
     1
 90
        1
176
     1
 90
        1
176
     1
 40
1.0
176
     1
 90
        8
176
     1
 62
     7
176
     1
 40
1.0
176
     1
 90
        1
176
     1
 90
        6
176
     1
 90
        2
176
     1
 62
     7
176
     1
 90
        5
176
     1
 90
        0
176
     1
 90
        0
176
     1
290
     0
176
     1
 90
       13
176
     1
 40
0.0
176
     1
 90
        0
176
     1
290
     0
176
     1
290
     1
176
     1
290
     1
176
     1
290
     0
176
     1
290
     0
176
     1
290
     0
176
     1
290
     0
176
     1
290
     0
176
     1
290
     0
176
     1
 90
       50
176
     1
 40
0.0
176
     1
 40
1.0
176
     1
 90
        0
176
     1
 62
    18
420
        0
176
     1
 90
       50
176
     1
 90
        3
176
     1
 62
     5
420
      255
176
     1
290
     0
176
     1
 90
       50
176
     1
 90
       50
176
     1
 90
       50
176
     1
290
     0
176
     1
 90
       50
176
     1
 62
   256
176
     0
 40
1.0
176
     0
 90
        2
176
     1
  1
strokes_ogs.tif
176
     1
290
     0
176
     1
 40
1.0
176
     1
 40
1.0
176
     1
  0
VISUALSTYLE
  5
BC4
102
{ACAD_REACTORS
330
2F
102
}
330
2F
100
AcDbVisualStyle
  2
FlatWithEdges
 70
     1
177
     3
291
     1
 70
    58
 90
        2
176
     1
 90
        1
176
     1
 90
        1
176
     1
 90
        2
176
     1
 40
0.6
176
     1
 40
30.0
176
     1
 62
     7
176
     1
 90
        1
176
     1
 90
        0
176
     1
 62
     7
176
     1
 62
   257
176
     1
 90
        1
176
     1
 90
        1
176
     1
 40
1.0
176
     1
 90
        0
176
     1
 62
   257
176
     1
 40
1.0
176
     1
 90
        1
176
     1
 90
        6
176
     1
 90
        2
176
     1
 62
     7
176
     1
 90
        5
176
     1
 90
        0
176
     1
 90
        0
176
     1
290
     0
176
     1
 90
       13
176
     1
 40
0.0
176
     1
 90
        0
176
     1
290
     0
176
     1
290
     1
176
     1
290
     1
176
     1
290
     0
176
     1
290
     0
176
     1
290
     0
176
     1
290
     0
176
     1
290
     0
176
     1
290
     0
176
     1
 90
       50
176
     1
 40
0.0
176
     1
 40
1.0
176
     1
 90
        0
176
     1
 62
    18
420
        0
176
     1
 90
       50
176
     1
 90
        3
176
     1
 62
     5
420
      255
176
     1
290
     0
176
     1
 90
       50
176
     1
 90
       50
176
     1
 90
       50
176
     1
290
     0
176
     1
 90
       50
176
     1
 62
   256
176
     0
 40
1.0
176
     0
 90
        2
176
     1
  1
strokes_ogs.tif
176
     1
290
     0
176
     1
 40
1.0
176
     1
 40
1.0
176
     1
  0
VISUALSTYLE
  5
BC5
102
{ACAD_REACTORS
330
2F
102
}
330
2F
100
AcDbVisualStyle
  2
Gouraud
 70
     2
177
     3
291
     1
 70
    58
 90
        2
176
     1
 90
        2
176
     1
 90
        1
176
     1
 90
        2
176
     1
 40
0.6
176
     1
 40
30.0
176
     1
 62
     7
176
     1
 90
        0
176
     1
 90
        0
176
     1
 62
     7
176
     1
 62
   257
176
     1
 90
        1
176
     1
 90
        1
176
     1
 40
1.0
176
     1
 90
        0
176
     1
 62
     7
176
     1
 40
1.0
176
     1
 90
        1
176
     1
 90
        6
176
     1
 90
        2
176
     1
 62
     7
176
     1
 90
        5
176
     1
 90
        0
176
     1
 90
        0
176
     1
290
     0
176
     1
 90
       13
176
     1
 40
0.0
176
     1
 90
        0
176
     1
290
     0
176
     1
290
     1
176
     1
290
     1
176
     1
290
     0
176
     1
290
     0
176
     1
290
     0
176
     1
290
     0
176
     1
290
     0
176
     1
290
     0
176
     1
 90
       50
176
     1
 40
0.0
176
     1
 40
1.0
176
     1
 90
        0
176
     1
 62
    18
420
        0
176
     1
 90
       50
176
     1
 90
        3
176
     1
 62
     5
420
      255
176
     1
290
     0
176
     1
 90
       50
176
     1
 90
       50
176
     1
 90
       50
176
     1
290
     0
176
     1
 90
       50
176
     1
 62
   256
176
     0
 40
1.0
176
     0
 90
        2
176
     1
  1
strokes_ogs.tif
176
     1
290
     0
176
     1
 40
1.0
176
     1
 40
1.0
176
     1
  0
VISUALSTYLE
  5
BC6
102
{ACAD_REACTORS
330
2F
102
}
330
2F
100
AcDbVisualStyle
  2
GouraudWithEdges
 70
     3
177
     3
291
     1
 70
    58
 90
        2
176
     1
 90
        2
176
     1
 90
        1
176
     1
 90
        2
176
     1
 40
0.6
176
     1
 40
30.0
176
     1
 62
     7
176
     1
 90
        1
176
     1
 90
        0
176
     1
 62
     7
176
     1
 62
   257
176
     1
 90
        1
176
     1
 90
        1
176
     1
 40
1.0
176
     1
 90
        0
176
     1
 62
   257
176
     1
 40
1.0
176
     1
 90
        1
176
     1
 90
        6
176
     1
 90
        2
176
     1
 62
     7
176
     1
 90
        5
176
     1
 90
        0
176
     1
 90
        0
176
     1
290
     0
176
     1
 90
       13
176
     1
 40
0.0
176
     1
 90
        0
176
     1
290
     0
176
     1
290
     1
176
     1
290
     1
176
     1
290
     0
176
     1
290
     0
176
     1
290
     0
176
     1
290
     0
176
     1
290
     0
176
     1
290
     0
176
     1
 90
       50
176
     1
 40
0.0
176
     1
 40
1.0
176
     1
 90
        0
176
     1
 62
    18
420
        0
176
     1
 90
       50
176
     1
 90
        3
176
     1
 62
     5
420
      255
176
     1
290
     0
176
     1
 90
       50
176
     1
 90
       50
176
     1
 90
       50
176
     1
290
     0
176
     1
 90
       50
176
     1
 62
   256
176
     0
 40
1.0
176
     0
 90
        2
176
     1
  1
strokes_ogs.tif
176
     1
290
     0
176
     1
 40
1.0
176
     1
 40
1.0
176
     1
  0
VISUALSTYLE
  5
BC9
102
{ACAD_REACTORS
330
2F
102
}
330
2F
100
AcDbVisualStyle
  2
Hidden
 70
     6
177
     3
291
     0
 70
    58
 90
        1
176
     1
 90
        2
176
     1
 90
        2
176
     1
 90
        0
176
     1
 40
0.6
176
     1
 40
30.0
176
     1
 62
     7
176
     1
 90
        2
176
     1
 90
        2
176
     1
 62
     7
176
     1
 62
   257
176
     1
 90
        2
176
     1
 90
        1
176
     1
 40
40.0
176
     1
 90
        0
176
     1
 62
   257
176
     1
 40
1.0
176
     1
 90
        1
176
     1
 90
        6
176
     1
 90
        2
176
     1
 62
     7
176
     1
 90
        3
176
     1
 90
        0
176
     1
 90
        0
176
     1
290
     0
176
     1
 90
        1
176
     1
 40
0.0
176
     1
 90
        0
176
     1
290
     0
176
     1
290
     1
176
     1
290
     1
176
     1
290
     0
176
     1
290
     0
176
     1
290
     0
176
     1
290
     0
176
     1
290
     0
176
     1
290
     0
176
     1
 90
       50
176
     1
 40
0.0
176
     1
 40
1.0
176
     1
 90
        0
176
     1
 62
    18
420
        0
176
     1
 90
       50
176
     1
 90
        3
176
     1
 62
     5
420
      255
176
     1
290
     0
176
     1
 90
       50
176
     1
 90
       50
176
     1
 90
       50
176
     1
290
     0
176
     1
 90
       50
176
     1
 62
   256
176
     0
 40
1.0
176
     0
 90
        2
176
     1
  1
strokes_ogs.tif
176
     1
290
     0
176
     1
 40
1.0
176
     1
 40
1.0
176
     1
  0
VISUALSTYLE
  5
BD6
102
{ACAD_REACTORS
330
2F
102
}
330
2F
100
AcDbVisualStyle
  2
JitterOff
 70
    20
177
     3
291
     1
 70
    58
 90
        2
176
     0
 90
        2
176
     0
 90
        0
176
     0
 90
        0
176
     0
 40
0.6
176
     0
 40
30.0
176
     0
 62
     7
176
     0
 90
        1
176
     0
 90
        4
176
     0
 62
     7
176
     0
 62
   257
176
     0
 90
        1
176
     0
 90
        1
176
     0
 40
1.0
176
     0
 90
       10
176
     2
 62
     7
176
     0
 40
1.0
176
     0
 90
        1
176
     0
 90
        6
176
     0
 90
        2
176
     0
 62
     7
176
     0
 90
        5
176
     0
 90
        0
176
     0
 90
        0
176
     0
290
     0
176
     0
 90
        1
176
     0
 40
0.0
176
     0
 90
        0
176
     0
290
     0
176
     0
290
     1
176
     0
290
     1
176
     0
290
     0
176
     0
290
     0
176
     0
290
     0
176
     0
290
     0
176
     0
290
     0
176
     0
290
     0
176
     0
 90
       50
176
     0
 40
0.0
176
     0
 40
1.0
176
     0
 90
        0
176
     0
 62
    18
420
        0
176
     0
 90
       50
176
     0
 90
        3
176
     0
 62
     5
420
      255
176
     0
290
     0
176
     0
 90
       50
176
     0
 90
       50
176
     0
 90
       50
176
     0
290
     0
176
     0
 90
       50
176
     0
 62
   256
176
     0
 40
1.0
176
     0
 90
        2
176
     0
  1
strokes_ogs.tif
176
     0
290
     0
176
     0
 40
1.0
176
     0
 40
1.0
176
     0
  0
VISUALSTYLE
  5
BCE
102
{ACAD_REACTORS
330
2F
102
}
330
2F
100
AcDbVisualStyle
  2
Linepattern
 70
    14
177
     3
291
     1
 70
    58
 90
        2
176
     1
 90
        2
176
     1
 90
        0
176
     1
 90
        0
176
     1
 40
0.6
176
     1
 40
30.0
176
     1
 62
     7
176
     1
 90
        1
176
     1
 90
        4
176
     1
 62
     7
176
     1
 62
   257
176
     1
 90
        7
176
     1
 90
        7
176
     1
 40
1.0
176
     1
 90
        8
176
     1
 62
     7
176
     1
 40
1.0
176
     1
 90
        1
176
     1
 90
        6
176
     1
 90
        2
176
     1
 62
     7
176
     1
 90
        5
176
     1
 90
        0
176
     1
 90
        0
176
     1
290
     0
176
     1
 90
        1
176
     1
 40
0.0
176
     1
 90
        0
176
     1
290
     0
176
     1
290
     1
176
     1
290
     1
176
     1
290
     0
176
     1
290
     0
176
     1
290
     0
176
     1
290
     0
176
     1
290
     0
176
     1
290
     0
176
     1
 90
       50
176
     1
 40
0.0
176
     1
 40
1.0
176
     1
 90
        0
176
     1
 62
    18
420
        0
176
     1
 90
       50
176
     1
 90
        3
176
     1
 62
     5
420
      255
176
     1
290
     0
176
     1
 90
       50
176
     1
 90
       50
176
     1
 90
       50
176
     1
290
     0
176
     1
 90
       50
176
     1
 62
   256
176
     0
 40
1.0
176
     0
 90
        2
176
     1
  1
strokes_ogs.tif
176
     1
290
     0
176
     1
 40
1.0
176
     1
 40
1.0
176
     1
  0
VISUALSTYLE
  5
BD7
102
{ACAD_REACTORS
330
2F
102
}
330
2F
100
AcDbVisualStyle
  2
OverhangOff
 70
    21
177
     3
291
     1
 70
    58
 90
        2
176
     0
 90
        2
176
     0
 90
        0
176
     0
 90
        0
176
     0
 40
0.6
176
     0
 40
30.0
176
     0
 62
     7
176
     0
 90
        1
176
     0
 90
        4
176
     0
 62
     7
176
     0
 62
   257
176
     0
 90
        1
176
     0
 90
        1
176
     0
 40
1.0
176
     0
 90
        9
176
     2
 62
     7
176
     0
 40
1.0
176
     0
 90
        1
176
     0
 90
        6
176
     0
 90
        2
176
     0
 62
     7
176
     0
 90
        5
176
     0
 90
        0
176
     0
 90
        0
176
     0
290
     0
176
     0
 90
        1
176
     0
 40
0.0
176
     0
 90
        0
176
     0
290
     0
176
     0
290
     1
176
     0
290
     1
176
     0
290
     0
176
     0
290
     0
176
     0
290
     0
176
     0
290
     0
176
     0
290
     0
176
     0
290
     0
176
     0
 90
       50
176
     0
 40
0.0
176
     0
 40
1.0
176
     0
 90
        0
176
     0
 62
    18
420
        0
176
     0
 90
       50
176
     0
 90
        3
176
     0
 62
     5
420
      255
176
     0
290
     0
176
     0
 90
       50
176
     0
 90
       50
176
     0
 90
       50
176
     0
290
     0
176
     0
 90
       50
176
     0
 62
   256
176
     0
 40
1.0
176
     0
 90
        2
176
     0
  1
strokes_ogs.tif
176
     0
290
     0
176
     0
 40
1.0
176
     0
 40
1.0
176
     0
  0
VISUALSTYLE
  5
46
102
{ACAD_REACTORS
330
2F
102
}
330
2F
100
AcDbVisualStyle
  2
Realistic
 70
     8
177
     3
291
     0
 70
    58
 90
        2
176
     1
 90
        2
176
     1
 90
        1
176
     1
 90
        0
176
     1
 40
0.6
176
     1
 40
30.0
176
     1
 62
     7
176
     1
 90
        1
176
     1
 90
        0
176
     1
 62
     7
176
     1
 62
   257
176
     1
 90
        1
176
     1
 90
        1
176
     1
 40
1.0
176
     1
 90
        8
176
     1
 62
     8
176
     1
 40
1.0
176
     1
 90
        1
176
     1
 90
        6
176
     1
 90
        2
176
     1
 62
     7
176
     1
 90
        5
176
     1
 90
        0
176
     1
 90
        0
176
     1
290
     0
176
     1
 90
       13
176
     1
 40
0.0
176
     1
 90
        0
176
     1
290
     0
176
     1
290
     1
176
     1
290
     1
176
     1
290
     0
176
     1
290
     0
176
     1
290
     0
176
     1
290
     0
176
     1
290
     0
176
     1
290
     0
176
     1
 90
       50
176
     1
 40
0.0
176
     1
 40
1.0
176
     1
 90
        0
176
     1
 62
    18
420
        0
176
     1
 90
       50
176
     1
 90
        3
176
     1
 62
     5
420
      255
176
     1
290
     0
176
     1
 90
       50
176
     1
 90
       50
176
     1
 90
       50
176
     1
290
     0
176
     1
 90
       50
176
     1
 62
   256
176
     0
 40
1.0
176
     0
 90
        2
176
     1
  1
strokes_ogs.tif
176
     1
290
     0
176
     1
 40
1.0
176
     1
 40
1.0
176
     1
  0
VISUALSTYLE
  5
BD5
102
{ACAD_REACTORS
330
2F
102
}
330
2F
100
AcDbVisualStyle
  2
Shaded
 70
    27
177
     3
291
     0
 70
    58
 90
        2
176
     1
 90
        2
176
     1
 90
        1
176
     1
 90
        2
176
     1
 40
0.6
176
     1
 40
30.0
176
     1
 62
     7
176
     1
 90
        0
176
     1
 90
        4
176
     1
 62
     7
176
     1
 62
   257
176
     1
 90
        1
176
     1
 90
        1
176
     1
 40
1.0
176
     1
 90
        8
176
     1
 62
   257
176
     1
 40
1.0
176
     1
 90
        1
176
     1
 90
        6
176
     1
 90
        2
176
     1
 62
     8
176
     1
 90
        3
176
     1
 90
        0
176
     1
 90
        0
176
     1
290
     0
176
     1
 90
        5
176
     1
 40
0.0
176
     1
 90
        0
176
     1
290
     0
176
     1
290
     1
176
     1
290
     1
176
     1
290
     0
176
     1
290
     0
176
     1
290
     0
176
     1
290
     0
176
     1
290
     0
176
     1
290
     0
176
     1
 90
       50
176
     1
 40
0.0
176
     1
 40
1.0
176
     1
 90
        0
176
     1
 62
    18
420
        0
176
     1
 90
       50
176
     1
 90
        3
176
     1
 62
     5
420
      255
176
     1
290
     0
176
     1
 90
       50
176
     1
 90
       50
176
     1
 90
       50
176
     1
290
     0
176
     1
 90
       50
176
     1
 62
   256
176
     0
 40
1.0
176
     0
 90
        2
176
     1
  1
strokes_ogs.tif
176
     1
290
     0
176
     1
 40
1.0
176
     1
 40
1.0
176
     1
  0
VISUALSTYLE
  5
BD4
102
{ACAD_REACTORS
330
2F
102
}
330
2F
100
AcDbVisualStyle
  2
Shaded with edges
 70
    26
177
     3
291
     0
 70
    58
 90
        2
176
     1
 90
        2
176
     1
 90
        1
176
     1
 90
        2
176
     1
 40
0.6
176
     1
 40
30.0
176
     1
 62
     7
176
     1
 90
        1
176
     1
 90
       10
176
     1
 62
     7
176
     1
 62
   257
176
     1
 90
        2
176
     1
 90
        1
176
     1
 40
1.0
176
     1
 90
        8
176
     1
 62
   257
176
     1
 40
1.0
176
     1
 90
        1
176
     1
 90
        6
176
     1
 90
        2
176
     1
 62
     7
176
     1
 90
        3
176
     1
 90
        0
176
     1
 90
        0
176
     1
290
     0
176
     1
 90
        5
176
     1
 40
0.0
176
     1
 90
        0
176
     1
290
     0
176
     1
290
     1
176
     1
290
     1
176
     1
290
     0
176
     1
290
     0
176
     1
290
     0
176
     1
290
     0
176
     1
290
     0
176
     1
290
     0
176
     1
 90
       50
176
     1
 40
0.0
176
     1
 40
1.0
176
     1
 90
        0
176
     1
 62
    18
420
        0
176
     1
 90
       50
176
     1
 90
        3
176
     1
 62
     5
420
      255
176
     1
290
     0
176
     1
 90
       50
176
     1
 90
       50
176
     1
 90
       50
176
     1
290
     0
176
     1
 90
       50
176
     1
 62
   256
176
     0
 40
1.0
176
     0
 90
        2
176
     1
  1
strokes_ogs.tif
176
     1
290
     0
176
     1
 40
1.0
176
     1
 40
1.0
176
     1
  0
VISUALSTYLE
  5
BD1
102
{ACAD_REACTORS
330
2F
102
}
330
2F
100
AcDbVisualStyle
  2
Shades of Gray
 70
    23
177
     3
291
     0
 70
    58
 90
        2
176
     1
 90
        2
176
     1
 90
        3
176
     1
 90
        0
176
     1
 40
0.6
176
     1
 40
30.0
176
     1
 62
     7
176
     1
 90
        2
176
     1
 90
        2
176
     1
 62
     7
176
     1
 62
     7
176
     1
 90
        1
176
     1
 90
        1
176
     1
 40
40.0
176
     1
 90
        8
176
     1
 62
     7
176
     1
 40
1.0
176
     1
 90
        1
176
     1
 90
        6
176
     1
 90
        2
176
     1
 62
     7
176
     1
 90
        3
176
     1
 90
        0
176
     1
 90
        0
176
     1
290
     0
176
     1
 90
        1
176
     1
 40
0.0
176
     1
 90
        0
176
     1
290
     0
176
     1
290
     1
176
     1
290
     1
176
     1
290
     0
176
     1
290
     0
176
     1
290
     0
176
     1
290
     0
176
     1
290
     0
176
     1
290
     0
176
     1
 90
       50
176
     1
 40
0.0
176
     1
 40
1.0
176
     1
 90
        0
176
     1
 62
    18
420
        0
176
     1
 90
       50
176
     1
 90
        3
176
     1
 62
     5
420
      255
176
     1
290
     0
176
     1
 90
       50
176
     1
 90
       50
176
     1
 90
       50
176
     1
290
     0
176
     1
 90
       50
176
     1
 62
   256
176
     0
 40
1.0
176
     0
 90
        2
176
     1
  1
strokes_ogs.tif
176
     1
290
     0
176
     1
 40
1.0
176
     1
 40
1.0
176
     1
  0
VISUALSTYLE
  5
BD2
102
{ACAD_REACTORS
330
2F
102
}
330
2F
100
AcDbVisualStyle
  2
Sketchy
 70
    24
177
     3
291
     0
 70
    58
 90
        1
176
     1
 90
        2
176
     1
 90
        2
176
     1
 90
        0
176
     1
 40
0.6
176
     1
 40
30.0
176
     1
 62
     7
176
     1
 90
        2
176
     1
 90
        2
176
     1
 62
     7
176
     1
 62
     7
176
     1
 90
        1
176
     1
 90
        1
176
     1
 40
40.0
176
     1
 90
       11
176
     1
 62
     7
176
     1
 40
1.0
176
     1
 90
        1
176
     1
 90
        6
176
     1
 90
        2
176
     1
 62
     7
176
     1
 90
        6
176
     1
 90
        0
176
     1
 90
        0
176
     1
290
     0
176
     1
 90
        1
176
     1
 40
0.0
176
     1
 90
        0
176
     1
290
     0
176
     1
290
     1
176
     1
290
     1
176
     1
290
     0
176
     1
290
     0
176
     1
290
     0
176
     1
290
     0
176
     1
290
     0
176
     1
290
     0
176
     1
 90
       50
176
     1
 40
0.0
176
     1
 40
1.0
176
     1
 90
        0
176
     1
 62
    18
420
        0
176
     1
 90
       50
176
     1
 90
        3
176
     1
 62
     5
420
      255
176
     1
290
     0
176
     1
 90
       50
176
     1
 90
       50
176
     1
 90
       50
176
     1
290
     0
176
     1
 90
       50
176
     1
 62
   256
176
     0
 40
1.0
176
     0
 90
        2
176
     1
  1
strokes_ogs.tif
176
     1
290
     0
176
     1
 40
1.0
176
     1
 40
1.0
176
     1
  0
VISUALSTYLE
  5
BCD
102
{ACAD_REACTORS
330
2F
102
}
330
2F
100
AcDbVisualStyle
  2
Thicken
 70
    13
177
     3
291
     1
 70
    58
 90
        2
176
     1
 90
        2
176
     1
 90
        0
176
     1
 90
        0
176
     1
 40
0.6
176
     1
 40
30.0
176
     1
 62
     7
176
     1
 90
        1
176
     1
 90
        4
176
     1
 62
     7
176
     1
 62
   257
176
     1
 90
        1
176
     1
 90
        1
176
     1
 40
1.0
176
     1
 90
       12
176
     1
 62
     7
176
     1
 40
1.0
176
     1
 90
        1
176
     1
 90
        6
176
     1
 90
        2
176
     1
 62
     7
176
     1
 90
        5
176
     1
 90
        0
176
     1
 90
        0
176
     1
290
     0
176
     1
 90
        1
176
     1
 40
0.0
176
     1
 90
        0
176
     1
290
     0
176
     1
290
     1
176
     1
290
     1
176
     1
290
     0
176
     1
290
     0
176
     1
290
     0
176
     1
290
     0
176
     1
290
     0
176
     1
290
     0
176
     1
 90
       50
176
     1
 40
0.0
176
     1
 40
1.0
176
     1
 90
        0
176
     1
 62
    18
420
        0
176
     1
 90
       50
176
     1
 90
        3
176
     1
 62
     5
420
      255
176
     1
290
     0
176
     1
 90
       50
176
     1
 90
       50
176
     1
 90
       50
176
     1
290
     0
176
     1
 90
       50
176
     1
 62
   256
176
     0
 40
1.0
176
     0
 90
        2
176
     1
  1
strokes_ogs.tif
176
     1
290
     0
176
     1
 40
1.0
176
     1
 40
1.0
176
     1
  0
VISUALSTYLE
  5
BC8
102
{ACAD_REACTORS
330
2F
102
}
330
2F
100
AcDbVisualStyle
  2
Wireframe
 70
     5
177
     3
291
     0
 70
    58
 90
        0
176
     1
 90
        2
176
     1
 90
        0
176
     1
 90
        0
176
     1
 40
0.6
176
     1
 40
30.0
176
     1
 62
     7
176
     1
 90
        1
176
     1
 90
        4
176
     1
 62
     7
176
     1
 62
   257
176
     1
 90
        1
176
     1
 90
        1
176
     1
 40
1.0
176
     1
 90
        0
176
     1
 62
   257
176
     1
 40
1.0
176
     1
 90
        1
176
     1
 90
        6
176
     1
 90
        2
176
     1
 62
     7
176
     1
 90
        3
176
     1
 90
        0
176
     1
 90
        0
176
     1
290
     0
176
     1
 90
        1
176
     1
 40
0.0
176
     1
 90
        0
176
     1
290
     0
176
     1
290
     1
176
     1
290
     1
176
     1
290
     0
176
     1
290
     0
176
     1
290
     0
176
     1
290
     0
176
     1
290
     0
176
     1
290
     0
176
     1
 90
       50
176
     1
 40
0.0
176
     1
 40
1.0
176
     1
 90
        0
176
     1
 62
    18
420
        0
176
     1
 90
       50
176
     1
 90
        3
176
     1
 62
     5
420
      255
176
     1
290
     0
176
     1
 90
       50
176
     1
 90
       50
176
     1
 90
       50
176
     1
290
     0
176
     1
 90
       50
176
     1
 62
   256
176
     0
 40
1.0
176
     0
 90
        2
176
     1
  1
strokes_ogs.tif
176
     1
290
     0
176
     1
 40
1.0
176
     1
 40
1.0
176
     1
  0
VISUALSTYLE
  5
BD3
102
{ACAD_REACTORS
330
2F
102
}
330
2F
100
AcDbVisualStyle
  2
X-Ray
 70
    25
177
     3
291
     0
 70
    58
 90
        2
176
     1
 90
        2
176
     1
 90
        1
176
     1
 90
        1
176
     1
 40
0.5
176
     1
 40
30.0
176
     1
 62
     7
176
     1
 90
        1
176
     1
 90
        0
176
     1
 62
     7
176
     1
 62
   257
176
     1
 90
        1
176
     1
 90
        1
176
     1
 40
1.0
176
     1
 90
        8
176
     1
 62
     7
176
     1
 40
1.0
176
     1
 90
        1
176
     1
 90
        6
176
     1
 90
        2
176
     1
 62
     7
176
     1
 90
        3
176
     1
 90
        0
176
     1
 90
        0
176
     1
290
     0
176
     1
 90
       13
176
     1
 40
0.0
176
     1
 90
        0
176
     1
290
     0
176
     1
290
     1
176
     1
290
     1
176
     1
290
     0
176
     1
290
     0
176
     1
290
     0
176
     1
290
     0
176
     1
290
     0
176
     1
290
     0
176
     1
 90
       50
176
     1
 40
0.0
176
     1
 40
1.0
176
     1
 90
        0
176
     1
 62
    18
420
        0
176
     1
 90
       50
176
     1
 90
        3
176
     1
 62
     5
420
      255
176
     1
290
     0
176
     1
 90
       50
176
     1
 90
       50
176
     1
 90
       50
176
     1
290
     0
176
     1
 90
       50
176
     1
 62
   256
176
     0
 40
1.0
176
     0
 90
        2
176
     1
  1
strokes_ogs.tif
176
     1
290
     0
176
     1
 40
1.0
176
     1
 40
1.0
176
     1
  0
DICTIONARYVAR
  5
BBE
102
{ACAD_REACTORS
330
BB8
102
}
330
BB8
100
DictionaryVariables
280
     0
  1
1:1
  0
DICTIONARYVAR
  5
BBA
102
{ACAD_REACTORS
330
BB8
102
}
330
BB8
100
DictionaryVariables
280
     0
  1
STANDARD
  0
DICTIONARYVAR
  5
BB9
102
{ACAD_REACTORS
330
BB8
102
}
330
BB8
100
DictionaryVariables
280
     0
  1
STANDARD
  0
DICTIONARYVAR
  5
BBB
102
{ACAD_REACTORS
330
BB8
102
}
330
BB8
100
DictionaryVariables
280
     0
  1
Metric50
  0
DICTIONARYVAR
  5
BBC
102
{ACAD_REACTORS
330
BB8
102
}
330
BB8
100
DictionaryVariables
280
     0
  1
Metric50
  0
DICTIONARYVAR
  5
C3B
102
{ACAD_REACTORS
330
BB8
102
}
330
BB8
100
DictionaryVariables
280
     0
  1
1
  0
DICTIONARYVAR
  5
C39
102
{ACAD_REACTORS
330
BB8
102
}
330
BB8
100
DictionaryVariables
280
     0
  1
1
  0
DICTIONARYVAR
  5
FF3
102
{ACAD_REACTORS
330
BB8
102
}
330
BB8
100
DictionaryVariables
280
     0
  1
4
  0
DICTIONARYVAR
  5
C38
102
{ACAD_REACTORS
330
BB8
102
}
330
BB8
100
DictionaryVariables
280
     0
  1
0
  0
DICTIONARYVAR
  5
BC0
102
{ACAD_REACTORS
330
BB8
102
}
330
BB8
100
DictionaryVariables
280
     0
  1
1
  0
DICTIONARYVAR
  5
BC1
102
{ACAD_REACTORS
330
BB8
102
}
330
BB8
100
DictionaryVariables
280
     0
  1
15
  0
DICTIONARYVAR
  5
BBF
102
{ACAD_REACTORS
330
BB8
102
}
330
BB8
100
DictionaryVariables
280
     0
  1
0
  0
DICTIONARYVAR
  5
BBD
102
{ACAD_REACTORS
330
BB8
102
}
330
BB8
100
DictionaryVariables
280
     0
  1
0
  0
DICTIONARYVAR
  5
C3C
102
{ACAD_REACTORS
330
BB8
102
}
330
BB8
100
DictionaryVariables
280
     0
  1
1
  0
DICTIONARYVAR
  5
C37
102
{ACAD_REACTORS
330
BB8
102
}
330
BB8
100
DictionaryVariables
280
     0
  1
127
  0
ACDBASSOCNETWORK
  5
3C4DB
102
{ACAD_REACTORS
330
3C4DA
102
}
330
3C4DA
100
AcDbAssocAction
 90
        2
 90
        0
330
3C0B3
360
0
 90
        2
 90
        0
 90
        0
 90
        0
 90
        0
 90
        0
 90
        0
100
AcDbAssocNetwork
 90
        0
 90
      183
 90
        1
360
3C707
 90
        0
  0
DICTIONARY
  5
3CC1D
330
283CD
100
AcDbDictionary
280
     1
281
     1
  3
ACAD_XREC_ROUNDTRIP
360
3CC1E
  0
DICTIONARY
  5
3CC19
330
BDD
100
AcDbDictionary
280
     1
281
     1
  3
ACAD_XREC_ROUNDTRIP
360
3CC1A
  0
DICTIONARY
  5
18
330
16
100
AcDbDictionary
280
     1
281
     1
  0
DICTIONARY
  5
1F
330
1E
100
AcDbDictionary
280
     1
281
     1
  0
DICTIONARY
  5
E
330
C
100
AcDbDictionary
280
     1
281
     1
  3
BUMPTILE
360
F
  3
DIFFUSETILE
360
10
  3
OPACITYTILE
360
11
  3
REFLECTIONTILE
360
12
  0
DICTIONARY
  5
3CC1B
330
283CC
100
AcDbDictionary
280
     1
281
     1
  3
ACAD_XREC_ROUNDTRIP
360
3CC1C
  0
DICTIONARY
  5
3CC17
330
BDB
100
AcDbDictionary
280
     1
281
     1
  3
ACAD_XREC_ROUNDTRIP
360
3CC18
  0
DICTIONARY
  5
45
330
44
100
AcDbDictionary
280
     1
281
     1
  3
ACAD_ROUNDTRIP_2008_TABLESTYLE_CELLSTYLEMAP
360
3CC16
  0
ACDBASSOCACTION
  5
3C707
330
3C4DB
100
AcDbAssocAction
 90
        2
 90
        0
330
3C4DB
360
3C708
 90
      183
 90
        3
 90
        3
360
3C709
360
3C70A
360
3C70B
 90
        0
 90
        3
360
3C70C
360
3C70D
360
3C70E
 90
        0
 90
       10
 90
        0
  1
FillAngle
 90
        2
 90
        1
 40
6.283185307179586
330
0
330
0
 90
        0
  1
ItemSpacing
 90
        2
 90
        1
 40
1.570796326794896
330
0
330
0
 90
        0
  1
Items
 90
        0
 90
        1
 90
        4
330
0
330
0
 90
        0
  1
LevelSpacing
 90
        1
 90
        1
 40
1.0
330
0
330
0
 90
        0
  1
Levels
 90
        0
 90
        1
 90
        1
330
0
330
0
 90
        0
  1
RowElevation
 90
        1
 90
        1
 40
0.0
330
0
330
0
 90
        0
  1
RowSpacing
 90
        1
 90
        1
 40
10.50000003000002
330
0
330
0
 90
        0
  1
Rows
 90
        0
 90
        1
 90
        1
330
0
330
0
 90
        0
  1
Radius
 90
        1
 90
        1
 40
23.00000000000002
330
0
330
0
 90
        0
  1
StartAngle
 90
        2
 90
        1
 40
0.7853981633974483
330
0
330
0
  0
XRECORD
  5
3CC1E
102
{ACAD_REACTORS
330
3CC1D
102
}
330
3CC1D
100
AcDbXrecord
280
     1
102
DISPLAYNAME
  1
Imperial24
102
FLAGS
 90
        0
  0
XRECORD
  5
3CC1A
102
{ACAD_REACTORS
330
3CC19
102
}
330
3CC19
100
AcDbXrecord
280
     1
102
DISPLAYNAME
  1
Metric50
102
FLAGS
 90
        0
  0
XRECORD
  5
F
102
{ACAD_REACTORS
330
E
102
}
330
E
100
AcDbXrecord
280
     1
270
     1
271
     1
  0
XRECORD
  5
10
102
{ACAD_REACTORS
330
E
102
}
330
E
100
AcDbXrecord
280
     1
270
     1
271
     1
  0
XRECORD
  5
11
102
{ACAD_REACTORS
330
E
102
}
330
E
100
AcDbXrecord
280
     1
270
     1
271
     1
  0
XRECORD
  5
12
102
{ACAD_REACTORS
330
E
102
}
330
E
100
AcDbXrecord
280
     1
270
     1
271
     1
  0
XRECORD
  5
3CC1C
102
{ACAD_REACTORS
330
3CC1B
102
}
330
3CC1B
100
AcDbXrecord
280
     1
102
DISPLAYNAME
  1
Imperial24
102
FLAGS
 90
        0
  0
XRECORD
  5
3CC18
102
{ACAD_REACTORS
330
3CC17
102
}
330
3CC17
100
AcDbXrecord
280
     1
102
DISPLAYNAME
  1
Metric50
102
FLAGS
 90
        0
  0
CELLSTYLEMAP
  5
3CC16
102
{ACAD_REACTORS
330
45
102
}
330
45
100
AcDbCellStyleMap
 90
        3
300
CELLSTYLE
  1
TABLEFORMAT_BEGIN
 90
        5
170
     1
 91
        0
 92
    32768
 62
   257
 93
        1
300
CONTENTFORMAT
  1
CONTENTFORMAT_BEGIN
 90
        0
 91
        0
 92
      512
 93
        0
300

 40
0.0
140
1.0
 94
        5
 62
     0
340
25
144
6.0
309
CONTENTFORMAT_END
171
     1
301
MARGIN
  1
CELLMARGIN_BEGIN
 40
1.5
 40
1.5
 40
1.5
 40
1.5
 40
0.18
 40
0.18
309
CELLMARGIN_END
 94
        6
 95
        1
302
GRIDFORMAT
  1
GRIDFORMAT_BEGIN
 90
        0
 91
        1
 62
     0
 92
       -2
340
28
 93
        0
 40
1.125
309
GRIDFORMAT_END
 95
        2
302
GRIDFORMAT
  1
GRIDFORMAT_BEGIN
 90
        0
 91
        1
 62
     0
 92
       -2
340
28
 93
        0
 40
1.125
309
GRIDFORMAT_END
 95
        4
302
GRIDFORMAT
  1
GRIDFORMAT_BEGIN
 90
        0
 91
        1
 62
     0
 92
       -2
340
28
 93
        0
 40
1.125
309
GRIDFORMAT_END
 95
        8
302
GRIDFORMAT
  1
GRIDFORMAT_BEGIN
 90
        0
 91
        1
 62
     0
 92
       -2
340
28
 93
        0
 40
1.125
309
GRIDFORMAT_END
 95
       16
302
GRIDFORMAT
  1
GRIDFORMAT_BEGIN
 90
        0
 91
        1
 62
     0
 92
       -2
340
28
 93
        0
 40
1.125
309
GRIDFORMAT_END
 95
       32
302
GRIDFORMAT
  1
GRIDFORMAT_BEGIN
 90
        0
 91
        1
 62
     0
 92
       -2
340
28
 93
        0
 40
1.125
309
GRIDFORMAT_END
309
TABLEFORMAT_END
  1
CELLSTYLE_BEGIN
 90
        1
 91
        1
300
_TITLE
309
CELLSTYLE_END
300
CELLSTYLE
  1
TABLEFORMAT_BEGIN
 90
        5
170
     1
 91
        0
 92
        0
 62
   257
 93
        1
300
CONTENTFORMAT
  1
CONTENTFORMAT_BEGIN
 90
        0
 91
        0
 92
      512
 93
        0
300

 40
0.0
140
1.0
 94
        5
 62
     0
340
25
144
4.5
309
CONTENTFORMAT_END
171
     1
301
MARGIN
  1
CELLMARGIN_BEGIN
 40
1.5
 40
1.5
 40
1.5
 40
1.5
 40
0.18
 40
0.18
309
CELLMARGIN_END
 94
        6
 95
        1
302
GRIDFORMAT
  1
GRIDFORMAT_BEGIN
 90
        0
 91
        1
 62
     0
 92
       -2
340
28
 93
        0
 40
1.125
309
GRIDFORMAT_END
 95
        2
302
GRIDFORMAT
  1
GRIDFORMAT_BEGIN
 90
        0
 91
        1
 62
     0
 92
       -2
340
28
 93
        0
 40
1.125
309
GRIDFORMAT_END
 95
        4
302
GRIDFORMAT
  1
GRIDFORMAT_BEGIN
 90
        0
 91
        1
 62
     0
 92
       -2
340
28
 93
        0
 40
1.125
309
GRIDFORMAT_END
 95
        8
302
GRIDFORMAT
  1
GRIDFORMAT_BEGIN
 90
        0
 91
        1
 62
     0
 92
       -2
340
28
 93
        0
 40
1.125
309
GRIDFORMAT_END
 95
       16
302
GRIDFORMAT
  1
GRIDFORMAT_BEGIN
 90
        0
 91
        1
 62
     0
 92
       -2
340
28
 93
        0
 40
1.125
309
GRIDFORMAT_END
 95
       32
302
GRIDFORMAT
  1
GRIDFORMAT_BEGIN
 90
        0
 91
        1
 62
     0
 92
       -2
340
28
 93
        0
 40
1.125
309
GRIDFORMAT_END
309
TABLEFORMAT_END
  1
CELLSTYLE_BEGIN
 90
        2
 91
        1
300
_HEADER
309
CELLSTYLE_END
300
CELLSTYLE
  1
TABLEFORMAT_BEGIN
 90
        5
170
     1
 91
        0
 92
        0
 62
   257
 93
        1
300
CONTENTFORMAT
  1
CONTENTFORMAT_BEGIN
 90
        0
 91
        0
 92
      512
 93
        0
300

 40
0.0
140
1.0
 94
        2
 62
     0
340
25
144
4.5
309
CONTENTFORMAT_END
171
     1
301
MARGIN
  1
CELLMARGIN_BEGIN
 40
1.5
 40
1.5
 40
1.5
 40
1.5
 40
0.18
 40
0.18
309
CELLMARGIN_END
 94
        6
 95
        1
302
GRIDFORMAT
  1
GRIDFORMAT_BEGIN
 90
        0
 91
        1
 62
     0
 92
       -2
340
28
 93
        0
 40
1.125
309
GRIDFORMAT_END
 95
        2
302
GRIDFORMAT
  1
GRIDFORMAT_BEGIN
 90
        0
 91
        1
 62
     0
 92
       -2
340
28
 93
        0
 40
1.125
309
GRIDFORMAT_END
 95
        4
302
GRIDFORMAT
  1
GRIDFORMAT_BEGIN
 90
        0
 91
        1
 62
     0
 92
       -2
340
28
 93
        0
 40
1.125
309
GRIDFORMAT_END
 95
        8
302
GRIDFORMAT
  1
GRIDFORMAT_BEGIN
 90
        0
 91
        1
 62
     0
 92
       -2
340
28
 93
        0
 40
1.125
309
GRIDFORMAT_END
 95
       16
302
GRIDFORMAT
  1
GRIDFORMAT_BEGIN
 90
        0
 91
        1
 62
     0
 92
       -2
340
28
 93
        0
 40
1.125
309
GRIDFORMAT_END
 95
       32
302
GRIDFORMAT
  1
GRIDFORMAT_BEGIN
 90
        0
 91
        1
 62
     0
 92
       -2
340
28
 93
        0
 40
1.125
309
GRIDFORMAT_END
309
TABLEFORMAT_END
  1
CELLSTYLE_BEGIN
 90
        3
 91
        2
300
_DATA
309
CELLSTYLE_END
  0
ACDBASSOCARRAYACTIONBODY
  5
3C708
330
3C707
100
AcDbAssocActionBody
 90
        2
100
AcDbAssocArrayActionBody
 90
        1
  1
AcDbAssocArrayPolarParameters
 90
        0
 90
        4
  1
AcDbAssocArrayItem
100
AcDbAssocArrayItem
 90
        0
 90
        0
 90
        0
 90
        0
 90
        8
 11
3337.414315791387
 21
-851.6397942331115
 31
0.0
330
3C702
100
AcDbAssocArrayItem
 90
        0
 90
        1
 90
        0
 90
        0
 90
       12
 40
-0.0000000000000002
 40
-1.0
 40
0.0
 40
3304.887403856806
 40
1.0
 40
0.0
 40
0.0
 40
-851.6397942331115
 40
0.0
 40
0.0
 40
1.0
 40
0.0
 40
0.0
 40
0.0
 40
0.0
 40
1.0
330
3C703
100
AcDbAssocArrayItem
 90
        0
 90
        2
 90
        0
 90
        0
 90
       12
 40
-1.0
 40
-0.0000000000000001
 40
0.0
 40
3304.887403856806
 40
0.0
 40
-1.0
 40
0.0
 40
-884.1667061676927
 40
0.0
 40
0.0
 40
1.0
 40
0.0
 40
0.0
 40
0.0
 40
0.0
 40
1.0
330
3C704
100
AcDbAssocArrayItem
 90
        0
 90
        3
 90
        0
 90
        0
 90
       12
 40
-0.0000000000000002
 40
1.0
 40
0.0
 40
3337.414315791387
 40
-1.0
 40
-0.0000000000000002
 40
0.0
 40
-884.1667061676927
 40
0.0
 40
0.0
 40
1.0
 40
0.0
 40
0.0
 40
0.0
 40
0.0
 40
1.0
330
3C705
 40
1.0
 40
0.0
 40
0.0
 40
-3122.258664735693
 40
0.0
 40
1.0
 40
0.0
 40
962.2031450948929
 40
0.0
 40
0.0
 40
1.0
 40
0.0
 40
0.0
 40
0.0
 40
0.0
 40
1.0
  0
ACDBASSOCDEPENDENCY
  5
3C709
330
3C707
100
AcDbAssocDependency
 90
        2
 90
        0
290
     0
290
     1
290
     1
290
     1
 90
        0
330
3C6FF
290
     0
330
0
330
0
360
0
 90
        1
  0
ACDBASSOCDEPENDENCY
  5
3C70A
330
3C707
100
AcDbAssocDependency
 90
        2
 90
        0
290
     1
290
     0
290
     1
290
     1
 90
        0
330
3C6F7
290
     0
330
0
330
0
360
0
 90
        2
  0
ACDBASSOCDEPENDENCY
  5
3C70B
330
3C707
100
AcDbAssocDependency
 90
        2
 90
        0
290
     1
290
     1
290
     1
290
     1
 90
-2147483648
330
3C6DA
290
     0
330
0
330
0
360
0
 90
        3
  0
ACDBASSOCVERTEXACTIONPARAM
  5
3C70C
330
3C707
100
AcDbAssocActionParam
 90
        1
 90
        0
  1
BaseNormal
100
AcDbAssocSingleDependencyActionParam
 90
        0
330
0
100
AcDbAssocVertexActionParam
 90
        0
 10
0.0
 20
0.0
 30
1.0
  0
ACDBASSOCVERTEXACTIONPARAM
  5
3C70D
330
3C707
100
AcDbAssocActionParam
 90
        1
 90
        0
  1
Origin
100
AcDbAssocSingleDependencyActionParam
 90
        0
330
0
100
AcDbAssocVertexActionParam
 90
        0
 10
3321.150859824096
 20
-867.9032502004021
 30
0.0
  0
ACDBASSOCVERTEXACTIONPARAM
  5
3C70E
330
3C707
100
AcDbAssocActionParam
 90
        1
 90
        0
  1
basePoint
100
AcDbAssocSingleDependencyActionParam
 90
        0
330
0
100
AcDbAssocVertexActionParam
 90
        0
 10
0.0
 20
0.0
 30
0.0
  0
ENDSEC
  0
SECTION
  2
ACDSDATA
 70
     2
 71
     6
  0
ACDSSCHEMA
 90
        0
  1
AcDb_Thumbnail_Schema
  2
AcDbDs::ID
280
    10
 91
        8
  2
Thumbnail_Data
280
    15
 91
        0
101
ACDSRECORD
 95
        0
 90
        1
  2
AcDbDs::TreatedAsObjectData
280
     1
291
     1
101
ACDSRECORD
 95
        0
 90
        2
  2
AcDbDs::Legacy
280
     1
291
     1
101
ACDSRECORD
  1
AcDbDs::ID
 90
        3
  2
AcDs:Indexable
280
     1
291
     1
101
ACDSRECORD
  1
AcDbDs::ID
 90
        4
  2
AcDbDs::HandleAttribute
280
     7
282
     1
  0
ACDSSCHEMA
 90
        1
  1
AcDbDs::TreatedAsObjectDataSchema
  2
AcDbDs::TreatedAsObjectData
280
     1
 91
        0
  0
ACDSSCHEMA
 90
        2
  1
AcDbDs::LegacySchema
  2
AcDbDs::Legacy
280
     1
 91
        0
  0
ACDSSCHEMA
 90
        3
  1
AcDbDs::IndexedPropertySchema
  2
AcDs:Indexable
280
     1
 91
        0
  0
ACDSSCHEMA
 90
        4
  1
AcDbDs::HandleAttributeSchema
  2
AcDbDs::HandleAttribute
280
     7
 91
        1
284
     1
  0
ACDSRECORD
 90
        0
  2
AcDbDs::ID
280
    10
320
16
  2
Thumbnail_Data
280
    15
 94
     2122
310
89504E470D0A1A0A0000000D494844520000010000000076080300000010A0BD3C00000300504C5445000000000000C8C8C80000000000000000000000000000000000000000000000000000330000660000990000CC0000FF0033000033330033660033990033CC0033FF0066000066330066660066990066CC0066FF0099
310
000099330099660099990099CC0099FF00CC0000CC3300CC6600CC9900CCCC00CCFF00FF0000FF3300FF6600FF9900FFCC00FFFF3300003300333300663300993300CC3300FF3333003333333333663333993333CC3333FF3366003366333366663366993366CC3366FF3399003399333399663399993399CC3399FF33CC00
310
33CC3333CC6633CC9933CCCC33CCFF33FF0033FF3333FF6633FF9933FFCC33FFFF6600006600336600666600996600CC6600FF6633006633336633666633996633CC6633FF6666006666336666666666996666CC6666FF6699006699336699666699996699CC6699FF66CC0066CC3366CC6666CC9966CCCC66CCFF66FF0066
310
FF3366FF6666FF9966FFCC66FFFF9900009900339900669900999900CC9900FF9933009933339933669933999933CC9933FF9966009966339966669966999966CC9966FF9999009999339999669999999999CC9999FF99CC0099CC3399CC6699CC9999CCCC99CCFF99FF0099FF3399FF6699FF9999FFCC99FFFFCC0000CC00
310
33CC0066CC0099CC00CCCC00FFCC3300CC3333CC3366CC3399CC33CCCC33FFCC6600CC6633CC6666CC6699CC66CCCC66FFCC9900CC9933CC9966CC9999CC99CCCC99FFCCCC00CCCC33CCCC66CCCC99CCCCCCCCCCFFCCFF00CCFF33CCFF66CCFF99CCFFCCCCFFFFFF0000FF0033FF0066FF0099FF00CCFF00FFFF3300FF3333
310
FF3366FF3399FF33CCFF33FFFF6600FF6633FF6666FF6699FF66CCFF66FFFF9900FF9933FF9966FF9999FF99CCFF99FFFFCC00FFCC33FFCC66FFCC99FFCCCCFFCCFFFFFF00FFFF33FFFF66FFFF99FFFFCCFFFFFF0000000D0D0D1A1A1A2828283535354343435050505D5D5D6B6B6B787878868686939393A1A1A1AEAEAEBB
310
BBBBC9C9C9D6D6D6E4E4E4F1F1F1FFFFFF00000000000000000000000000000000000000000000000000000000000008F1915C000005054944415478DAED9D5BBAA3200C80594E5EB2B3B3E46C23EF432EE0A5A2747A4E450DD3D3AA053FF3938410B493D2DF14FEE57AFD150729DD00F85A0078A310715FE9ADF8E109BFDE
310
B1449D8D7B2B7E76421E42B32F607C01200004800010000240000800012000048000D05DBAE76927963FBDC6C703081F1000024000080001200004800010009E09E0AF17DE2E7091BF74EEAE090BE56AF4FEE466741300959FCAE62E252F702F0053E1232DB92780CDCDEE3601E0E600C81C04AD3C1F3C0740757CF0500095
310
C1E2DB1B028043B1562A00370250EFE782F998082D02CCC8F96B96CF9B0040F9C0E5C9A0A1025968CCFFB24F90661D082E0040A4C8F21C01D04322B43400B04D795D04006256597D493B2C5314B0BB4305001E0260933F290036F98F0C6118005CBB0C5D90C904D403E0910624F033008A97403B191ED8C1306B835CE5E7B9
310
F5822111710E3440FDA2C92FA3002A90951DD067D7F8270078D27CEFFF8983787E56B796A53BD20071FEB9B69D81C84EA203466949B47141E7AD0DB219FDD4494BF9FD53D53A77281F8D022C9458A68C48D220EB0C251910E518D6A871201F80F39E6EC93F9900EC9B8000D2EE26ADAEE0320A0D1E94F2B6F86702E03264CD
310
F7D6F2A30F674726C036F8331495927150E9BA06702B4F70A206B8F5CF7CC1862AE831158C1741206CA893E8BB35D35123D931B30080E1864176B9E7BBFCAA02F615CC6AC2AB06F0DC6768246111A4BB44D0B0E012007821BF2BC8AA660380580B59C45C1E05910124AB3E03B443C2D100643B40AEF2DBD71D00E6F26B4553
310
1996DEB778E82A1A20FD57A3D86E0036502432B7E73E423C421E0D734800781D0D3000267FAA0068E503562EDD4752F2662ABDBE01CF86DA6101B08B3D0128175C006479E589AF1D00EAE9724FA32DF4A8D967F1598E12CE3CC99000525A01288AEF5B59F81CE01C00C88A4F55A374C84C664DF930C339007697DDC0C675CB
310
F4947C8F862DFAB23F7F5F2481E8158057206DB1CC1BB11E0607F2EE457E4EA0473B560F30BAEBE3594565E235885A1A9003DF6201E0818FCEA209773580CF350107901A005C8FE10880048A62EC6053022106D6521C03603B4178B60F78ED88190093731AD65B00663309F57E3E0C8A3B458B0ED629C5CB01484B001B7100
310
6A1C00E0925A430D05254582C3C601FFA7011B91A0660DA0868F20EF253BB0971FBE07009DEEC94028012197B980C48448B86B01D703D0C80780E50E08B1E6D18B6340D891FF2E003C0992E3A59A0751149A124A9705507C59870698158077BBA5C4B0A4C9F616486E0240673C9613A49A12934980DD5B83980604D0F8298B
310
02806B94DC03C03500340582920015F76741F2EED2C87900A01918BE84C23D0024E8E329A3648B22A04905E4742D00FC5F00CA3A9066D0258B2ACB634EE36200A6E9F13B007C69BC6441615A1A1C746D105A2EA1CC8FDE065032CA5897933BD6C7CF5B1B84DDDDD9FE1B00525D6A03DB644C670278C7047E0780E592FD9612
310
EC99EB0FE3037600589E6891EA6926789C01436FA6E70200CA1E7CFD12070290024000080001200004803B0158DEB2B4BE85E9F52188C63D4EB705407700100F4EC6B3C3012000048000100002400008000120007C3DC05F959F5539F13F58F86EB7FABDC83C09FEA33BDFB9C4D37E5293B77561ABDFEFF99BA2A30038DF04
310
567E60EB86948738C117004F71824F1D0603C0DC13BF9400F0C048B05DC20704805B02A8B64ECD1200C204BE00E002E5EBBDD3FD4B1E5B15B7AEF7A3139E503E03904E06F00F9D561AF5B497B3880000000049454E44AE426082
  0
ACDSRECORD
 90
        0
  2
AcDbDs::ID
280
    10
320
1E
  2
Thumbnail_Data
280
    15
 94
      882
310
89504E470D0A1A0A0000000D49484452000000B80000007F08030000006B00F8F900000300504C5445FFFFFF000000C8C8C80000000000000000000000000000000000000000000000000000330000660000990000CC0000FF0033000033330033660033990033CC0033FF0066000066330066660066990066CC0066FF0099
310
000099330099660099990099CC0099FF00CC0000CC3300CC6600CC9900CCCC00CCFF00FF0000FF3300FF6600FF9900FFCC00FFFF3300003300333300663300993300CC3300FF3333003333333333663333993333CC3333FF3366003366333366663366993366CC3366FF3399003399333399663399993399CC3399FF33CC00
310
33CC3333CC6633CC9933CCCC33CCFF33FF0033FF3333FF6633FF9933FFCC33FFFF6600006600336600666600996600CC6600FF6633006633336633666633996633CC6633FF6666006666336666666666996666CC6666FF6699006699336699666699996699CC6699FF66CC0066CC3366CC6666CC9966CCCC66CCFF66FF0066
310
FF3366FF6666FF9966FFCC66FFFF9900009900339900669900999900CC9900FF9933009933339933669933999933CC9933FF9966009966339966669966999966CC9966FF9999009999339999669999999999CC9999FF99CC0099CC3399CC6699CC9999CCCC99CCFF99FF0099FF3399FF6699FF9999FFCC99FFFFCC0000CC00
310
33CC0066CC0099CC00CCCC00FFCC3300CC3333CC3366CC3399CC33CCCC33FFCC6600CC6633CC6666CC6699CC66CCCC66FFCC9900CC9933CC9966CC9999CC99CCCC99FFCCCC00CCCC33CCCC66CCCC99CCCCCCCCCCFFCCFF00CCFF33CCFF66CCFF99CCFFCCCCFFFFFF0000FF0033FF0066FF0099FF00CCFF00FFFF3300FF3333
310
FF3366FF3399FF33CCFF33FFFF6600FF6633FF6666FF6699FF66CCFF66FFFF9900FF9933FF9966FF9999FF99CCFF99FFFFCC00FFCC33FFCC66FFCC99FFCCCCFFCCFFFFFF00FFFF33FFFF66FFFF99FFFFCCFFFFFF0000000D0D0D1A1A1A2828283535354343435050505D5D5D6B6B6B787878868686939393A1A1A1AEAEAEBB
310
BBBBC9C9C9D6D6D6E4E4E4F1F1F1FFFFFF000000000000000000000000000000000000000000000000000000000000B0E2D2350000002D4944415478DAEDC13101000000C2A0F54FED6F06A00000000000000000000000000000000000000000000080335BC70001E79522D80000000049454E44AE426082
  0
ENDSEC
  0
EOF
