  0
SECTION
  2
HEADER
  9
$ACADVER
  1
AC1021
  9
$ACADMAINTVER
 70
    25
  9
$DWGCODEPAGE
  3
ANSI_949
  9
$LASTSAVEDBY
  1
DESKTOP
  9
$INSBASE
 10
0.0
 20
0.0
 30
0.0
  9
$EXTMIN
 10
-2.469357925688996
 20
-2.455841276737828
 30
-0.0000000349181948
  9
$EXTMAX
 10
203.3561558494223
 20
142.6596513607671
 30
0.0000000814935746
  9
$LIMMIN
 10
0.0
 20
0.0
  9
$LIMMAX
 10
420.0
 20
297.0
  9
$ORTHOMODE
 70
     1
  9
$REGENMODE
 70
     1
  9
$FILLMODE
 70
     1
  9
$QTEXTMODE
 70
     0
  9
$MIRRTEXT
 70
     0
  9
$LTSCALE
 40
5.0
  9
$ATTMODE
 70
     1
  9
$TEXTSIZE
 40
3.0
  9
$TRACEWID
 40
1.0
  9
$TEXTSTYLE
  7
Standard
  9
$CLAYER
  8
0
  9
$CELTYPE
  6
Continuous
  9
$CECOLOR
 62
     7
  9
$CELTSCALE
 40
1.0
  9
$DISPSILH
 70
     0
  9
$DIMSCALE
 40
1.0
  9
$DIMASZ
 40
2.5
  9
$DIMEXO
 40
0.625
  9
$DIMDLI
 40
3.75
  9
$DIMRND
 40
0.0
  9
$DIMDLE
 40
0.0
  9
$DIMEXE
 40
1.25
  9
$DIMTP
 40
0.0
  9
$DIMTM
 40
0.000000001
  9
$DIMTXT
 40
3.0
  9
$DIMCEN
 40
-0.5
  9
$DIMTSZ
 40
0.0
  9
$DIMTOL
 70
     0
  9
$DIMLIM
 70
     0
  9
$DIMTIH
 70
     0
  9
$DIMTOH
 70
     0
  9
$DIMSE1
 70
     0
  9
$DIMSE2
 70
     0
  9
$DIMTAD
 70
     1
  9
$DIMZIN
 70
     8
  9
$DIMBLK
  1

  9
$DIMASO
 70
     1
  9
$DIMSHO
 70
     1
  9
$DIMPOST
  1

  9
$DIMAPOST
  1

  9
$DIMALT
 70
     0
  9
$DIMALTD
 70
     3
  9
$DIMALTF
 40
0.03937007874016
  9
$DIMLFAC
 40
1.0
  9
$DIMTOFL
 70
     1
  9
$DIMTVP
 40
0.0
  9
$DIMTIX
 70
     0
  9
$DIMSOXD
 70
     0
  9
$DIMSAH
 70
     0
  9
$DIMBLK1
  1

  9
$DIMBLK2
  1

  9
$DIMSTYLE
  2
Standard
  9
$DIMCLRD
 70
     3
  9
$DIMCLRE
 70
     3
  9
$DIMCLRT
 70
     2
  9
$DIMTFAC
 40
0.7
  9
$DIMGAP
 40
0.625
  9
$DIMJUST
 70
     0
  9
$DIMSD1
 70
     0
  9
$DIMSD2
 70
     0
  9
$DIMTOLJ
 70
     0
  9
$DIMTZIN
 70
     8
  9
$DIMALTZ
 70
     0
  9
$DIMALTTZ
 70
     0
  9
$DIMUPT
 70
     0
  9
$DIMDEC
 70
     8
  9
$DIMTDEC
 70
     8
  9
$DIMALTU
 70
     2
  9
$DIMALTTD
 70
     3
  9
$DIMTXSTY
  7
Standard
  9
$DIMAUNIT
 70
     1
  9
$DIMADEC
 70
     8
  9
$DIMALTRND
 40
0.0
  9
$DIMAZIN
 70
     0
  9
$DIMDSEP
 70
    46
  9
$DIMATFIT
 70
     3
  9
$DIMFRAC
 70
     0
  9
$DIMLDRBLK
  1

  9
$DIMLUNIT
 70
     2
  9
$DIMLWD
 70
    -1
  9
$DIMLWE
 70
    -1
  9
$DIMTMOVE
 70
     0
  9
$DIMFXL
 40
1.0
  9
$DIMFXLON
 70
     0
  9
$DIMJOGANG
 40
0.7853981633974483
  9
$DIMTFILL
 70
     0
  9
$DIMTFILLCLR
 70
     0
  9
$DIMARCSYM
 70
     1
  9
$DIMLTYPE
  6

  9
$DIMLTEX1
  6

  9
$DIMLTEX2
  6

  9
$LUNITS
 70
     2
  9
$LUPREC
 70
     4
  9
$SKETCHINC
 40
0.0
  9
$FILLETRAD
 40
0.0
  9
$AUNITS
 70
     0
  9
$AUPREC
 70
     0
  9
$MENU
  1
.
  9
$ELEVATION
 40
0.0
  9
$PELEVATION
 40
0.0
  9
$THICKNESS
 40
0.0
  9
$LIMCHECK
 70
     0
  9
$CHAMFERA
 40
1.5
  9
$CHAMFERB
 40
1.5
  9
$CHAMFERC
 40
0.0
  9
$CHAMFERD
 40
0.0
  9
$SKPOLY
 70
     0
  9
$TDCREATE
 40
2455072.745932974
  9
$TDUCREATE
 40
2455072.370932974
  9
$TDUPDATE
 40
2459506.718123438
  9
$TDUUPDATE
 40
2459506.343123437
  9
$TDINDWG
 40
123.6378357292
  9
$TDUSRTIMER
 40
123.6378355440
  9
$USRTIMER
 70
     1
  9
$ANGBASE
 50
0.0
  9
$ANGDIR
 70
     0
  9
$PDMODE
 70
     0
  9
$PDSIZE
 40
0.0
  9
$PLINEWID
 40
0.0
  9
$SPLFRAME
 70
     0
  9
$SPLINETYPE
 70
     6
  9
$SPLINESEGS
 70
     8
  9
$HANDSEED
  5
27FAC6
  9
$SURFTAB1
 70
     6
  9
$SURFTAB2
 70
     6
  9
$SURFTYPE
 70
     6
  9
$SURFU
 70
     6
  9
$SURFV
 70
     6
  9
$UCSBASE
  2

  9
$UCSNAME
  2

  9
$UCSORG
 10
0.0
 20
0.0
 30
0.0
  9
$UCSXDIR
 10
1.0
 20
0.0
 30
0.0
  9
$UCSYDIR
 10
0.0
 20
1.0
 30
0.0
  9
$UCSORTHOREF
  2

  9
$UCSORTHOVIEW
 70
     0
  9
$UCSORGTOP
 10
0.0
 20
0.0
 30
0.0
  9
$UCSORGBOTTOM
 10
0.0
 20
0.0
 30
0.0
  9
$UCSORGLEFT
 10
0.0
 20
0.0
 30
0.0
  9
$UCSORGRIGHT
 10
0.0
 20
0.0
 30
0.0
  9
$UCSORGFRONT
 10
0.0
 20
0.0
 30
0.0
  9
$UCSORGBACK
 10
0.0
 20
0.0
 30
0.0
  9
$PUCSBASE
  2

  9
$PUCSNAME
  2

  9
$PUCSORG
 10
0.0
 20
0.0
 30
0.0
  9
$PUCSXDIR
 10
1.0
 20
0.0
 30
0.0
  9
$PUCSYDIR
 10
0.0
 20
1.0
 30
0.0
  9
$PUCSORTHOREF
  2

  9
$PUCSORTHOVIEW
 70
     0
  9
$PUCSORGTOP
 10
0.0
 20
0.0
 30
0.0
  9
$PUCSORGBOTTOM
 10
0.0
 20
0.0
 30
0.0
  9
$PUCSORGLEFT
 10
0.0
 20
0.0
 30
0.0
  9
$PUCSORGRIGHT
 10
0.0
 20
0.0
 30
0.0
  9
$PUCSORGFRONT
 10
0.0
 20
0.0
 30
0.0
  9
$PUCSORGBACK
 10
0.0
 20
0.0
 30
0.0
  9
$USERI1
 70
     0
  9
$USERI2
 70
     0
  9
$USERI3
 70
     0
  9
$USERI4
 70
     0
  9
$USERI5
 70
     0
  9
$USERR1
 40
0.0
  9
$USERR2
 40
0.0
  9
$USERR3
 40
0.0
  9
$USERR4
 40
0.0
  9
$USERR5
 40
0.0
  9
$WORLDVIEW
 70
     1
  9
$SHADEDGE
 70
     3
  9
$SHADEDIF
 70
    70
  9
$TILEMODE
 70
     1
  9
$MAXACTVP
 70
    64
  9
$PINSBASE
 10
0.0
 20
0.0
 30
0.0
  9
$PLIMCHECK
 70
     0
  9
$PEXTMIN
 10
1.000000000000000E+20
 20
1.000000000000000E+20
 30
1.000000000000000E+20
  9
$PEXTMAX
 10
-1.000000000000000E+20
 20
-1.000000000000000E+20
 30
-1.000000000000000E+20
  9
$PLIMMIN
 10
-20.0
 20
-7.5
  9
$PLIMMAX
 10
277.0
 20
202.5
  9
$UNITMODE
 70
     0
  9
$VISRETAIN
 70
     1
  9
$PLINEGEN
 70
     0
  9
$PSLTSCALE
 70
     1
  9
$TREEDEPTH
 70
  3020
  9
$CMLSTYLE
  2
Standard
  9
$CMLJUST
 70
     0
  9
$CMLSCALE
 40
20.0
  9
$PROXYGRAPHICS
 70
     1
  9
$MEASUREMENT
 70
     1
  9
$CELWEIGHT
370
    -1
  9
$ENDCAPS
280
     0
  9
$JOINSTYLE
280
     0
  9
$LWDISPLAY
290
     0
  9
$INSUNITS
 70
     4
  9
$HYPERLINKBASE
  1

  9
$STYLESHEET
  1
ksm0910.ctb
  9
$XEDIT
290
     1
  9
$CEPSNTYPE
380
     0
  9
$PSTYLEMODE
290
     1
  9
$FINGERPRINTGUID
  2
{52D4C0FF-CB0A-4887-92E6-FE9FDECD5DD4}
  9
$VERSIONGUID
  2
{908E6A31-E556-41CC-8A73-F24EF43329F2}
  9
$EXTNAMES
290
     1
  9
$PSVPSCALE
 40
0.0
  9
$OLESTARTUP
290
     0
  9
$SORTENTS
280
   127
  9
$INDEXCTL
280
     0
  9
$HIDETEXT
280
     1
  9
$XCLIPFRAME
290
     0
  9
$HALOGAP
280
     0
  9
$OBSCOLOR
 70
   257
  9
$OBSLTYPE
280
     0
  9
$INTERSECTIONDISPLAY
280
     0
  9
$INTERSECTIONCOLOR
 70
   257
  9
$DIMASSOC
280
     1
  9
$PROJECTNAME
  1

  9
$CAMERADISPLAY
290
     0
  9
$LENSLENGTH
 40
50.0
  9
$CAMERAHEIGHT
 40
0.0
  9
$STEPSPERSEC
 40
2.0
  9
$STEPSIZE
 40
6.0
  9
$3DDWFPREC
 40
2.0
  9
$PSOLWIDTH
 40
5.0
  9
$PSOLHEIGHT
 40
80.0
  9
$LOFTANG1
 40
1.570796326794896
  9
$LOFTANG2
 40
1.570796326794896
  9
$LOFTMAG1
 40
0.0
  9
$LOFTMAG2
 40
0.0
  9
$LOFTPARAM
 70
     7
  9
$LOFTNORMALS
280
     1
  9
$LATITUDE
 40
37.795
  9
$LONGITUDE
 40
-122.394
  9
$NORTHDIRECTION
 40
0.0
  9
$TIMEZONE
 70
 -8000
  9
$LIGHTGLYPHDISPLAY
280
     1
  9
$TILEMODELIGHTSYNCH
280
     1
  9
$CMATERIAL
347
3C
  9
$SOLIDHIST
280
     1
  9
$SHOWHIST
280
     1
  9
$DWFFRAME
280
     2
  9
$DGNFRAME
280
     0
  9
$REALWORLDSCALE
290
     1
  9
$INTERFERECOLOR
 62
     1
  9
$INTERFEREOBJVS
345
44
  9
$INTERFEREVPVS
346
45
  9
$CSHADOW
280
     0
  9
$SHADOWPLANELOCATION
 40
0.0
  0
ENDSEC
  0
SECTION
  2
CLASSES
  0
CLASS
  1
ACDBDICTIONARYWDFLT
  2
AcDbDictionaryWithDefault
  3
ObjectDBX Classes
 90
        0
 91
        1
280
     0
281
     0
  0
CLASS
  1
DICTIONARYVAR
  2
AcDbDictionaryVar
  3
ObjectDBX Classes
 90
        0
 91
        5
280
     0
281
     0
  0
CLASS
  1
TABLESTYLE
  2
AcDbTableStyle
  3
ObjectDBX Classes
 90
     4095
 91
        1
280
     0
281
     0
  0
CLASS
  1
MATERIAL
  2
AcDbMaterial
  3
ObjectDBX Classes
 90
     1153
 91
        3
280
     0
281
     0
  0
CLASS
  1
VISUALSTYLE
  2
AcDbVisualStyle
  3
ObjectDBX Classes
 90
     4095
 91
       16
280
     0
281
     0
  0
CLASS
  1
SCALE
  2
AcDbScale
  3
ObjectDBX Classes
 90
     1153
 91
       33
280
     0
281
     0
  0
CLASS
  1
MLEADERSTYLE
  2
AcDbMLeaderStyle
  3
ACDB_MLEADERSTYLE_CLASS
 90
     4095
 91
        1
280
     0
281
     0
  0
CLASS
  1
CELLSTYLEMAP
  2
AcDbCellStyleMap
  3
ObjectDBX Classes
 90
     1152
 91
        3
280
     0
281
     0
  0
CLASS
  1
SORTENTSTABLE
  2
AcDbSortentsTable
  3
ObjectDBX Classes
 90
        0
 91
        1
280
     0
281
     0
  0
CLASS
  1
DIMASSOC
  2
AcDbDimAssoc
  3
"AcDbDimAssoc|Product Desc:     AcDim ARX App For Dimension|Company:          Autodesk, Inc.|WEB Address:      www.autodesk.com"
 90
        0
 91
        0
280
     0
281
     0
  0
CLASS
  1
SOLID_BACKGROUND
  2
AcDbSolidBackground
  3
SCENEOE
 90
     4095
 91
        0
280
     1
281
     0
  0
CLASS
  1
NPOCOLLECTION
  2
AcDbImpNonPersistentObjectsCollection
  3
ObjectDBX Classes
 90
     1153
 91
        0
280
     0
281
     0
  0
CLASS
  1
ACAD_EVALUATION_GRAPH
  2
AcDbEvalGraph
  3
ObjectDBX Classes
 90
     1153
 91
        0
280
     0
281
     0
  0
CLASS
  1
ACAECUSTOBJ
  2
AcAeEditorObj
  3
AcAeEditorObj
 90
     1024
 91
        0
280
     1
281
     0
  0
CLASS
  1
ACDB_DYNAMICBLOCKPURGEPREVENTER_VERSION
  2
AcDbDynamicBlockPurgePreventer
  3
ObjectDBX Classes
 90
     1153
 91
        0
280
     0
281
     0
  0
CLASS
  1
HELIX
  2
AcDbHelix
  3
ObjectDBX Classes
 90
     4095
 91
        0
280
     0
281
     1
  0
CLASS
  1
MULTILEADER
  2
AcDbMLeader
  3
ACDB_MLEADER_CLASS
 90
     1025
 91
        0
280
     0
281
     1
  0
CLASS
  1
ACMDIMBREAKPERSREACTOR
  2
AcmDimBreakPersReactor
  3
amgDimApp().moduleName()
 90
     1023
 91
        0
280
     1
281
     0
  0
CLASS
  1
ACDB_MTEXTOBJECTCONTEXTDATA_CLASS
  2
AcDbMTextObjectContextData
  3
ObjectDBX Classes
 90
     1153
 91
        0
280
     0
281
     0
  0
CLASS
  1
BREAKDATA
  2
AcDbBreakData
  3
ObjectDBX Classes
 90
     1024
 91
        0
280
     0
281
     0
  0
CLASS
  1
EXACXREFPANELOBJECT
  2
ExAcXREFPanelObject
  3
EXAC_ESW
 90
     1025
 91
        0
280
     0
281
     0
  0
ENDSEC
  0
SECTION
  2
TABLES
  0
TABLE
  2
VPORT
  5
2A
102
{ACAD_XDICTIONARY
360
2E
102
}
330
0
100
AcDbSymbolTable
 70
     1
  0
VPORT
  5
2B
330
2A
100
AcDbSymbolTableRecord
100
AcDbViewportTableRecord
  2
*Active
 70
     0
 10
0.0
 20
0.0
 11
1.0
 21
1.0
 12
111.6381672837862
 22
63.34623905884654
 13
0.0
 23
0.0
 14
2.0
 24
2.0
 15
2.0
 25
2.0
 16
0.0
 26
0.0
 36
1.0
 17
0.0
 27
0.0
 37
0.0
 40
183.2827883349382
 41
2.005382131324004
 42
50.0
 43
0.0
 44
0.0
 50
0.0
 51
0.0
 71
     0
 72
  1000
 73
     1
 74
     3
 75
     0
 76
     0
 77
     0
 78
     1
281
     0
 65
     1
110
0.0
120
0.0
130
0.0
111
1.0
121
0.0
131
0.0
112
0.0
122
1.0
132
0.0
 79
     0
146
0.0
348
2C
 60
     3
 61
     5
292
     1
282
     1
141
0.0
142
0.0
 63
   250
421
  3355443
  0
ENDTAB
  0
TABLE
  2
LTYPE
  5
25
330
0
100
AcDbSymbolTable
 70
     2
  0
LTYPE
  5
26
330
25
100
AcDbSymbolTableRecord
100
AcDbLinetypeTableRecord
  2
ByBlock
 70
     0
  3

 72
    65
 73
     0
 40
0.0
  0
LTYPE
  5
27
330
25
100
AcDbSymbolTableRecord
100
AcDbLinetypeTableRecord
  2
ByLayer
 70
     0
  3

 72
    65
 73
     0
 40
0.0
  0
LTYPE
  5
14
330
25
100
AcDbSymbolTableRecord
100
AcDbLinetypeTableRecord
  2
Continuous
 70
     0
  3
Solid line
 72
    65
 73
     0
 40
0.0
  0
LTYPE
  5
11D
330
25
100
AcDbSymbolTableRecord
100
AcDbLinetypeTableRecord
  2
CENTER
 70
     0
  3
____ _ ____ _ ____ _ ____ _ ____ _ ____ _ ____ 
 72
    65
 73
     4
 40
2.0
 49
1.25
 74
     0
 49
-0.25
 74
     0
 49
0.25
 74
     0
 49
-0.25
 74
     0
  0
ENDTAB
  0
TABLE
  2
LAYER
  5
1F
102
{ACAD_XDICTIONARY
360
20
102
}
330
0
100
AcDbSymbolTable
 70
     4
  0
LAYER
  5
6
102
{ACAD_XDICTIONARY
360
7
102
}
330
1F
100
AcDbSymbolTableRecord
100
AcDbLayerTableRecord
  2
0
 70
     0
 62
     7
  6
Continuous
370
    -3
390
9
347
C
  0
LAYER
  5
A7
330
1F
100
AcDbSymbolTableRecord
100
AcDbLayerTableRecord
  2
DEFPOINTS
 70
     0
 62
     7
  6
Continuous
290
     0
370
    -3
390
9
347
C
  0
LAYER
  5
25268F
102
{ACAD_XDICTIONARY
360
252690
102
}
330
1F
100
AcDbSymbolTableRecord
100
AcDbLayerTableRecord
  2
CT
 70
     0
 62
     2
  6
CENTER
370
    -3
390
9
347
C
  0
LAYER
  5
268783
330
1F
100
AcDbSymbolTableRecord
100
AcDbLayerTableRecord
  2
Layer 1
 70
     0
 62
     7
  6
Continuous
370
     0
390
9
347
C
  0
ENDTAB
  0
TABLE
  2
STYLE
  5
22
330
0
100
AcDbSymbolTable
 70
     4
  0
STYLE
  5
23
330
22
100
AcDbSymbolTableRecord
100
AcDbTextStyleTableRecord
  2
Standard
 70
     0
 40
3.0
 41
1.0
 50
0.0
 71
     0
 42
3.0
  3
isocp.shx
  4
whgtxt.shx
  0
STYLE
  5
36
330
22
100
AcDbSymbolTableRecord
100
AcDbTextStyleTableRecord
  2
ROMANS
 70
     0
 40
2.5
 41
1.0
 50
0.0
 71
     0
 42
2.5
  3
romans.shx
  4

  0
STYLE
  5
7B
330
22
100
AcDbSymbolTableRecord
100
AcDbTextStyleTableRecord
  2
굴림
 70
     0
 40
3.0
 41
1.0
 50
0.0
 71
     0
 42
3.0
  3

  4

1001
ACAD
1000
Gulim
1071
    33074
  0
ENDTAB
  0
TABLE
  2
VIEW
  5
28
330
0
100
AcDbSymbolTable
 70
     2
  0
VIEW
  5
73E08
102
{ACAD_XDICTIONARY
360
73E09
102
}
330
28
100
AcDbSymbolTableRecord
100
AcDbViewTableRecord
  2
OLE2
 70
     0
 40
9208.753298285337
 10
3079.404404051804
 20
245.3512031136188
 41
18052.90663566571
 11
0.0
 21
0.0
 31
1.0
 12
0.0
 22
0.0
 32
0.0
 42
50.0
 43
0.0
 44
0.0
 50
0.0
 71
     0
281
     0
 72
     0
 73
     0
348
2C
  0
VIEW
  5
A0ABA
102
{ACAD_XDICTIONARY
360
A0ABB
102
}
330
28
100
AcDbSymbolTableRecord
100
AcDbViewTableRecord
  2
OLE3
 70
     0
 40
6815.512697498764
 10
-49.48165716755283
 20
95.86582584618009
 41
12894.4143065124
 11
0.0
 21
0.0
 31
1.0
 12
0.0
 22
0.0
 32
0.0
 42
50.0
 43
0.0
 44
0.0
 50
0.0
 71
     0
281
     0
 72
     0
 73
     0
348
2C
  0
ENDTAB
  0
TABLE
  2
UCS
  5
29
330
0
100
AcDbSymbolTable
 70
     0
  0
ENDTAB
  0
TABLE
  2
APPID
  5
2F
330
0
100
AcDbSymbolTable
 70
    29
  0
APPID
  5
13
330
2F
100
AcDbSymbolTableRecord
100
AcDbRegAppTableRecord
  2
ACAD
 70
     0
  0
APPID
  5
18
330
2F
100
AcDbSymbolTableRecord
100
AcDbRegAppTableRecord
  2
ACAD_PSEXT
 70
     0
  0
APPID
  5
33
330
2F
100
AcDbSymbolTableRecord
100
AcDbRegAppTableRecord
  2
ACAD_DSTYLE_DIMJAG
 70
     0
  0
APPID
  5
34
330
2F
100
AcDbSymbolTableRecord
100
AcDbRegAppTableRecord
  2
ACAD_DSTYLE_DIMTALN
 70
     0
  0
APPID
  5
B6
330
2F
100
AcDbSymbolTableRecord
100
AcDbRegAppTableRecord
  2
ACAD_MLEADERVER
 70
     0
  0
APPID
  5
37
330
2F
100
AcDbSymbolTableRecord
100
AcDbRegAppTableRecord
  2
ACAD_DSTYLE_DIMJOGGED_JOGANGLE_SYMBOL
 70
     0
  0
APPID
  5
32
330
2F
100
AcDbSymbolTableRecord
100
AcDbRegAppTableRecord
  2
ACAD_DSTYLE_DIMBREAK
 70
     0
  0
APPID
  5
BF
330
2F
100
AcDbSymbolTableRecord
100
AcDbRegAppTableRecord
  2
AcAecLayerStandard
 70
     0
  0
APPID
  5
72B
330
2F
100
AcDbSymbolTableRecord
100
AcDbRegAppTableRecord
  2
ACAD_EXEMPT_FROM_CAD_STANDARDS
 70
     0
  0
APPID
  5
759
330
2F
100
AcDbSymbolTableRecord
100
AcDbRegAppTableRecord
  2
ACAD_DSTYLE_DIMRADIAL_EXTENSION
 70
     0
  0
APPID
  5
24C7B
330
2F
100
AcDbSymbolTableRecord
100
AcDbRegAppTableRecord
  2
GENIUS_GENODEF_13
 70
     0
  0
APPID
  5
24C7C
330
2F
100
AcDbSymbolTableRecord
100
AcDbRegAppTableRecord
  2
GENIUS_GENOBJ-N-FIL_13
 70
     0
  0
APPID
  5
25558
330
2F
100
AcDbSymbolTableRecord
100
AcDbRegAppTableRecord
  2
GENIUS_GENOBJ-N-HTC_13
 70
     0
  0
APPID
  5
25559
330
2F
100
AcDbSymbolTableRecord
100
AcDbRegAppTableRecord
  2
GENIUS_GENHATCH_13
 70
     0
  0
APPID
  5
C8B41
330
2F
100
AcDbSymbolTableRecord
100
AcDbRegAppTableRecord
  2
GENIUS_GENREC_14
 70
     0
  0
APPID
  5
C8B42
330
2F
100
AcDbSymbolTableRecord
100
AcDbRegAppTableRecord
  2
GENIUS_GENOBJ-N-REC_13
 70
     0
  0
APPID
  5
C8B43
330
2F
100
AcDbSymbolTableRecord
100
AcDbRegAppTableRecord
  2
ACAUTHENVIRON
 70
     0
  0
APPID
  5
C8B44
330
2F
100
AcDbSymbolTableRecord
100
AcDbRegAppTableRecord
  2
AcDbDynamicBlockTrueName
 70
     0
  0
APPID
  5
C8B45
330
2F
100
AcDbSymbolTableRecord
100
AcDbRegAppTableRecord
  2
AcDbDynamicBlockGUID
 70
     0
  0
APPID
  5
C8B46
330
2F
100
AcDbSymbolTableRecord
100
AcDbRegAppTableRecord
  2
AcDbBlockRepETag
 70
     0
  0
APPID
  5
15C63A
330
2F
100
AcDbSymbolTableRecord
100
AcDbRegAppTableRecord
  2
DCO15
 70
     0
  0
APPID
  5
1E942B
330
2F
100
AcDbSymbolTableRecord
100
AcDbRegAppTableRecord
  2
ACAD_DSTYLE_DIMTEXT_FILL
 70
     0
  0
APPID
  5
1E942C
330
2F
100
AcDbSymbolTableRecord
100
AcDbRegAppTableRecord
  2
ACAD_DSTYLE_DIM_LINETYPE
 70
     0
  0
APPID
  5
1E942D
330
2F
100
AcDbSymbolTableRecord
100
AcDbRegAppTableRecord
  2
ACAD_DSTYLE_DIM_EXT1_LINETYPE
 70
     0
  0
APPID
  5
1E942E
330
2F
100
AcDbSymbolTableRecord
100
AcDbRegAppTableRecord
  2
ACAD_DSTYLE_DIM_EXT2_LINETYPE
 70
     0
  0
APPID
  5
251037
330
2F
100
AcDbSymbolTableRecord
100
AcDbRegAppTableRecord
  2
ACAD_DSTYLE_DIMINSPECT
 70
     0
  0
APPID
  5
251038
330
2F
100
AcDbSymbolTableRecord
100
AcDbRegAppTableRecord
  2
GRADIENTCOLOR1ACI
 70
     0
  0
APPID
  5
251039
330
2F
100
AcDbSymbolTableRecord
100
AcDbRegAppTableRecord
  2
GRADIENTCOLOR2ACI
 70
     0
  0
APPID
  5
25103A
330
2F
100
AcDbSymbolTableRecord
100
AcDbRegAppTableRecord
  2
ACAD_NAV_VCDISPLAY
 70
     0
  0
ENDTAB
  0
TABLE
  2
DIMSTYLE
  5
30
330
0
100
AcDbSymbolTable
 70
     4
100
AcDbDimStyleTable
 71
     1
340
35
  0
DIMSTYLE
105
35
102
{ACAD_REACTORS
330
27F54B
330
27F54C
330
27F54D
102
}
330
30
100
AcDbSymbolTableRecord
100
AcDbDimStyleTableRecord
  2
Standard
 70
     0
 41
2.5
 73
     0
 77
     3
 78
     8
140
2.5
141
-1.0
147
1.0
175
     1
176
     3
177
     3
178
     2
179
     8
271
     8
272
     8
275
     1
340
36
1001
ACAD_DSTYLE_DIMJOGGED_JOGANGLE_SYMBOL
1070
   384
1040
0.7853981633974483
1001
ACAD_DSTYLE_DIMJAG
1070
   388
1040
1.5
1001
ACAD_DSTYLE_DIMTALN
1070
   392
1070
     0
  0
DIMSTYLE
105
AB
102
{ACAD_REACTORS
330
27F5EF
330
27F5F0
330
27F6C8
330
27F6C9
330
27F6CD
330
27F764
102
}
330
30
100
AcDbSymbolTableRecord
100
AcDbDimStyleTableRecord
  2
Standard$0
 70
     0
 41
2.5
 73
     0
 77
     3
 78
     8
140
2.5
141
-1.0
147
1.0
175
     1
176
     3
177
     3
178
     2
179
     8
271
     8
272
     8
275
     1
340
36
  0
DIMSTYLE
105
268784
102
{ACAD_REACTORS
330
27F5F1
330
27F772
102
}
330
30
100
AcDbSymbolTableRecord
100
AcDbDimStyleTableRecord
  2
STANDARD$2
 70
     0
 41
2.5
 73
     0
 77
     3
 78
     8
140
2.5
141
-1.0
147
1.0
175
     1
176
     3
177
     3
178
     2
179
     8
271
     8
272
     8
275
     1
340
36
  0
ENDTAB
  0
TABLE
  2
BLOCK_RECORD
  5
1
330
0
100
AcDbSymbolTable
 70
    13
  0
BLOCK_RECORD
  5
2
102
{ACAD_XDICTIONARY
360
3
102
}
330
1
100
AcDbSymbolTableRecord
100
AcDbBlockTableRecord
  2
*Model_Space
340
16
 70
     0
280
     1
281
     0
  0
BLOCK_RECORD
  5
19
330
1
100
AcDbSymbolTableRecord
100
AcDbBlockTableRecord
  2
*Paper_Space
340
1C
 70
     0
280
     1
281
     0
  0
BLOCK_RECORD
  5
AF
330
1
100
AcDbSymbolTableRecord
100
AcDbBlockTableRecord
  2
_DetailCallout
340
0
 70
     4
280
     1
281
     0
  0
BLOCK_RECORD
  5
27F5F4
330
1
100
AcDbSymbolTableRecord
100
AcDbBlockTableRecord
  2
*D1
340
0
 70
     0
280
     1
281
     0
  0
BLOCK_RECORD
  5
27F5FF
330
1
100
AcDbSymbolTableRecord
100
AcDbBlockTableRecord
  2
*D2
340
0
 70
     0
280
     1
281
     0
  0
BLOCK_RECORD
  5
27F60B
330
1
100
AcDbSymbolTableRecord
100
AcDbBlockTableRecord
  2
*D3
340
0
 70
     0
280
     1
281
     0
  0
BLOCK_RECORD
  5
27F654
330
1
100
AcDbSymbolTableRecord
100
AcDbBlockTableRecord
  2
*D4
340
0
 70
     0
280
     1
281
     0
  0
BLOCK_RECORD
  5
27F65D
330
1
100
AcDbSymbolTableRecord
100
AcDbBlockTableRecord
  2
*D5
340
0
 70
     0
280
     1
281
     0
  0
BLOCK_RECORD
  5
27F665
330
1
100
AcDbSymbolTableRecord
100
AcDbBlockTableRecord
  2
*D6
340
0
 70
     0
280
     1
281
     0
  0
BLOCK_RECORD
  5
27F77F
330
1
100
AcDbSymbolTableRecord
100
AcDbBlockTableRecord
  2
*D7
340
0
 70
     0
280
     1
281
     0
  0
BLOCK_RECORD
  5
27F78B
330
1
100
AcDbSymbolTableRecord
100
AcDbBlockTableRecord
  2
*D8
340
0
 70
     0
280
     1
281
     0
  0
BLOCK_RECORD
  5
27F7B9
330
1
100
AcDbSymbolTableRecord
100
AcDbBlockTableRecord
  2
*D9
340
0
 70
     0
280
     1
281
     0
  0
BLOCK_RECORD
  5
27F7DD
330
1
100
AcDbSymbolTableRecord
100
AcDbBlockTableRecord
  2
*D10
340
0
 70
     0
280
     1
281
     0
  0
BLOCK_RECORD
  5
27F7F9
330
1
100
AcDbSymbolTableRecord
100
AcDbBlockTableRecord
  2
*D11
340
0
 70
     0
280
     1
281
     0
  0
ENDTAB
  0
ENDSEC
  0
SECTION
  2
BLOCKS
  0
BLOCK
  5
5
330
2
100
AcDbEntity
  8
0
100
AcDbBlockBegin
  2
*Model_Space
 70
     0
 10
0.0
 20
0.0
 30
0.0
  3
*Model_Space
  1

  0
ENDBLK
  5
15
330
2
100
AcDbEntity
  8
0
100
AcDbBlockEnd
  0
BLOCK
  5
1A
330
19
100
AcDbEntity
 67
     1
  8
0
100
AcDbBlockBegin
  2
*Paper_Space
 70
     0
 10
0.0
 20
0.0
 30
0.0
  3
*Paper_Space
  1

  0
ENDBLK
  5
1B
330
19
100
AcDbEntity
 67
     1
  8
0
100
AcDbBlockEnd
  0
BLOCK
  5
B0
330
AF
100
AcDbEntity
  8
0
100
AcDbBlockBegin
  2
_DetailCallout
 70
     2
 10
0.0
 20
0.0
 30
0.0
  3
_DetailCallout
  1

  0
CIRCLE
  5
B1
330
AF
100
AcDbEntity
  8
0
  6
ByBlock
 62
     0
370
    -2
100
AcDbCircle
 10
0.0
 20
0.0
 30
0.0
 40
8.0
  0
LINE
  5
B2
330
AF
100
AcDbEntity
  8
0
  6
ByBlock
 62
     0
370
    -2
100
AcDbLine
 10
8.0
 20
0.0
 30
0.0
 11
-8.0
 21
0.0
 31
0.0
  0
ATTDEF
  5
B3
330
AF
100
AcDbEntity
  8
0
 62
     0
100
AcDbText
 10
-3.857142857142857
 20
1.0
 30
0.0
 40
3.0
  1
뷰번호
  7
ROMANS
 72
     1
 11
0.0
 21
1.0
 31
0.0
100
AcDbAttributeDefinition
  3
뷰 번호 입력
  2
뷰번호
 70
     0
280
     0
  0
ATTDEF
  5
B4
330
AF
100
AcDbEntity
  8
0
 62
     0
100
AcDbText
 10
-5.142857142857142
 20
-6.0
 30
0.0
 40
3.0
  1
시트번호
  7
ROMANS
 72
     1
 11
0.0
 21
-6.0
 31
0.0
100
AcDbAttributeDefinition
  3
시트 번호 입력
  2
시트번호
 70
     0
280
     0
  0
ENDBLK
  5
B5
330
AF
100
AcDbEntity
  8
0
100
AcDbBlockEnd
  0
BLOCK
  5
27F5F5
330
27F5F4
100
AcDbEntity
  8
0
 62
     7
100
AcDbBlockBegin
  2
*D1
 70
     1
 10
0.0
 20
0.0
 30
0.0
  3
*D1
  1

  0
LINE
  5
27FA6B
330
27F5F4
100
AcDbEntity
  8
0
  6
Continuous
 62
     3
100
AcDbLine
 10
93.45864553454067
 20
77.1647630641437
 30
0.0
 11
84.32032079901899
 21
77.1647630641437
 31
0.0
  0
LINE
  5
27FA6C
330
27F5F4
100
AcDbEntity
  8
0
  6
Continuous
 62
     3
100
AcDbLine
 10
85.57032079901899
 20
72.1647630641437
 30
0.0
 11
85.57032079901899
 21
74.6647630641437
 31
0.0
  0
LINE
  5
27FA6D
330
27F5F4
100
AcDbEntity
  8
0
  6
Continuous
 62
     3
100
AcDbLine
 10
85.57032079901899
 20
77.1647630641437
 30
0.0
 11
85.57032079901901
 21
119.417941162498
 31
0.0
  0
SOLID
  5
27FA6E
330
27F5F4
100
AcDbEntity
  8
0
  6
Continuous
 62
     3
100
AcDbTrace
 10
85.15365413235233
 20
74.6647630641437
 30
0.0
 11
85.98698746568567
 21
74.6647630641437
 31
0.0
 12
85.57032079901899
 22
77.1647630641437
 32
0.0
 13
85.57032079901899
 23
77.1647630641437
 33
0.0
  0
MTEXT
  5
27FA6F
330
27F5F4
100
AcDbEntity
  8
0
  6
Continuous
 62
     2
100
AcDbMText
 10
83.44532079901899
 20
113.5417600601358
 30
0.0
 40
3.0
 41
0.0
 46
0.0
 71
     5
 72
     1
  1
M8*1.0
 11
0.0000000000000001
 21
1.0
 31
0.0
 73
     1
 44
1.0
  0
POINT
  5
27FA70
330
27F5F4
100
AcDbEntity
  8
DEFPOINTS
  6
Continuous
 62
     0
100
AcDbPoint
 10
92.8519089739799
 20
69.16476306414034
 30
0.0
  0
POINT
  5
27FA71
330
27F5F4
100
AcDbEntity
  8
DEFPOINTS
  6
Continuous
 62
     0
100
AcDbPoint
 10
94.08364553454067
 20
77.1647630641437
 30
0.0
  0
POINT
  5
27FA72
330
27F5F4
100
AcDbEntity
  8
DEFPOINTS
  6
Continuous
 62
     0
100
AcDbPoint
 10
85.57032079901899
 20
77.1647630641437
 30
0.0
  0
ENDBLK
  5
27F5F6
330
27F5F4
100
AcDbEntity
  8
0
 62
     7
100
AcDbBlockEnd
  0
BLOCK
  5
27F600
330
27F5FF
100
AcDbEntity
  8
0
 62
     7
100
AcDbBlockBegin
  2
*D2
 70
     1
 10
0.0
 20
0.0
 30
0.0
  3
*D2
  1

  0
LINE
  5
27FA73
330
27F5FF
100
AcDbEntity
  8
0
  6
Continuous
 62
     3
100
AcDbLine
 10
70.95864553454021
 20
42.11476306414169
 30
0.0
 11
28.87606860641496
 21
42.1147630641417
 31
0.0
  0
LINE
  5
27FA74
330
27F5FF
100
AcDbEntity
  8
0
  6
Continuous
 62
     3
100
AcDbLine
 10
70.95864553453987
 20
105.1147630641417
 30
0.0
 11
28.87606860641497
 21
105.1147630641417
 31
0.0
  0
LINE
  5
27FA75
330
27F5FF
100
AcDbEntity
  8
0
  6
Continuous
 62
     3
100
AcDbLine
 10
30.12606860641496
 20
44.6147630641417
 30
0.0
 11
30.12606860641497
 21
102.6147630641417
 31
0.0
  0
SOLID
  5
27FA76
330
27F5FF
100
AcDbEntity
  8
0
  6
Continuous
 62
     3
100
AcDbTrace
 10
29.70940193974829
 20
44.6147630641417
 30
0.0
 11
30.54273527308162
 21
44.6147630641417
 31
0.0
 12
30.12606860641496
 22
42.1147630641417
 32
0.0
 13
30.12606860641496
 23
42.1147630641417
 33
0.0
  0
SOLID
  5
27FA77
330
27F5FF
100
AcDbEntity
  8
0
  6
Continuous
 62
     3
100
AcDbTrace
 10
29.7094019397483
 20
102.6147630641417
 30
0.0
 11
30.54273527308164
 21
102.6147630641417
 31
0.0
 12
30.12606860641497
 22
105.1147630641417
 32
0.0
 13
30.12606860641497
 23
105.1147630641417
 33
0.0
  0
MTEXT
  5
27FA78
330
27F5FF
100
AcDbEntity
  8
0
  6
Continuous
 62
     2
100
AcDbMText
 10
28.0007733308244
 20
73.61476306414175
 30
0.0
 40
3.0
 41
0.0
 46
0.0
 71
     5
 72
     1
  1
%%C2.48
 11
0.0000000000000001
 21
1.0
 31
0.0
 73
     1
 44
1.0
  0
POINT
  5
27FA79
330
27F5FF
100
AcDbEntity
  8
DEFPOINTS
  6
Continuous
 62
     0
100
AcDbPoint
 10
71.58364553454021
 20
42.11476306414169
 30
0.0
  0
POINT
  5
27FA7A
330
27F5FF
100
AcDbEntity
  8
DEFPOINTS
  6
Continuous
 62
     0
100
AcDbPoint
 10
71.58364553453987
 20
105.1147630641417
 30
0.0
  0
POINT
  5
27FA7B
330
27F5FF
100
AcDbEntity
  8
DEFPOINTS
  6
Continuous
 62
     0
100
AcDbPoint
 10
30.12606860641497
 20
105.1147630641417
 30
0.0
  0
ENDBLK
  5
27F601
330
27F5FF
100
AcDbEntity
  8
0
 62
     7
100
AcDbBlockEnd
  0
BLOCK
  5
27F60C
330
27F60B
100
AcDbEntity
  8
0
 62
     7
100
AcDbBlockBegin
  2
*D3
 70
     1
 10
0.0
 20
0.0
 30
0.0
  3
*D3
  1

  0
LINE
  5
27FA7C
330
27F60B
100
AcDbEntity
  8
0
  6
Continuous
 62
     3
100
AcDbLine
 10
159.983645534541
 20
92.3153725724855
 30
0.0
 11
159.9836455345419
 21
111.371913142674
 31
0.0
  0
LINE
  5
27FA7D
330
27F60B
100
AcDbEntity
  8
0
  6
Continuous
 62
     3
100
AcDbLine
 10
129.8280107770154
 20
99.56513282365612
 30
0.0
 11
127.6635979555839
 21
104.2067310980595
 31
0.0
  0
ARC
  5
27FA7E
330
27F60B
100
AcDbEntity
  8
0
  6
Continuous
 62
     3
100
AcDbCircle
 10
159.983645534538
 20
34.89616539373557
 30
0.0
 40
75.22574774893843
100
AcDbArc
 50
91.90421558578909
 51
113.0957844141895
  0
SOLID
  5
27FA7F
330
27F60B
100
AcDbEntity
  8
0
  6
Continuous
 62
     3
100
AcDbTrace
 10
157.4770670951322
 20
110.4969806541943
 30
0.0
 11
157.490914304337
 21
109.6637623759252
 31
0.0
 12
159.9836455345418
 22
110.121913142674
 32
0.0
 13
159.9836455345418
 23
110.121913142674
 33
0.0
  0
SOLID
  5
27FA80
330
27F60B
100
AcDbEntity
  8
0
  6
Continuous
 62
     3
100
AcDbTrace
 10
130.6446753883423
 20
103.7120944962172
 30
0.0
 11
130.305091961461
 21
104.473098793598
 31
0.0
 12
128.1918707827595
 22
103.0738463642635
 32
0.0
 13
128.1918707827595
 23
103.0738463642635
 33
0.0
  0
MTEXT
  5
27FA81
330
27F60B
100
AcDbEntity
  8
0
  6
Continuous
 62
     2
100
AcDbMText
 10
143.2418156446136
 20
110.4136798451485
 30
0.0
 40
3.0
 41
0.0
 46
0.0
 71
     5
 72
     1
  1
25\U+00B0
 11
0.9762960071199739
 21
0.216439613937921
 31
0.0
 73
     1
 44
1.0
  0
POINT
  5
27FA82
330
27F60B
100
AcDbEntity
  8
DEFPOINTS
  6
Continuous
 62
     0
100
AcDbPoint
 10
149.081038045517
 20
109.3276525099235
 30
0.0
  0
POINT
  5
27FA83
330
27F60B
100
AcDbEntity
  8
DEFPOINTS
  6
Continuous
 62
     0
100
AcDbPoint
 10
131.3042544773047
 20
96.39931799202441
 30
0.0
  0
POINT
  5
27FA84
330
27F60B
100
AcDbEntity
  8
DEFPOINTS
  6
Continuous
 62
     0
100
AcDbPoint
 10
159.9836455345401
 20
73.6147630641417
 30
0.0
  0
POINT
  5
27FA85
330
27F60B
100
AcDbEntity
  8
DEFPOINTS
  6
Continuous
 62
     0
100
AcDbPoint
 10
159.983645534541
 20
91.6903725724855
 30
0.0
  0
POINT
  5
27FA86
330
27F60B
100
AcDbEntity
  8
DEFPOINTS
  6
Continuous
 62
     0
100
AcDbPoint
 10
130.0921471906032
 20
98.99869045675814
 30
0.0
  0
ENDBLK
  5
27F60D
330
27F60B
100
AcDbEntity
  8
0
 62
     7
100
AcDbBlockEnd
  0
BLOCK
  5
27F655
330
27F654
100
AcDbEntity
  8
0
 62
     7
100
AcDbBlockBegin
  2
*D4
 70
     1
 10
0.0
 20
0.0
 30
0.0
  3
*D4
  1

  0
LINE
  5
27FA5A
330
27F654
100
AcDbEntity
  8
0
  6
Continuous
 62
     3
100
AcDbLine
 10
139.2126494940107
 20
36.00710179924707
 30
0.0
 11
131.1404182536071
 21
45.68022541144842
 31
0.0
  0
MTEXT
  5
27FA5B
330
27F654
100
AcDbEntity
  8
0
  6
Continuous
 62
     2
100
AcDbMText
 10
137.6089584507015
 20
41.24545419474617
 30
0.0
 40
3.0
 41
0.0
 46
0.0
 71
     5
 72
     1
  1
R0.06
 11
0.6407133324153977
 21
-0.7677801935874332
 31
0.0
 73
     1
 44
1.0
  0
LINE
  5
27FA5C
330
27F654
100
AcDbEntity
  8
0
  6
Continuous
 62
     3
100
AcDbLine
 10
128.5775649239454
 20
48.75134618579828
 30
0.0
 11
129.5386349225686
 21
47.59967589541701
 31
0.0
  0
SOLID
  5
27FA5D
330
27F654
100
AcDbEntity
  8
0
  6
Continuous
 62
     3
100
AcDbTrace
 10
131.4603266676019
 20
45.94718929995483
 30
0.0
 11
130.8205098396124
 21
45.41326152294201
 31
0.0
 12
129.5386349225686
 22
47.59967589541701
 32
0.0
 13
129.5386349225686
 23
47.59967589541701
 33
0.0
  0
POINT
  5
27FA5E
330
27F654
100
AcDbEntity
  8
DEFPOINTS
  6
Continuous
 62
     0
100
AcDbPoint
 10
129.5386349225686
 20
47.59967589541701
 30
0.0
  0
POINT
  5
27FA5F
330
27F654
100
AcDbEntity
  8
DEFPOINTS
  6
Continuous
 62
     0
100
AcDbPoint
 10
128.5775649239454
 20
48.75134618579828
 30
0.0
  0
ENDBLK
  5
27F656
330
27F654
100
AcDbEntity
  8
0
 62
     7
100
AcDbBlockEnd
  0
BLOCK
  5
27F65E
330
27F65D
100
AcDbEntity
  8
0
 62
     7
100
AcDbBlockBegin
  2
*D5
 70
     1
 10
0.0
 20
0.0
 30
0.0
  3
*D5
  1

  0
LINE
  5
27FA60
330
27F65D
100
AcDbEntity
  8
0
  6
Continuous
 62
     3
100
AcDbLine
 10
143.4463815863945
 20
42.13958823467477
 30
0.0
 11
134.1824165303511
 21
50.36717880099457
 31
0.0
  0
MTEXT
  5
27FA61
330
27F65D
100
AcDbEntity
  8
0
  6
Continuous
 62
     2
100
AcDbMText
 10
141.2948590544209
 20
46.89289234903748
 30
0.0
 40
3.0
 41
0.0
 46
0.0
 71
     5
 72
     1
  1
R0.12
 11
0.7476915918902729
 21
-0.664046145547574
 31
0.0
 73
     1
 44
1.0
  0
SOLID
  5
27FA62
330
27F65D
100
AcDbEntity
  8
0
  6
Continuous
 62
     3
100
AcDbTrace
 10
134.4591024243293
 20
50.67871696428218
 30
0.0
 11
133.905730636373
 21
50.05564063770695
 31
0.0
 12
132.3131875506254
 22
52.02729416486351
 32
0.0
 13
132.3131875506254
 23
52.02729416486351
 33
0.0
  0
POINT
  5
27FA63
330
27F65D
100
AcDbEntity
  8
DEFPOINTS
  6
Continuous
 62
     0
100
AcDbPoint
 10
132.3131875506254
 20
52.02729416486351
 30
0.0
  0
POINT
  5
27FA64
330
27F65D
100
AcDbEntity
  8
DEFPOINTS
  6
Continuous
 62
     0
100
AcDbPoint
 10
133.808570734406
 20
50.69920187376834
 30
0.0
  0
ENDBLK
  5
27F65F
330
27F65D
100
AcDbEntity
  8
0
 62
     7
100
AcDbBlockEnd
  0
BLOCK
  5
27F666
330
27F665
100
AcDbEntity
  8
0
 62
     7
100
AcDbBlockBegin
  2
*D6
 70
     1
 10
0.0
 20
0.0
 30
0.0
  3
*D6
  1

  0
LINE
  5
27FA65
330
27F665
100
AcDbEntity
  8
0
  6
Continuous
 62
     3
100
AcDbLine
 10
171.273134548349
 20
44.90843706221676
 30
0.0
 11
161.6122576348574
 21
53.22889121222353
 31
0.0
  0
MTEXT
  5
27FA66
330
27F665
100
AcDbEntity
  8
0
  6
Continuous
 62
     2
100
AcDbMText
 10
168.776583245378
 20
49.86307949044848
 30
0.0
 40
3.0
 41
0.0
 46
0.0
 71
     5
 72
     1
  1
R0.04
 11
0.7577158363522824
 21
-0.6525846392162179
 31
0.0
 73
     1
 44
1.0
  0
LINE
  5
27FA67
330
27F665
100
AcDbEntity
  8
0
  6
Continuous
 62
     3
100
AcDbLine
 10
158.9602522076243
 20
55.51293744948036
 30
0.0
 11
159.7179680439767
 21
54.86035281026408
 31
0.0
  0
SOLID
  5
27FA68
330
27F665
100
AcDbEntity
  8
0
  6
Continuous
 62
     3
100
AcDbTrace
 10
161.8841679011975
 20
53.54460614403699
 30
0.0
 11
161.3403473685173
 21
52.91317628041009
 31
0.0
 12
159.7179680439767
 22
54.86035281026408
 32
0.0
 13
159.7179680439767
 23
54.86035281026408
 33
0.0
  0
POINT
  5
27FA69
330
27F665
100
AcDbEntity
  8
DEFPOINTS
  6
Continuous
 62
     0
100
AcDbPoint
 10
159.7179680439767
 20
54.86035281026408
 30
0.0
  0
POINT
  5
27FA6A
330
27F665
100
AcDbEntity
  8
DEFPOINTS
  6
Continuous
 62
     0
100
AcDbPoint
 10
158.9602522076243
 20
55.51293744948036
 30
0.0
  0
ENDBLK
  5
27F667
330
27F665
100
AcDbEntity
  8
0
 62
     7
100
AcDbBlockEnd
  0
BLOCK
  5
27F780
330
27F77F
100
AcDbEntity
  8
0
 62
     7
100
AcDbBlockBegin
  2
*D7
 70
     1
 10
0.0
 20
0.0
 30
0.0
  3
*D7
  1

  0
LINE
  5
27FA87
330
27F77F
100
AcDbEntity
  8
0
  6
Continuous
 62
     3
100
AcDbLine
 10
110.8974301318807
 20
47.36476306413396
 30
0.0
 11
114.9308309779176
 21
47.36476306413396
 31
0.0
  0
LINE
  5
27FA88
330
27F77F
100
AcDbEntity
  8
0
  6
Continuous
 62
     3
100
AcDbLine
 10
110.8844948379945
 20
99.86476306414306
 30
0.0
 11
114.9308309779176
 21
99.86476306414306
 31
0.0
  0
LINE
  5
27FA89
330
27F77F
100
AcDbEntity
  8
0
  6
Continuous
 62
     3
100
AcDbLine
 10
113.6808309779176
 20
49.86476306413396
 30
0.0
 11
113.6808309779176
 21
97.36476306414306
 31
0.0
  0
LINE
  5
27FA8A
330
27F77F
100
AcDbEntity
  8
0
  6
Continuous
 62
     3
100
AcDbLine
 10
113.6808309779176
 20
99.86476306414306
 30
0.0
 11
113.6808309779176
 21
113.664763064143
 31
0.0
  0
SOLID
  5
27FA8B
330
27F77F
100
AcDbEntity
  8
0
  6
Continuous
 62
     3
100
AcDbTrace
 10
113.2641643112509
 20
49.86476306413396
 30
0.0
 11
114.0974976445843
 21
49.86476306413396
 31
0.0
 12
113.6808309779176
 22
47.36476306413396
 32
0.0
 13
113.6808309779176
 23
47.36476306413396
 33
0.0
  0
SOLID
  5
27FA8C
330
27F77F
100
AcDbEntity
  8
0
  6
Continuous
 62
     3
100
AcDbTrace
 10
113.2641643112509
 20
97.36476306414306
 30
0.0
 11
114.0974976445843
 21
97.36476306414306
 31
0.0
 12
113.6808309779176
 22
99.86476306414306
 32
0.0
 13
113.6808309779176
 23
99.86476306414306
 33
0.0
  0
MTEXT
  5
27FA8D
330
27F77F
100
AcDbEntity
  8
0
  6
Continuous
 62
     2
100
AcDbMText
 10
111.555535702327
 20
108.539763064143
 30
0.0
 40
3.0
 41
0.0
 46
0.0
 71
     5
 72
     1
  1
%%c2.07
 11
0.0000000000000001
 21
1.0
 31
0.0
 73
     1
 44
1.0
  0
POINT
  5
27FA8E
330
27F77F
100
AcDbEntity
  8
DEFPOINTS
  6
Continuous
 62
     0
100
AcDbPoint
 10
110.2724301318807
 20
47.36476306413396
 30
0.0
  0
POINT
  5
27FA8F
330
27F77F
100
AcDbEntity
  8
DEFPOINTS
  6
Continuous
 62
     0
100
AcDbPoint
 10
110.2594948379945
 20
99.86476306414306
 30
0.0
  0
POINT
  5
27FA90
330
27F77F
100
AcDbEntity
  8
DEFPOINTS
  6
Continuous
 62
     0
100
AcDbPoint
 10
113.6808309779176
 20
99.86476306414306
 30
0.0
  0
ENDBLK
  5
27F781
330
27F77F
100
AcDbEntity
  8
0
 62
     7
100
AcDbBlockEnd
  0
BLOCK
  5
27F78C
330
27F78B
100
AcDbEntity
  8
0
 62
     7
100
AcDbBlockBegin
  2
*D8
 70
     1
 10
0.0
 20
0.0
 30
0.0
  3
*D8
  1

  0
LINE
  5
27FA91
330
27F78B
100
AcDbEntity
  8
0
  6
Continuous
 62
     3
100
AcDbLine
 10
160.1756328326435
 20
83.13976306414268
 30
0.0
 11
175.3355351570997
 21
83.13976306414268
 31
0.0
  0
LINE
  5
27FA92
330
27F78B
100
AcDbEntity
  8
0
  6
Continuous
 62
     3
100
AcDbLine
 10
174.0855351570997
 20
80.63976306414268
 30
0.0
 11
174.0855351570997
 21
67.43858196109506
 31
0.0
  0
SOLID
  5
27FA93
330
27F78B
100
AcDbEntity
  8
0
  6
Continuous
 62
     3
100
AcDbTrace
 10
173.668868490433
 20
80.63976306414268
 30
0.0
 11
174.5022018237663
 21
80.63976306414268
 31
0.0
 12
174.0855351570997
 22
83.13976306414268
 32
0.0
 13
174.0855351570997
 23
83.13976306414268
 33
0.0
  0
MTEXT
  5
27FA94
330
27F78B
100
AcDbEntity
  8
0
  6
Continuous
 62
     2
100
AcDbMText
 10
171.9605351570996
 20
73.6147630634573
 30
0.0
 40
3.0
 41
0.0
 46
0.0
 71
     5
 72
     1
  1
%%c0.750
 11
0.0000000000000001
 21
1.0
 31
0.0
 73
     1
 44
1.0
  0
POINT
  5
27FA95
330
27F78B
100
AcDbEntity
  8
DEFPOINTS
  6
Continuous
 62
     0
100
AcDbPoint
 10
159.9836455345546
 20
64.08976306345812
 30
0.0
  0
POINT
  5
27FA96
330
27F78B
100
AcDbEntity
  8
DEFPOINTS
  6
Continuous
 62
     0
100
AcDbPoint
 10
159.5506328326434
 20
83.1397630641427
 30
0.0
  0
POINT
  5
27FA97
330
27F78B
100
AcDbEntity
  8
DEFPOINTS
  6
Continuous
 62
     0
100
AcDbPoint
 10
174.0855351570997
 20
83.13976306414268
 30
0.0
  0
ENDBLK
  5
27F78D
330
27F78B
100
AcDbEntity
  8
0
 62
     7
100
AcDbBlockEnd
  0
BLOCK
  5
27F7BA
330
27F7B9
100
AcDbEntity
  8
0
 62
     7
100
AcDbBlockBegin
  2
*D9
 70
     1
 10
0.0
 20
0.0
 30
0.0
  3
*D9
  1

  0
LINE
  5
27FA98
330
27F7B9
100
AcDbEntity
  8
0
  6
Continuous
 62
     3
100
AcDbLine
 10
101.5636455345384
 20
83.56476306414107
 30
0.0
 11
101.5636455345384
 21
118.7318283403378
 31
0.0
  0
LINE
  5
27FA99
330
27F7B9
100
AcDbEntity
  8
0
  6
Continuous
 62
     3
100
AcDbLine
 10
159.983645534536
 20
92.40066343296712
 30
0.0
 11
159.983645534536
 21
118.7318283403378
 31
0.0
  0
LINE
  5
27FA9A
330
27F7B9
100
AcDbEntity
  8
0
  6
Continuous
 62
     3
100
AcDbLine
 10
104.0636455345384
 20
117.4818283403378
 30
0.0
 11
157.4836455345359
 21
117.4818283403378
 31
0.0
  0
SOLID
  5
27FA9B
330
27F7B9
100
AcDbEntity
  8
0
  6
Continuous
 62
     3
100
AcDbTrace
 10
104.0636455345384
 20
117.8984950070045
 30
0.0
 11
104.0636455345384
 21
117.0651616736712
 31
0.0
 12
101.5636455345384
 22
117.4818283403378
 32
0.0
 13
101.5636455345384
 23
117.4818283403378
 33
0.0
  0
SOLID
  5
27FA9C
330
27F7B9
100
AcDbEntity
  8
0
  6
Continuous
 62
     3
100
AcDbTrace
 10
157.4836455345359
 20
117.8984950070045
 30
0.0
 11
157.4836455345359
 21
117.0651616736712
 31
0.0
 12
159.983645534536
 22
117.4818283403378
 32
0.0
 13
159.983645534536
 23
117.4818283403378
 33
0.0
  0
MTEXT
  5
27FA9D
330
27F7B9
100
AcDbEntity
  8
0
  6
Continuous
 62
     2
100
AcDbMText
 10
130.7736455345372
 20
119.6071236159284
 30
0.0
 40
3.0
 41
0.0
 46
0.0
 71
     5
 72
     1
  1
2.30
 73
     1
 44
1.0
  0
POINT
  5
27FA9E
330
27F7B9
100
AcDbEntity
  8
DEFPOINTS
  6
Continuous
 62
     0
100
AcDbPoint
 10
101.5636455345384
 20
82.93976306414107
 30
0.0
  0
POINT
  5
27FA9F
330
27F7B9
100
AcDbEntity
  8
DEFPOINTS
  6
Continuous
 62
     0
100
AcDbPoint
 10
159.983645534536
 20
91.77566343296712
 30
0.0
  0
POINT
  5
27FAA0
330
27F7B9
100
AcDbEntity
  8
DEFPOINTS
  6
Continuous
 62
     0
100
AcDbPoint
 10
159.983645534536
 20
117.4818283403378
 30
0.0
  0
ENDBLK
  5
27F7BB
330
27F7B9
100
AcDbEntity
  8
0
 62
     7
100
AcDbBlockEnd
  0
BLOCK
  5
27F7DE
330
27F7DD
100
AcDbEntity
  8
0
 62
     7
100
AcDbBlockBegin
  2
*D10
 70
     1
 10
0.0
 20
0.0
 30
0.0
  3
*D10
  1

  0
LINE
  5
27FAA1
330
27F7DD
100
AcDbEntity
  8
0
  6
Continuous
 62
     3
100
AcDbLine
 10
160.6086455345412
 20
92.61476306414349
 30
0.0
 11
183.3355351570992
 21
92.61476306414349
 31
0.0
  0
LINE
  5
27FAA2
330
27F7DD
100
AcDbEntity
  8
0
  6
Continuous
 62
     3
100
AcDbLine
 10
160.6086455345401
 20
54.61476306413669
 30
0.0
 11
183.3355351570992
 21
54.61476306413668
 31
0.0
  0
LINE
  5
27FAA3
330
27F7DD
100
AcDbEntity
  8
0
  6
Continuous
 62
     3
100
AcDbLine
 10
182.0855351570992
 20
90.11476306414349
 30
0.0
 11
182.0855351570992
 21
57.11476306413668
 31
0.0
  0
SOLID
  5
27FAA4
330
27F7DD
100
AcDbEntity
  8
0
  6
Continuous
 62
     3
100
AcDbTrace
 10
181.6688684904326
 20
90.11476306414349
 30
0.0
 11
182.5022018237659
 21
90.11476306414349
 31
0.0
 12
182.0855351570992
 22
92.61476306414349
 32
0.0
 13
182.0855351570992
 23
92.61476306414349
 33
0.0
  0
SOLID
  5
27FAA5
330
27F7DD
100
AcDbEntity
  8
0
  6
Continuous
 62
     3
100
AcDbTrace
 10
181.6688684904326
 20
57.11476306413668
 30
0.0
 11
182.5022018237659
 21
57.11476306413668
 31
0.0
 12
182.0855351570992
 22
54.61476306413668
 32
0.0
 13
182.0855351570992
 23
54.61476306413668
 33
0.0
  0
MTEXT
  5
27FAA6
330
27F7DD
100
AcDbEntity
  8
0
  6
Continuous
 62
     2
100
AcDbMText
 10
179.9605351570992
 20
73.61476306414012
 30
0.0
 40
3.0
 41
0.0
 46
0.0
 71
     5
 72
     1
  1
%%c1.50
 11
0.0000000000000001
 21
1.0
 31
0.0
 73
     1
 44
1.0
  0
POINT
  5
27FAA7
330
27F7DD
100
AcDbEntity
  8
DEFPOINTS
  6
Continuous
 62
     0
100
AcDbPoint
 10
159.9836455345412
 20
92.61476306414351
 30
0.0
  0
POINT
  5
27FAA8
330
27F7DD
100
AcDbEntity
  8
DEFPOINTS
  6
Continuous
 62
     0
100
AcDbPoint
 10
159.9836455345401
 20
54.61476306413669
 30
0.0
  0
POINT
  5
27FAA9
330
27F7DD
100
AcDbEntity
  8
DEFPOINTS
  6
Continuous
 62
     0
100
AcDbPoint
 10
182.0855351570992
 20
54.61476306413668
 30
0.0
  0
ENDBLK
  5
27F7DF
330
27F7DD
100
AcDbEntity
  8
0
 62
     7
100
AcDbBlockEnd
  0
BLOCK
  5
27F7FA
330
27F7F9
100
AcDbEntity
  8
0
 62
     7
100
AcDbBlockBegin
  2
*D11
 70
     1
 10
0.0
 20
0.0
 30
0.0
  3
*D11
  1

  0
ARC
  5
27FAAA
330
27F7F9
100
AcDbEntity
  8
0
  6
Continuous
 62
     3
100
AcDbCircle
 10
401.4015355216138
 20
73.6147630641417
 30
0.0
 40
256.4297337305025
100
AcDbArc
 50
180.5585936310164
 51
183.9414063689888
  0
SOLID
  5
27FAAB
330
27F7F9
100
AcDbEntity
  8
0
  6
Continuous
 62
     3
100
AcDbTrace
 10
144.5673266491828
 20
71.1127616711219
 30
0.0
 11
145.4006500816177
 21
71.11682386255157
 31
0.0
 12
144.9718017911114
 22
73.61476306414171
 32
0.0
 13
144.9718017911114
 23
73.61476306414171
 33
0.0
  0
SOLID
  5
27FAAC
330
27F7F9
100
AcDbEntity
  8
0
  6
Continuous
 62
     3
100
AcDbTrace
 10
145.9938293245148
 20
56.01940397564523
 30
0.0
 11
145.1627560342481
 21
55.95807184173663
 31
0.0
 12
145.7622890811072
 22
53.49551803789093
 32
0.0
 13
145.7622890811072
 23
53.49551803789093
 33
0.0
  0
MTEXT
  5
27FAAD
330
27F7F9
100
AcDbEntity
  8
0
  6
Continuous
 62
     2
100
AcDbMText
 10
147.2928615246306
 20
63.63080607121139
 30
0.0
 40
3.0
 41
0.0
 46
0.0
 71
     5
 72
     1
  1
4\U+00B030'
 11
0.039259815759115
 21
-0.999229036240721
 31
0.0
 73
     1
 44
1.0
  0
POINT
  5
27FAAE
330
27F7F9
100
AcDbEntity
  8
DEFPOINTS
  6
Continuous
 62
     0
100
AcDbPoint
 10
145.0596738563855
 20
66.90221517966889
 30
0.0
  0
POINT
  5
27FAAF
330
27F7F9
100
AcDbEntity
  8
DEFPOINTS
  6
Continuous
 62
     0
100
AcDbPoint
 10
37.08364553454021
 20
73.6147630641417
 30
0.0
  0
POINT
  5
27FAB0
330
27F7F9
100
AcDbEntity
  8
DEFPOINTS
  6
Continuous
 62
     0
100
AcDbPoint
 10
159.062104630269
 20
54.54223622206383
 30
0.0
  0
POINT
  5
27FAB1
330
27F7F9
100
AcDbEntity
  8
DEFPOINTS
  6
Continuous
 62
     0
100
AcDbPoint
 10
133.7878005512311
 20
52.55310535223681
 30
0.0
  0
POINT
  5
27FAB2
330
27F7F9
100
AcDbEntity
  8
DEFPOINTS
  6
Continuous
 62
     0
100
AcDbPoint
 10
161.8750780117075
 20
73.6147630641417
 30
0.0
  0
ENDBLK
  5
27F7FB
330
27F7F9
100
AcDbEntity
  8
0
 62
     7
100
AcDbBlockEnd
  0
ENDSEC
  0
SECTION
  2
ENTITIES
  0
MTEXT
  5
25E84
330
2
100
AcDbEntity
  8
0
  6
Continuous
 62
     2
100
AcDbMText
 10
340.2827630579343
 20
-2473.908749737676
 30
0.0
 40
2.5
 41
0.0
 46
0.0
 71
     1
 72
     5
  1

  7
ROMANS
 73
     1
 44
1.0
1001
ACAD_MLEADERVER
1070
     2
  0
TEXT
  5
BCFB1
330
2
100
AcDbEntity
  8
0
 62
     2
100
AcDbText
 10
229.4831245327541
 20
-2752.815180265032
 30
0.0
 40
2.5
  1
 
 41
0.6
  7
ROMANS
100
AcDbText
  0
MTEXT
  5
273437
330
2
100
AcDbEntity
  8
0
  6
Continuous
 62
     2
100
AcDbMText
 10
-4403.515775086018
 20
-1260.887705365916
 30
0.0
 40
2.5
 41
0.0
 46
0.0
 71
     1
 72
     5
  1
 
  7
ROMANS
 73
     1
 44
1.0
1001
ACAD_MLEADERVER
1070
     2
  0
LWPOLYLINE
  5
27F4E3
330
2
100
AcDbEntity
  8
0
 62
     0
100
AcDbPolyline
 90
        4
 70
     1
 43
0.0
 10
0.0
 20
0.0
 10
0.0
 20
140.195148706661
 10
200.9
 20
140.195148706661
 10
200.9
 20
0.0
  0
LINE
  5
27F4E4
330
2
100
AcDbEntity
  8
0
  6
Continuous
 62
     3
100
AcDbLine
 10
71.08364553454021
 20
41.91476306414171
 30
0.0
 11
71.08364553454032
 21
30.42672584751676
 31
0.0
  0
MTEXT
  5
27F4E5
330
2
100
AcDbEntity
  8
0
  6
Continuous
 62
     2
100
AcDbMText
 10
71.08417970368794
 20
27.97791074372071
 30
0.0
 40
3.0
 41
0.0
 46
0.0
 71
     5
 72
     1
  1
0.00
 73
     1
 44
1.0
  0
LINE
  5
27F4E6
330
2
100
AcDbEntity
  8
0
  6
Continuous
 62
     3
100
AcDbLine
 10
97.08364553454021
 20
41.91476306414171
 30
0.0
 11
97.08364553454021
 21
30.45948446810127
 31
0.0
  0
LINE
  5
27F4E7
330
2
100
AcDbEntity
  8
0
  6
Continuous
 62
     3
100
AcDbLine
 10
159.983645534541
 20
54.83915355579717
 30
0.0
 11
159.9836455345402
 21
30.41114299816127
 31
0.0
  0
LINE
  5
27F4E8
330
2
100
AcDbEntity
  8
0
  6
Continuous
 62
     3
100
AcDbLine
 10
132.0436455345359
 20
51.11656094083468
 30
0.0
 11
132.0436455345359
 21
30.92984494479748
 31
0.0
  0
MTEXT
  5
27F4E9
330
2
100
AcDbEntity
  8
0
  6
Continuous
 62
     2
100
AcDbMText
 10
96.78983160139296
 20
27.97791074372071
 30
0.0
 40
3.0
 41
0.0
 46
0.0
 71
     5
 72
     1
  1
1.02
 73
     1
 44
1.0
  0
MTEXT
  5
27F4EA
330
2
100
AcDbEntity
  8
0
  6
Continuous
 62
     2
100
AcDbMText
 10
132.2977678900845
 20
28.38622047518476
 30
0.0
 40
3.0
 41
0.0
 46
0.0
 71
     5
 72
     1
  1
2.40
 73
     1
 44
1.0
  0
MTEXT
  5
27F4EB
330
2
100
AcDbEntity
  8
0
  6
Continuous
 62
     2
100
AcDbMText
 10
159.9614401360844
 20
27.9782060193113
 30
0.0
 40
3.0
 41
0.0
 46
0.0
 71
     5
 72
     1
  1
3.50
 73
     1
 44
1.0
  0
LINE
  5
27F4EC
330
2
100
AcDbEntity
  8
0
  6
Continuous
 62
     7
100
AcDbLine
 10
150.6749999999999
 20
-2.449999999999818
 30
0.0
 11
150.6749999999999
 21
0.0
 31
0.0
  0
LINE
  5
27F4ED
330
2
100
AcDbEntity
  8
0
  6
Continuous
 62
     7
100
AcDbLine
 10
148.225
 20
0.0
 30
0.0
 11
148.225
 21
19.71494278687442
 31
0.0
  0
LINE
  5
27F4EE
330
2
100
AcDbEntity
  8
0
  6
Continuous
 62
     7
100
AcDbLine
 10
50.22500000000002
 20
-2.449999999999818
 30
0.0
 11
50.22500000000002
 21
0.0
 31
0.0
  0
LINE
  5
27F4EF
330
2
100
AcDbEntity
  8
0
  6
Continuous
 62
     7
100
AcDbLine
 10
150.6749999999999
 20
142.6451487066611
 30
0.0
 11
150.6749999999999
 21
140.195148706661
 31
0.0
  0
LINE
  5
27F4F0
330
2
100
AcDbEntity
  8
0
  6
Continuous
 62
     7
100
AcDbLine
 10
50.22500000000002
 20
142.6451487066611
 30
0.0
 11
50.22500000000002
 21
140.195148706661
 31
0.0
  0
LINE
  5
27F4F1
330
2
100
AcDbEntity
  8
0
  6
Continuous
 62
     7
100
AcDbLine
 10
-2.450000000000045
 20
35.0487871766652
 30
0.0
 11
0.0
 21
35.0487871766652
 31
0.0
  0
LINE
  5
27F4F2
330
2
100
AcDbEntity
  8
0
  6
Continuous
 62
     7
100
AcDbLine
 10
-2.450000000000045
 20
105.1463615299958
 30
0.0
 11
0.0
 21
105.1463615299958
 31
0.0
  0
LINE
  5
27F4F3
330
2
100
AcDbEntity
  8
0
  6
Continuous
 62
     7
100
AcDbLine
 10
203.3499999999999
 20
35.0487871766652
 30
0.0
 11
200.9
 21
35.0487871766652
 31
0.0
  0
LINE
  5
27F4F4
330
2
100
AcDbEntity
  8
0
  6
Continuous
 62
     7
100
AcDbLine
 10
203.3499999999999
 20
105.1463615299958
 30
0.0
 11
200.9
 21
105.1463615299958
 31
0.0
  0
LINE
  5
27F4F5
330
2
100
AcDbEntity
  8
0
  6
Continuous
 62
     7
100
AcDbLine
 10
200.9
 20
19.71494278687442
 30
0.0
 11
148.2249999999999
 21
19.71494278687442
 31
0.0
  0
LINE
  5
27F4F6
330
2
100
AcDbEntity
  8
0
  6
Continuous
 62
     7
100
AcDbLine
 10
148.225
 20
6.571647595624654
 30
0.0
 11
200.9
 21
6.571647595624654
 31
0.0
  0
LINE
  5
27F4F7
330
2
100
AcDbEntity
  8
0
  6
Continuous
 62
     7
100
AcDbLine
 10
148.225
 20
13.14329519124931
 30
0.0
 11
200.9
 21
13.14329519124931
 31
0.0
  0
LINE
  5
27F4F8
330
2
100
AcDbEntity
  8
0
  6
Continuous
 62
     7
100
AcDbLine
 10
148.225
 20
0.0
 30
0.0
 11
200.9
 21
0.0
 31
0.0
  0
LINE
  5
27F4F9
330
2
100
AcDbEntity
  8
0
  6
Continuous
 62
     7
100
AcDbLine
 10
200.9
 20
70.0975743533304
 30
0.0
 11
203.3499999999999
 21
70.0975743533304
 31
0.0
  0
LINE
  5
27F4FA
330
2
100
AcDbEntity
  8
0
  6
Continuous
 62
     7
100
AcDbLine
 10
202.125
 20
69.26457435333055
 30
0.0
 11
202.125
 21
70.93057435333048
 31
0.0
  0
LINE
  5
27F4FB
330
2
100
AcDbEntity
  8
0
  6
Continuous
 62
     7
100
AcDbLine
 10
202.125
 20
69.26457435333055
 30
0.0
 11
200.9
 21
70.0975743533304
 31
0.0
  0
LINE
  5
27F4FC
330
2
100
AcDbEntity
  8
0
  6
Continuous
 62
     7
100
AcDbLine
 10
200.9
 20
70.0975743533304
 30
0.0
 11
202.125
 21
70.93057435333048
 31
0.0
  0
LINE
  5
27F4FD
330
2
100
AcDbEntity
  8
0
  6
Continuous
 62
     7
100
AcDbLine
 10
0.0
 20
70.0975743533304
 30
0.0
 11
-2.450000000000045
 21
70.0975743533304
 31
0.0
  0
LINE
  5
27F4FE
330
2
100
AcDbEntity
  8
0
  6
Continuous
 62
     7
100
AcDbLine
 10
-1.225000000000022
 20
69.26457435333055
 30
0.0
 11
-1.225000000000022
 21
70.93057435333048
 31
0.0
  0
LINE
  5
27F4FF
330
2
100
AcDbEntity
  8
0
  6
Continuous
 62
     7
100
AcDbLine
 10
-1.225000000000022
 20
69.26457435333055
 30
0.0
 11
0.0
 21
70.0975743533304
 31
0.0
  0
LINE
  5
27F500
330
2
100
AcDbEntity
  8
0
  6
Continuous
 62
     7
100
AcDbLine
 10
0.0
 20
70.0975743533304
 30
0.0
 11
-1.225000000000022
 21
70.93057435333048
 31
0.0
  0
LINE
  5
27F501
330
2
100
AcDbEntity
  8
0
  6
Continuous
 62
     7
100
AcDbLine
 10
100.45
 20
140.195148706661
 30
0.0
 11
100.45
 21
142.6451487066611
 31
0.0
  0
LINE
  5
27F502
330
2
100
AcDbEntity
  8
0
  6
Continuous
 62
     7
100
AcDbLine
 10
99.61699999999996
 20
141.4201487066612
 30
0.0
 11
101.283
 21
141.4201487066612
 31
0.0
  0
LINE
  5
27F503
330
2
100
AcDbEntity
  8
0
  6
Continuous
 62
     7
100
AcDbLine
 10
99.61699999999996
 20
141.4201487066612
 30
0.0
 11
100.45
 21
140.195148706661
 31
0.0
  0
LINE
  5
27F504
330
2
100
AcDbEntity
  8
0
  6
Continuous
 62
     7
100
AcDbLine
 10
100.45
 20
140.195148706661
 30
0.0
 11
101.283
 21
141.4201487066612
 31
0.0
  0
LINE
  5
27F505
330
2
100
AcDbEntity
  8
0
  6
Continuous
 62
     7
100
AcDbLine
 10
100.45
 20
0.0
 30
0.0
 11
100.45
 21
-2.449999999999818
 31
0.0
  0
LINE
  5
27F506
330
2
100
AcDbEntity
  8
0
  6
Continuous
 62
     7
100
AcDbLine
 10
99.61699999999996
 20
-1.224999999999909
 30
0.0
 11
101.283
 21
-1.224999999999909
 31
0.0
  0
LINE
  5
27F507
330
2
100
AcDbEntity
  8
0
  6
Continuous
 62
     7
100
AcDbLine
 10
99.61699999999996
 20
-1.224999999999909
 30
0.0
 11
100.45
 21
0.0
 31
0.0
  0
LINE
  5
27F508
330
2
100
AcDbEntity
  8
0
  6
Continuous
 62
     7
100
AcDbLine
 10
100.45
 20
0.0
 30
0.0
 11
101.283
 21
-1.224999999999909
 31
0.0
  0
TEXT
  5
27F509
330
2
100
AcDbEntity
  8
0
 62
     2
100
AcDbText
 10
24.59944858848507
 20
-1.9850836322139
 30
0.0
 40
1.371999999999999
  1
4
  7
굴림
100
AcDbText
  0
TEXT
  5
27F50A
330
2
100
AcDbEntity
  8
0
 62
     2
100
AcDbText
 10
74.87101382107198
 20
-1.9850836322139
 30
0.0
 40
1.371999999999999
  1
3
  7
굴림
100
AcDbText
  0
TEXT
  5
27F50B
330
2
100
AcDbEntity
  8
0
 62
     2
100
AcDbText
 10
125.0310458326137
 20
-1.9850836322139
 30
0.0
 40
1.371999999999999
  1
2
  7
굴림
100
AcDbText
  0
TEXT
  5
27F50C
330
2
100
AcDbEntity
  8
0
 62
     2
100
AcDbText
 10
175.4092265294841
 20
-1.9850836322139
 30
0.0
 40
1.371999999999999
  1
1
  7
굴림
100
AcDbText
  0
TEXT
  5
27F50D
330
2
100
AcDbEntity
  8
0
 62
     2
100
AcDbText
 10
24.59944858848507
 20
140.976298595762
 30
0.0
 40
1.371999999999999
  1
4
  7
굴림
100
AcDbText
  0
LWPOLYLINE
  5
27F50E
330
2
100
AcDbEntity
  8
Layer 1
 62
   103
100
AcDbPolyline
 90
        8
 70
     1
 43
0.0
 10
189.4049511631299
 20
18.98471653733668
 10
170.6176471331675
 20
18.98545517716502
 10
170.3373984924728
 20
18.06365439628734
 10
176.8481175333351
 20
18.06333096970638
 10
175.6021190419852
 20
13.74267657548989
 10
176.82309067798
 20
13.74267657548989
 10
178.0688501976208
 20
18.06333096970638
 10
189.1233133711464
 20
18.06278540825406
  0
TEXT
  5
27F50F
330
2
100
AcDbEntity
  8
0
 62
     2
100
AcDbText
 10
74.87101382107198
 20
140.976298595762
 30
0.0
 40
1.371999999999999
  1
3
  7
굴림
100
AcDbText
  0
TEXT
  5
27F510
330
2
100
AcDbEntity
  8
0
 62
     2
100
AcDbText
 10
125.0310458326137
 20
140.976298595762
 30
0.0
 40
1.371999999999999
  1
2
  7
굴림
100
AcDbText
  0
TEXT
  5
27F511
330
2
100
AcDbEntity
  8
0
 62
     2
100
AcDbText
 10
175.4092265294841
 20
140.976298595762
 30
0.0
 40
1.371999999999999
  1
1
  7
굴림
100
AcDbText
  0
TEXT
  5
27F512
330
2
100
AcDbEntity
  8
0
 62
     2
100
AcDbText
 10
-1.98067101414017
 20
17.06755302432748
 30
0.0
 40
1.371999999999999
  1
A
  7
굴림
100
AcDbText
  0
TEXT
  5
27F513
330
2
100
AcDbEntity
  8
0
 62
     2
100
AcDbText
 10
-1.98067101414017
 20
51.82557458958445
 30
0.0
 40
1.371999999999999
  1
B
  7
굴림
100
AcDbText
  0
HATCH
  5
27F514
330
2
100
AcDbEntity
  8
0
  6
Continuous
 62
    93
100
AcDbHatch
 10
0.0
 20
0.0
 30
0.0
210
0.0
220
0.0
230
1.0
  2
SOLID
 70
     1
 71
     0
 91
        1
 92
        7
 72
     0
 73
     1
 93
        8
 10
170.6176471331675
 20
18.98545517716502
 10
170.3373984924728
 20
18.06365439628734
 10
176.8481175333351
 20
18.06333096970638
 10
175.6021190419852
 20
13.74267657548989
 10
176.82309067798
 20
13.74267657548989
 10
178.0688501976208
 20
18.06333096970638
 10
189.1233133711464
 20
18.06278540825406
 10
189.4049511631299
 20
18.98471653733668
 97
        0
 75
     1
 76
     1
 47
0.0428322549537331
 98
        1
 10
178.8849069410316
 20
18.5299746131268
450
        0
451
        0
460
0.0
461
0.0
452
        0
462
1.0
453
        2
463
0.0
 63
     5
421
      255
463
1.0
 63
     2
421
 16776960
470
LINEAR
1001
GRADIENTCOLOR1ACI
1070
     5
1001
GRADIENTCOLOR2ACI
1070
     2
1001
ACAD
1010
0.0
1020
0.0
1030
0.0
  0
TEXT
  5
27F515
330
2
100
AcDbEntity
  8
0
 62
     2
100
AcDbText
 10
-1.98067101414017
 20
86.91526808720164
 30
0.0
 40
1.371999999999999
  1
C
  7
굴림
100
AcDbText
  0
TEXT
  5
27F516
330
2
100
AcDbEntity
  8
0
 62
     2
100
AcDbText
 10
-1.98067101414017
 20
122.2210366742626
 30
0.0
 40
1.371999999999999
  1
D
  7
굴림
100
AcDbText
  0
TEXT
  5
27F517
330
2
100
AcDbEntity
  8
0
 62
     2
100
AcDbText
 10
201.6339332675224
 20
17.06755302432748
 30
0.0
 40
1.371999999999999
  1
A
  7
굴림
100
AcDbText
  0
TEXT
  5
27F518
330
2
100
AcDbEntity
  8
0
 62
     2
100
AcDbText
 10
201.6339332675224
 20
51.82557458958445
 30
0.0
 40
1.371999999999999
  1
B
  7
굴림
100
AcDbText
  0
TEXT
  5
27F519
330
2
100
AcDbEntity
  8
0
 62
     2
100
AcDbText
 10
201.6339332675224
 20
86.91526808720164
 30
0.0
 40
1.371999999999999
  1
C
  7
굴림
100
AcDbText
  0
TEXT
  5
27F51A
330
2
100
AcDbEntity
  8
0
 62
     2
100
AcDbText
 10
201.6339332675224
 20
122.2210366742626
 30
0.0
 40
1.371999999999999
  1
D
  7
굴림
100
AcDbText
  0
HATCH
  5
27F51B
330
2
100
AcDbEntity
  8
0
  6
Continuous
 62
     0
100
AcDbHatch
 10
0.0
 20
0.0
 30
0.0
210
0.0
220
0.0
230
1.0
  2
SOLID
 70
     1
 71
     0
 91
        1
 92
        5
 93
       13
 72
     4
 94
        3
 73
     0
 74
     0
 95
        8
 96
        4
 40
1.0
 40
1.0
 40
1.0
 40
1.0
 40
2.0
 40
2.0
 40
2.0
 40
2.0
 10
163.9258527108948
 20
16.30762510357363
 10
163.9258527108948
 20
16.30762510357363
 10
163.36574647412
 20
13.74267657548989
 10
163.36574647412
 20
13.74267657548989
 72
     4
 94
        3
 73
     0
 74
     0
 95
        8
 96
        4
 40
0.0
 40
0.0
 40
0.0
 40
0.0
 40
1.0
 40
1.0
 40
1.0
 40
1.0
 10
163.36574647412
 20
13.74267657548989
 10
163.36574647412
 20
13.74267657548989
 10
164.5977325334352
 20
13.74267657548989
 10
164.5977325334352
 20
13.74267657548989
 72
     4
 94
        3
 73
     0
 74
     0
 95
        8
 96
        4
 40
12.0
 40
12.0
 40
12.0
 40
12.0
 40
13.0
 40
13.0
 40
13.0
 40
13.0
 10
164.5977325334352
 20
13.74267657548989
 10
164.5977325334352
 20
13.74267657548989
 10
165.2419568118201
 20
17.69640076343421
 10
165.2419568118201
 20
17.69640076343421
 72
     4
 94
        3
 73
     0
 74
     0
 95
        8
 96
        4
 40
11.0
 40
11.0
 40
11.0
 40
11.0
 40
12.0
 40
12.0
 40
12.0
 40
12.0
 10
165.2419568118201
 20
17.69640076343421
 10
165.2419568118201
 20
17.69640076343421
 10
163.9144906923611
 20
17.69640076343421
 10
163.9144906923611
 20
17.69640076343421
 72
     4
 94
        3
 73
     0
 74
     0
 95
        8
 96
        4
 40
10.0
 40
10.0
 40
10.0
 40
10.0
 40
11.0
 40
11.0
 40
11.0
 40
11.0
 10
163.9144906923611
 20
17.69640076343421
 10
163.9144906923611
 20
17.69640076343421
 10
162.5480070102133
 20
15.52362410005435
 10
162.5480070102133
 20
15.52362410005435
 72
     4
 94
        3
 73
     0
 74
     0
 95
        8
 96
        4
 40
9.0
 40
9.0
 40
9.0
 40
9.0
 40
10.0
 40
10.0
 40
10.0
 40
10.0
 10
162.5480070102133
 20
15.52362410005435
 10
162.5480070102133
 20
15.52362410005435
 10
162.3074282253702
 20
17.69640076343421
 10
162.3074282253702
 20
17.69640076343421
 72
     4
 94
        3
 73
     0
 74
     0
 95
        8
 96
        4
 40
8.0
 40
8.0
 40
8.0
 40
8.0
 40
9.0
 40
9.0
 40
9.0
 40
9.0
 10
162.3074282253702
 20
17.69640076343421
 10
162.3074282253702
 20
17.69640076343421
 10
161.0023385147959
 20
17.69640076343421
 10
161.0023385147959
 20
17.69640076343421
 72
     4
 94
        3
 73
     0
 74
     0
 95
        8
 96
        4
 40
7.0
 40
7.0
 40
7.0
 40
7.0
 40
8.0
 40
8.0
 40
8.0
 40
8.0
 10
161.0023385147959
 20
17.69640076343421
 10
161.0023385147959
 20
17.69640076343421
 10
159.563185672019
 20
13.74267657548989
 10
159.563185672019
 20
13.74267657548989
 72
     4
 94
        3
 73
     0
 74
     0
 95
        8
 96
        4
 40
6.0
 40
6.0
 40
6.0
 40
6.0
 40
7.0
 40
7.0
 40
7.0
 40
7.0
 10
159.563185672019
 20
13.74267657548989
 10
159.563185672019
 20
13.74267657548989
 10
160.7671686223805
 20
13.74267657548989
 10
160.7671686223805
 20
13.74267657548989
 72
     4
 94
        3
 73
     0
 74
     0
 95
        8
 96
        4
 40
5.0
 40
5.0
 40
5.0
 40
5.0
 40
6.0
 40
6.0
 40
6.0
 40
6.0
 10
160.7671686223805
 20
13.74267657548989
 10
160.7671686223805
 20
13.74267657548989
 10
161.5793031339893
 20
16.36354448350767
 10
161.5793031339893
 20
16.36354448350767
 72
     4
 94
        3
 73
     0
 74
     0
 95
        8
 96
        4
 40
4.0
 40
4.0
 40
4.0
 40
4.0
 40
5.0
 40
5.0
 40
5.0
 40
5.0
 10
161.5793031339893
 20
16.36354448350767
 10
161.5793031339893
 20
16.36354448350767
 10
161.8761060042141
 20
13.74267657548989
 10
161.8761060042141
 20
13.74267657548989
 72
     4
 94
        3
 73
     0
 74
     0
 95
        8
 96
        4
 40
3.0
 40
3.0
 40
3.0
 40
3.0
 40
4.0
 40
4.0
 40
4.0
 40
4.0
 10
161.8761060042141
 20
13.74267657548989
 10
161.8761060042141
 20
13.74267657548989
 10
162.2681711388343
 20
13.74267657548989
 10
162.2681711388343
 20
13.74267657548989
 72
     4
 94
        3
 73
     0
 74
     0
 95
        8
 96
        4
 40
2.0
 40
2.0
 40
2.0
 40
2.0
 40
3.0
 40
3.0
 40
3.0
 40
3.0
 10
162.2681711388343
 20
13.74267657548989
 10
162.2681711388343
 20
13.74267657548989
 10
163.9258527108948
 20
16.30762510357363
 10
163.9258527108948
 20
16.30762510357363
 97
        0
 75
     1
 76
     1
 47
0.0269459378258844
 98
        1
 10
163.9973107632058
 20
15.08688593174247
450
        0
451
        0
460
0.0
461
0.0
452
        0
462
1.0
453
        2
463
0.0
 63
     5
421
      255
463
1.0
 63
     2
421
 16776960
470
LINEAR
1001
GRADIENTCOLOR1ACI
1070
     5
1001
GRADIENTCOLOR2ACI
1070
     2
1001
ACAD
1010
0.0
1020
0.0
1030
0.0
  0
SPLINE
  5
27F51C
330
2
100
AcDbEntity
  8
Layer 1
100
AcDbSpline
210
0.0
220
0.0
230
1.0
 70
    24
 71
     3
 72
     8
 73
     4
 74
     0
 42
0.0000000001
 43
0.0000000001
 40
0.0
 40
0.0
 40
0.0
 40
0.0
 40
1.0
 40
1.0
 40
1.0
 40
1.0
 10
164.5977325334352
 20
13.74267657548989
 30
0.0
 10
164.5977325334352
 20
13.74267657548989
 30
0.0
 10
163.36574647412
 20
13.74267657548989
 30
0.0
 10
163.36574647412
 20
13.74267657548989
 30
0.0
  0
SPLINE
  5
27F51D
330
2
100
AcDbEntity
  8
Layer 1
100
AcDbSpline
210
0.0
220
0.0
230
1.0
 70
    24
 71
     3
 72
     8
 73
     4
 74
     0
 42
0.0000000001
 43
0.0000000001
 40
1.0
 40
1.0
 40
1.0
 40
1.0
 40
2.0
 40
2.0
 40
2.0
 40
2.0
 10
163.36574647412
 20
13.74267657548989
 30
0.0
 10
163.36574647412
 20
13.74267657548989
 30
0.0
 10
163.9258527108948
 20
16.30762510357363
 30
0.0
 10
163.9258527108948
 20
16.30762510357363
 30
0.0
  0
SPLINE
  5
27F51E
330
2
100
AcDbEntity
  8
Layer 1
100
AcDbSpline
210
0.0
220
0.0
230
1.0
 70
    24
 71
     3
 72
     8
 73
     4
 74
     0
 42
0.0000000001
 43
0.0000000001
 40
2.0
 40
2.0
 40
2.0
 40
2.0
 40
3.0
 40
3.0
 40
3.0
 40
3.0
 10
163.9258527108948
 20
16.30762510357363
 30
0.0
 10
163.9258527108948
 20
16.30762510357363
 30
0.0
 10
162.2681711388343
 20
13.74267657548989
 30
0.0
 10
162.2681711388343
 20
13.74267657548989
 30
0.0
  0
SPLINE
  5
27F51F
330
2
100
AcDbEntity
  8
Layer 1
100
AcDbSpline
210
0.0
220
0.0
230
1.0
 70
    24
 71
     3
 72
     8
 73
     4
 74
     0
 42
0.0000000001
 43
0.0000000001
 40
3.0
 40
3.0
 40
3.0
 40
3.0
 40
4.0
 40
4.0
 40
4.0
 40
4.0
 10
162.2681711388343
 20
13.74267657548989
 30
0.0
 10
162.2681711388343
 20
13.74267657548989
 30
0.0
 10
161.8761060042141
 20
13.74267657548989
 30
0.0
 10
161.8761060042141
 20
13.74267657548989
 30
0.0
  0
SPLINE
  5
27F520
330
2
100
AcDbEntity
  8
Layer 1
100
AcDbSpline
210
0.0
220
0.0
230
1.0
 70
    24
 71
     3
 72
     8
 73
     4
 74
     0
 42
0.0000000001
 43
0.0000000001
 40
4.0
 40
4.0
 40
4.0
 40
4.0
 40
5.0
 40
5.0
 40
5.0
 40
5.0
 10
161.8761060042141
 20
13.74267657548989
 30
0.0
 10
161.8761060042141
 20
13.74267657548989
 30
0.0
 10
161.5793031339893
 20
16.36354448350767
 30
0.0
 10
161.5793031339893
 20
16.36354448350767
 30
0.0
  0
SPLINE
  5
27F521
330
2
100
AcDbEntity
  8
Layer 1
100
AcDbSpline
210
0.0
220
0.0
230
1.0
 70
    24
 71
     3
 72
     8
 73
     4
 74
     0
 42
0.0000000001
 43
0.0000000001
 40
5.0
 40
5.0
 40
5.0
 40
5.0
 40
6.0
 40
6.0
 40
6.0
 40
6.0
 10
161.5793031339893
 20
16.36354448350767
 30
0.0
 10
161.5793031339893
 20
16.36354448350767
 30
0.0
 10
160.7671686223805
 20
13.74267657548989
 30
0.0
 10
160.7671686223805
 20
13.74267657548989
 30
0.0
  0
SPLINE
  5
27F522
330
2
100
AcDbEntity
  8
Layer 1
100
AcDbSpline
210
0.0
220
0.0
230
1.0
 70
    24
 71
     3
 72
     8
 73
     4
 74
     0
 42
0.0000000001
 43
0.0000000001
 40
6.0
 40
6.0
 40
6.0
 40
6.0
 40
7.0
 40
7.0
 40
7.0
 40
7.0
 10
160.7671686223805
 20
13.74267657548989
 30
0.0
 10
160.7671686223805
 20
13.74267657548989
 30
0.0
 10
159.563185672019
 20
13.74267657548989
 30
0.0
 10
159.563185672019
 20
13.74267657548989
 30
0.0
  0
SPLINE
  5
27F523
330
2
100
AcDbEntity
  8
Layer 1
100
AcDbSpline
210
0.0
220
0.0
230
1.0
 70
    24
 71
     3
 72
     8
 73
     4
 74
     0
 42
0.0000000001
 43
0.0000000001
 40
7.0
 40
7.0
 40
7.0
 40
7.0
 40
8.0
 40
8.0
 40
8.0
 40
8.0
 10
159.563185672019
 20
13.74267657548989
 30
0.0
 10
159.563185672019
 20
13.74267657548989
 30
0.0
 10
161.0023385147959
 20
17.69640076343421
 30
0.0
 10
161.0023385147959
 20
17.69640076343421
 30
0.0
  0
SPLINE
  5
27F524
330
2
100
AcDbEntity
  8
Layer 1
100
AcDbSpline
210
0.0
220
0.0
230
1.0
 70
    24
 71
     3
 72
     8
 73
     4
 74
     0
 42
0.0000000001
 43
0.0000000001
 40
9.0
 40
9.0
 40
9.0
 40
9.0
 40
10.0
 40
10.0
 40
10.0
 40
10.0
 10
162.3074282253702
 20
17.69640076343421
 30
0.0
 10
162.3074282253702
 20
17.69640076343421
 30
0.0
 10
162.5480070102133
 20
15.52362410005435
 30
0.0
 10
162.5480070102133
 20
15.52362410005435
 30
0.0
  0
SPLINE
  5
27F525
330
2
100
AcDbEntity
  8
Layer 1
100
AcDbSpline
210
0.0
220
0.0
230
1.0
 70
    24
 71
     3
 72
     8
 73
     4
 74
     0
 42
0.0000000001
 43
0.0000000001
 40
10.0
 40
10.0
 40
10.0
 40
10.0
 40
11.0
 40
11.0
 40
11.0
 40
11.0
 10
162.5480070102133
 20
15.52362410005435
 30
0.0
 10
162.5480070102133
 20
15.52362410005435
 30
0.0
 10
163.9144906923611
 20
17.69640076343421
 30
0.0
 10
163.9144906923611
 20
17.69640076343421
 30
0.0
  0
SPLINE
  5
27F526
330
2
100
AcDbEntity
  8
Layer 1
100
AcDbSpline
210
0.0
220
0.0
230
1.0
 70
     8
 71
     3
 72
     8
 73
     4
 74
     0
 42
0.0000000001
 43
0.0000000001
 40
12.0
 40
12.0
 40
12.0
 40
12.0
 40
13.0
 40
13.0
 40
13.0
 40
13.0
 10
172.2174106528179
 20
15.37044323450845
 30
0.0
 10
172.3935979765415
 20
15.42401634675298
 30
0.0
 10
172.5684166441131
 20
15.50272493785678
 30
0.0
 10
172.7230747893151
 20
15.6208855856662
 30
0.0
  0
SPLINE
  5
27F527
330
2
100
AcDbEntity
  8
Layer 1
100
AcDbSpline
210
0.0
220
0.0
230
1.0
 70
    24
 71
     3
 72
     8
 73
     4
 74
     0
 42
0.0000000001
 43
0.0000000001
 40
11.0
 40
11.0
 40
11.0
 40
11.0
 40
12.0
 40
12.0
 40
12.0
 40
12.0
 10
163.9144906923611
 20
17.69640076343421
 30
0.0
 10
163.9144906923611
 20
17.69640076343421
 30
0.0
 10
165.2419568118201
 20
17.69640076343421
 30
0.0
 10
165.2419568118201
 20
17.69640076343421
 30
0.0
  0
SPLINE
  5
27F528
330
2
100
AcDbEntity
  8
Layer 1
100
AcDbSpline
210
0.0
220
0.0
230
1.0
 70
    24
 71
     3
 72
     8
 73
     4
 74
     0
 42
0.0000000001
 43
0.0000000001
 40
12.0
 40
12.0
 40
12.0
 40
12.0
 40
13.0
 40
13.0
 40
13.0
 40
13.0
 10
165.2419568118201
 20
17.69640076343421
 30
0.0
 10
165.2419568118201
 20
17.69640076343421
 30
0.0
 10
164.5977325334352
 20
13.74267657548989
 30
0.0
 10
164.5977325334352
 20
13.74267657548989
 30
0.0
  0
HATCH
  5
27F529
330
2
100
AcDbEntity
  8
0
  6
Continuous
 62
     0
100
AcDbHatch
 10
0.0
 20
0.0
 30
0.0
210
0.0
220
0.0
230
1.0
  2
SOLID
 70
     1
 71
     0
 91
        1
 92
        5
 93
        1
 72
     4
 94
        3
 73
     0
 74
     0
 95
       41
 96
       37
 40
0.0
 40
0.0
 40
0.0
 40
0.0
 40
1.0
 40
1.0
 40
1.0
 40
2.0
 40
2.0
 40
2.0
 40
3.0
 40
3.0
 40
3.0
 40
4.0
 40
4.0
 40
4.0
 40
5.0
 40
5.0
 40
5.0
 40
6.0
 40
6.0
 40
6.0
 40
7.0
 40
7.0
 40
7.0
 40
8.0
 40
8.0
 40
8.0
 40
9.0
 40
9.0
 40
9.0
 40
10.0
 40
10.0
 40
10.0
 40
11.0
 40
11.0
 40
11.0
 40
12.0
 40
12.0
 40
12.0
 40
12.0
 10
166.0031686041695
 20
13.74267657548989
 10
166.0031686041695
 20
13.74267657548989
 10
164.7207812389309
 20
13.74267657548989
 10
164.7207812389309
 20
13.74267657548989
 10
164.7207812389309
 20
13.74267657548989
 10
167.2856435461095
 20
17.70191640278244
 10
167.2856435461095
 20
17.70191640278244
 10
167.2856435461095
 20
17.70191640278244
 10
168.6073743779392
 20
17.70191640278244
 10
168.6073743779392
 20
17.70191640278244
 10
168.6073743779392
 20
17.70191640278244
 10
168.9042851528821
 20
13.74267657548989
 10
168.9042851528821
 20
13.74267657548989
 10
168.9042851528821
 20
13.74267657548989
 10
167.7113383809568
 20
13.74267657548989
 10
167.7113383809568
 20
13.74267657548989
 10
167.7113383809568
 20
13.74267657548989
 10
167.6720818465587
 20
14.3811655328559
 10
167.6720818465587
 20
14.3811655328559
 10
167.6720818465587
 20
14.3811655328559
 10
166.8073301300579
 20
14.3811655328559
 10
166.8073301300579
 20
14.3811655328559
 10
166.8073301300579
 20
14.3811655328559
 10
167.236631943141
 20
15.20420582376482
 10
167.236631943141
 20
15.20420582376482
 10
167.236631943141
 20
15.20420582376482
 10
167.6329339356648
 20
15.20420582376482
 10
167.6329339356648
 20
15.20420582376482
 10
167.6329339356648
 20
15.20420582376482
 10
167.582445730938
 20
16.36354448350767
 10
167.582445730938
 20
16.36354448350767
 10
167.582445730938
 20
16.36354448350767
 10
166.0095345871734
 20
13.75158370282952
 10
166.0095345871734
 20
13.75158370282952
 10
166.0095345871734
 20
13.75158370282952
 10
166.0031686041695
 20
13.74267657548989
 10
166.0031686041695
 20
13.74267657548989
 97
        0
 75
     1
 76
     1
 47
0.0269459378258844
 98
        1
 10
168.4131094840872
 20
15.37725063639664
450
        0
451
        0
460
0.0
461
0.0
452
        0
462
1.0
453
        2
463
0.0
 63
     5
421
      255
463
1.0
 63
     2
421
 16776960
470
LINEAR
1001
GRADIENTCOLOR1ACI
1070
     5
1001
GRADIENTCOLOR2ACI
1070
     2
1001
ACAD
1010
0.0
1020
0.0
1030
0.0
  0
SPLINE
  5
27F52A
330
2
100
AcDbEntity
  8
Layer 1
100
AcDbSpline
210
0.0
220
0.0
230
1.0
 70
    11
 71
     3
 72
    41
 73
    37
 74
     0
 42
0.0000000001
 43
0.0000000001
 40
0.0
 40
0.0
 40
0.0
 40
0.0
 40
1.0
 40
1.0
 40
1.0
 40
2.0
 40
2.0
 40
2.0
 40
3.0
 40
3.0
 40
3.0
 40
4.0
 40
4.0
 40
4.0
 40
5.0
 40
5.0
 40
5.0
 40
6.0
 40
6.0
 40
6.0
 40
7.0
 40
7.0
 40
7.0
 40
8.0
 40
8.0
 40
8.0
 40
9.0
 40
9.0
 40
9.0
 40
10.0
 40
10.0
 40
10.0
 40
11.0
 40
11.0
 40
11.0
 40
12.0
 40
12.0
 40
12.0
 40
12.0
 10
166.0031686041695
 20
13.74267657548989
 30
0.0
 10
166.0031686041695
 20
13.74267657548989
 30
0.0
 10
164.7207812389309
 20
13.74267657548989
 30
0.0
 10
164.7207812389309
 20
13.74267657548989
 30
0.0
 10
164.7207812389309
 20
13.74267657548989
 30
0.0
 10
167.2856435461095
 20
17.70191640278244
 30
0.0
 10
167.2856435461095
 20
17.70191640278244
 30
0.0
 10
167.2856435461095
 20
17.70191640278244
 30
0.0
 10
168.6073743779392
 20
17.70191640278244
 30
0.0
 10
168.6073743779392
 20
17.70191640278244
 30
0.0
 10
168.6073743779392
 20
17.70191640278244
 30
0.0
 10
168.9042851528821
 20
13.74267657548989
 30
0.0
 10
168.9042851528821
 20
13.74267657548989
 30
0.0
 10
168.9042851528821
 20
13.74267657548989
 30
0.0
 10
167.7113383809568
 20
13.74267657548989
 30
0.0
 10
167.7113383809568
 20
13.74267657548989
 30
0.0
 10
167.7113383809568
 20
13.74267657548989
 30
0.0
 10
167.6720818465587
 20
14.3811655328559
 30
0.0
 10
167.6720818465587
 20
14.3811655328559
 30
0.0
 10
167.6720818465587
 20
14.3811655328559
 30
0.0
 10
166.8073301300579
 20
14.3811655328559
 30
0.0
 10
166.8073301300579
 20
14.3811655328559
 30
0.0
 10
166.8073301300579
 20
14.3811655328559
 30
0.0
 10
167.236631943141
 20
15.20420582376482
 30
0.0
 10
167.236631943141
 20
15.20420582376482
 30
0.0
 10
167.236631943141
 20
15.20420582376482
 30
0.0
 10
167.6329339356648
 20
15.20420582376482
 30
0.0
 10
167.6329339356648
 20
15.20420582376482
 30
0.0
 10
167.6329339356648
 20
15.20420582376482
 30
0.0
 10
167.582445730938
 20
16.36354448350767
 30
0.0
 10
167.582445730938
 20
16.36354448350767
 30
0.0
 10
167.582445730938
 20
16.36354448350767
 30
0.0
 10
166.0095345871734
 20
13.75158370282952
 30
0.0
 10
166.0095345871734
 20
13.75158370282952
 30
0.0
 10
166.0095345871734
 20
13.75158370282952
 30
0.0
 10
166.0031686041695
 20
13.74267657548989
 30
0.0
 10
166.0031686041695
 20
13.74267657548989
 30
0.0
  0
HATCH
  5
27F52B
330
2
100
AcDbEntity
  8
0
  6
Continuous
 62
     0
100
AcDbHatch
 10
0.0
 20
0.0
 30
0.0
210
0.0
220
0.0
230
1.0
  2
SOLID
 70
     1
 71
     0
 91
        1
 92
        5
 93
        1
 72
     4
 94
        3
 73
     0
 74
     0
 95
       17
 96
       13
 40
0.0
 40
0.0
 40
0.0
 40
0.0
 40
1.0
 40
1.0
 40
1.0
 40
2.0
 40
2.0
 40
2.0
 40
3.0
 40
3.0
 40
3.0
 40
4.0
 40
4.0
 40
4.0
 40
4.0
 10
174.3642029960616
 20
13.74267657548989
 10
174.3642029960616
 20
13.74267657548989
 10
173.1433608515541
 20
13.74267657548989
 10
173.1433608515541
 20
13.74267657548989
 10
173.1433608515541
 20
13.74267657548989
 10
174.20189689945
 20
17.69640076343421
 10
174.20189689945
 20
17.69640076343421
 10
174.20189689945
 20
17.69640076343421
 10
175.4226512884364
 20
17.69640076343421
 10
175.4226512884364
 20
17.69640076343421
 10
175.4226512884364
 20
17.69640076343421
 10
174.3642029960616
 20
13.74267657548989
 10
174.3642029960616
 20
13.74267657548989
 97
        0
 75
     1
 76
     1
 47
0.0269459378258844
 98
        1
 10
173.8566066968948
 20
14.82270299255651
450
        0
451
        0
460
0.0
461
0.0
452
        0
462
1.0
453
        2
463
0.0
 63
     5
421
      255
463
1.0
 63
     2
421
 16776960
470
LINEAR
1001
GRADIENTCOLOR1ACI
1070
     5
1001
GRADIENTCOLOR2ACI
1070
     2
1001
ACAD
1010
0.0
1020
0.0
1030
0.0
  0
SPLINE
  5
27F52C
330
2
100
AcDbEntity
  8
Layer 1
100
AcDbSpline
210
0.0
220
0.0
230
1.0
 70
    11
 71
     3
 72
    17
 73
    13
 74
     0
 42
0.0000000001
 43
0.0000000001
 40
0.0
 40
0.0
 40
0.0
 40
0.0
 40
1.0
 40
1.0
 40
1.0
 40
2.0
 40
2.0
 40
2.0
 40
3.0
 40
3.0
 40
3.0
 40
4.0
 40
4.0
 40
4.0
 40
4.0
 10
174.3642029960616
 20
13.74267657548989
 30
0.0
 10
174.3642029960616
 20
13.74267657548989
 30
0.0
 10
173.1433608515541
 20
13.74267657548989
 30
0.0
 10
173.1433608515541
 20
13.74267657548989
 30
0.0
 10
173.1433608515541
 20
13.74267657548989
 30
0.0
 10
174.20189689945
 20
17.69640076343421
 30
0.0
 10
174.20189689945
 20
17.69640076343421
 30
0.0
 10
174.20189689945
 20
17.69640076343421
 30
0.0
 10
175.4226512884364
 20
17.69640076343421
 30
0.0
 10
175.4226512884364
 20
17.69640076343421
 30
0.0
 10
175.4226512884364
 20
17.69640076343421
 30
0.0
 10
174.3642029960616
 20
13.74267657548989
 30
0.0
 10
174.3642029960616
 20
13.74267657548989
 30
0.0
  0
HATCH
  5
27F52D
330
2
100
AcDbEntity
  8
0
  6
Continuous
 62
     0
100
AcDbHatch
 10
0.0
 20
0.0
 30
0.0
210
0.0
220
0.0
230
1.0
  2
SOLID
 70
     1
 71
     0
 91
        1
 92
        5
 93
       14
 72
     4
 94
        3
 73
     0
 74
     0
 95
        8
 96
        4
 40
11.0
 40
11.0
 40
11.0
 40
11.0
 40
12.0
 40
12.0
 40
12.0
 40
12.0
 10
172.7804722656149
 20
13.68942933375774
 10
172.7804722656149
 20
13.68942933375774
 10
172.2174106528179
 20
15.37044323450845
 10
172.2174106528179
 20
15.37044323450845
 72
     4
 94
        3
 73
     0
 74
     0
 95
        8
 96
        4
 40
12.0
 40
12.0
 40
12.0
 40
12.0
 40
13.0
 40
13.0
 40
13.0
 40
13.0
 10
172.2174106528179
 20
15.37044323450845
 10
172.3935979765415
 20
15.42401634675298
 10
172.5684166441131
 20
15.50272493785678
 10
172.7230747893151
 20
15.6208855856662
 72
     4
 94
        3
 73
     0
 74
     0
 95
        8
 96
        4
 40
13.0
 40
13.0
 40
13.0
 40
13.0
 40
14.0
 40
14.0
 40
14.0
 40
14.0
 10
172.7230747893151
 20
15.6208855856662
 10
173.0647608839545
 20
15.88416723501359
 10
173.244033115196
 20
16.25948316653648
 10
173.244033115196
 20
16.62893342883535
 72
     4
 94
        3
 73
     0
 74
     0
 95
        8
 96
        4
 40
0.0
 40
0.0
 40
0.0
 40
0.0
 40
1.0
 40
1.0
 40
1.0
 40
1.0
 10
173.244033115196
 20
16.62893342883535
 10
173.244033115196
 20
17.42410092858063
 10
172.5440198050819
 20
17.70415404696814
 10
171.9336434059054
 20
17.70415404696814
 72
     4
 94
        3
 73
     0
 74
     0
 95
        8
 96
        4
 40
1.0
 40
1.0
 40
1.0
 40
1.0
 40
2.0
 40
2.0
 40
2.0
 40
2.0
 10
171.9336434059054
 20
17.70415404696814
 10
171.9336434059054
 20
17.70415404696814
 10
170.1863256740829
 20
17.70415404696814
 10
170.1863256740829
 20
17.70415404696814
 72
     4
 94
        3
 73
     0
 74
     0
 95
        8
 96
        4
 40
2.0
 40
2.0
 40
2.0
 40
2.0
 40
3.0
 40
3.0
 40
3.0
 40
3.0
 10
170.1863256740829
 20
17.70415404696814
 10
170.1863256740829
 20
17.70415404696814
 10
169.1222708010009
 20
13.7503260051576
 10
169.1222708010009
 20
13.7503260051576
 72
     4
 94
        3
 73
     0
 74
     0
 95
        8
 96
        4
 40
3.0
 40
3.0
 40
3.0
 40
3.0
 40
4.0
 40
4.0
 40
4.0
 40
4.0
 10
169.1222708010009
 20
13.7503260051576
 10
169.1222708010009
 20
13.7503260051576
 10
170.3769591726825
 20
13.7503260051576
 10
170.3769591726825
 20
13.7503260051576
 72
     4
 94
        3
 73
     0
 74
     0
 95
        8
 96
        4
 40
4.0
 40
4.0
 40
4.0
 40
4.0
 40
5.0
 40
5.0
 40
5.0
 40
5.0
 10
170.3769591726825
 20
13.7503260051576
 10
170.3769591726825
 20
13.7503260051576
 10
171.199912564788
 20
16.81924180809801
 10
171.199912564788
 20
16.81924180809801
 72
     4
 94
        3
 73
     0
 74
     0
 95
        8
 96
        4
 40
5.0
 40
5.0
 40
5.0
 40
5.0
 40
6.0
 40
6.0
 40
6.0
 40
6.0
 10
171.199912564788
 20
16.81924180809801
 10
171.199912564788
 20
16.81924180809801
 10
171.5695800740952
 20
16.81924180809801
 10
171.5695800740952
 20
16.81924180809801
 72
     4
 94
        3
 73
     0
 74
     0
 95
        8
 96
        4
 40
6.0
 40
6.0
 40
6.0
 40
6.0
 40
7.0
 40
7.0
 40
7.0
 40
7.0
 10
172.0120470558809
 20
16.50017112702153
 10
172.0120470558809
 20
16.76886222687517
 10
171.7878915927265
 20
16.81924180809801
 10
171.5695800740952
 20
16.81924180809801
 72
     4
 94
        3
 73
     0
 74
     0
 95
        8
 96
        4
 40
7.0
 40
7.0
 40
7.0
 40
7.0
 40
8.0
 40
8.0
 40
8.0
 40
8.0
 10
172.0120470558809
 20
16.50017112702153
 10
172.0120470558809
 20
16.35463735616758
 10
171.9001213972094
 20
16.11925022268497
 10
171.5304538879023
 20
16.13059051651726
 72
     4
 94
        3
 73
     0
 74
     0
 95
        8
 96
        4
 40
8.0
 40
8.0
 40
8.0
 40
8.0
 40
9.0
 40
9.0
 40
9.0
 40
9.0
 10
171.5304538879023
 20
16.13059051651726
 10
171.5304538879023
 20
16.13059051651726
 10
171.2936763735663
 20
15.26384012754079
 10
171.2936763735663
 20
15.26384012754079
 72
     4
 94
        3
 73
     0
 74
     0
 95
        8
 96
        4
 40
9.0
 40
9.0
 40
9.0
 40
9.0
 40
10.0
 40
10.0
 40
10.0
 40
10.0
 10
171.2936763735663
 20
15.26384012754079
 10
171.2936763735663
 20
15.26384012754079
 10
171.7458977460239
 20
13.68942933375774
 10
171.7458977460239
 20
13.68942933375774
 72
     4
 94
        3
 73
     0
 74
     0
 95
        8
 96
        4
 40
10.0
 40
10.0
 40
10.0
 40
10.0
 40
11.0
 40
11.0
 40
11.0
 40
11.0
 10
171.7458977460239
 20
13.68942933375774
 10
171.7458977460239
 20
13.68942933375774
 10
172.7804722656149
 20
13.68942933375774
 10
172.7804722656149
 20
13.68942933375774
 97
        0
 75
     1
 76
     1
 47
0.0269459378258844
 98
        1
 10
171.9408134720004
 20
15.16599422765193
450
        0
451
        0
460
0.0
461
0.0
452
        0
462
1.0
453
        2
463
0.0
 63
     5
421
      255
463
1.0
 63
     2
421
 16776960
470
LINEAR
1001
GRADIENTCOLOR1ACI
1070
     5
1001
GRADIENTCOLOR2ACI
1070
     2
1001
ACAD
1010
0.0
1020
0.0
1030
0.0
  0
SPLINE
  5
27F52E
330
2
100
AcDbEntity
  8
Layer 1
100
AcDbSpline
210
0.0
220
0.0
230
1.0
 70
     8
 71
     3
 72
     8
 73
     4
 74
     0
 42
0.0000000001
 43
0.0000000001
 40
0.0
 40
0.0
 40
0.0
 40
0.0
 40
1.0
 40
1.0
 40
1.0
 40
1.0
 10
173.244033115196
 20
16.62893342883535
 30
0.0
 10
173.244033115196
 20
17.42410092858063
 30
0.0
 10
172.5440198050819
 20
17.70415404696814
 30
0.0
 10
171.9336434059054
 20
17.70415404696814
 30
0.0
  0
SPLINE
  5
27F52F
330
2
100
AcDbEntity
  8
Layer 1
100
AcDbSpline
210
0.0
220
0.0
230
1.0
 70
    24
 71
     3
 72
     8
 73
     4
 74
     0
 42
0.0000000001
 43
0.0000000001
 40
1.0
 40
1.0
 40
1.0
 40
1.0
 40
2.0
 40
2.0
 40
2.0
 40
2.0
 10
171.9336434059054
 20
17.70415404696814
 30
0.0
 10
171.9336434059054
 20
17.70415404696814
 30
0.0
 10
170.1863256740829
 20
17.70415404696814
 30
0.0
 10
170.1863256740829
 20
17.70415404696814
 30
0.0
  0
SPLINE
  5
27F530
330
2
100
AcDbEntity
  8
Layer 1
100
AcDbSpline
210
0.0
220
0.0
230
1.0
 70
    24
 71
     3
 72
     8
 73
     4
 74
     0
 42
0.0000000001
 43
0.0000000001
 40
2.0
 40
2.0
 40
2.0
 40
2.0
 40
3.0
 40
3.0
 40
3.0
 40
3.0
 10
170.1863256740829
 20
17.70415404696814
 30
0.0
 10
170.1863256740829
 20
17.70415404696814
 30
0.0
 10
169.1222708010009
 20
13.7503260051576
 30
0.0
 10
169.1222708010009
 20
13.7503260051576
 30
0.0
  0
SPLINE
  5
27F531
330
2
100
AcDbEntity
  8
Layer 1
100
AcDbSpline
210
0.0
220
0.0
230
1.0
 70
    24
 71
     3
 72
     8
 73
     4
 74
     0
 42
0.0000000001
 43
0.0000000001
 40
3.0
 40
3.0
 40
3.0
 40
3.0
 40
4.0
 40
4.0
 40
4.0
 40
4.0
 10
169.1222708010009
 20
13.7503260051576
 30
0.0
 10
169.1222708010009
 20
13.7503260051576
 30
0.0
 10
170.3769591726825
 20
13.7503260051576
 30
0.0
 10
170.3769591726825
 20
13.7503260051576
 30
0.0
  0
SPLINE
  5
27F532
330
2
100
AcDbEntity
  8
Layer 1
100
AcDbSpline
210
0.0
220
0.0
230
1.0
 70
    24
 71
     3
 72
     8
 73
     4
 74
     0
 42
0.0000000001
 43
0.0000000001
 40
4.0
 40
4.0
 40
4.0
 40
4.0
 40
5.0
 40
5.0
 40
5.0
 40
5.0
 10
170.3769591726825
 20
13.7503260051576
 30
0.0
 10
170.3769591726825
 20
13.7503260051576
 30
0.0
 10
171.199912564788
 20
16.81924180809801
 30
0.0
 10
171.199912564788
 20
16.81924180809801
 30
0.0
  0
SPLINE
  5
27F533
330
2
100
AcDbEntity
  8
Layer 1
100
AcDbSpline
210
0.0
220
0.0
230
1.0
 70
    24
 71
     3
 72
     8
 73
     4
 74
     0
 42
0.0000000001
 43
0.0000000001
 40
5.0
 40
5.0
 40
5.0
 40
5.0
 40
6.0
 40
6.0
 40
6.0
 40
6.0
 10
171.199912564788
 20
16.81924180809801
 30
0.0
 10
171.199912564788
 20
16.81924180809801
 30
0.0
 10
171.5695800740952
 20
16.81924180809801
 30
0.0
 10
171.5695800740952
 20
16.81924180809801
 30
0.0
  0
SPLINE
  5
27F534
330
2
100
AcDbEntity
  8
Layer 1
100
AcDbSpline
210
0.0
220
0.0
230
1.0
 70
     8
 71
     3
 72
    11
 73
     7
 74
     0
 42
0.0000000001
 43
0.0000000001
 40
6.0
 40
6.0
 40
6.0
 40
6.0
 40
7.0
 40
7.0
 40
7.0
 40
8.0
 40
8.0
 40
8.0
 40
8.0
 10
171.5695800740952
 20
16.81924180809801
 30
0.0
 10
171.7878915927265
 20
16.81924180809801
 30
0.0
 10
172.0120470558809
 20
16.76886222687517
 30
0.0
 10
172.0120470558809
 20
16.50017112702153
 30
0.0
 10
172.0120470558809
 20
16.35463735616758
 30
0.0
 10
171.9001213972094
 20
16.11925022268497
 30
0.0
 10
171.5304538879023
 20
16.13059051651726
 30
0.0
  0
SPLINE
  5
27F535
330
2
100
AcDbEntity
  8
Layer 1
100
AcDbSpline
210
0.0
220
0.0
230
1.0
 70
    24
 71
     3
 72
     8
 73
     4
 74
     0
 42
0.0000000001
 43
0.0000000001
 40
8.0
 40
8.0
 40
8.0
 40
8.0
 40
9.0
 40
9.0
 40
9.0
 40
9.0
 10
171.5304538879023
 20
16.13059051651726
 30
0.0
 10
171.5304538879023
 20
16.13059051651726
 30
0.0
 10
171.2936763735663
 20
15.26384012754079
 30
0.0
 10
171.2936763735663
 20
15.26384012754079
 30
0.0
  0
SPLINE
  5
27F536
330
2
100
AcDbEntity
  8
Layer 1
100
AcDbSpline
210
0.0
220
0.0
230
1.0
 70
    24
 71
     3
 72
     8
 73
     4
 74
     0
 42
0.0000000001
 43
0.0000000001
 40
9.0
 40
9.0
 40
9.0
 40
9.0
 40
10.0
 40
10.0
 40
10.0
 40
10.0
 10
171.2936763735663
 20
15.26384012754079
 30
0.0
 10
171.2936763735663
 20
15.26384012754079
 30
0.0
 10
171.7458977460239
 20
13.68942933375774
 30
0.0
 10
171.7458977460239
 20
13.68942933375774
 30
0.0
  0
SPLINE
  5
27F537
330
2
100
AcDbEntity
  8
Layer 1
100
AcDbSpline
210
0.0
220
0.0
230
1.0
 70
    24
 71
     3
 72
     8
 73
     4
 74
     0
 42
0.0000000001
 43
0.0000000001
 40
10.0
 40
10.0
 40
10.0
 40
10.0
 40
11.0
 40
11.0
 40
11.0
 40
11.0
 10
171.7458977460239
 20
13.68942933375774
 30
0.0
 10
171.7458977460239
 20
13.68942933375774
 30
0.0
 10
172.7804722656149
 20
13.68942933375774
 30
0.0
 10
172.7804722656149
 20
13.68942933375774
 30
0.0
  0
SPLINE
  5
27F538
330
2
100
AcDbEntity
  8
Layer 1
100
AcDbSpline
210
0.0
220
0.0
230
1.0
 70
    24
 71
     3
 72
     8
 73
     4
 74
     0
 42
0.0000000001
 43
0.0000000001
 40
11.0
 40
11.0
 40
11.0
 40
11.0
 40
12.0
 40
12.0
 40
12.0
 40
12.0
 10
172.7804722656149
 20
13.68942933375774
 30
0.0
 10
172.7804722656149
 20
13.68942933375774
 30
0.0
 10
172.2174106528179
 20
15.37044323450845
 30
0.0
 10
172.2174106528179
 20
15.37044323450845
 30
0.0
  0
SPLINE
  5
27F539
330
2
100
AcDbEntity
  8
Layer 1
100
AcDbSpline
210
0.0
220
0.0
230
1.0
 70
     8
 71
     3
 72
     8
 73
     4
 74
     0
 42
0.0000000001
 43
0.0000000001
 40
13.0
 40
13.0
 40
13.0
 40
13.0
 40
14.0
 40
14.0
 40
14.0
 40
14.0
 10
172.7230747893151
 20
15.6208855856662
 30
0.0
 10
173.0647608839545
 20
15.88416723501359
 30
0.0
 10
173.244033115196
 20
16.25948316653648
 30
0.0
 10
173.244033115196
 20
16.62893342883535
 30
0.0
  0
HATCH
  5
27F53A
330
2
100
AcDbEntity
  8
0
  6
Continuous
 62
     0
100
AcDbHatch
 10
0.0
 20
0.0
 30
0.0
210
0.0
220
0.0
230
1.0
  2
SOLID
 70
     1
 71
     0
 91
        2
 92
        5
 93
        4
 72
     4
 94
        3
 73
     0
 74
     0
 95
        8
 96
        4
 40
0.0
 40
0.0
 40
0.0
 40
0.0
 40
1.0
 40
1.0
 40
1.0
 40
1.0
 10
178.1444956059075
 20
15.34582914846942
 10
178.1444956059075
 20
14.32122708326824
 10
178.8462034426861
 20
13.53592259769948
 10
180.0601580003133
 20
13.53592259769948
 72
     4
 94
        3
 73
     0
 74
     0
 95
        8
 96
        4
 40
3.0
 40
3.0
 40
3.0
 40
3.0
 40
4.0
 40
4.0
 40
4.0
 40
4.0
 10
180.0601580003133
 20
13.53592259769948
 10
181.669654185935
 20
13.53592259769948
 10
182.4994074094
 20
14.76664862436655
 10
182.4994074094
 20
15.88045231117166
 72
     4
 94
        3
 73
     0
 74
     0
 95
        8
 96
        4
 40
2.0
 40
2.0
 40
2.0
 40
2.0
 40
3.0
 40
3.0
 40
3.0
 40
3.0
 10
182.4994074094
 20
15.88045231117166
 10
182.4994074094
 20
16.87737952148836
 10
181.7978081961256
 20
17.70159053227007
 10
180.5336695795834
 20
17.70159053227007
 72
     4
 94
        3
 73
     0
 74
     0
 95
        8
 96
        4
 40
1.0
 40
1.0
 40
1.0
 40
1.0
 40
2.0
 40
2.0
 40
2.0
 40
2.0
 10
180.5336695795834
 20
17.70159053227007
 10
178.9798538021865
 20
17.70159053227007
 10
178.1444956059075
 20
16.46515090928506
 10
178.1444956059075
 20
15.34582914846942
 97
        0
 92
       20
 93
        4
 72
     4
 94
        3
 73
     0
 74
     0
 95
        8
 96
        4
 40
1.0
 40
1.0
 40
1.0
 40
1.0
 40
2.0
 40
2.0
 40
2.0
 40
2.0
 10
179.3640768610494
 20
15.33479300044837
 10
179.3640768610494
 20
15.93626545779943
 10
179.7819090256753
 20
16.79940715624116
 10
180.5448143511087
 20
16.79940715624116
 72
     4
 94
        3
 73
     0
 74
     0
 95
        8
 96
        4
 40
0.0
 40
0.0
 40
0.0
 40
0.0
 40
1.0
 40
1.0
 40
1.0
 40
1.0
 10
180.5448143511087
 20
16.79940715624116
 10
180.9457871543106
 20
16.79940715624116
 10
181.2910795492878
 20
16.52658836322962
 10
181.2910795492878
 20
15.9529041884366
 72
     4
 94
        3
 73
     0
 74
     0
 95
        8
 96
        4
 40
3.0
 40
3.0
 40
3.0
 40
3.0
 40
4.0
 40
4.0
 40
4.0
 40
4.0
 10
181.2910795492878
 20
15.9529041884366
 10
181.2910795492878
 20
15.37935036184854
 10
180.9570405493401
 20
14.48268505983014
 10
180.1326967763815
 20
14.48268505983014
 72
     4
 94
        3
 73
     0
 74
     0
 95
        8
 96
        4
 40
2.0
 40
2.0
 40
2.0
 40
2.0
 40
3.0
 40
3.0
 40
3.0
 40
3.0
 10
180.1326967763815
 20
14.48268505983014
 10
179.720600926355
 20
14.48268505983014
 10
179.3640768610494
 20
14.7556124763455
 10
179.3640768610494
 20
15.33479300044837
 97
        0
 75
     1
 76
     1
 47
0.0269459378258844
 98
        2
 10
178.9830058049958
 20
14.74348255446966
 10
178.9830058049958
 20
14.74348255446966
450
        0
451
        0
460
0.0
461
0.0
452
        0
462
1.0
453
        2
463
0.0
 63
     5
421
      255
463
1.0
 63
     2
421
 16776960
470
LINEAR
1001
GRADIENTCOLOR1ACI
1070
     5
1001
GRADIENTCOLOR2ACI
1070
     2
1001
ACAD
1010
0.0
1020
0.0
1030
0.0
  0
SPLINE
  5
27F53B
330
2
100
AcDbEntity
  8
Layer 1
100
AcDbSpline
210
0.0
220
0.0
230
1.0
 70
    24
 71
     3
 72
     8
 73
     4
 74
     0
 42
0.0000000001
 43
0.0000000001
 40
8.0
 40
8.0
 40
8.0
 40
8.0
 40
9.0
 40
9.0
 40
9.0
 40
9.0
 10
161.0023385147959
 20
17.69640076343421
 30
0.0
 10
161.0023385147959
 20
17.69640076343421
 30
0.0
 10
162.3074282253702
 20
17.69640076343421
 30
0.0
 10
162.3074282253702
 20
17.69640076343421
 30
0.0
  0
SPLINE
  5
27F53C
330
2
100
AcDbEntity
  8
Layer 1
100
AcDbSpline
210
0.0
220
0.0
230
1.0
 70
    11
 71
     3
 72
    17
 73
    13
 74
     0
 42
0.0000000001
 43
0.0000000001
 40
0.0
 40
0.0
 40
0.0
 40
0.0
 40
1.0
 40
1.0
 40
1.0
 40
2.0
 40
2.0
 40
2.0
 40
3.0
 40
3.0
 40
3.0
 40
4.0
 40
4.0
 40
4.0
 40
4.0
 10
180.0601580003133
 20
13.53592259769948
 30
0.0
 10
178.8462034426861
 20
13.53592259769948
 30
0.0
 10
178.1444956059075
 20
14.32122708326824
 30
0.0
 10
178.1444956059075
 20
15.34582914846942
 30
0.0
 10
178.1444956059075
 20
16.46515090928506
 30
0.0
 10
178.9798538021865
 20
17.70159053227007
 30
0.0
 10
180.5336695795834
 20
17.70159053227007
 30
0.0
 10
181.7978081961256
 20
17.70159053227007
 30
0.0
 10
182.4994074094
 20
16.87737952148836
 30
0.0
 10
182.4994074094
 20
15.88045231117166
 30
0.0
 10
182.4994074094
 20
14.76664862436655
 30
0.0
 10
181.669654185935
 20
13.53592259769948
 30
0.0
 10
180.0601580003133
 20
13.53592259769948
 30
0.0
  0
SPLINE
  5
27F53D
330
2
100
AcDbEntity
  8
Layer 1
100
AcDbSpline
210
0.0
220
0.0
230
1.0
 70
    11
 71
     3
 72
    17
 73
    13
 74
     0
 42
0.0000000001
 43
0.0000000001
 40
0.0
 40
0.0
 40
0.0
 40
0.0
 40
1.0
 40
1.0
 40
1.0
 40
2.0
 40
2.0
 40
2.0
 40
3.0
 40
3.0
 40
3.0
 40
4.0
 40
4.0
 40
4.0
 40
4.0
 10
181.2910795492878
 20
15.9529041884366
 30
0.0
 10
181.2910795492878
 20
16.52658836322962
 30
0.0
 10
180.9457871543106
 20
16.79940715624116
 30
0.0
 10
180.5448143511087
 20
16.79940715624116
 30
0.0
 10
179.7819090256753
 20
16.79940715624116
 30
0.0
 10
179.3640768610494
 20
15.93626545779943
 30
0.0
 10
179.3640768610494
 20
15.33479300044837
 30
0.0
 10
179.3640768610494
 20
14.7556124763455
 30
0.0
 10
179.720600926355
 20
14.48268505983014
 30
0.0
 10
180.1326967763815
 20
14.48268505983014
 30
0.0
 10
180.9570405493401
 20
14.48268505983014
 30
0.0
 10
181.2910795492878
 20
15.37935036184854
 30
0.0
 10
181.2910795492878
 20
15.9529041884366
 30
0.0
  0
HATCH
  5
27F53E
330
2
100
AcDbEntity
  8
0
  6
Continuous
 62
     0
100
AcDbHatch
 10
0.0
 20
0.0
 30
0.0
210
0.0
220
0.0
230
1.0
  2
SOLID
 70
     1
 71
     0
 91
        2
 92
        5
 93
        4
 72
     4
 94
        3
 73
     0
 74
     0
 95
        8
 96
        4
 40
0.0
 40
0.0
 40
0.0
 40
0.0
 40
1.0
 40
1.0
 40
1.0
 40
1.0
 10
182.6354040365899
 20
15.34582914846942
 10
182.6354040365899
 20
14.32122708326824
 10
183.3371987721718
 20
13.53592259769948
 10
184.5510447062947
 20
13.53592259769948
 72
     4
 94
        3
 73
     0
 74
     0
 95
        8
 96
        4
 40
3.0
 40
3.0
 40
3.0
 40
3.0
 40
4.0
 40
4.0
 40
4.0
 40
4.0
 10
184.5510447062947
 20
13.53592259769948
 10
186.1605626166174
 20
13.53592259769948
 10
186.9903158400824
 20
14.76664862436655
 10
186.9903158400824
 20
15.88045231117166
 72
     4
 94
        3
 73
     0
 74
     0
 95
        8
 96
        4
 40
2.0
 40
2.0
 40
2.0
 40
2.0
 40
3.0
 40
3.0
 40
3.0
 40
3.0
 10
186.9903158400824
 20
15.88045231117166
 10
186.9903158400824
 20
16.87737952148836
 10
186.2886080033038
 20
17.70159053227007
 10
185.0245780102658
 20
17.70159053227007
 72
     4
 94
        3
 73
     0
 74
     0
 95
        8
 96
        4
 40
1.0
 40
1.0
 40
1.0
 40
1.0
 40
2.0
 40
2.0
 40
2.0
 40
2.0
 10
185.0245780102658
 20
17.70159053227007
 10
183.4706536093648
 20
17.70159053227007
 10
182.6354040365899
 20
16.46515090928506
 10
182.6354040365899
 20
15.34582914846942
 97
        0
 92
       20
 93
        4
 72
     4
 94
        3
 73
     0
 74
     0
 95
        8
 96
        4
 40
0.0
 40
0.0
 40
0.0
 40
0.0
 40
1.0
 40
1.0
 40
1.0
 40
1.0
 10
185.7818793564661
 20
15.9529041884366
 10
185.7818793564661
 20
16.52658836322962
 10
185.4365869614889
 20
16.79940715624116
 10
185.0353969112786
 20
16.79940715624116
 72
     4
 94
        3
 73
     0
 74
     0
 95
        8
 96
        4
 40
1.0
 40
1.0
 40
1.0
 40
1.0
 40
2.0
 40
2.0
 40
2.0
 40
2.0
 10
185.0353969112786
 20
16.79940715624116
 10
184.2727078392729
 20
16.79940715624116
 10
183.8550732870125
 20
15.93626545779943
 10
183.8550732870125
 20
15.33479300044837
 72
     4
 94
        3
 73
     0
 74
     0
 95
        8
 96
        4
 40
2.0
 40
2.0
 40
2.0
 40
2.0
 40
3.0
 40
3.0
 40
3.0
 40
3.0
 10
183.8550732870125
 20
15.33479300044837
 10
183.8550732870125
 20
14.7556124763455
 10
184.2112921100291
 20
14.48268505983014
 10
184.6233879600556
 20
14.48268505983014
 72
     4
 94
        3
 73
     0
 74
     0
 95
        8
 96
        4
 40
3.0
 40
3.0
 40
3.0
 40
3.0
 40
4.0
 40
4.0
 40
4.0
 40
4.0
 10
184.6233879600556
 20
14.48268505983014
 10
185.4476231095101
 20
14.48268505983014
 10
185.7818793564661
 20
15.37935036184854
 10
185.7818793564661
 20
15.9529041884366
 97
        0
 75
     1
 76
     1
 47
0.0269459378258844
 98
        2
 10
183.7790955840298
 20
15.06036659543315
 10
183.7790955840298
 20
15.06036659543315
450
        0
451
        0
460
0.0
461
0.0
452
        0
462
1.0
453
        2
463
0.0
 63
     5
421
      255
463
1.0
 63
     2
421
 16776960
470
LINEAR
1001
GRADIENTCOLOR1ACI
1070
     5
1001
GRADIENTCOLOR2ACI
1070
     2
1001
ACAD
1010
0.0
1020
0.0
1030
0.0
  0
SPLINE
  5
27F53F
330
2
100
AcDbEntity
  8
Layer 1
100
AcDbSpline
210
0.0
220
0.0
230
1.0
 70
    11
 71
     3
 72
    17
 73
    13
 74
     0
 42
0.0000000001
 43
0.0000000001
 40
0.0
 40
0.0
 40
0.0
 40
0.0
 40
1.0
 40
1.0
 40
1.0
 40
2.0
 40
2.0
 40
2.0
 40
3.0
 40
3.0
 40
3.0
 40
4.0
 40
4.0
 40
4.0
 40
4.0
 10
185.7818793564661
 20
15.9529041884366
 30
0.0
 10
185.7818793564661
 20
16.52658836322962
 30
0.0
 10
185.4365869614889
 20
16.79940715624116
 30
0.0
 10
185.0353969112786
 20
16.79940715624116
 30
0.0
 10
184.2727078392729
 20
16.79940715624116
 30
0.0
 10
183.8550732870125
 20
15.93626545779943
 30
0.0
 10
183.8550732870125
 20
15.33479300044837
 30
0.0
 10
183.8550732870125
 20
14.7556124763455
 30
0.0
 10
184.2112921100291
 20
14.48268505983014
 30
0.0
 10
184.6233879600556
 20
14.48268505983014
 30
0.0
 10
185.4476231095101
 20
14.48268505983014
 30
0.0
 10
185.7818793564661
 20
15.37935036184854
 30
0.0
 10
185.7818793564661
 20
15.9529041884366
 30
0.0
  0
SPLINE
  5
27F540
330
2
100
AcDbEntity
  8
Layer 1
100
AcDbSpline
210
0.0
220
0.0
230
1.0
 70
    11
 71
     3
 72
    17
 73
    13
 74
     0
 42
0.0000000001
 43
0.0000000001
 40
0.0
 40
0.0
 40
0.0
 40
0.0
 40
1.0
 40
1.0
 40
1.0
 40
2.0
 40
2.0
 40
2.0
 40
3.0
 40
3.0
 40
3.0
 40
4.0
 40
4.0
 40
4.0
 40
4.0
 10
184.5510447062947
 20
13.53592259769948
 30
0.0
 10
183.3371987721718
 20
13.53592259769948
 30
0.0
 10
182.6354040365899
 20
14.32122708326824
 30
0.0
 10
182.6354040365899
 20
15.34582914846942
 30
0.0
 10
182.6354040365899
 20
16.46515090928506
 30
0.0
 10
183.4706536093648
 20
17.70159053227007
 30
0.0
 10
185.0245780102658
 20
17.70159053227007
 30
0.0
 10
186.2886080033038
 20
17.70159053227007
 30
0.0
 10
186.9903158400824
 20
16.87737952148836
 30
0.0
 10
186.9903158400824
 20
15.88045231117166
 30
0.0
 10
186.9903158400824
 20
14.76664862436655
 30
0.0
 10
186.1605626166174
 20
13.53592259769948
 30
0.0
 10
184.5510447062947
 20
13.53592259769948
 30
0.0
  0
HATCH
  5
27F541
330
2
100
AcDbEntity
  8
0
  6
Continuous
 62
     0
100
AcDbHatch
 10
0.0
 20
0.0
 30
0.0
210
0.0
220
0.0
230
1.0
  2
SOLID
 70
     1
 71
     0
 91
        1
 92
        5
 93
        6
 72
     4
 94
        3
 73
     0
 74
     0
 95
        8
 96
        4
 40
4.0
 40
4.0
 40
4.0
 40
4.0
 40
5.0
 40
5.0
 40
5.0
 40
5.0
 10
188.1952341282836
 20
14.56615136041546
 10
188.1952341282836
 20
14.56615136041546
 10
189.0028052260832
 20
17.58471164180992
 10
189.0028052260832
 20
17.58471164180992
 72
     4
 94
        3
 73
     0
 74
     0
 95
        8
 96
        4
 40
3.0
 40
3.0
 40
3.0
 40
3.0
 40
4.0
 40
4.0
 40
4.0
 40
4.0
 10
189.0028052260832
 20
17.58471164180992
 10
189.0028052260832
 20
17.58471164180992
 10
187.766256979594
 20
17.58471164180992
 10
187.766256979594
 20
17.58471164180992
 72
     4
 94
        3
 73
     0
 74
     0
 95
        8
 96
        4
 40
2.0
 40
2.0
 40
2.0
 40
2.0
 40
3.0
 40
3.0
 40
3.0
 40
3.0
 10
187.766256979594
 20
17.58471164180992
 10
187.766256979594
 20
17.58471164180992
 10
186.7138690220326
 20
13.65293183636504
 10
186.7138690220326
 20
13.65293183636504
 72
     4
 94
        3
 73
     0
 74
     0
 95
        8
 96
        4
 40
1.0
 40
1.0
 40
1.0
 40
1.0
 40
2.0
 40
2.0
 40
2.0
 40
2.0
 10
186.7138690220326
 20
13.65293183636504
 10
186.7138690220326
 20
13.65293183636504
 10
189.259092754758
 20
13.65293183636504
 10
189.259092754758
 20
13.65293183636504
 72
     4
 94
        3
 73
     0
 74
     0
 95
        8
 96
        4
 40
0.0
 40
0.0
 40
0.0
 40
0.0
 40
1.0
 40
1.0
 40
1.0
 40
1.0
 10
189.259092754758
 20
13.65293183636504
 10
189.259092754758
 20
13.65293183636504
 10
189.5611952114925
 20
14.56615136041546
 10
189.5611952114925
 20
14.56615136041546
 72
     4
 94
        3
 73
     0
 74
     0
 95
        8
 96
        4
 40
5.0
 40
5.0
 40
5.0
 40
5.0
 40
6.0
 40
6.0
 40
6.0
 40
6.0
 10
189.5611952114925
 20
14.56615136041546
 10
189.5611952114925
 20
14.56615136041546
 10
188.1952341282836
 20
14.56615136041546
 10
188.1952341282836
 20
14.56615136041546
 97
        0
 75
     1
 76
     1
 47
0.0168242271866721
 98
        1
 10
187.8165694657684
 20
14.82262975684898
450
        0
451
        0
460
0.0
461
0.0
452
        0
462
1.0
453
        2
463
0.0
 63
     5
421
      255
463
1.0
 63
     2
421
 16776960
470
LINEAR
1001
GRADIENTCOLOR1ACI
1070
     5
1001
GRADIENTCOLOR2ACI
1070
     2
1001
ACAD
1010
0.0
1020
0.0
1030
0.0
  0
SPLINE
  5
27F542
330
2
100
AcDbEntity
  8
Layer 1
100
AcDbSpline
210
0.0
220
0.0
230
1.0
 70
    24
 71
     3
 72
     8
 73
     4
 74
     0
 42
0.0000000001
 43
0.0000000001
 40
0.0
 40
0.0
 40
0.0
 40
0.0
 40
1.0
 40
1.0
 40
1.0
 40
1.0
 10
189.5611952114925
 20
14.56615136041546
 30
0.0
 10
189.5611952114925
 20
14.56615136041546
 30
0.0
 10
189.259092754758
 20
13.65293183636504
 30
0.0
 10
189.259092754758
 20
13.65293183636504
 30
0.0
  0
SPLINE
  5
27F543
330
2
100
AcDbEntity
  8
Layer 1
100
AcDbSpline
210
0.0
220
0.0
230
1.0
 70
    24
 71
     3
 72
     8
 73
     4
 74
     0
 42
0.0000000001
 43
0.0000000001
 40
1.0
 40
1.0
 40
1.0
 40
1.0
 40
2.0
 40
2.0
 40
2.0
 40
2.0
 10
189.259092754758
 20
13.65293183636504
 30
0.0
 10
189.259092754758
 20
13.65293183636504
 30
0.0
 10
186.7138690220326
 20
13.65293183636504
 30
0.0
 10
186.7138690220326
 20
13.65293183636504
 30
0.0
  0
SPLINE
  5
27F544
330
2
100
AcDbEntity
  8
Layer 1
100
AcDbSpline
210
0.0
220
0.0
230
1.0
 70
    24
 71
     3
 72
     8
 73
     4
 74
     0
 42
0.0000000001
 43
0.0000000001
 40
2.0
 40
2.0
 40
2.0
 40
2.0
 40
3.0
 40
3.0
 40
3.0
 40
3.0
 10
186.7138690220326
 20
13.65293183636504
 30
0.0
 10
186.7138690220326
 20
13.65293183636504
 30
0.0
 10
187.766256979594
 20
17.58471164180992
 30
0.0
 10
187.766256979594
 20
17.58471164180992
 30
0.0
  0
SPLINE
  5
27F545
330
2
100
AcDbEntity
  8
Layer 1
100
AcDbSpline
210
0.0
220
0.0
230
1.0
 70
    24
 71
     3
 72
     8
 73
     4
 74
     0
 42
0.0000000001
 43
0.0000000001
 40
3.0
 40
3.0
 40
3.0
 40
3.0
 40
4.0
 40
4.0
 40
4.0
 40
4.0
 10
187.766256979594
 20
17.58471164180992
 30
0.0
 10
187.766256979594
 20
17.58471164180992
 30
0.0
 10
189.0028052260832
 20
17.58471164180992
 30
0.0
 10
189.0028052260832
 20
17.58471164180992
 30
0.0
  0
SPLINE
  5
27F546
330
2
100
AcDbEntity
  8
Layer 1
100
AcDbSpline
210
0.0
220
0.0
230
1.0
 70
    24
 71
     3
 72
     8
 73
     4
 74
     0
 42
0.0000000001
 43
0.0000000001
 40
4.0
 40
4.0
 40
4.0
 40
4.0
 40
5.0
 40
5.0
 40
5.0
 40
5.0
 10
189.0028052260832
 20
17.58471164180992
 30
0.0
 10
189.0028052260832
 20
17.58471164180992
 30
0.0
 10
188.1952341282836
 20
14.56615136041546
 30
0.0
 10
188.1952341282836
 20
14.56615136041546
 30
0.0
  0
SPLINE
  5
27F547
330
2
100
AcDbEntity
  8
Layer 1
100
AcDbSpline
210
0.0
220
0.0
230
1.0
 70
    24
 71
     3
 72
     8
 73
     4
 74
     0
 42
0.0000000001
 43
0.0000000001
 40
5.0
 40
5.0
 40
5.0
 40
5.0
 40
6.0
 40
6.0
 40
6.0
 40
6.0
 10
188.1952341282836
 20
14.56615136041546
 30
0.0
 10
188.1952341282836
 20
14.56615136041546
 30
0.0
 10
189.5611952114925
 20
14.56615136041546
 30
0.0
 10
189.5611952114925
 20
14.56615136041546
 30
0.0
  0
TEXT
  5
27F548
330
2
100
AcDbEntity
  8
0
 62
     2
100
AcDbText
 10
163.335162709018
 20
9.030318431344767
 30
0.0
 40
1.920799999999999
  1
www.maritool.com
  7
굴림
100
AcDbText
  0
TEXT
  5
27F549
330
2
100
AcDbEntity
  8
0
 62
     2
100
AcDbText
 10
150.2028602913992
 20
2.596349981285129
 30
0.0
 40
1.536639999999999
  1
ITEM#
  7
굴림
100
AcDbText
  0
TEXT
  5
27F54A
330
2
100
AcDbEntity
  8
0
 62
     2
100
AcDbText
 10
164.9654052479097
 20
2.231248603417498
 30
0.0
 40
2.304959999999999
  1
HSK63A-HC.75-3.5
  7
굴림
100
AcDbText
  0
DIMENSION
  5
27F54B
330
2
100
AcDbEntity
  8
0
  6
Continuous
 62
     7
100
AcDbDimension
  2
*D4
 10
128.5775649239454
 20
48.75134618579828
 30
0.0
 11
137.6089584507015
 21
41.24545419474617
 31
0.0
 70
    36
  1
R0.06
 71
     5
 42
0.7500000000000782
 73
     0
 74
     0
 75
     0
  3
Standard
100
AcDbRadialDimension
 15
129.5386349225686
 25
47.59967589541701
 35
0.0
 40
0.0
1001
ACAD
1000
DSTYLE
1002
{
1070
    42
1040
0.625
1070
    43
1040
3.75
1070
    44
1040
1.25
1070
    48
1040
0.000000001
1070
    74
1070
     0
1070
    77
1070
     1
1070
    90
1070
     1
1070
   140
1040
3.0
1070
   141
1040
-0.5
1070
   143
1040
0.03937007874016
1070
   144
1040
0.5
1070
   146
1040
0.7
1070
   147
1040
0.625
1070
   171
1070
     3
1070
   172
1070
     1
1070
   175
1070
     0
1070
   179
1070
     1
1070
   274
1070
     3
1070
   283
1070
     0
1070
   284
1070
     8
1070
   288
1070
     1
1070
   340
1005
23
1070
   371
1070
    -1
1070
   372
1070
    -1
1002
}
1001
ACAD_DSTYLE_DIMRADIAL_EXTENSION
1070
   387
1070
     1
1070
   388
1040
4.712388980385826
1070
   390
1040
6.021385919380416
  0
DIMENSION
  5
27F54C
330
2
100
AcDbEntity
  8
0
  6
Continuous
 62
     7
100
AcDbDimension
  2
*D5
 10
133.808570734406
 20
50.69920187376834
 30
0.0
 11
139.8835649185145
 21
45.30382694119431
 31
0.0
 70
   164
  1
R0.12
 71
     5
 42
1.000000000000014
 73
     0
 74
     0
 75
     0
  3
Standard
100
AcDbRadialDimension
 15
132.3131875506254
 25
52.02729416486351
 35
0.0
 40
0.0
1001
ACAD
1000
DSTYLE
1002
{
1070
    42
1040
0.625
1070
    43
1040
3.75
1070
    44
1040
1.25
1070
    48
1040
0.000000001
1070
    74
1070
     0
1070
    77
1070
     1
1070
    90
1070
     1
1070
   140
1040
3.0
1070
   141
1040
-0.5
1070
   143
1040
0.03937007874016
1070
   144
1040
0.5
1070
   146
1040
0.7
1070
   147
1040
0.625
1070
   171
1070
     3
1070
   172
1070
     1
1070
   175
1070
     0
1070
   179
1070
     1
1070
   274
1070
     3
1070
   283
1070
     0
1070
   284
1070
     8
1070
   288
1070
     1
1070
   340
1005
23
1070
   371
1070
    -1
1070
   372
1070
    -1
1002
}
1001
ACAD_DSTYLE_DIMRADIAL_EXTENSION
1070
   387
1070
     1
1070
   388
1040
1.649336143134704
1070
   390
1040
2.879793265790623
  0
DIMENSION
  5
27F54D
330
2
100
AcDbEntity
  8
0
  6
Continuous
 62
     7
100
AcDbDimension
  2
*D6
 10
158.9602522076243
 20
55.51293744948036
 30
0.0
 11
168.776583245378
 21
49.86307949044848
 31
0.0
 70
    36
  1
R0.04
 71
     5
 42
0.5000000000000498
 73
     0
 74
     0
 75
     0
  3
Standard
100
AcDbRadialDimension
 15
159.7179680439767
 25
54.86035281026408
 35
0.0
 40
0.0
1001
ACAD
1000
DSTYLE
1002
{
1070
    42
1040
0.625
1070
    43
1040
3.75
1070
    44
1040
1.25
1070
    48
1040
0.000000001
1070
    74
1070
     0
1070
    77
1070
     1
1070
    90
1070
     1
1070
   140
1040
3.0
1070
   141
1040
-0.5
1070
   143
1040
0.03937007874016
1070
   144
1040
0.5
1070
   146
1040
0.7
1070
   147
1040
0.625
1070
   171
1070
     3
1070
   172
1070
     1
1070
   175
1070
     0
1070
   179
1070
     1
1070
   274
1070
     3
1070
   283
1070
     0
1070
   284
1070
     8
1070
   288
1070
     1
1070
   340
1005
23
1070
   371
1070
    -1
1070
   372
1070
    -1
1002
}
1001
ACAD_DSTYLE_DIMRADIAL_EXTENSION
1070
   387
1070
     1
1070
   388
1040
4.790928796724497
1070
   390
1040
0.0000000000025011
  0
TEXT
  5
27F54E
330
2
100
AcDbEntity
  8
0
 62
     2
100
AcDbText
 10
70.8204505476549
 20
10.79981557219525
 30
0.0
 40
3.457439999999999
  1
T.I.R. ACCURACY .0001"
  7
굴림
100
AcDbText
  0
DIMENSION
  5
27F5EF
330
2
100
AcDbEntity
  8
0
  6
Continuous
 62
     7
100
AcDbDimension
  2
*D1
 10
85.57032079901899
 20
77.1647630641437
 30
0.0
 11
85.57032079901899
 21
113.5417600601358
 31
0.0
 70
   160
  1
M<>*1.0
 71
     5
 42
8.000000000003353
 73
     0
 74
     0
 75
     0
  3
Standard$0
100
AcDbAlignedDimension
 13
92.8519089739799
 23
69.16476306414034
 33
0.0
 14
94.08364553454067
 24
77.1647630641437
 34
0.0
 50
90.0
100
AcDbRotatedDimension
1001
ACAD
1000
DSTYLE
1002
{
1070
    42
1040
0.625
1070
    43
1040
3.75
1070
    44
1040
1.25
1070
    48
1040
0.000000001
1070
    74
1070
     0
1070
    75
1070
     1
1070
    77
1070
     1
1070
    90
1070
     1
1070
   140
1040
3.0
1070
   141
1040
-0.5
1070
   143
1040
0.03937007874016
1070
   146
1040
0.7
1070
   147
1040
0.625
1070
   171
1070
     3
1070
   172
1070
     1
1070
   175
1070
     0
1070
   179
1070
     0
1070
   274
1070
     3
1070
   281
1070
     1
1070
   283
1070
     0
1070
   284
1070
     8
1070
   340
1005
23
1070
   371
1070
    -1
1070
   372
1070
    -1
1002
}
  0
DIMENSION
  5
27F5F0
330
2
100
AcDbEntity
  8
0
  6
Continuous
 62
     7
100
AcDbDimension
  2
*D2
 10
30.12606860641497
 20
105.1147630641417
 30
0.0
 11
30.12606860641495
 21
73.61476306414175
 31
0.0
 70
   160
  1
%%C2.48
 71
     5
 42
63.0
 73
     0
 74
     0
 75
     0
  3
Standard$0
100
AcDbAlignedDimension
 13
71.58364553454021
 23
42.11476306414169
 33
0.0
 14
71.58364553453987
 24
105.1147630641417
 34
0.0
 50
90.0
100
AcDbRotatedDimension
1001
ACAD
1000
DSTYLE
1002
{
1070
    42
1040
0.625
1070
    43
1040
3.75
1070
    44
1040
1.25
1070
    48
1040
0.000000001
1070
    74
1070
     0
1070
    77
1070
     1
1070
    90
1070
     1
1070
   140
1040
3.0
1070
   141
1040
-0.5
1070
   143
1040
0.03937007874016
1070
   146
1040
0.7
1070
   147
1040
0.625
1070
   171
1070
     3
1070
   172
1070
     1
1070
   175
1070
     0
1070
   179
1070
     0
1070
   274
1070
     3
1070
   283
1070
     0
1070
   284
1070
     8
1070
   340
1005
23
1070
   371
1070
    -1
1070
   372
1070
    -1
1002
}
  0
DIMENSION
  5
27F5F1
330
2
100
AcDbEntity
  8
0
  6
Continuous
 62
     7
100
AcDbDimension
  2
*D3
 10
130.0921471906032
 20
98.99869045675814
 30
0.0
 11
143.2418156446135
 21
110.4136798451485
 31
0.0
 70
    34
 71
     5
 42
0.4363323129983088
 73
     0
 74
     0
 75
     0
  3
STANDARD$2
100
AcDb2LineAngularDimension
 13
159.9836455345401
 23
73.6147630641417
 33
0.0
 14
159.983645534541
 24
91.6903725724855
 34
0.0
 15
131.3042544773047
 25
96.39931799202441
 35
0.0
 16
149.081038045517
 26
109.3276525099235
 36
0.0
1001
ACAD
1000
DSTYLE
1002
{
1070
   179
1070
     0
1070
    42
1040
0.625
1070
    43
1040
3.75
1070
    44
1040
1.25
1070
    48
1040
0.000000001
1070
    74
1070
     0
1070
    77
1070
     1
1070
    90
1070
     1
1070
   140
1040
3.0
1070
   141
1040
-0.5
1070
   143
1040
0.03937007874016
1070
   146
1040
0.7
1070
   147
1040
0.625
1070
   171
1070
     3
1070
   172
1070
     1
1070
   175
1070
     0
1070
   274
1070
     3
1070
   283
1070
     0
1070
   284
1070
     8
1070
   340
1005
23
1070
   371
1070
    -1
1070
   372
1070
    -1
1002
}
  0
LINE
  5
27F5F2
330
2
100
AcDbEntity
  8
0
  6
Continuous
 62
     3
100
AcDbLine
 10
39.08364553454044
 20
51.33869022320897
 30
0.0
 11
39.08364553454044
 21
30.42672584751676
 31
0.0
  0
MTEXT
  5
27F5F3
330
2
100
AcDbEntity
  8
0
  6
Continuous
 62
     2
100
AcDbMText
 10
39.08417970368805
 20
27.97791074372071
 30
0.0
 40
3.0
 41
0.0
 46
0.0
 71
     5
 72
     1
  1
1.26
 73
     1
 44
1.0
  0
DIMENSION
  5
27F6C8
330
2
100
AcDbEntity
  8
0
  6
Continuous
 62
     7
100
AcDbDimension
  2
*D7
 10
113.6808309779176
 20
99.86476306414306
 30
0.0
 11
113.6808309779176
 21
108.539763064143
 31
0.0
 70
   160
  1
%%c2.07
 71
     5
 42
52.5000000000091
 73
     0
 74
     0
 75
     0
  3
Standard$0
100
AcDbAlignedDimension
 13
110.2724301318807
 23
47.36476306413396
 33
0.0
 14
110.2594948379945
 24
99.86476306414306
 34
0.0
 50
90.0
100
AcDbRotatedDimension
1001
ACAD
1000
DSTYLE
1002
{
1070
     3
1000
%%C<>
1070
    42
1040
0.625
1070
    43
1040
3.75
1070
    44
1040
1.25
1070
    48
1040
0.000000001
1070
    74
1070
     0
1070
    77
1070
     1
1070
    90
1070
     1
1070
   140
1040
3.0
1070
   141
1040
-0.5
1070
   143
1040
0.03937007874016
1070
   146
1040
0.7
1070
   147
1040
0.625
1070
   171
1070
     3
1070
   172
1070
     1
1070
   175
1070
     0
1070
   179
1070
     0
1070
   274
1070
     3
1070
   283
1070
     0
1070
   284
1070
     8
1070
   340
1005
23
1070
   371
1070
    -1
1070
   372
1070
    -1
1002
}
  0
DIMENSION
  5
27F6C9
330
2
100
AcDbEntity
  8
0
  6
Continuous
 62
     7
100
AcDbDimension
  2
*D8
 10
174.0855351570997
 20
83.13976306414268
 30
0.0
 11
174.0855351570997
 21
73.6147630634573
 31
0.0
 70
   160
  1
%%c0.750
 71
     5
 42
19.05000000068458
 73
     0
 74
     0
 75
     0
  3
Standard$0
100
AcDbAlignedDimension
 13
159.9836455345546
 23
64.08976306345812
 33
0.0
 14
159.5506328326434
 24
83.1397630641427
 34
0.0
 50
90.0
100
AcDbRotatedDimension
1001
ACAD
1000
DSTYLE
1002
{
1070
    47
1040
0.0
1070
    72
1070
     0
1070
    71
1070
     0
1070
    75
1070
     1
1070
   281
1070
     1
1070
   343
1005
0
1070
   173
1070
     1
1070
   344
1005
0
1070
     3
1000
%%C<>
1070
    42
1040
0.625
1070
    43
1040
3.75
1070
    44
1040
1.25
1070
    48
1040
0.0
1070
    74
1070
     0
1070
    77
1070
     1
1070
    90
1070
     1
1070
   140
1040
3.0
1070
   141
1040
-0.5
1070
   143
1040
0.03937007874016
1070
   146
1040
0.7
1070
   147
1040
0.625
1070
   171
1070
     3
1070
   172
1070
     1
1070
   175
1070
     0
1070
   179
1070
     0
1070
   274
1070
     3
1070
   283
1070
     0
1070
   284
1070
     8
1070
   340
1005
23
1070
   371
1070
    -1
1070
   372
1070
    -1
1002
}
  0
DIMENSION
  5
27F6CD
330
2
100
AcDbEntity
  8
0
  6
Continuous
 62
     7
100
AcDbDimension
  2
*D9
 10
159.983645534536
 20
117.4818283403378
 30
0.0
 11
130.7736455345372
 21
119.6071236159284
 31
0.0
 70
    32
  1
2.30
 71
     5
 42
58.41999999999757
 73
     0
 74
     0
 75
     0
  3
Standard$0
100
AcDbAlignedDimension
 13
101.5636455345384
 23
82.93976306414107
 33
0.0
 14
159.983645534536
 24
91.77566343296712
 34
0.0
100
AcDbRotatedDimension
1001
ACAD
1000
DSTYLE
1002
{
1070
    42
1040
0.625
1070
    43
1040
3.75
1070
    44
1040
1.25
1070
    48
1040
0.000000001
1070
    74
1070
     0
1070
    77
1070
     1
1070
    90
1070
     1
1070
   140
1040
3.0
1070
   143
1040
0.03937007874016
1070
   146
1040
0.7
1070
   147
1040
0.625
1070
   171
1070
     3
1070
   172
1070
     1
1070
   175
1070
     0
1070
   179
1070
     0
1070
   274
1070
     3
1070
   283
1070
     0
1070
   284
1070
     8
1070
   340
1005
23
1070
   371
1070
    -1
1070
   372
1070
    -1
1002
}
  0
LINE
  5
27F6D1
330
2
100
AcDbEntity
  8
0
  6
CENTER
 62
     3
100
AcDbLine
 10
37.08364553454021
 20
73.6147630641417
 30
0.0
 11
161.8750780117075
 21
73.6147630641417
 31
0.0
  0
HATCH
  5
27F6D2
330
2
100
AcDbEntity
  8
0
  6
Continuous
 62
     4
100
AcDbHatch
 10
0.0
 20
0.0
 30
0.0
210
0.0
220
0.0
230
1.0
  2
ANSI31
 70
     0
 71
     0
 91
        3
 92
        7
 72
     1
 73
     1
 93
       61
 10
159.983645534541
 20
91.69037257248556
 42
0.391392455463039
 10
159.062104630269
 20
92.68728990621866
 42
0.0
 10
133.7878005512311
 20
94.67642077604569
 42
-0.2702888616720764
 10
131.3042544773047
 20
96.39931799202441
 42
0.0
 10
130.0921471906033
 20
98.99869045675769
 42
0.2914734195858881
 10
128.7326855100486
 20
99.86476306414534
 42
0.0
 10
97.48364553454848
 20
99.8647630641517
 42
-0.4142135623731617
 10
97.0836455345484
 20
100.2647630641518
 42
0.0
 10
97.08364553454954
 20
104.6147630641417
 42
0.4142135623729618
 10
96.58364553454953
 20
105.1147630641417
 42
0.0
 10
92.46114460930016
 20
105.1147630641417
 42
0.0
 10
90.95864553454067
 20
102.5123583283339
 42
0.0
 10
90.95864553454067
 20
101.6147630641417
 42
-0.4142135623730951
 10
90.45864553454066
 20
101.1147630641417
 42
0.0
 10
89.08364553454067
 20
101.1147630641417
 42
0.0
 10
87.70864553454066
 20
101.1147630641417
 42
-0.4142135623730951
 10
87.20864553454067
 20
101.6147630641417
 42
0.0
 10
87.20864553454067
 20
102.5123583283339
 42
0.0
 10
85.70614645978116
 20
105.1147630641417
 42
0.0
 10
83.08364553454021
 20
105.1147630641417
 42
0.0
 10
83.08364553454021
 20
100.4147630641414
 42
-0.4142135623724293
 10
82.78364553454048
 20
100.1147630641417
 42
0.0
 10
78.9496709383236
 20
100.1147630641417
 42
0.0
 10
78.08364553454044
 20
99.61476306414169
 42
0.0
 10
77.21762013075658
 20
100.1147630641417
 42
0.0
 10
73.38364553454039
 20
100.1147630641417
 42
-0.4142135623728731
 10
73.08364553454021
 20
100.4147630641414
 42
0.0
 10
73.08364553453998
 20
105.1147630641417
 42
0.0
 10
71.58364553454044
 20
105.1147630641412
 42
0.0
 10
71.08364553454021
 20
104.6147630641412
 42
0.0
 10
71.08364553454021
 20
99.03518817883469
 42
0.0
 10
71.18364553454057
 20
98.32365120659824
 42
0.0
 10
71.18364553454057
 20
98.23518817883678
 42
-0.4142135623733172
 10
70.58364553454066
 20
97.63518817883642
 42
0.0
 10
69.83005569605643
 20
97.63518817883642
 42
0.0
 10
69.08364553453953
 20
97.83518817883715
 42
0.0
 10
40.22360220192467
 20
96.38933279627146
 42
0.3996270516290369
 10
39.08364553454067
 20
95.19083590507444
 42
0.0
 10
39.08364553454044
 20
91.19211333333124
 42
0.0
 10
40.08364553454021
 20
90.61476306414215
 42
0.0
 10
52.08762013075602
 20
90.61476306414215
 42
0.0
 10
53.64646585756782
 20
93.31476306414197
 42
-0.267949192431237
 10
54.16608109983872
 20
93.6147630641417
 42
0.0
 10
64.83864753614216
 20
93.6147630641417
 42
-0.2277350772923759
 10
71.08364553454066
 20
90.61476306414169
 42
0.0
 10
78.75448933695179
 20
90.61476306414169
 42
-0.5982346904414735
 10
81.08364553454022
 20
89.36476306414169
 42
0.0
 10
81.08364553454022
 20
82.6147630641417
 42
0.0
 10
88.08364553454067
 20
82.6147630641417
 42
0.0
 10
88.08364553454067
 20
83.11476306414125
 42
0.0
 10
93.08364553454067
 20
83.11476306414125
 42
0.0
 10
93.08364553454067
 20
78.1647630641437
 42
0.0
 10
93.63364553454221
 20
77.61476306414261
 42
0.0
 10
101.26364553454
 20
77.61476306414306
 42
0.0
 10
101.5636455345372
 20
77.91476306414006
 42
0.0
 10
101.5636455345384
 20
82.93976306414107
 42
-0.4142135623737611
 10
101.963645534538
 20
83.33976306414252
 42
0.0
 10
117.9836455345373
 20
83.33976306414342
 42
0.0
 10
118.0991155883776
 20
83.13976306414316
 42
0.0
 10
159.5506328326439
 20
83.1397630641427
 42
0.0
 10
159.9836455345407
 20
83.38976306414314
 42
0.0
 97
        0
 92
       22
 72
     1
 73
     1
 93
        9
 10
153.9836455345396
 20
85.63976306414042
 42
0.0
 10
153.9836455345396
 20
84.73976306414078
 42
-0.4142135623727621
 10
153.5836455345395
 20
84.33976306414114
 42
0.0
 10
145.6836455345376
 20
84.33976306414251
 42
0.0
 10
144.6836455345385
 20
85.33976306414297
 42
0.0
 10
130.4836455345373
 20
85.33976306414297
 42
0.0
 10
129.4836455345373
 20
84.33976306414207
 42
0.0
 10
121.4836455345371
 20
84.33976306414207
 42
0.0
 10
120.1836455345399
 20
85.63976306414089
 42
0.0
 97
        0
 92
       23
 72
     0
 73
     1
 93
        4
 10
88.08364553454067
 20
82.61476306414214
 10
81.08364553454043
 20
82.61476306414214
 10
81.58364553454111
 20
82.11476306414125
 10
88.08364553454067
 20
82.11476306414215
 97
        0
 75
     0
 76
     1
 52
0.0
 41
1.0
 77
     0
 78
     1
 53
45.0
 43
-1169.194213545539
 44
2952.039179414389
 45
-2.245064030267287
 46
2.245064030267288
 79
     0
 47
0.068451004061539
 98
        3
 10
126.0424933001468
 20
91.25349320999021
 10
126.0424933001468
 20
91.25349320999021
 10
85.91794742153615
 20
82.29335461194523
1001
ACAD
1010
0.0
1020
0.0
1030
0.0
  0
LINE
  5
27F6D3
330
2
100
AcDbEntity
  8
0
  6
Continuous
100
AcDbLine
 10
71.08364553454021
 20
104.6147630641417
 30
0.0
 11
71.08364553454021
 21
97.90352569980086
 31
0.0
  0
LINE
  5
27F6D4
330
2
100
AcDbEntity
  8
0
  6
Continuous
100
AcDbLine
 10
71.58364553454021
 20
105.1147630641417
 30
0.0
 11
85.70614645978139
 21
105.1147630641417
 31
0.0
  0
LINE
  5
27F6D5
330
2
100
AcDbEntity
  8
0
  6
Continuous
100
AcDbLine
 10
71.58364553454021
 20
42.11476306414169
 30
0.0
 11
85.70614645978139
 21
42.11476306414169
 31
0.0
  0
CIRCLE
  5
27F6D6
330
2
100
AcDbEntity
  8
0
  6
Continuous
100
AcDbCircle
 10
62.08364553454021
 20
73.6147630641417
 30
0.0
 40
3.75
  0
LINE
  5
27F6D7
330
2
100
AcDbEntity
  8
0
  6
Continuous
100
AcDbLine
 10
40.22360220192467
 20
96.38933279627146
 30
0.0
 11
69.08364553454021
 21
97.83518817883669
 31
0.0
  0
LINE
  5
27F6D8
330
2
100
AcDbEntity
  8
0
  6
Continuous
100
AcDbLine
 10
39.08364553454067
 20
95.19083590507444
 30
0.0
 11
39.08364553454021
 21
80.88476306414168
 31
0.0
  0
ARC
  5
27F6D9
330
2
100
AcDbEntity
  8
0
  6
Continuous
100
AcDbCircle
 10
40.28364553454048
 20
95.19083590507444
 30
0.0
 40
1.199999999999999
100
AcDbArc
 50
92.86805555553742
 51
180.0
  0
LINE
  5
27F6DA
330
2
100
AcDbEntity
  8
0
  6
Continuous
100
AcDbLine
 10
40.08364553454021
 20
79.88476306414168
 30
0.0
 11
47.58364553454021
 21
79.88476306414168
 31
0.0
  0
LINE
  5
27F6DB
330
2
100
AcDbEntity
  8
0
  6
Continuous
100
AcDbLine
 10
49.08364553454021
 20
78.38476306414168
 30
0.0
 11
49.08364553454021
 21
73.6147630641417
 31
0.0
  0
LINE
  5
27F6DC
330
2
100
AcDbEntity
  8
0
  6
Continuous
100
AcDbLine
 10
40.08364553454021
 20
67.34476306414172
 30
0.0
 11
43.58364553454021
 21
67.34476306414172
 31
0.0
  0
LINE
  5
27F6DD
330
2
100
AcDbEntity
  8
0
  6
Continuous
100
AcDbLine
 10
39.08364553454021
 20
52.03869022320896
 30
0.0
 11
39.08364553454021
 21
66.34476306414171
 31
0.0
  0
LINE
  5
27F6DE
330
2
100
AcDbEntity
  8
0
  6
Continuous
100
AcDbLine
 10
45.08364553454021
 20
63.66610922818882
 30
0.0
 11
45.08364553454021
 21
73.6147630641417
 31
0.0
  0
LINE
  5
27F6DF
330
2
100
AcDbEntity
  8
0
  6
Continuous
100
AcDbLine
 10
40.22360220192467
 20
50.84019333201195
 30
0.0
 11
69.08364553454021
 21
49.39433794944671
 31
0.0
  0
ARC
  5
27F6E0
330
2
100
AcDbEntity
  8
0
  6
Continuous
100
AcDbCircle
 10
40.28364553454048
 20
52.03869022320896
 30
0.0
 40
1.199999999999999
100
AcDbArc
 50
180.0
 51
267.1319444444363
  0
LINE
  5
27F6E1
330
2
100
AcDbEntity
  8
0
  6
Continuous
100
AcDbLine
 10
39.08364553454021
 20
80.88476306414168
 30
0.0
 11
40.08364553454021
 21
79.88476306414168
 31
0.0
  0
LINE
  5
27F6E2
330
2
100
AcDbEntity
  8
0
  6
Continuous
100
AcDbLine
 10
39.08364553454021
 20
66.34476306414171
 30
0.0
 11
40.08364553454021
 21
67.34476306414172
 31
0.0
  0
ARC
  5
27F6E3
330
2
100
AcDbEntity
  8
0
  6
Continuous
100
AcDbCircle
 10
47.58364553454021
 20
78.38476306414168
 30
0.0
 40
1.5
100
AcDbArc
 50
0.0
 51
90.0
  0
ARC
  5
27F6E4
330
2
100
AcDbEntity
  8
0
  6
Continuous
100
AcDbCircle
 10
43.58364553454021
 20
68.84476306414171
 30
0.0
 40
1.5
100
AcDbArc
 50
270.0
 51
0.0
  0
ARC
  5
27F6E5
330
2
100
AcDbEntity
  8
0
  6
Continuous
100
AcDbCircle
 10
62.08364553454021
 20
73.6147630641417
 30
0.0
 40
4.25
100
AcDbArc
 50
180.0
 51
0.0
  0
LINE
  5
27F6E6
330
2
100
AcDbEntity
  8
0
  6
Continuous
100
AcDbLine
 10
69.08364553454021
 20
97.83518817883669
 30
0.0
 11
69.7537557675455
 21
97.65563268306323
 31
0.0
  0
LINE
  5
27F6E7
330
2
100
AcDbEntity
  8
0
  6
Continuous
100
AcDbLine
 10
70.58364553454066
 20
97.63518817883642
 30
0.0
 11
69.90904719460695
 21
97.63518817883642
 31
0.0
  0
LINE
  5
27F6E8
330
2
100
AcDbEntity
  8
0
  6
Continuous
100
AcDbLine
 10
71.18364553454057
 20
98.32365120659824
 30
0.0
 11
71.18364553454057
 21
98.23518817883678
 31
0.0
  0
ARC
  5
27F6E9
330
2
100
AcDbEntity
  8
0
  6
Continuous
100
AcDbCircle
 10
70.58364553454021
 20
98.23518817883678
 30
0.0
 40
0.6
100
AcDbArc
 50
270.0
 51
0.0
  0
LINE
  5
27F6EA
330
2
100
AcDbEntity
  8
0
  6
Continuous
100
AcDbLine
 10
71.08364553454021
 20
99.0351881788365
 30
0.0
 11
71.18364553454057
 21
98.32365120659824
 31
0.0
  0
LINE
  5
27F6EB
330
2
100
AcDbEntity
  8
0
  6
Continuous
100
AcDbLine
 10
69.08364553454021
 20
73.6147630641417
 30
0.0
 11
69.08364553454021
 21
49.39433794944671
 31
0.0
  0
LINE
  5
27F6EC
330
2
100
AcDbEntity
  8
0
  6
Continuous
100
AcDbLine
 10
69.83005569605438
 20
49.58911550715765
 30
0.0
 11
69.83005569605438
 21
73.6147630641417
 31
0.0
  0
LINE
  5
27F6ED
330
2
100
AcDbEntity
  8
0
  6
Continuous
100
AcDbLine
 10
40.08364553454021
 20
90.61476306414169
 30
0.0
 11
52.08762013075602
 21
90.61476306414169
 31
0.0
  0
LINE
  5
27F6EE
330
2
100
AcDbEntity
  8
0
  6
Continuous
100
AcDbLine
 10
40.08364553454021
 20
79.88476306414168
 30
0.0
 11
40.08364553454021
 21
90.61476306414169
 31
0.0
  0
LINE
  5
27F6EF
330
2
100
AcDbEntity
  8
0
  6
Continuous
100
AcDbLine
 10
40.08364553454021
 20
90.61476306414169
 30
0.0
 11
39.08364553454021
 21
91.19211333333124
 31
0.0
  0
LINE
  5
27F6F0
330
2
100
AcDbEntity
  8
0
  6
Continuous
100
AcDbLine
 10
40.08364553454021
 20
67.34476306414172
 30
0.0
 11
40.08364553454021
 21
63.91660354760142
 31
0.0
  0
LINE
  5
27F6F1
330
2
100
AcDbEntity
  8
0
  6
Continuous
100
AcDbLine
 10
40.08364553454021
 20
63.91660354760142
 30
0.0
 11
45.08364553454021
 21
63.66610922818882
 31
0.0
  0
LINE
  5
27F6F2
330
2
100
AcDbEntity
  8
0
  6
Continuous
100
AcDbLine
 10
39.08364553454021
 20
62.91660354760143
 30
0.0
 11
40.08364553454021
 21
63.91660354760142
 31
0.0
  0
LINE
  5
27F6F3
330
2
100
AcDbEntity
  8
0
  6
Continuous
100
AcDbLine
 10
71.08364553454021
 20
42.61476306414169
 30
0.0
 11
71.08364553454021
 21
73.6147630641417
 31
0.0
  0
LINE
  5
27F6F4
330
2
100
AcDbEntity
  8
0
  6
Continuous
100
AcDbLine
 10
52.08762013075602
 20
90.61476306414169
 30
0.0
 11
53.64646585756782
 21
93.31476306414197
 31
0.0
  0
LINE
  5
27F6F5
330
2
100
AcDbEntity
  8
0
  6
Continuous
100
AcDbLine
 10
54.16608109983872
 20
93.6147630641417
 30
0.0
 11
64.83864753614216
 21
93.6147630641417
 31
0.0
  0
LINE
  5
27F6F6
330
2
100
AcDbEntity
  8
0
  6
Continuous
100
AcDbLine
 10
52.08762013075602
 20
90.61476306414169
 30
0.0
 11
52.08762013075602
 21
73.6147630641417
 31
0.0
  0
LINE
  5
27F6F7
330
2
100
AcDbEntity
  8
0
  6
Continuous
100
AcDbLine
 10
53.81967093832509
 20
93.5046610126983
 30
0.0
 11
53.81967093832509
 21
73.6147630641417
 31
0.0
  0
ARC
  5
27F6F8
330
2
100
AcDbEntity
  8
0
  6
Continuous
100
AcDbCircle
 10
54.16608109983872
 20
93.01476306414178
 30
0.0
 40
0.6
100
AcDbArc
 50
90.0
 51
149.9999999999994
  0
LINE
  5
27F6F9
330
2
100
AcDbEntity
  8
0
  6
Continuous
100
AcDbLine
 10
71.08364553454066
 20
90.61476306414169
 30
0.0
 11
78.75448933695179
 21
90.61476306414169
 31
0.0
  0
ARC
  5
27F6FA
330
2
100
AcDbEntity
  8
0
  6
Continuous
100
AcDbCircle
 10
64.83864753614216
 20
85.61476306414169
 30
0.0
 40
8.0
100
AcDbArc
 50
38.68218745348897
 51
90.0
  0
LINE
  5
27F6FB
330
2
100
AcDbEntity
  8
0
  6
Continuous
100
AcDbLine
 10
81.08364553454022
 20
89.36476306414169
 30
0.0
 11
81.08364553454022
 21
73.6147630641417
 31
0.0
  0
LINE
  5
27F6FC
330
2
100
AcDbEntity
  8
0
  6
Continuous
100
AcDbLine
 10
71.08364553454066
 20
90.61476306414169
 30
0.0
 11
71.08364553454066
 21
73.6147630641417
 31
0.0
  0
ARC
  5
27F6FD
330
2
100
AcDbEntity
  8
0
  6
Continuous
100
AcDbCircle
 10
79.58364553454021
 20
89.36476306414169
 30
0.0
 40
1.5
100
AcDbArc
 50
0.0
 51
123.5573097619112
  0
LINE
  5
27F6FE
330
2
100
AcDbEntity
  8
0
  6
Continuous
100
AcDbLine
 10
78.75448933695179
 20
90.61476306414169
 30
0.0
 11
78.75448933695179
 21
73.6147630641417
 31
0.0
  0
LINE
  5
27F6FF
330
2
100
AcDbEntity
  8
0
  6
Continuous
100
AcDbLine
 10
71.08364553454066
 20
104.6147630641417
 30
0.0
 11
71.58364553454067
 21
105.1147630641417
 31
0.0
  0
LINE
  5
27F700
330
2
100
AcDbEntity
  8
0
  6
Continuous
100
AcDbLine
 10
71.08364553454021
 20
42.61476306414169
 30
0.0
 11
71.58364553454021
 21
42.11476306414169
 31
0.0
  0
LINE
  5
27F701
330
2
100
AcDbEntity
  8
0
  6
Continuous
100
AcDbLine
 10
71.58364553454021
 20
42.11476306414169
 30
0.0
 11
71.58364553454021
 21
73.6147630641417
 31
0.0
  0
LINE
  5
27F702
330
2
100
AcDbEntity
  8
0
  6
Continuous
100
AcDbLine
 10
78.08364553454021
 20
99.61476306414169
 30
0.0
 11
77.21762013075613
 21
100.1147630641417
 31
0.0
  0
LINE
  5
27F703
330
2
100
AcDbEntity
  8
0
  6
Continuous
100
AcDbLine
 10
78.08364553454021
 20
100.1147630641417
 30
0.0
 11
73.38364553454039
 21
100.1147630641417
 31
0.0
  0
LINE
  5
27F704
330
2
100
AcDbEntity
  8
0
  6
Continuous
100
AcDbLine
 10
73.08364553454021
 20
100.4147630641414
 30
0.0
 11
73.08364553454021
 21
105.1147630641417
 31
0.0
  0
ARC
  5
27F705
330
2
100
AcDbEntity
  8
0
  6
Continuous
100
AcDbCircle
 10
73.38364553454039
 20
100.4147630641414
 30
0.0
 40
0.3
100
AcDbArc
 50
180.0
 51
270.0
  0
LINE
  5
27F706
330
2
100
AcDbEntity
  8
CT
  6
CENTER
 62
     3
100
AcDbLine
 10
78.08364553454021
 20
98.06430896952406
 30
0.0
 11
78.08364553454021
 21
106.2395453945273
 31
0.0
  0
LINE
  5
27F707
330
2
100
AcDbEntity
  8
0
  6
Continuous
100
AcDbLine
 10
83.08364553454021
 20
105.1147630641417
 30
0.0
 11
83.08364553454021
 21
100.4147630641414
 31
0.0
  0
LINE
  5
27F708
330
2
100
AcDbEntity
  8
0
  6
Continuous
100
AcDbLine
 10
78.08364553454021
 20
100.1147630641417
 30
0.0
 11
82.78364553454048
 21
100.1147630641417
 31
0.0
  0
LINE
  5
27F709
330
2
100
AcDbEntity
  8
0
  6
Continuous
100
AcDbLine
 10
78.08364553454021
 20
99.61476306414169
 30
0.0
 11
78.94967093832474
 21
100.1147630641417
 31
0.0
  0
ARC
  5
27F70A
330
2
100
AcDbEntity
  8
0
  6
Continuous
100
AcDbCircle
 10
82.78364553454048
 20
100.4147630641414
 30
0.0
 40
0.3
100
AcDbArc
 50
270.0
 51
0.0
  0
LINE
  5
27F70B
330
2
100
AcDbEntity
  8
0
  6
Continuous
100
AcDbLine
 10
81.58364553454067
 20
82.11476306414169
 30
0.0
 11
88.08364553454067
 21
82.11476306414169
 31
0.0
  0
LINE
  5
27F70C
330
2
100
AcDbEntity
  8
0
  6
Continuous
 62
     3
100
AcDbLine
 10
81.08364553454066
 20
82.6147630641417
 30
0.0
 11
88.08364553454067
 21
82.6147630641417
 31
0.0
  0
LINE
  5
27F70D
330
2
100
AcDbEntity
  8
0
  6
Continuous
100
AcDbLine
 10
81.58364553454067
 20
82.11476306414169
 30
0.0
 11
81.58364553454067
 21
73.6147630641417
 31
0.0
  0
LINE
  5
27F70E
330
2
100
AcDbEntity
  8
0
  6
Continuous
100
AcDbLine
 10
81.58364553454067
 20
82.11476306414169
 30
0.0
 11
81.08364553454066
 21
82.6147630641417
 31
0.0
  0
LINE
  5
27F70F
330
2
100
AcDbEntity
  8
0
  6
Continuous
100
AcDbLine
 10
93.08364553454067
 20
83.11476306414125
 30
0.0
 11
93.08364553454067
 21
73.6147630641417
 31
0.0
  0
LINE
  5
27F710
330
2
100
AcDbEntity
  8
0
  6
Continuous
100
AcDbLine
 10
88.08364553454067
 20
83.11476306414125
 30
0.0
 11
88.08364553454067
 21
73.6147630641417
 31
0.0
  0
LINE
  5
27F711
330
2
100
AcDbEntity
  8
0
  6
Continuous
100
AcDbLine
 10
88.08364553454067
 20
83.11476306414125
 30
0.0
 11
93.08364553454067
 21
83.11476306414125
 31
0.0
  0
LINE
  5
27F712
330
2
100
AcDbEntity
  8
0
  6
Continuous
 62
     7
100
AcDbLine
 10
97.08364553454021
 20
42.61476306414169
 30
0.0
 11
97.08364553454158
 21
73.6147630641417
 31
0.0
  0
ARC
  5
27F713
330
2
100
AcDbEntity
  8
0
  6
Continuous
 62
     7
100
AcDbCircle
 10
97.48364553454052
 20
46.96476306414161
 30
0.0
 40
0.4
100
AcDbArc
 50
90.0
 51
180.0
  0
LINE
  5
27F714
330
2
100
AcDbEntity
  8
0
  6
Continuous
100
AcDbLine
 10
84.08364553454021
 20
65.6147630641417
 30
0.0
 11
97.08364553454021
 21
65.6147630641417
 31
0.0
  0
ARC
  5
27F715
330
2
100
AcDbEntity
  8
0
  6
Continuous
100
AcDbCircle
 10
84.08364553454021
 20
73.6147630641417
 30
0.0
 40
8.0
100
AcDbArc
 50
180.0
 51
270.0
  0
LINE
  5
27F716
330
2
100
AcDbEntity
  8
0
  6
Continuous
 62
     7
100
AcDbLine
 10
97.08364553454021
 20
53.6147630641417
 30
0.0
 11
90.95864553454021
 21
53.6147630641417
 31
0.0
  0
LINE
  5
27F717
330
2
100
AcDbEntity
  8
0
  6
Continuous
 62
     7
100
AcDbLine
 10
97.08364553454021
 20
49.27857601686582
 30
0.0
 11
92.46114460929993
 21
49.27857601686582
 31
0.0
  0
SPLINE
  5
27F718
330
2
100
AcDbEntity
  8
0
  6
Continuous
100
AcDbSpline
210
0.0
220
0.0
230
1.0
 70
     8
 71
     3
 72
    12
 73
     8
 74
     6
 42
0.0000000001
 43
0.0000000001
 44
0.0000000001
 40
0.0
 40
0.0
 40
0.0
 40
0.0
 40
1.548202861184177
 40
3.326995733343439
 40
5.025827162034424
 40
6.955362372576021
 40
9.569926835470665
 40
9.569926835470665
 40
9.569926835470665
 40
9.569926835470665
 10
76.08364553454021
 20
49.27857601686582
 30
0.0
 10
76.34923771715842
 20
49.7244314768683
 30
0.0
 10
76.91997949818333
 20
50.68254830400135
 30
0.0
 10
78.19591190067781
 20
51.7979276389228
 30
0.0
 10
79.68467149378653
 20
52.82723699054066
 30
0.0
 10
81.69411439244871
 20
53.48541974688902
 30
0.0
 10
83.21091521948249
 20
53.56752290391606
 30
0.0
 10
84.08364553454021
 20
53.6147630641417
 30
0.0
 11
76.08364553454021
 21
49.27857601686582
 31
0.0
 11
76.93973409512455
 21
50.56855449568456
 31
0.0
 11
78.23573385065083
 21
51.7869504558389
 31
0.0
 11
79.65817276243843
 21
52.71576462742586
 31
0.0
 11
81.48338767365521
 21
53.34162136549912
 31
0.0
 11
84.08364553454021
 21
53.6147630641417
 31
0.0
  0
LINE
  5
27F719
330
2
100
AcDbEntity
  8
0
  6
Continuous
100
AcDbLine
 10
87.20864553454067
 20
102.5123583283334
 30
0.0
 11
85.70614645978139
 21
105.1147630641417
 31
0.0
  0
LINE
  5
27F71A
330
2
100
AcDbEntity
  8
0
  6
Continuous
100
AcDbLine
 10
87.20864553454067
 20
101.6147630641417
 30
0.0
 11
87.20864553454067
 21
102.5123583283334
 31
0.0
  0
LINE
  5
27F71B
330
2
100
AcDbEntity
  8
0
  6
Continuous
100
AcDbLine
 10
90.95864553454067
 20
101.6147630641417
 30
0.0
 11
90.95864553454067
 21
102.5123583283334
 31
0.0
  0
LINE
  5
27F71C
330
2
100
AcDbEntity
  8
0
  6
Continuous
100
AcDbLine
 10
90.45864553454066
 20
101.1147630641417
 30
0.0
 11
89.08364553454067
 21
101.1147630641417
 31
0.0
  0
LINE
  5
27F71D
330
2
100
AcDbEntity
  8
0
  6
Continuous
100
AcDbLine
 10
87.70864553454066
 20
101.1147630641417
 30
0.0
 11
89.08364553454067
 21
101.1147630641417
 31
0.0
  0
ARC
  5
27F71E
330
2
100
AcDbEntity
  8
0
  6
Continuous
100
AcDbCircle
 10
87.70864553454066
 20
101.6147630641417
 30
0.0
 40
0.5
100
AcDbArc
 50
180.0
 51
270.0
  0
ARC
  5
27F71F
330
2
100
AcDbEntity
  8
0
  6
Continuous
100
AcDbCircle
 10
90.45864553454066
 20
101.6147630641417
 30
0.0
 40
0.5
100
AcDbArc
 50
270.0
 51
0.0
  0
LINE
  5
27F720
330
2
100
AcDbEntity
  8
0
  6
Continuous
100
AcDbLine
 10
90.95864553454067
 20
102.5123583283334
 30
0.0
 11
92.46114460929993
 21
105.1147630641417
 31
0.0
  0
LINE
  5
27F721
330
2
100
AcDbEntity
  8
0
  6
Continuous
100
AcDbLine
 10
92.46114460929993
 20
105.1147630641417
 30
0.0
 11
96.58364553454953
 21
105.1147630641417
 31
0.0
  0
ARC
  5
27F722
330
2
100
AcDbEntity
  8
0
  6
Continuous
100
AcDbCircle
 10
96.58364553454953
 20
104.6147630641417
 30
0.0
 40
0.5
100
AcDbArc
 50
359.999999999974
 51
90.0
  0
LINE
  5
27F723
330
2
100
AcDbEntity
  8
0
  6
Continuous
100
AcDbLine
 10
87.20864553454067
 20
44.71716779994994
 30
0.0
 11
85.70614645978139
 21
42.11476306414169
 31
0.0
  0
LINE
  5
27F724
330
2
100
AcDbEntity
  8
0
  6
Continuous
100
AcDbLine
 10
87.20864553454067
 20
65.6147630641417
 30
0.0
 11
87.20864553454067
 21
44.71716779994994
 31
0.0
  0
LINE
  5
27F725
330
2
100
AcDbEntity
  8
0
  6
Continuous
100
AcDbLine
 10
90.95864553454021
 20
65.6147630641417
 30
0.0
 11
90.95864553454067
 21
44.71716779994994
 31
0.0
  0
LINE
  5
27F726
330
2
100
AcDbEntity
  8
0
  6
Continuous
100
AcDbLine
 10
90.45864553454066
 20
46.1147630641417
 30
0.0
 11
89.08364553454067
 21
46.1147630641417
 31
0.0
  0
LINE
  5
27F727
330
2
100
AcDbEntity
  8
0
  6
Continuous
100
AcDbLine
 10
87.70864553454066
 20
46.1147630641417
 30
0.0
 11
89.08364553454067
 21
46.1147630641417
 31
0.0
  0
ARC
  5
27F728
330
2
100
AcDbEntity
  8
0
  6
Continuous
100
AcDbCircle
 10
87.70864553454066
 20
45.6147630641417
 30
0.0
 40
0.5
100
AcDbArc
 50
90.0
 51
180.0
  0
ARC
  5
27F729
330
2
100
AcDbEntity
  8
0
  6
Continuous
100
AcDbCircle
 10
90.45864553454066
 20
45.6147630641417
 30
0.0
 40
0.5
100
AcDbArc
 50
0.0
 51
90.0
  0
LINE
  5
27F72A
330
2
100
AcDbEntity
  8
0
  6
Continuous
100
AcDbLine
 10
90.95864553454067
 20
44.71716779994994
 30
0.0
 11
92.46114460929993
 21
42.11476306414169
 31
0.0
  0
LINE
  5
27F72B
330
2
100
AcDbEntity
  8
0
  6
Continuous
100
AcDbLine
 10
85.70614645978139
 20
42.11476306414169
 30
0.0
 11
85.70614645978139
 21
49.27857601686582
 31
0.0
  0
LINE
  5
27F72C
330
2
100
AcDbEntity
  8
0
  6
Continuous
100
AcDbLine
 10
92.46114460929993
 20
42.11476306414169
 30
0.0
 11
92.46114460929993
 21
49.27857601686582
 31
0.0
  0
LINE
  5
27F72D
330
2
100
AcDbEntity
  8
0
  6
Continuous
100
AcDbLine
 10
92.46114460929993
 20
42.11476306414169
 30
0.0
 11
96.58364553454021
 21
42.11476306414169
 31
0.0
  0
LINE
  5
27F72E
330
2
100
AcDbEntity
  8
0
  6
Continuous
100
AcDbLine
 10
92.46114460929993
 20
53.6147630641417
 30
0.0
 11
92.46114460929993
 21
65.6147630641417
 31
0.0
  0
LINE
  5
27F72F
330
2
100
AcDbEntity
  8
0
  6
Continuous
100
AcDbLine
 10
85.70614645978139
 20
53.6147630641417
 30
0.0
 11
85.70614645978139
 21
65.6147630641417
 31
0.0
  0
LINE
  5
27F730
330
2
100
AcDbEntity
  8
0
  6
Continuous
100
AcDbLine
 10
85.70614645978139
 20
49.27857601686582
 30
0.0
 11
76.08364553454021
 21
49.27857601686582
 31
0.0
  0
LINE
  5
27F731
330
2
100
AcDbEntity
  8
0
  6
Continuous
100
AcDbLine
 10
87.20864553454067
 20
53.6147630641417
 30
0.0
 11
84.08364553454021
 21
53.6147630641417
 31
0.0
  0
LINE
  5
27F732
330
2
100
AcDbEntity
  8
0
  6
Continuous
100
AcDbLine
 10
90.95864553454067
 20
52.75640713532903
 30
0.0
 11
92.46114460929993
 21
49.27857601686582
 31
0.0
  0
LINE
  5
27F733
330
2
100
AcDbEntity
  8
0
  6
Continuous
100
AcDbLine
 10
87.20864553454067
 20
52.75640713532903
 30
0.0
 11
85.70614645978139
 21
49.27857601686582
 31
0.0
  0
ARC
  5
27F734
330
2
100
AcDbEntity
  8
0
  6
Continuous
100
AcDbCircle
 10
96.58364553454021
 20
42.61476306414169
 30
0.0
 40
0.5
100
AcDbArc
 50
270.0
 51
0.0
  0
LINE
  5
27F735
330
2
100
AcDbEntity
  8
0
  6
Continuous
 62
     3
100
AcDbLine
 10
62.08364553454021
 20
73.1147630641417
 30
0.0
 11
62.08364553454021
 21
74.11476306414169
 31
0.0
  0
LINE
  5
27F736
330
2
100
AcDbEntity
  8
0
  6
Continuous
 62
     3
100
AcDbLine
 10
62.08364553454021
 20
72.6147630641417
 30
0.0
 11
62.08364553454021
 21
68.8647630641417
 31
0.0
  0
LINE
  5
27F737
330
2
100
AcDbEntity
  8
0
  6
Continuous
 62
     3
100
AcDbLine
 10
62.08364553454021
 20
74.61476306414169
 30
0.0
 11
62.08364553454021
 21
78.36476306414169
 31
0.0
  0
ARC
  5
27F738
330
2
100
AcDbEntity
  8
0
  6
Continuous
100
AcDbCircle
 10
70.58364553454021
 20
48.99433794944662
 30
0.0
 40
0.6
100
AcDbArc
 50
33.55730976190669
 51
90.0
  0
LINE
  5
27F739
330
2
100
AcDbEntity
  8
0
  6
Continuous
100
AcDbLine
 10
70.58364553454066
 20
49.59433794944698
 30
0.0
 11
69.90904719460695
 21
49.59433794944698
 31
0.0
  0
LINE
  5
27F73A
330
2
100
AcDbEntity
  8
0
  6
Continuous
100
AcDbLine
 10
69.08364553454021
 20
49.39433794944671
 30
0.0
 11
69.7537557675455
 21
49.57389344522017
 31
0.0
  0
ARC
  5
27F73B
330
2
100
AcDbEntity
  8
0
  6
Continuous
100
AcDbCircle
 10
69.90904719460695
 20
48.99433794944662
 30
0.0
 40
0.6
100
AcDbArc
 50
90.0
 51
104.9999999999944
  0
ARC
  5
27F73C
330
2
100
AcDbEntity
  8
0
  6
Continuous
100
AcDbCircle
 10
69.90904719460695
 20
98.23518817883678
 30
0.0
 40
0.6
100
AcDbArc
 50
255.0000000000056
 51
270.0
  0
LINE
  5
27F73D
330
2
100
AcDbEntity
  8
0
  6
Continuous
 62
     7
100
AcDbLine
 10
120.1836455345394
 20
85.63976306414089
 30
0.0
 11
153.9836455345396
 21
85.63976306414089
 31
0.0
1001
ACAD
1000
ASC_BOUNDS
1002
{
1070
    19
1005
0
1005
0
1002
}
  0
LINE
  5
27F73E
330
2
100
AcDbEntity
  8
0
  6
Continuous
 62
     7
100
AcDbLine
 10
101.5636455345384
 20
82.93976306414107
 30
0.0
 11
101.5636455345366
 21
73.6147630641426
 31
0.0
  0
ARC
  5
27F73F
330
2
100
AcDbEntity
  8
0
  6
Continuous
 62
     7
100
AcDbCircle
 10
101.963645534538
 20
82.93976306414107
 30
0.0
 40
0.4
100
AcDbArc
 50
90.0
 51
180.0
  0
LINE
  5
27F740
330
2
100
AcDbEntity
  8
0
  6
Continuous
 62
     7
100
AcDbLine
 10
159.062104630269
 20
92.68728990621866
 30
0.0
 11
133.6171562814679
 21
94.68985077133584
 31
0.0
  0
ARC
  5
27F741
330
2
100
AcDbEntity
  8
0
  6
Continuous
 62
     7
100
AcDbCircle
 10
158.983645534541
 20
91.69037257248556
 30
0.0
 40
1.0
100
AcDbArc
 50
0.0
 51
85.49999999998982
  0
LINE
  5
27F742
330
2
100
AcDbEntity
  8
0
  6
Continuous
 62
     4
100
AcDbLine
 10
132.830400908002
 20
94.75176976208103
 30
0.0
 11
132.0436455345359
 21
94.81368875282624
 31
0.0
  0
LINE
  5
27F743
330
2
100
AcDbEntity
  8
0
  6
Continuous
100
AcDbLine
 10
94.08364553454067
 20
77.1647630641437
 30
0.0
 11
94.08364553454067
 21
73.6147630641426
 31
0.0
  0
LINE
  5
27F744
330
2
100
AcDbEntity
  8
0
100
AcDbLine
 10
94.08364553454067
 20
77.1647630641437
 30
0.0
 11
93.08364553454067
 21
78.1647630641437
 31
0.0
  0
LINE
  5
27F745
330
2
100
AcDbEntity
  8
0
100
AcDbLine
 10
94.0836455345418
 20
77.16476306414278
 30
0.0
 11
100.8136455345395
 21
77.16476306414325
 31
0.0
  0
LINE
  5
27F746
330
2
100
AcDbEntity
  8
0
 62
     3
100
AcDbLine
 10
93.63364553454221
 20
77.61476306414215
 30
0.0
 11
101.2636455345393
 21
77.61476306414261
 31
0.0
  0
LINE
  5
27F747
330
2
100
AcDbEntity
  8
0
  6
Continuous
 62
     7
100
AcDbLine
 10
100.8136455345393
 20
77.16476306414233
 30
0.0
 11
101.5636455345393
 21
77.91476306414233
 31
0.0
  0
LINE
  5
27F748
330
2
100
AcDbEntity
  8
0
  6
Continuous
 62
     7
100
AcDbLine
 10
100.8136455345393
 20
77.16476306414325
 30
0.0
 11
100.8136455345393
 21
73.61476306414215
 31
0.0
  0
LINE
  5
27F749
330
2
100
AcDbEntity
  8
0
  6
Continuous
 62
     7
100
AcDbLine
 10
145.683645534538
 20
84.33976306414207
 30
0.0
 11
153.5836455345395
 21
84.33976306414114
 31
0.0
1001
ACAD
1000
ASC_BOUNDS
1002
{
1070
    19
1005
0
1002
}
  0
LINE
  5
27F74A
330
2
100
AcDbEntity
  8
0
  6
Continuous
 62
     0
100
AcDbLine
 10
118.0991155883776
 20
83.13976306414224
 30
0.0
 11
159.5506328326434
 21
83.1397630641427
 31
0.0
1001
ACAD
1000
ASC_BOUNDS
1002
{
1070
    19
1005
0
1005
0
1005
0
1002
}
  0
LINE
  5
27F74B
330
2
100
AcDbEntity
  8
0
  6
Continuous
 62
     7
100
AcDbLine
 10
121.4836455345373
 20
84.33976306414207
 30
0.0
 11
129.4836455345373
 21
84.33976306414207
 31
0.0
  0
LINE
  5
27F74C
330
2
100
AcDbEntity
  8
0
  6
Continuous
 62
     7
100
AcDbLine
 10
117.9836455345373
 20
83.33976306414298
 30
0.0
 11
117.9836455345373
 21
73.61476306414215
 31
0.0
  0
LINE
  5
27F74D
330
2
100
AcDbEntity
  8
0
  6
Continuous
 62
     7
100
AcDbLine
 10
101.963645534538
 20
83.33976306414252
 30
0.0
 11
117.9836455345373
 21
83.33976306414298
 31
0.0
  0
LINE
  5
27F74E
330
2
100
AcDbEntity
  8
0
  6
Continuous
 62
     7
100
AcDbLine
 10
120.1836455345381
 20
85.63976306414224
 30
0.0
 11
121.4836455345373
 21
84.33976306414207
 31
0.0
  0
LINE
  5
27F74F
330
2
100
AcDbEntity
  8
0
  6
Continuous
 62
     7
100
AcDbLine
 10
144.6836455345381
 20
85.33976306414297
 30
0.0
 11
145.683645534538
 21
84.33976306414207
 31
0.0
  0
ARC
  5
27F750
330
2
100
AcDbEntity
  8
0
  6
Continuous
 62
     7
100
AcDbCircle
 10
153.5836455345395
 20
84.73976306414078
 30
0.0
 40
0.4
100
AcDbArc
 50
270.0
 51
0.0
  0
LINE
  5
27F751
330
2
100
AcDbEntity
  8
0
  6
Continuous
 62
     7
100
AcDbLine
 10
130.4836455345373
 20
85.33976306414297
 30
0.0
 11
144.6836455345381
 21
85.33976306414297
 31
0.0
1001
ACAD
1000
ASC_BOUNDS
1002
{
1070
    19
1005
0
1002
}
  0
LINE
  5
27F752
330
2
100
AcDbEntity
  8
0
  6
Continuous
 62
     7
100
AcDbLine
 10
130.4836455345373
 20
85.33976306414297
 30
0.0
 11
129.4836455345373
 21
84.33976306414207
 31
0.0
  0
LINE
  5
27F753
330
2
100
AcDbEntity
  8
0
  6
Continuous
100
AcDbLine
 10
117.9836455345373
 20
83.33976306414298
 30
0.0
 11
118.0991155883776
 21
83.13976306414224
 31
0.0
  0
LINE
  5
27F754
330
2
100
AcDbEntity
  8
0
  6
Continuous
 62
     0
100
AcDbLine
 10
159.9836455345401
 20
73.6147630641417
 30
0.0
 11
159.983645534541
 21
91.69037257248556
 31
0.0
  0
LINE
  5
27F755
330
2
100
AcDbEntity
  8
0
  6
Continuous
 62
     0
100
AcDbLine
 10
159.9836455345391
 20
83.38976306414224
 30
0.0
 11
159.5506328326434
 21
83.1397630641427
 31
0.0
  0
LINE
  5
27F756
330
2
100
AcDbEntity
  8
0
  6
Continuous
 62
     0
100
AcDbLine
 10
159.5506328326434
 20
83.1397630641427
 30
0.0
 11
159.5506328326434
 21
73.6147630641426
 31
0.0
  0
LINE
  5
27F757
330
2
100
AcDbEntity
  8
0
  6
Continuous
 62
     7
100
AcDbLine
 10
118.0991155883776
 20
83.13976306414224
 30
0.0
 11
118.0991155883776
 21
73.61476306414215
 31
0.0
  0
LINE
  5
27F758
330
2
100
AcDbEntity
  8
0
100
AcDbLine
 10
153.9836455345396
 20
84.73976306414078
 30
0.0
 11
153.9836455345396
 21
85.63976306414089
 31
0.0
  0
LINE
  5
27F759
330
2
100
AcDbEntity
  8
0
  6
Continuous
 62
     7
100
AcDbLine
 10
97.08364553454954
 20
104.6147630641417
 30
0.0
 11
97.0836455345484
 21
100.2647630641518
 31
0.0
  0
ARC
  5
27F75A
330
2
100
AcDbEntity
  8
0
  6
Continuous
 62
     7
100
AcDbCircle
 10
97.48364553454848
 20
100.2647630641518
 30
0.0
 40
0.4
100
AcDbArc
 50
179.9999999999739
 51
269.999999999987
  0
LINE
  5
27F75B
330
2
100
AcDbEntity
  8
0
 62
     7
100
AcDbLine
 10
97.48364553454848
 20
99.8647630641517
 30
0.0
 11
128.7326855100486
 21
99.86476306414534
 31
0.0
  0
LINE
  5
27F75C
330
2
100
AcDbEntity
  8
0
 62
     4
100
AcDbLine
 10
132.0436455345359
 20
94.81368875282624
 30
0.0
 11
131.7215354859368
 21
95.5044559812136
 31
0.0
  0
DIMENSION
  5
27F764
330
2
100
AcDbEntity
  8
0
  6
Continuous
 62
     6
100
AcDbDimension
  2
*D10
 10
182.0855351570992
 20
54.61476306413668
 30
0.0
 11
179.9605351570992
 21
73.61476306414012
 31
0.0
 70
    32
  1
%%c1.50
 71
     5
 42
38.00000000000681
 73
     0
 74
     0
 75
     0
  3
Standard$0
100
AcDbAlignedDimension
 13
159.9836455345412
 23
92.61476306414351
 33
0.0
 14
159.9836455345401
 24
54.61476306413669
 34
0.0
 50
90.0
100
AcDbRotatedDimension
1001
ACAD
1000
DSTYLE
1002
{
1070
     3
1000
%%C<>
1070
    42
1040
0.625
1070
    43
1040
3.75
1070
    44
1040
1.25
1070
    48
1040
0.000000001
1070
    74
1070
     0
1070
    77
1070
     1
1070
    90
1070
     1
1070
   140
1040
3.0
1070
   141
1040
-0.5
1070
   143
1040
0.03937007874016
1070
   146
1040
0.7
1070
   147
1040
0.625
1070
   171
1070
     3
1070
   172
1070
     1
1070
   175
1070
     0
1070
   274
1070
     3
1070
   283
1070
     0
1070
   284
1070
     8
1070
   340
1005
23
1070
   371
1070
    -1
1070
   372
1070
    -1
1002
}
  0
LINE
  5
27F765
330
2
100
AcDbEntity
  8
0
  6
Continuous
 62
     7
100
AcDbLine
 10
159.062104630269
 20
54.54223622206382
 30
0.0
 11
133.7878005512311
 21
52.5531053522368
 31
0.0
  0
ARC
  5
27F766
330
2
100
AcDbEntity
  8
0
  6
Continuous
 62
     7
100
AcDbCircle
 10
134.023177838415
 20
49.56235335103747
 30
0.0
 40
3.0
100
AcDbArc
 50
94.50000000001017
 51
155.0000000000224
  0
ARC
  5
27F767
330
2
100
AcDbEntity
  8
0
  6
Continuous
 62
     7
100
AcDbCircle
 10
158.983645534541
 20
55.53915355579693
 30
0.0
 40
1.0
100
AcDbArc
 50
274.5000000000102
 51
0.0
  0
LINE
  5
27F768
330
2
100
AcDbEntity
  8
0
  6
Continuous
 62
     0
100
AcDbLine
 10
159.9836455345401
 20
73.61476306414079
 30
0.0
 11
159.983645534541
 21
55.53915355579693
 31
0.0
  0
LINE
  5
27F769
330
2
100
AcDbEntity
  8
0
 62
     7
100
AcDbLine
 10
97.48364553454848
 20
47.36476306413078
 30
0.0
 11
128.7326855100484
 21
47.36476306413623
 31
0.0
  0
LINE
  5
27F76A
330
2
100
AcDbEntity
  8
0
 62
     7
100
AcDbLine
 10
131.3042544773047
 20
50.83020813625899
 30
0.0
 11
130.0921471906033
 21
48.23083567152571
 31
0.0
  0
ARC
  5
27F76B
330
2
100
AcDbEntity
  8
0
 62
     7
100
AcDbCircle
 10
128.7326855100482
 20
48.86476306413624
 30
0.0
 40
1.5
100
AcDbArc
 50
270.000000000013
 51
335.0000000000225
  0
LINE
  5
27F76C
330
2
100
AcDbEntity
  8
0
  6
Continuous
 62
     7
100
AcDbLine
 10
132.0436455345359
 20
51.81656094083473
 30
0.0
 11
132.0436455345359
 21
73.6147630641417
 31
0.0
  0
LINE
  5
27F76D
330
2
100
AcDbEntity
  8
0
  6
Continuous
 62
     7
100
AcDbLine
 10
129.6882909012599
 20
47.70855445999631
 30
0.0
 11
129.6882909012602
 21
73.61476306414124
 31
0.0
  0
ARC
  5
27F76E
330
2
100
AcDbEntity
  8
0
  6
Continuous
 62
     7
100
AcDbCircle
 10
134.023177838415
 20
97.66717277724593
 30
0.0
 40
3.0
100
AcDbArc
 50
204.9999999999775
 51
265.4999999999898
  0
LINE
  5
27F76F
330
2
100
AcDbEntity
  8
0
 62
     7
100
AcDbLine
 10
131.3042544773047
 20
96.39931799202441
 30
0.0
 11
130.0921471906033
 21
98.99869045675769
 31
0.0
  0
ARC
  5
27F770
330
2
100
AcDbEntity
  8
0
 62
     7
100
AcDbCircle
 10
128.7326855100482
 20
98.36476306414716
 30
0.0
 40
1.5
100
AcDbArc
 50
24.99999999997751
 51
89.99999999998697
  0
DIMENSION
  5
27F772
330
2
100
AcDbEntity
  8
0
  6
Continuous
 62
     6
100
AcDbDimension
  2
*D11
 10
161.8750780117075
 20
73.6147630641417
 30
0.0
 11
147.2928615246307
 21
63.6308060712114
 31
0.0
 70
    34
 71
     5
 42
0.0785398163398368
 73
     0
 74
     0
 75
     0
  3
STANDARD$2
100
AcDb2LineAngularDimension
 13
159.062104630269
 23
54.54223622206382
 33
0.0
 14
133.7878005512311
 24
52.5531053522368
 34
0.0
 15
37.08364553454021
 25
73.6147630641417
 35
0.0
 16
145.0596738563855
 26
66.90221517966889
 36
0.0
1001
ACAD
1000
DSTYLE
1002
{
1070
   179
1070
     1
1070
    42
1040
0.625
1070
    43
1040
3.75
1070
    44
1040
1.25
1070
    48
1040
0.000000001
1070
    74
1070
     0
1070
    77
1070
     1
1070
    90
1070
     1
1070
   140
1040
3.0
1070
   141
1040
-0.5
1070
   143
1040
0.03937007874016
1070
   146
1040
0.7
1070
   147
1040
0.625
1070
   171
1070
     3
1070
   172
1070
     1
1070
   175
1070
     0
1070
   274
1070
     3
1070
   283
1070
     0
1070
   284
1070
     8
1070
   340
1005
23
1070
   371
1070
    -1
1070
   372
1070
    -1
1002
}
  0
ENDSEC
  0
SECTION
  2
OBJECTS
  0
DICTIONARY
  5
B
330
0
100
AcDbDictionary
281
     1
  3
ACAD_BACKGROUND
350
10F8
  3
ACAD_COLOR
350
3E
  3
ACAD_GROUP
350
39
  3
ACAD_LAYOUT
350
17
  3
ACAD_MATERIAL
350
D
  3
ACAD_MLEADERSTYLE
350
AE
  3
ACAD_MLINESTYLE
350
3A
  3
ACAD_PLOTSETTINGS
350
3B
  3
ACAD_PLOTSTYLENAME
350
A
  3
ACAD_SCALELIST
350
3F
  3
ACAD_TABLESTYLE
350
40
  3
ACAD_VISUALSTYLE
350
2D
  3
ACDB_RECOMPOSE_DATA
350
5B0
  3
AcDbVariableDictionary
350
5EB
  3
ASE_INDEX_DICTIONARY
350
24961A
  0
DICTIONARY
  5
2E
330
2A
100
AcDbDictionary
280
     1
281
     1
  0
DICTIONARY
  5
20
330
1F
100
AcDbDictionary
280
     1
281
     1
  3
ACAD_LAYERSTATES
360
21
  0
DICTIONARY
  5
7
330
6
100
AcDbDictionary
280
     1
281
     1
  3
ADSK_XREC_LAYER_RECONCILED
360
8
  0
DICTIONARY
  5
252690
330
25268F
100
AcDbDictionary
280
     1
281
     1
  0
DICTIONARY
  5
73E09
330
73E08
100
AcDbDictionary
280
     1
281
     1
  3
ADSK_XREC_VTR_ANNOSCALE_DATA
360
73E0A
  0
DICTIONARY
  5
A0ABB
330
A0ABA
100
AcDbDictionary
280
     1
281
     1
  3
ADSK_XREC_VTR_ANNOSCALE_DATA
360
A0ABC
  0
DICTIONARY
  5
3
330
2
100
AcDbDictionary
280
     1
281
     1
  3
ACAD_SORTENTS
360
55A
  0
DICTIONARY
  5
10F8
102
{ACAD_REACTORS
330
B
102
}
330
B
100
AcDbDictionary
281
     1
  0
DICTIONARY
  5
3E
102
{ACAD_REACTORS
330
B
102
}
330
B
100
AcDbDictionary
281
     1
  0
DICTIONARY
  5
39
102
{ACAD_REACTORS
330
B
102
}
330
B
100
AcDbDictionary
281
     1
  0
DICTIONARY
  5
17
102
{ACAD_REACTORS
330
B
102
}
330
B
100
AcDbDictionary
281
     1
  3
Model
350
16
  3
배치1
350
1C
  0
DICTIONARY
  5
D
102
{ACAD_REACTORS
330
B
102
}
330
B
100
AcDbDictionary
281
     1
  3
ByBlock
350
3D
  3
ByLayer
350
3C
  3
Global
350
C
  0
DICTIONARY
  5
AE
102
{ACAD_REACTORS
330
B
102
}
330
B
100
AcDbDictionary
281
     1
  3
Standard
350
AD
  0
DICTIONARY
  5
3A
102
{ACAD_REACTORS
330
B
102
}
330
B
100
AcDbDictionary
281
     1
  3
Standard
350
41
  0
DICTIONARY
  5
3B
102
{ACAD_REACTORS
330
B
102
}
330
B
100
AcDbDictionary
281
     1
  0
ACDBDICTIONARYWDFLT
  5
A
102
{ACAD_REACTORS
330
B
102
}
330
B
100
AcDbDictionary
281
     1
  3
Normal
350
9
100
AcDbDictionaryWithDefault
340
9
  0
DICTIONARY
  5
3F
102
{ACAD_REACTORS
330
B
102
}
330
B
100
AcDbDictionary
281
     1
  3
A0
350
46
  3
A1
350
47
  3
A2
350
48
  3
A3
350
49
  3
A4
350
4A
  3
A5
350
4B
  3
A6
350
4C
  3
A7
350
4D
  3
A8
350
4E
  3
A9
350
4F
  3
B0
350
50
  3
B1
350
51
  3
B2
350
52
  3
B3
350
53
  3
B4
350
54
  3
B5
350
55
  3
B6
350
56
  3
B7
350
57
  3
B8
350
58
  3
B9
350
59
  3
C0
350
5A
  3
C1
350
5B
  3
C2
350
5C
  3
C3
350
5D
  3
C4
350
5E
  3
C5
350
5F
  3
C6
350
60
  3
C7
350
61
  3
C8
350
62
  3
C9
350
63
  3
D0
350
64
  3
D1
350
65
  3
D2
350
66
  0
DICTIONARY
  5
40
102
{ACAD_REACTORS
330
B
102
}
330
B
100
AcDbDictionary
281
     1
  3
Standard
350
42
  0
DICTIONARY
  5
2D
102
{ACAD_REACTORS
330
B
102
}
330
B
100
AcDbDictionary
281
     1
  3
2dWireframe
350
2C
  3
3D Hidden
350
5F9
  3
3dWireframe
350
45
  3
Basic
350
5F8
  3
Brighten
350
5FC
  3
ColorChange
350
600
  3
Conceptual
350
5FA
  3
Dim
350
5FB
  3
Facepattern
350
5FF
  3
Flat
350
5F4
  3
FlatWithEdges
350
5F5
  3
Gouraud
350
5F6
  3
GouraudWithEdges
350
5F7
  3
Linepattern
350
5FE
  3
Realistic
350
44
  3
Thicken
350
5FD
  0
XRECORD
  5
5B0
102
{ACAD_REACTORS
330
B
102
}
330
B
100
AcDbXrecord
280
     1
 90
        1
330
42
  0
DICTIONARY
  5
5EB
102
{ACAD_REACTORS
330
B
102
}
330
B
100
AcDbDictionary
281
     1
  3
CANNOSCALE
350
5EF
  3
CMLEADERSTYLE
350
5ED
  3
CTABLESTYLE
350
5EC
  3
LIGHTINGUNITS
350
5F0
  3
MSLTSCALE
350
5EE
  0
DICTIONARY
  5
24961A
102
{ACAD_REACTORS
330
B
102
}
330
B
100
AcDbDictionary
281
     1
  3
ASEBlockHierarchyIndexRecord
350
24961B
1001
DCO15
1040
1830531737.95
  0
DICTIONARY
  5
21
102
{ACAD_REACTORS
330
20
102
}
330
20
100
AcDbDictionary
281
     1
  0
XRECORD
  5
8
102
{ACAD_REACTORS
330
7
102
}
330
7
100
AcDbXrecord
280
     1
290
     1
  0
XRECORD
  5
73E0A
102
{ACAD_REACTORS
330
73E09
102
}
330
73E09
100
AcDbXrecord
280
     1
340
46
  0
XRECORD
  5
A0ABC
102
{ACAD_REACTORS
330
A0ABB
102
}
330
A0ABB
100
AcDbXrecord
280
     1
340
46
  0
SORTENTSTABLE
  5
55A
102
{ACAD_REACTORS
330
3
102
}
330
3
100
AcDbSortentsTable
330
2
331
273437
  5
274212
331
25E84
  5
2670D
331
BCFB1
  5
C61A8
  0
LAYOUT
  5
16
102
{ACAD_REACTORS
330
17
102
}
330
17
100
AcDbPlotSettings
  1

  2
DWG To PDF.pc3
  4
ISO_expand_A4_(297.00_x_210.00_MM)
  6

 40
5.793749809265136
 41
10.79374980926513
 42
5.79376220703125
 43
10.79374694824219
 44
297.0
 45
210.0
 46
9.69627655277307
 47
0.0
 48
-4.207764616714257
 49
-4.54722389775253
140
205.5966122599667
141
144.0497895428839
142
1.0
143
0.7886791528340748
 70
 11956
 72
     1
 73
     0
 74
     4
  7
ksm0910.ctb
 75
     0
147
1.267942732360245
 76
     0
 77
     2
 78
   300
148
4.207764616714257
149
4.54722389775253
100
AcDbLayout
  1
Model
 70
     1
 71
     0
 10
0.0
 20
0.0
 11
12.0
 21
9.0
 12
0.0
 22
0.0
 32
0.0
 14
0.0
 24
0.0
 34
0.0
 15
0.0
 25
0.0
 35
0.0
146
0.0
 13
0.0
 23
0.0
 33
0.0
 16
1.0
 26
0.0
 36
0.0
 17
0.0
 27
1.0
 37
0.0
 76
     0
330
2
331
2B
1001
ACAD_PSEXT
1000
DWG To PDF.pc3
1000
PDF
1000
파일
1000

1070
     0
  0
LAYOUT
  5
1C
102
{ACAD_XDICTIONARY
360
1D
102
}
102
{ACAD_REACTORS
330
17
102
}
330
17
100
AcDbPlotSettings
  1

  2
none_device
  4
ISO_A4_(210.00_x_297.00_MM)
  6

 40
7.5
 41
20.0
 42
7.5
 43
20.0
 44
210.0
 45
297.0
 46
0.0
 47
0.0
 48
0.0
 49
0.0
140
0.0
141
0.0
142
1.0
143
1.0
 70
   688
 72
     1
 73
     1
 74
     5
  7
ksm0910.ctb
 75
    16
147
1.0
 76
     0
 77
     2
 78
   300
148
0.0
149
0.0
100
AcDbLayout
  1
배치1
 70
     1
 71
     1
 10
-20.0
 20
-7.5
 11
277.0
 21
202.5
 12
0.0
 22
0.0
 32
0.0
 14
1.000000000000000E+20
 24
1.000000000000000E+20
 34
1.000000000000000E+20
 15
-1.000000000000000E+20
 25
-1.000000000000000E+20
 35
-1.000000000000000E+20
146
0.0
 13
0.0
 23
0.0
 33
0.0
 16
1.0
 26
0.0
 36
0.0
 17
0.0
 27
1.0
 37
0.0
 76
     0
330
19
1001
ACAD_PSEXT
1000
없음
1000
없음
1000
해당 없음
1000
배치가 새로운 플로터 구성을 선택할 때까지 플롯되지 않습니다.
1070
     0
  0
MATERIAL
  5
3D
102
{ACAD_REACTORS
330
D
102
}
330
D
100
AcDbMaterial
  1
ByBlock
 94
       63
  0
MATERIAL
  5
3C
102
{ACAD_REACTORS
330
D
102
}
330
D
100
AcDbMaterial
  1
ByLayer
 94
       63
  0
MATERIAL
  5
C
102
{ACAD_XDICTIONARY
360
E
102
}
102
{ACAD_REACTORS
330
D
102
}
330
D
100
AcDbMaterial
  1
Global
 43
0.0007999999797903
 43
0.0
 43
0.0
 43
0.0
 43
0.0
 43
0.0007999999797903
 43
0.0
 43
0.0
 43
0.0
 43
0.0
 43
1.0
 43
0.0
 43
0.0
 43
0.0
 43
0.0
 43
1.0
 49
0.0007999999797903
 49
0.0
 49
0.0
 49
0.0
 49
0.0
 49
0.0007999999797903
 49
0.0
 49
0.0
 49
0.0
 49
0.0
 49
1.0
 49
0.0
 49
0.0
 49
0.0
 49
0.0
 49
1.0
142
0.0007999999797903
142
0.0
142
0.0
142
0.0
142
0.0
142
0.0007999999797903
142
0.0
142
0.0
142
0.0
142
0.0
142
1.0
142
0.0
142
0.0
142
0.0
142
0.0
142
1.0
144
0.0007999999797903
144
0.0
144
0.0
144
0.0
144
0.0
144
0.0007999999797903
144
0.0
144
0.0
144
0.0
144
0.0
144
1.0
144
0.0
144
0.0
144
0.0
144
0.0
144
1.0
 94
       63
1001
ACAD
1070
    -1
1070
     3
1070
     0
1000

1071
        0
1070
     0
  0
MLEADERSTYLE
  5
AD
102
{ACAD_REACTORS
330
AE
102
}
330
AE
100
AcDbMLeaderStyle
170
     2
171
     1
172
     0
 90
        5
 40
0.0
 41
0.0
173
     1
 91
-1023410173
340
26
 92
       -1
290
     1
 42
0.5
291
     1
 43
0.5
  3
Standard
 44
2.5
300

342
36
174
     2
178
     2
175
     1
176
     0
 93
-1023410174
 45
2.5
292
     0
297
     0
 46
4.0
343
AF
 94
-1023410174
 47
1.0
 49
1.0
140
1.0
293
     1
141
0.0
294
     1
177
     1
142
1.0
295
     0
296
     0
143
1.0
1001
ACAD_MLEADERVER
1070
     2
  0
MLINESTYLE
  5
41
102
{ACAD_REACTORS
330
3A
102
}
330
3A
100
AcDbMlineStyle
  2
STANDARD
 70
     0
  3

 62
   256
 51
90.0
 52
90.0
 71
     2
 49
0.5
 62
   256
  6
BYLAYER
 49
-0.5
 62
   256
  6
BYLAYER
  0
ACDBPLACEHOLDER
  5
9
102
{ACAD_REACTORS
330
A
102
}
330
A
  0
SCALE
  5
46
102
{ACAD_REACTORS
330
3F
102
}
330
3F
100
AcDbScale
 70
     0
300
1:1
140
1.0
141
1.0
290
     1
  0
SCALE
  5
47
102
{ACAD_REACTORS
330
3F
102
}
330
3F
100
AcDbScale
 70
     0
300
1:2
140
1.0
141
2.0
290
     0
  0
SCALE
  5
48
102
{ACAD_REACTORS
330
3F
102
}
330
3F
100
AcDbScale
 70
     0
300
1:4
140
1.0
141
4.0
290
     0
  0
SCALE
  5
49
102
{ACAD_REACTORS
330
3F
102
}
330
3F
100
AcDbScale
 70
     0
300
1:5
140
1.0
141
5.0
290
     0
  0
SCALE
  5
4A
102
{ACAD_REACTORS
330
3F
102
}
330
3F
100
AcDbScale
 70
     0
300
1:8
140
1.0
141
8.0
290
     0
  0
SCALE
  5
4B
102
{ACAD_REACTORS
330
3F
102
}
330
3F
100
AcDbScale
 70
     0
300
1:10
140
1.0
141
10.0
290
     0
  0
SCALE
  5
4C
102
{ACAD_REACTORS
330
3F
102
}
330
3F
100
AcDbScale
 70
     0
300
1:16
140
1.0
141
16.0
290
     0
  0
SCALE
  5
4D
102
{ACAD_REACTORS
330
3F
102
}
330
3F
100
AcDbScale
 70
     0
300
1:20
140
1.0
141
20.0
290
     0
  0
SCALE
  5
4E
102
{ACAD_REACTORS
330
3F
102
}
330
3F
100
AcDbScale
 70
     0
300
1:30
140
1.0
141
30.0
290
     0
  0
SCALE
  5
4F
102
{ACAD_REACTORS
330
3F
102
}
330
3F
100
AcDbScale
 70
     0
300
1:40
140
1.0
141
40.0
290
     0
  0
SCALE
  5
50
102
{ACAD_REACTORS
330
3F
102
}
330
3F
100
AcDbScale
 70
     0
300
1:50
140
1.0
141
50.0
290
     0
  0
SCALE
  5
51
102
{ACAD_REACTORS
330
3F
102
}
330
3F
100
AcDbScale
 70
     0
300
1:100
140
1.0
141
100.0
290
     0
  0
SCALE
  5
52
102
{ACAD_REACTORS
330
3F
102
}
330
3F
100
AcDbScale
 70
     0
300
2:1
140
2.0
141
1.0
290
     0
  0
SCALE
  5
53
102
{ACAD_REACTORS
330
3F
102
}
330
3F
100
AcDbScale
 70
     0
300
4:1
140
4.0
141
1.0
290
     0
  0
SCALE
  5
54
102
{ACAD_REACTORS
330
3F
102
}
330
3F
100
AcDbScale
 70
     0
300
8:1
140
8.0
141
1.0
290
     0
  0
SCALE
  5
55
102
{ACAD_REACTORS
330
3F
102
}
330
3F
100
AcDbScale
 70
     0
300
10:1
140
10.0
141
1.0
290
     0
  0
SCALE
  5
56
102
{ACAD_REACTORS
330
3F
102
}
330
3F
100
AcDbScale
 70
     0
300
100:1
140
100.0
141
1.0
290
     0
  0
SCALE
  5
57
102
{ACAD_REACTORS
330
3F
102
}
330
3F
100
AcDbScale
 70
     0
300
1/128" = 1'-0"
140
0.0078125
141
12.0
290
     0
  0
SCALE
  5
58
102
{ACAD_REACTORS
330
3F
102
}
330
3F
100
AcDbScale
 70
     0
300
1/64" = 1'-0"
140
0.015625
141
12.0
290
     0
  0
SCALE
  5
59
102
{ACAD_REACTORS
330
3F
102
}
330
3F
100
AcDbScale
 70
     0
300
1/32" = 1'-0"
140
0.03125
141
12.0
290
     0
  0
SCALE
  5
5A
102
{ACAD_REACTORS
330
3F
102
}
330
3F
100
AcDbScale
 70
     0
300
1/16" = 1'-0"
140
0.0625
141
12.0
290
     0
  0
SCALE
  5
5B
102
{ACAD_REACTORS
330
3F
102
}
330
3F
100
AcDbScale
 70
     0
300
3/32" = 1'-0"
140
0.09375
141
12.0
290
     0
  0
SCALE
  5
5C
102
{ACAD_REACTORS
330
3F
102
}
330
3F
100
AcDbScale
 70
     0
300
1/8" = 1'-0"
140
0.125
141
12.0
290
     0
  0
SCALE
  5
5D
102
{ACAD_REACTORS
330
3F
102
}
330
3F
100
AcDbScale
 70
     0
300
3/16" = 1'-0"
140
0.1875
141
12.0
290
     0
  0
SCALE
  5
5E
102
{ACAD_REACTORS
330
3F
102
}
330
3F
100
AcDbScale
 70
     0
300
1/4" = 1'-0"
140
0.25
141
12.0
290
     0
  0
SCALE
  5
5F
102
{ACAD_REACTORS
330
3F
102
}
330
3F
100
AcDbScale
 70
     0
300
3/8" = 1'-0"
140
0.375
141
12.0
290
     0
  0
SCALE
  5
60
102
{ACAD_REACTORS
330
3F
102
}
330
3F
100
AcDbScale
 70
     0
300
1/2" = 1'-0"
140
0.5
141
12.0
290
     0
  0
SCALE
  5
61
102
{ACAD_REACTORS
330
3F
102
}
330
3F
100
AcDbScale
 70
     0
300
3/4" = 1'-0"
140
0.75
141
12.0
290
     0
  0
SCALE
  5
62
102
{ACAD_REACTORS
330
3F
102
}
330
3F
100
AcDbScale
 70
     0
300
1" = 1'-0"
140
1.0
141
12.0
290
     0
  0
SCALE
  5
63
102
{ACAD_REACTORS
330
3F
102
}
330
3F
100
AcDbScale
 70
     0
300
1-1/2" = 1'-0"
140
1.5
141
12.0
290
     0
  0
SCALE
  5
64
102
{ACAD_REACTORS
330
3F
102
}
330
3F
100
AcDbScale
 70
     0
300
3" = 1'-0"
140
3.0
141
12.0
290
     0
  0
SCALE
  5
65
102
{ACAD_REACTORS
330
3F
102
}
330
3F
100
AcDbScale
 70
     0
300
6" = 1'-0"
140
6.0
141
12.0
290
     0
  0
SCALE
  5
66
102
{ACAD_REACTORS
330
3F
102
}
330
3F
100
AcDbScale
 70
     0
300
1'-0" = 1'-0"
140
12.0
141
12.0
290
     0
  0
TABLESTYLE
  5
42
102
{ACAD_XDICTIONARY
360
43
102
}
102
{ACAD_REACTORS
330
40
102
}
330
40
100
AcDbTableStyle
  3
Standard
 70
     0
 71
     0
 40
1.5
 41
1.5
280
     0
281
     0
  7
Standard
140
4.5
170
     2
 62
     0
 63
     7
283
     0
 90
      512
 91
        0
  1

274
    -2
284
     1
 64
     0
275
    -2
285
     1
 65
     0
276
    -2
286
     1
 66
     0
277
    -2
287
     1
 67
     0
278
    -2
288
     1
 68
     0
279
    -2
289
     1
 69
     0
  7
Standard
140
6.0
170
     5
 62
     0
 63
     7
283
     0
 90
      512
 91
        0
  1

274
    -2
284
     1
 64
     0
275
    -2
285
     1
 65
     0
276
    -2
286
     1
 66
     0
277
    -2
287
     1
 67
     0
278
    -2
288
     1
 68
     0
279
    -2
289
     1
 69
     0
  7
Standard
140
4.5
170
     5
 62
     0
 63
     7
283
     0
 90
      512
 91
        0
  1

274
    -2
284
     1
 64
     0
275
    -2
285
     1
 65
     0
276
    -2
286
     1
 66
     0
277
    -2
287
     1
 67
     0
278
    -2
288
     1
 68
     0
279
    -2
289
     1
 69
     0
  0
VISUALSTYLE
  5
2C
102
{ACAD_REACTORS
330
2D
102
}
330
2D
100
AcDbVisualStyle
  2
2dWireframe
 70
     4
 71
     0
 72
     2
 73
     1
 90
        0
 40
-0.6
 41
-30.0
 62
     5
 63
     7
421
 16777215
 74
     1
 91
        4
 64
     7
 65
   257
 75
     1
175
     1
 42
1.0
 92
        0
 66
   257
 43
1.0
 76
     1
 77
     6
 78
     2
 67
     7
 79
     5
170
     0
171
     0
290
     0
174
     0
 93
        1
 44
0.0
173
     0
291
     0
 45
0.0
  0
VISUALSTYLE
  5
5F9
102
{ACAD_REACTORS
330
2D
102
}
330
2D
100
AcDbVisualStyle
  2
3D Hidden
 70
     6
 71
     1
 72
     2
 73
     2
 90
        0
 40
-0.6
 41
-30.0
 62
     5
 63
     7
421
 16777215
 74
     2
 91
        2
 64
     7
 65
   257
 75
     2
175
     1
 42
40.0
 92
        0
 66
   257
 43
1.0
 76
     1
 77
     6
 78
     2
 67
     7
 79
     3
170
     0
171
     0
290
     0
174
     0
 93
        1
 44
0.0
173
     0
291
     0
 45
0.0
  0
VISUALSTYLE
  5
45
102
{ACAD_REACTORS
330
2D
102
}
330
2D
100
AcDbVisualStyle
  2
3dWireframe
 70
     5
 71
     0
 72
     2
 73
     1
 90
        0
 40
-0.6
 41
-30.0
 62
     5
 63
     7
421
 16777215
 74
     1
 91
        4
 64
     7
 65
   257
 75
     1
175
     1
 42
1.0
 92
        0
 66
   257
 43
1.0
 76
     1
 77
     6
 78
     2
 67
     7
 79
     5
170
     0
171
     0
290
     0
174
     0
 93
        1
 44
0.0
173
     0
291
     0
 45
0.0
  0
VISUALSTYLE
  5
5F8
102
{ACAD_REACTORS
330
2D
102
}
330
2D
100
AcDbVisualStyle
  2
Basic
 70
     7
 71
     1
 72
     0
 73
     1
 90
        0
 40
-0.6
 41
-30.0
 62
     5
 63
     7
421
 16777215
 74
     0
 91
        4
 64
     7
 65
   257
 75
     1
175
     1
 42
1.0
 92
        8
 66
     7
 43
1.0
 76
     1
 77
     6
 78
     2
 67
     7
 79
     5
170
     0
171
     0
290
     0
174
     0
 93
        1
 44
0.0
173
     0
291
     1
 45
0.0
  0
VISUALSTYLE
  5
5FC
102
{ACAD_REACTORS
330
2D
102
}
330
2D
100
AcDbVisualStyle
  2
Brighten
 70
    12
 71
     2
 72
     2
 73
     0
 90
        0
 40
-0.6
 41
-30.0
 62
     5
 63
     7
421
 16777215
 74
     1
 91
        4
 64
     7
 65
   257
 75
     1
175
     1
 42
1.0
 92
        8
 66
     7
 43
1.0
 76
     1
 77
     6
 78
     2
 67
     7
 79
     5
170
     0
171
     0
290
     0
174
     0
 93
        1
 44
50.0
173
     0
291
     1
 45
0.0
  0
VISUALSTYLE
  5
600
102
{ACAD_REACTORS
330
2D
102
}
330
2D
100
AcDbVisualStyle
  2
ColorChange
 70
    16
 71
     2
 72
     2
 73
     3
 90
        0
 40
-0.6
 41
-30.0
 62
     5
 63
     8
421
  8421504
 74
     1
 91
        4
 64
     7
 65
   257
 75
     1
175
     1
 42
1.0
 92
        8
 66
     8
424
  8421504
 43
1.0
 76
     1
 77
     6
 78
     2
 67
     7
 79
     5
170
     0
171
     0
290
     0
174
     0
 93
        1
 44
0.0
173
     0
291
     1
 45
0.0
  0
VISUALSTYLE
  5
5FA
102
{ACAD_REACTORS
330
2D
102
}
330
2D
100
AcDbVisualStyle
  2
Conceptual
 70
     9
 71
     3
 72
     2
 73
     0
 90
        0
 40
-0.6
 41
-30.0
 62
     5
 63
     7
421
 16777215
 74
     2
 91
        2
 64
     7
 65
   257
 75
     1
175
     1
 42
40.0
 92
        8
 66
     7
 43
1.0
 76
     1
 77
     6
 78
     2
 67
     7
 79
     3
170
     0
171
     0
290
     0
174
     0
 93
        1
 44
0.0
173
     0
291
     0
 45
0.0
  0
VISUALSTYLE
  5
5FB
102
{ACAD_REACTORS
330
2D
102
}
330
2D
100
AcDbVisualStyle
  2
Dim
 70
    11
 71
     2
 72
     2
 73
     0
 90
        0
 40
-0.6
 41
-30.0
 62
     5
 63
     7
421
 16777215
 74
     1
 91
        4
 64
     7
 65
   257
 75
     1
175
     1
 42
1.0
 92
        8
 66
     7
 43
1.0
 76
     1
 77
     6
 78
     2
 67
     7
 79
     5
170
     0
171
     0
290
     0
174
     0
 93
        1
 44
-50.0
173
     0
291
     1
 45
0.0
  0
VISUALSTYLE
  5
5FF
102
{ACAD_REACTORS
330
2D
102
}
330
2D
100
AcDbVisualStyle
  2
Facepattern
 70
    15
 71
     2
 72
     2
 73
     0
 90
        0
 40
-0.6
 41
-30.0
 62
     5
 63
     7
421
 16777215
 74
     1
 91
        4
 64
     7
 65
   257
 75
     1
175
     1
 42
1.0
 92
        8
 66
     7
 43
1.0
 76
     1
 77
     6
 78
     2
 67
     7
 79
     5
170
     0
171
     0
290
     0
174
     0
 93
        1
 44
0.0
173
     0
291
     1
 45
0.0
  0
VISUALSTYLE
  5
5F4
102
{ACAD_REACTORS
330
2D
102
}
330
2D
100
AcDbVisualStyle
  2
Flat
 70
     0
 71
     2
 72
     1
 73
     1
 90
        2
 40
-0.6
 41
30.0
 62
     5
 63
     7
421
 16777215
 74
     0
 91
        4
 64
     7
 65
   257
 75
     1
175
     1
 42
1.0
 92
        8
 66
     7
 43
1.0
 76
     1
 77
     6
 78
     2
 67
     7
 79
     5
170
     0
171
     0
290
     0
174
     0
 93
       13
 44
0.0
173
     0
291
     1
 45
0.0
  0
VISUALSTYLE
  5
5F5
102
{ACAD_REACTORS
330
2D
102
}
330
2D
100
AcDbVisualStyle
  2
FlatWithEdges
 70
     1
 71
     2
 72
     1
 73
     1
 90
        2
 40
-0.6
 41
30.0
 62
     5
 63
     7
421
 16777215
 74
     1
 91
        4
 64
     7
 65
   257
 75
     1
175
     1
 42
1.0
 92
        0
 66
   257
 43
1.0
 76
     1
 77
     6
 78
     2
 67
     7
 79
     5
170
     0
171
     0
290
     0
174
     0
 93
       13
 44
0.0
173
     0
291
     1
 45
0.0
  0
VISUALSTYLE
  5
5F6
102
{ACAD_REACTORS
330
2D
102
}
330
2D
100
AcDbVisualStyle
  2
Gouraud
 70
     2
 71
     2
 72
     2
 73
     1
 90
        2
 40
-0.6
 41
30.0
 62
     5
 63
     7
421
 16777215
 74
     0
 91
        4
 64
     7
 65
   257
 75
     1
175
     1
 42
1.0
 92
        0
 66
     7
 43
1.0
 76
     1
 77
     6
 78
     2
 67
     7
 79
     5
170
     0
171
     0
290
     0
174
     0
 93
       13
 44
0.0
173
     0
291
     1
 45
0.0
  0
VISUALSTYLE
  5
5F7
102
{ACAD_REACTORS
330
2D
102
}
330
2D
100
AcDbVisualStyle
  2
GouraudWithEdges
 70
     3
 71
     2
 72
     2
 73
     1
 90
        2
 40
-0.6
 41
30.0
 62
     5
 63
     7
421
 16777215
 74
     1
 91
        4
 64
     7
 65
   257
 75
     1
175
     1
 42
1.0
 92
        0
 66
   257
 43
1.0
 76
     1
 77
     6
 78
     2
 67
     7
 79
     5
170
     0
171
     0
290
     0
174
     0
 93
       13
 44
0.0
173
     0
291
     1
 45
0.0
  0
VISUALSTYLE
  5
5FE
102
{ACAD_REACTORS
330
2D
102
}
330
2D
100
AcDbVisualStyle
  2
Linepattern
 70
    14
 71
     2
 72
     2
 73
     0
 90
        0
 40
-0.6
 41
-30.0
 62
     5
 63
     7
421
 16777215
 74
     1
 91
        4
 64
     7
 65
   257
 75
     7
175
     7
 42
1.0
 92
        8
 66
     7
 43
1.0
 76
     1
 77
     6
 78
     2
 67
     7
 79
     5
170
     0
171
     0
290
     0
174
     0
 93
        1
 44
0.0
173
     0
291
     1
 45
0.0
  0
VISUALSTYLE
  5
44
102
{ACAD_REACTORS
330
2D
102
}
330
2D
100
AcDbVisualStyle
  2
Realistic
 70
     8
 71
     2
 72
     2
 73
     1
 90
        0
 40
-0.6
 41
-30.0
 62
     5
 63
     7
421
 16777215
 74
     1
 91
        0
 64
     7
 65
   257
 75
     1
175
     1
 42
1.0
 92
        8
 66
     8
424
  7895160
 43
1.0
 76
     1
 77
     6
 78
     2
 67
     7
 79
     5
170
     0
171
     0
290
     0
174
     0
 93
       13
 44
0.0
173
     0
291
     0
 45
0.0
  0
VISUALSTYLE
  5
5FD
102
{ACAD_REACTORS
330
2D
102
}
330
2D
100
AcDbVisualStyle
  2
Thicken
 70
    13
 71
     2
 72
     2
 73
     0
 90
        0
 40
-0.6
 41
-30.0
 62
     5
 63
     7
421
 16777215
 74
     1
 91
        4
 64
     7
 65
   257
 75
     1
175
     1
 42
1.0
 92
       12
 66
     7
 43
1.0
 76
     1
 77
     6
 78
     2
 67
     7
 79
     5
170
     0
171
     0
290
     0
174
     0
 93
        1
 44
0.0
173
     0
291
     1
 45
0.0
  0
DICTIONARYVAR
  5
5EF
102
{ACAD_REACTORS
330
5EB
102
}
330
5EB
100
DictionaryVariables
280
     0
  1
1:1
  0
DICTIONARYVAR
  5
5ED
102
{ACAD_REACTORS
330
5EB
102
}
330
5EB
100
DictionaryVariables
280
     0
  1
STANDARD
  0
DICTIONARYVAR
  5
5EC
102
{ACAD_REACTORS
330
5EB
102
}
330
5EB
100
DictionaryVariables
280
     0
  1
STANDARD
  0
DICTIONARYVAR
  5
5F0
102
{ACAD_REACTORS
330
5EB
102
}
330
5EB
100
DictionaryVariables
280
     0
  1
2
  0
DICTIONARYVAR
  5
5EE
102
{ACAD_REACTORS
330
5EB
102
}
330
5EB
100
DictionaryVariables
280
     0
  1
1
  0
XRECORD
  5
24961B
102
{ACAD_REACTORS
330
24961A
102
}
330
24961A
100
AcDbXrecord
280
     1
330
0
330
0
330
0
330
0
330
0
330
0
330
0
330
0
  0
DICTIONARY
  5
1D
330
1C
100
AcDbDictionary
280
     1
281
     1
  3
ADSK_XREC_LAYOUTTHUMBNAIL
360
1E
  0
DICTIONARY
  5
E
330
C
100
AcDbDictionary
280
     1
281
     1
  3
BUMPTILE
360
F
  3
DIFFUSETILE
360
10
  3
OPACITYTILE
360
11
  3
REFLECTIONTILE
360
12
  0
DICTIONARY
  5
43
330
42
100
AcDbDictionary
280
     1
281
     1
  3
ACAD_ROUNDTRIP_2008_TABLESTYLE_CELLSTYLEMAP
360
27FAC5
  0
XRECORD
  5
1E
102
{ACAD_REACTORS
330
1D
102
}
330
1D
100
AcDbXrecord
280
     1
310
28000000B40000007F00000001000800000000004C59000000000000000000000001000000000000FFFFFF0000000000FFFFFF000000000000000000000000000000000000000000000000000000000000000000330000006600000099000000CC000000FF00000000330000333300006633000099330000CC330000FF3300
310
0000660000336600006666000099660000CC660000FF66000000990000339900006699000099990000CC990000FF99000000CC000033CC000066CC000099CC0000CCCC0000FFCC000000FF000033FF000066FF000099FF0000CCFF0000FFFF000000003300330033006600330099003300CC003300FF003300003333003333
310
33006633330099333300CC333300FF33330000663300336633006666330099663300CC663300FF66330000993300339933006699330099993300CC993300FF99330000CC330033CC330066CC330099CC3300CCCC3300FFCC330000FF330033FF330066FF330099FF3300CCFF3300FFFF330000006600330066006600660099
310
006600CC006600FF00660000336600333366006633660099336600CC336600FF33660000666600336666006666660099666600CC666600FF66660000996600339966006699660099996600CC996600FF99660000CC660033CC660066CC660099CC6600CCCC6600FFCC660000FF660033FF660066FF660099FF6600CCFF6600
310
FFFF660000009900330099006600990099009900CC009900FF00990000339900333399006633990099339900CC339900FF33990000669900336699006666990099669900CC669900FF66990000999900339999006699990099999900CC999900FF99990000CC990033CC990066CC990099CC9900CCCC9900FFCC990000FF99
310
0033FF990066FF990099FF9900CCFF9900FFFF99000000CC003300CC006600CC009900CC00CC00CC00FF00CC000033CC003333CC006633CC009933CC00CC33CC00FF33CC000066CC003366CC006666CC009966CC00CC66CC00FF66CC000099CC003399CC006699CC009999CC00CC99CC00FF99CC0000CCCC0033CCCC0066CC
310
CC0099CCCC00CCCCCC00FFCCCC0000FFCC0033FFCC0066FFCC0099FFCC00CCFFCC00FFFFCC000000FF003300FF006600FF009900FF00CC00FF00FF00FF000033FF003333FF006633FF009933FF00CC33FF00FF33FF000066FF003366FF006666FF009966FF00CC66FF00FF66FF000099FF003399FF006699FF009999FF00CC
310
99FF00FF99FF0000CCFF0033CCFF0066CCFF0099CCFF00CCCCFF00FFCCFF0000FFFF0033FFFF0066FFFF0099FFFF00CCFFFF00FFFFFF00000000000D0D0D001A1A1A00282828003535350043434300505050005D5D5D006B6B6B00787878008686860093939300A1A1A100AEAEAE00BBBBBB00C9C9C900D6D6D600E4E4E400
310
F1F1F100FFFFFF0000000000000000000000000000000000000000000000000000000000000000000000000000000000EFE2E2E2E2E2E2E2E2E2E2E2E2E2E2E2E2E2E2E2E2E2E2E2E2E2E2E2E2E2E2E2E2E2E2E2E2E2E2E2E2E2E2E2E2E2E2E2E2E2E2E2E2E2E2E2E2E2E2E2E2E2E2E2E2E2E2E2E2E2E2E2E2E2E2E2E2E2E2
310
E2E2E2E2E2E2E2E2E2E2E2E2E2E2E2E2E2E2E2E2E2E2E2E2E2E2E2E2E2E2E2E2E2E2E2E2E2E2E2E2E2E2E2E2E2E2E2E2E2E2E2E2E2E2E2E2E2E2E2E2E2E2E2E2E2E2E2E2E2E2E2E2E2E2E2E2E2E2E2E2E2E2E2E2E2E2E2E2E2E2E2E2E2E2E2E2E2E2E2E2E2EFE2F5F5F5F5F5F5F5F5F5F5F5F5F5F5F5F5F5F5F5F5F5F5F5F5
310
F5F5F5F5F5F5F5F5F5F5F5F5F5F5F5F5F5F5F5F5F5F5F5F5F5F5F5F5F5F5F5F5F5F5F5F5F5F5F5F5F5F5F5F5F5F5F5F5F5F5F5F5F5F5F5F5F5F5F5F5F5F5F5F5F5F5F5F5F5F5F5F5F5F5F5F5F5F5F5F5F5F5F5F5F5F5F5F5F5F5F5F5F5F5F5F5F5F5F5F5F5F5F5F5F5F5F5F5F5F5F5F5F5F5F5F5F5F5F5F5F5F5F5F5F5F5F5
310
F5F5F5F5F5F5F5F5F5F5F5F5F5F5F5F5F5F5F5F5F5F5F5F5F5E2E2EFE2F5F5F5F5F5F5F5F5F5F5F5F5F5F5F5F5F5F5F5F5F5F5F5F5F5F5F5F5F5F5F5F5F5F5F5F5F5F5F5F5F5F5F5F5F5F5F5F5F5F5F5F5F5F5F5F5F5F5F5F5F5F5F5F5F5F5F5F5F5F5F5F5F5F5F5F5F5F5F5F5F5F5F5F5F5F5F5F5F5F5F5F5F5F5F5F5F5F5
310
F5F5F5F5F5F5F5F5F5F5F5F5F5F5F5F5F5F5F5F5F5F5F5F5F5F5F5F5F5F5F5F5F5F5F5F5F5F5F5F5F5F5F5F5F5F5F5F5F5F5F5F5F5F5F5F5F5F5F5F5F5F5F5F5F5F5F5F5F5F5F5F5F5F5F5F5F5F5E2E2EFE2F5F5F5F5F5F5F5F5F5F5F5F5F5F5F5F5F5F5F5F5F5F5F5F5F5F5F5F5F5F5F5F5F5F5F5F5F5F5F5F5F5F5F5F5F5
310
F5F5F5F5F5F5F5F5F5F5F5F5F5F5F5F5F5F5F5F5F5F5F5F5F5F5F5F5F5F5F5F5F5F5F5F5F5F5F5F5F5F5F5F5F5F5F5F5F5F5F5F5F5F5F5F5F5F5F5F5F5F5F5F5F5F5F5F5F5F5F5F5F5F5F5F5F5F5F5F5F5F5F5F5F5F5F5F5F5F5F5F5F5F5F5F5F5F5F5F5F5F5F5F5F5F5F5F5F5F5F5F5F5F5F5F5F5F5F5F5F5F5F5F5F5F5F5
310
F5F5F5F5E2E2EFE2F5F5F5F5F5F5F5F5F5F5F5F5F5F5F5F5F5F5F5F5F5F5F5F5F5F5F5F5F5F5F5F5F5F5F5F5F5F5F5F5F5F5F5F5F5F5F5F5F5F5F5F5F5F5F5F5F5F5F5F5F5F5F5F5F5F5F5F5F5F5F5F5F5F5F5F5F5F5F5F5F5F5F5F5F5F5F5F5F5F5F5F5F5F5F5F5F5F5F5F5F5F5F5F5F5F5F5F5F5F5F5F5F5F5F5F5F5F5F5
310
F5F5F5F5F5F5F5F5F5F5F5F5F5F5F5F5F5F5F5F5F5F5F5F5F5F5F5F5F5F5F5F5F5F5F5F5F5F5F5F5F5F5F5F5F5F5F5F5F5F5F5F5F5F5F5F5F5E2E2EFE2F5F5F5F5F5F5F5F5F5F5F5E2E2E2E2E2E2E2E2E2F5F5F5F5F5F5F5F5F5E2E2E2E2E2E2E2E2E2E2E2E2E2E2E2E2F5F5F5F5F5F5F5F5F5E2E2E2E2E2E2E2E2E2E2E2E2
310
E2E2E2E2E2F5F5F5F5F5F5F5F5F5E2E2E2E2E2E2E2E2E2E2E2E2E2E2E2E2F5F5F5F5F5F5F5F5F5E2E2E2E2E2E2E2E2E2E2E2E2E2E2E2E2E2F5F5F5F5F5F5F5F5F5E2E2E2E2E2E2E2E2E2E2E2E2E2E2E2E2F5F5F5F5F5F5F5F5F5E2E2E2E2E2E2E2E2E2F5F5F5F5F5F5F5F5F5F5F5E2E2EFE2F5F5F5F5F5F5F5F5F5F5F5E2F5
310
F5F5F5F5F5F5F5F5F5F5F5F5F5F5F5F5F5F5F5F5F5F5F5F5F5F5F5F5F5F5F5F5F5F5F5F5F5F5F5F5F5F5F5F5F5F5F5F5F5F5F5F5F5F5F5F5F5F5F5F5F5F5F5F5F5F5F5F5F5F5F5F5F5F5F5F5F5F5F5F5F5F5F5F5F5F5F5F5F5F5F5F5F5F5F5F5F5F5F5F5F5F5F5F5F5F5F5F5F5F5F5F5F5F5F5F5F5F5F5F5F5F5F5F5F5F5F5
310
F5F5F5F5F5F5F5F5F5F5F5F5F5F5F5F5F5F5F5F5F5F5F5F5E2F5F5F5F5F5F5F5F5F5F5F5E2E2EFE2F5F5F5F5F5F5F5F5F5F5F5E2F5F5F5F5F5F5F5F5F5F5F5F5F5F5F5F5F5F5F5F5F5F5F5F5F5F5F5F5F5F5F5F5F5F5F5F5F5F5F5F5F5F5F5F5F5F5F5F5F5F5F5F5F5F5F5F5F5F5F5F5F5F5F5F5F5F5F5F5F5F5F5F5F5F5F5
310
F5F5F5F5F5F5F5F5F5F5F5F5F5F5F5F5F5F5F5F5F5F5F5F5F5F5F5F5F5F5F5F5F5F5F5F5F5F5F5F5F5F5F5F5F5F5F5F5F5F5F5F5F5F5F5F5F5F5F5F5F5F5F5F5F5F5F5F5F5F5F5F5F5F5F5F5F5E2F5F5F5F5F5F5F5F5F5F5F5E2E2EFE2F5F5F5F5F5F5F5F5F5F5F5E2F5F5F5F5F5F5F5F5F5F5F5F5F5F5F5F5F5F5F5F5F5F5
310
F5F5F5F5F5F5F5F5F5F5F5F5F5F5F5F5F5F5F5F5F5F5F5F5F5F5F5F5F5F5F5F5F5F5F5F5F5F5F5F5F5F5F5F5F5F5F5F5F5F5F5F5F5F5F5F5F5F5F5F5F5F5F5F5F5F5F5F5F5F5F5F5F5F5F5F5F5F5F5F5F5F5F5F5F5F5F5F5F5F5F5F5F5F5F5F5F5F5F5F5F5F5F5F5F5F5F5F5F5F5F5F5F5F5F5F5F5F5F5F5F5F5F5F5F5F5F5
310
F5F5F5E2F5F5F5F5F5F5F5F5F5F5F5E2E2EFE2F5F5F5F5F5F5F5F5F5F5F5E2F5F5F5F5F5F5F5F5F5F5F5F5F5F5F5F5F5F5F5F5F5F5F5F5F5F5F5F5F5F5F5F5F5F5F5F5F5F5F5F5F5F5F5F5F5F5F5F5F5F5F5F5F5F5F5F5F5F5F5F5F5F5F5F5F5F5F5F5F5F5F5F5F5F5F5F5F5F5F5F5F5F5F5F5F5F5F5F5F5F5F5F5F5F5F5F5
310
F5F5F5F5F5F5F5F5F5F5F5F5F5F5F5F5F5F5F5F5F5F5F5F5F5F5F5F5F5F5F5F5F5F5F5F5F5F5F5F5F5F5F5F5F5F5F5F5F5F5F5F5F5F5F5F5E2F5F5F5F5F5F5F5F5F5F5F5E2E2EFE2F5F5F5F5F5F5F5F5F5F5F5E2F5F5F5F5F5F5F5F5F5F5F5F5F5F5F5F5F5F5F5F5F5F5F5F5F5F5F5F5F5F5F5F5F5F5F5F5F5F5F5F5F5F5F5
310
F5F5F5F5F5F5F5F5F5F5F5F5F5F5F5F5F5F5F5F5F5F5F5F5F5F5F5F5F5F5F5F5F5F5F5F5F5F5F5F5F5F5F5F5F5F5F5F5F5F5F5F5F5F5F5F5F5F5F5F5F5F5F5F5F5F5F5F5F5F5F5F5F5F5F5F5F5F5F5F5F5F5F5F5F5F5F5F5F5F5F5F5F5F5F5F5F5F5F5F5F5F5F5F5F5F5F5F5F5E2F5F5F5F5F5F5F5F5F5F5F5E2E2EFE2F5F5
310
F5F5F5F5F5F5F5F5F5E2F5F5F5F5F5F5F5F5F5F5F5F5F5F5F5F5F5F5F5F5F5F5F5F5F5F5F5F5F5F5F5F5F5F5F5F5F5F5F5F5F5F5F5F5F5F5F5F5F5F5F5F5F5F5F5F5F5F5F5F5F5F5F5F5F5F5F5F5F5F5F5F5F5F5F5F5F5F5F5F5F5F5F5F5F5F5F5F5F5F5F5F5F5F5F5F5F5F5F5F5F5F5F5F5F5F5F5F5F5F5F5F5F5F5F5F5F5
310
F5F5F5F5F5F5F5F5F5F5F5F5F5F5F5F5F5F5F5F5F5F5F5F5F5F5F5F5F5F5F5F5F5F5F5E2F5F5F5F5F5F5F5F5F5F5F5E2E2EFE2F5F5F5F5F5F5F5F5F5F5F5E2F5F5F5F5F5F5F5F5F5F5F5F5F5F5F5F5F5F5F5F5F5F5F5F5F5F5F5F5F5F5F5F5F5F5F5F5F5F5F5F5F5F5F5F5F5F5F5F5F5F5F5F5F5F5F5F5F5F5F5F5F5F5F5F5
310
F5F5F5F5F5F5F5F5F5F5F5F5F5F5F5F5F5F5F5F5F5F5F5F5F5F5F5F5F5F5F5F5F5F5F5F5F5F5F5F5F5F5F5F5F5F5F5F5F5F5F5F5F5F5F5F5F5F5F5F5F5F5F5F5F5F5F5F5F5F5F5F5F5F5F5F5F5F5F5F5F5F5F5F5F5F5F5F5E2F5F5F5F5F5F5F5F5F5F5F5E2E2EFE2F5F5F5F5F5F5F5F5F5F5F5F5F5F5F5F5F5F5F5F5F5F5F5
310
F5F5F5F5F5F5F5F5F5F5F5F5F5F5F5F5F5F5F5F5F5F5F5F5F5F5F5F5F5F5F5F5F5F5F5F5F5F5F5F5F5F5F5F5F5F5F5F5F5F5F5F5F5F5F5F5F5F5F5F5F5F5F5F5F5F5F5F5F5F5F5F5F5F5F5F5F5F5F5F5F5F5F5F5F5F5F5F5F5F5F5F5F5F5F5F5F5F5F5F5F5F5F5F5F5F5F5F5F5F5F5F5F5F5F5F5F5F5F5F5F5F5F5F5F5F5F5
310
F5F5F5F5F5F5F5F5F5F5F5F5F5F5F5F5F5F5F5F5F5F5F5F5F5F5E2E2EFE2F5F5F5F5F5F5F5F5F5F5F5F5F5F5F5F5F5F5F5F5F5F5F5F5F5F5F5F5F5F5F5F5F5F5F5F5F5F5F5F5F5F5F5F5F5F5F5F5F5F5F5F5F5F5F5F5F5F5F5F5F5F5F5F5F5F5F5F5F5F5F5F5F5F5F5F5F5F5F5F5F5F5F5F5F5F5F5F5F5F5F5F5F5F5F5F5F5
310
F5F5F5F5F5F5F5F5F5F5F5F5F5F5F5F5F5F5F5F5F5F5F5F5F5F5F5F5F5F5F5F5F5F5F5F5F5F5F5F5F5F5F5F5F5F5F5F5F5F5F5F5F5F5F5F5F5F5F5F5F5F5F5F5F5F5F5F5F5F5F5F5F5F5F5F5F5F5F5E2E2EFE2F5F5F5F5F5F5F5F5F5F5F5F5F5F5F5F5F5F5F5F5F5F5F5F5F5F5F5F5F5F5F5F5F5F5F5F5F5F5F5F5F5F5F5F5
310
F5F5F5F5F5F5F5F5F5F5F5F5F5F5F5F5F5F5F5F5F5F5F5F5F5F5F5F5F5F5F5F5F5F5F5F5F5F5F5F5F5F5F5F5F5F5F5F5F5F5F5F5F5F5F5F5F5F5F5F5F5F5F5F5F5F5F5F5F5F5F5F5F5F5F5F5F5F5F5F5F5F5F5F5F5F5F5F5F5F5F5F5F5F5F5F5F5F5F5F5F5F5F5F5F5F5F5F5F5F5F5F5F5F5F5F5F5F5F5F5F5F5F5F5F5F5F5
310
F5F5F5F5F5E2E2EFE2F5F5F5F5F5F5F5F5F5F5F5F5F5F5F5F5F5F5F5F5F5F5F5F5F5F5F5F5F5F5F5F5F5F5F5F5F5F5F5F5F5F5F5F5F5F5F5F5F5F5F5F5F5F5F5F5F5F5F5F5F5F5F5F5F5F5F5F5F5F5F5F5F5F5F5F5F5F5F5F5F5F5F5F5F5F5F5F5F5F5F5F5F5F5F5F5F5F5F5F5F5F5F5F5F5F5F5F5F5F5F5F5F5F5F5F5F5F5
310
F5F5F5F5F5F5F5F5F5F5F5F5F5F5F5F5F5F5F5F5F5F5F5F5F5F5F5F5F5F5F5F5F5F5F5F5F5F5F5F5F5F5F5F5F5F5F5F5F5F5F5F5F5F5F5F5F5F5E2E2EFE2F5F5F5F5F5F5F5F5F5F5F5F5F5F5F5F5F5F5F5F5F5F5F5F5F5F5F5F5F5F5F5F5F5F5F5F5F5F5F5F5F5F5F5F5F5F5F5F5F5F5F5F5F5F5F5F5F5F5F5F5F5F5F5F5F5
310
F5F5F5F5F5F5F5F5F5F5F5F5F5F5F5F5F5F5F5F5F5F5F5F5F5F5F5F5F5F5F5F5F5F5F5F5F5F5F5F5F5F5F5F5F5F5F5F5F5F5F5F5F5F5F5F5F5F5F5F5F5F5F5F5F5F5F5F5F5F5F5F5F5F5F5F5F5F5F5F5F5F5F5F5F5F5F5F5F5F5F5F5F5F5F5F5F5F5F5F5F5F5F5F5F5F5F5F5F5F5F5E2E2EFE2F5F5F5F5F5F5F5F5F5F5F5F5
310
F5F5F5F5F5F5F5F5F5F5F5F5F5F5F5F5F5F5F5F5F5F5F5F5F5F5F5F5F5F5F5F5F5F5F5F5F5F5F5F5F5F5F5F5F5F5F5F5F5F5F5F5F5F5F5F5F5F5F5F5F5F5F5F5F5F5F5F5F5F5F5F5F5F5F5F5F5F5F5F5F5F5F5F5F5F5F5F5F5F5F5F5F5F5F5F5F5F5F5F5F5F5F5F5F5F5F5F5F5F5F5F5F5F5F5F5F5F5F5F5F5F5F5F5F5F5F5
310
F5F5F5F5F5F5F5F5F5F5F5F5F5F5F5F5F5F5F5F5F5F5F5F5F5F5F5F5F5F5F5F5F5F5F5F5F5E2E2EFE2F5F5F5F5F5F5F5F5F5F5F5F5F5F5F5F5F5F5F5F5F5F5F5F5F5F5F5F5F5F5F5F5F5F5F5F5F5F5F5F5F5F5F5F5F5F5F5F5F5F5F5F5F5F5F5F5F5F5F5F5F5F5F5F5F5F5F5F5F5F5F5F5F5F5F5F5F5F5F5F5F5F5F5F5F5F5
310
F5F5F5F5F5F5F5F5F5F5F5F5F5F5F5F5F5F5F5F5F5F5F5F5F5F5F5F5F5F5F5F5F5F5F5F5F5F5F5F5F5F5F5F5F5F5F5F5F5F5F5F5F5F5F5F5F5F5F5F5F5F5F5F5F5F5F5F5F5F5F5F5F5F5F5F5F5F5F5F5F5F5F5F5F5F5F5F5F5F5E2E2EFE2F5F5F5F5F5F5F5F5F5F5F5F5F5F5F5F5F5F5F5F5F5F5F5F5F5F5F5F5F5F5F5F5F5
310
F5F5F5F5F5F5F5F5F5F5F5F5F5F5F5F5F5F5F5F5F5F5F5F5F5F5F5F5F5F5F5F5F5F5F5F5F5F5F5F5F5F5F5F5F5F5F5F5F5F5F5F5F5F5F5F5F5F5F5F5F5F5F5F5F5F5F5F5F5F5F5F5F5F5F5F5F5F5F5F5F5F5F5F5F5F5F5F5F5F5F5F5F5F5F5F5F5F5F5F5F5F5F5F5F5F5F5F5F5F5F5F5F5F5F5F5F5F5F5F5F5F5F5F5F5F5F5
310
F5F5F5F5F5F5F5F5F5F5F5F5F5F5F5F5E2E2EFE2F5F5F5F5F5F5F5F5F5F5F5E2F5F5F5F5F5F5F5F5F5F5F5F5F5F5F5F5F5F5F5F5F5F5F5F5F5F5F5F5F5F5F5F5F5F5F5F5F5F5F5F5F5F5F5F5F5F5F5F5F5F5F5F5F5F5F5F5F5F5F5F5F5F5F5F5F5F5F5F5F5F5F5F5F5F5F5F5F5F5F5F5F5F5F5F5F5F5F5F5F5F5F5F5F5F5F5
310
F5F5F5F5F5F5F5F5F5F5F5F5F5F5F5F5F5F5F5F5F5F5F5F5F5F5F5F5F5F5F5F5F5F5F5F5F5F5F5F5F5F5F5F5F5F5F5F5F5F5F5F5F5F5F5F5F5E2F5F5F5F5F5F5F5F5F5F5F5E2E2EFE2F5F5F5F5F5F5F5F5F5F5F5E2F5F5F5F5F5F5F5F5F5F5F5F5F5F5F5F5F5F5F5F5F5F5F5F5F5F5F5F5F5F5F5F5F5F5F5F5F5F5F5F5F5F5
310
F5F5F5F5F5F5F5F5F5F5F5F5F5F5F5F5F5F5F5F5F5F5F5F5F5F5F5F5F5F5F5F5F5F5F5F5F5F5F5F5F5F5F5F5F5F5F5F5F5F5F5F5F5F5F5F5F5F5F5F5F5F5F5F5F5F5F5F5F5F5F5F5F5F5F5F5F5F5F5F5F5F5F5F5F5F5F5F5F5F5F5F5F5F5F5F5F5F5F5F5F5F5F5F5F5F5F5F5F5F5E2F5F5F5F5F5F5F5F5F5F5F5E2E2EFE2F5
310
F5F5F5F5F5F5F5F5F5F5E2F5F5F5F5F5F5F5F5F5F5F5F5F5F5F5F5F5F5F5F5F5F5F5F5F5F5F5F5F5F5F5F5F5F5F5F5F5F5F5F5F5F5F5F5F5F5F5F5F5F5F5F5F5F5F5F5F5F5F5F5F5F5F5F5F5F5F5F5F5F5F5F5F5F5F5F5F5F5F5F5F5F5F5F5F5F5F5F5F5F5F5F5F5F5F5F5F5F5F5F5F5F5F5F5F5F5F5F5F5F5F5F5F5F5F5F5
310
F5F5F5F5F5F5F5F5F5F5F5F5F5F5F5F5F5F5F5F5F5F5F5F5F5F5F5F5F5F5F5F5F5F5F5F5E2F5F5F5F5F5F5F5F5F5F5F5E2E2EFE2F5F5F5F5F5F5F5F5F5F5F5E2F5F5F5F5F5F5F5F5F5F5F5F5F5F5F5F5F5F5F5F5F5F5F5F5F5F5F5F5F5F5F5F5F5F5F5F5F5F5F5F5F5F5F5F5F5F5F5F5F5F5F5F5F5F5F5F5F5F5F5F5F5F5F5
310
F5F5F5F5F5F5F5F5F5F5F5F5F5F5F5F5F5F5F5F5F5F5F5F5F5F5F5F5F5F5F5F5F5F5F5F5F5F5F5F5F5F5F5F5F5F5F5F5F5F5F5F5F5F5F5F5F5F5F5F5F5F5F5F5F5F5F5F5F5F5F5F5F5F5F5F5F5F5F5F5F5F5F5F5F5F5F5F5F5E2F5F5F5F5F5F5F5F5F5F5F5E2E2EFE2F5F5F5F5F5F5F5F5F5F5F5E2F5F5F5F5F5F5F5F5F5F5
310
F5F5F5F5F5F5F5F5F5F5F5F5F5F5F5F5F5F5F5F5F5F5F5F5F5F5F5F5F5F5F5F5F5F5F5F5F5F5F5F5F5F5F5F5F5F5F5F5F5F5F5F5F5F5F5F5F5F5F5F5F5F5F5F5F5F5F5F5F5F5F5F5F5F5F5F5F5F5F5F5F5F5F5F5F5F5F5F5F5F5F5F5F5F5F5F5F5F5F5F5F5F5F5F5F5F5F5F5F5F5F5F5F5F5F5F5F5F5F5F5F5F5F5F5F5F5F5
310
F5F5F5F5F5F5F5F5F5F5F5F5F5F5F5E2F5F5F5F5F5F5F5F5F5F5F5E2E2EFE2F5F5F5F5F5F5F5F5F5F5F5E2F5F5F5F5F5F5F5F5F5F5F5F5F5F5F5F5F5F5F5F5F5F5F5F5F5F5F5F5F5F5F5F5F5F5F5F5F5F5F5F5F5F5F5F5F5F5F5F5F5F5F5F5F5F5F5F5F5F5F5F5F5F5F5F5F5F5F5F5F5F5F5F5F5F5F5F5F5F5F5F5F5F5F5F5
310
F5F5F5F5F5F5F5F5F5F5F5F5F5F5F5F5F5F5F5F5F5F5F5F5F5F5F5F5F5F5F5F5F5F5F5F5F5F5F5F5F5F5F5F5F5F5F5F5F5F5F5F5F5F5F5F5F5F5F5F5F5F5F5F5F5F5F5F5E2F5F5F5F5F5F5F5F5F5F5F5E2E2EFE2F5F5F5F5F5F5F5F5F5F5F5E2F5F5F5F5F5F5F5F5F5F5F5F5F5F5F5F5F5F5F5F5F5F5F5F5F5F5F5F5F5F5F5
310
F5F5F5F5F5F5F5F5F5F5F5F5F5F5F5F5F5F5F5F5F5F5F5F5F5F5F5F5F5F5F5F5F5F5F5F5F5F5F5F5F5F5F5F5F5F5F5F5F5F5F5F5F5F5F5F5F5F5F5F5F5F5F5F5F5F5F5F5F5F5F5F5F5F5F5F5F5F5F5F5F5F5F5F5F5F5F5F5F5F5F5F5F5F5F5F5F5F5F5F5F5F5F5F5F5F5F5F5F5F5F5F5F5F5F5F5F5F5F5F5F5E2F5F5F5F5F5
310
F5F5F5F5F5F5E2E2EFE2F5F5F5F5F5F5F5F5F5F5F5E2F5F5F5F5F5F5F5F5F5F5F5F5F5F5F5F5F5F5F5F5F5F5F5F5F5F5F5F5F5F5F5F5F5F5F5F5F5F5F5F5F5F5F5F5F5F5F5F5F5F5F5F5F5F5F5F5F5F5F5F5F5F5F5F5F5F5F5F5F5F5F5F5F5F5F5F5F5F5F5F5F5F5F5F5F5F5F5F5F5F5F5F5F5F5F5F5F5F5F5F5F5F5F5F5F5
310
F5F5F5F5F5F5F5F5F5F5F5F5F5F5F5F5F5F5F5F5F5F5F5F5F5F5F5F5F5F5F5F5F5F5F5F5F5F5F5F5F5F5F5F5F5F5F5E2F5F5F5F5F5F5F5F5F5F5F5E2E2EFE2F5F5F5F5F5F5F5F5F5F5F5E2F5F5F5F5F5F5F5F5F5F5F5F5F5F5F5F5F5F5F5F5F5F5F5F5F5F5F5F5F5F5F5F5F5F5F5F5F5F5F5F5F5F5F5F5F5F5F5F5F5F5F5F5
310
F5F5F5F5F5F5F5F5F5F5F5F5F5F5F5F5F5F5F5F5F5F5F5F5F5F5F5F5F5F5F5F5F5F5F5F5F5F5F5F5F5F5F5F5F5F5F5F5F5F5F5F5F5F5F5F5F5F5F5F5F5F5F5F5F5F5F5F5F5F5F5F5F5F5F5F5F5F5F5F5F5F5F5F5F5F5F5F5F5F5F5F5F5F5F5F5F5F5F5F5E2F5F5F5F5F5F5F5F5F5F5F5E2E2EFE2F5F5F5F5F5F5F5F5F5F5F5
310
E2F5F5F5F5F5F5F5F5F5F5F5F5F5F5F5F5F5F5F5F5F5F5F5F5F5F5F5F5F5F5F5F5F5F5F5F5F5F5F5F5F5F5F5F5F5F5F5F5F5F5F5F5F5F5F5F5F5F5F5F5F5F5F5F5F5F5F5F5F5F5F5F5F5F5F5F5F5F5F5F5F5F5F5F5F5F5F5F5F5F5F5F5F5F5F5F5F5F5F5F5F5F5F5F5F5F5F5F5F5F5F5F5F5F5F5F5F5F5F5F5F5F5F5F5F5F5
310
F5F5F5F5F5F5F5F5F5F5F5F5F5F5F5F5F5F5F5F5F5F5F5F5F5F5E2F5F5F5F5F5F5F5F5F5F5F5E2E2EFE2F5F5F5F5F5F5F5F5F5F5F5E2F5F5F5F5F5F5F5F5F5F5F5F5F5F5F5F5F5F5F5F5F5F5F5F5F5F5F5F5F5F5F5F5F5F5F5F5F5F5F5F5F5F5F5F5F5F5F5F5F5F5F5F5F5F5F5F5F5F5F5F5F5F5F5F5F5F5F5F5F5F5F5F5F5
310
F5F5F5F5F5F5F5F5F5F5F5F5F5F5F5F5F5F5F5F5F5F5F5F5F5F5F5F5F5F5F5F5F5F5F5F5F5F5F5F5F5F5F5F5F5F5F5F5F5F5F5F5F5F5F5F5F5F5F5F5F5F5F5F5F5F5F5F5F5F5F5F5F5F5F5F5F5F5F5E2F5F5F5F5F5F5F5F5F5F5F5E2E2EFE2F5F5F5F5F5F5F5F5F5F5F5E2F5F5F5F5F5F5F5F5F5F5F5F5F5F5F5F5F5F5F5F5
310
F5F5F5F5F5F5F5F5F5F5F5F5F5F5F5F5F5F5F5F5F5F5F5F5F5F5F5F5F5F5F5F5F5F5F5F5F5F5F5F5F5F5F5F5F5F5F5F5F5F5F5F5F5F5F5F5F5F5F5F5F5F5F5F5F5F5F5F5F5F5F5F5F5F5F5F5F5F5F5F5F5F5F5F5F5F5F5F5F5F5F5F5F5F5F5F5F5F5F5F5F5F5F5F5F5F5F5F5F5F5F5F5F5F5F5F5F5F5F5F5F5F5F5F5F5F5F5
310
F5F5F5F5F5E2F5F5F5F5F5F5F5F5F5F5F5E2E2EFE2F5F5F5F5F5F5F5F5F5F5F5E2F5F5F5F5F5F5F5F5F5F5F5F5F5F5F5F5F5F5F5F5F5F5F5F5F5F5F5F5F5F5F5F5F5F5F5F5F5F5F5F5F5F5F5F5F5F5F5F5F5F5F5F5F5F5F5F5F5F5F5F5F5F5F5F5F5F5F5F5F5F5F5F5F5F5F5F5F5F5F5F5F5F5F5F5F5F5F5F5F5F5F5F5F5F5
310
F5F5F5F5F5F5F5F5F5F5F5F5F5F5F5F5F5F5F5F5F5F5F5F5F5F5F5F5F5F5F5F5F5F5F5F5F5F5F5F5F5F5F5F5F5F5F5F5F5F5F5F5F5F5F5F5F5F5E2F5F5F5F5F5F5F5F5F5F5F5E2E2EFE2F5F5F5F5F5F5F5F5F5F5F5E2F5F5F5F5F5F5F5F5F5F5F5F5F5F5F5F5F5F5F5F5F5F5F5F5F5F5F5F5F5F5F5F5F5F5F5F5F5F5F5F5F5
310
F5F5F5F5F5F5F5F5F5F5F5F5F5F5F5F5F5F5F5F5F5F5F5F5F5F5F5F5F5F5F5F5F5F5F5F5F5F5F5F5F5F5F5F5F5F5F5F5F5F5F5F5F5F5F5F5F5F5F5F5F5F5F5F5F5F5F5F5F5F5F5F5F5F5F5F5F5F5F5F5F5F5F5F5F5F5F5F5F5F5F5F5F5F5F5F5F5F5F5F5F5F5F5F5F5F5F5F5F5F5F5E2F5F5F5F5F5F5F5F5F5F5F5E2E2EFE2
310
F5F5F5F5F5F5F5F5F5F5F5E2F5F5F5F5F5F5F5F5F5F5F5F5F5F5F5F5F5F5F5F5F5F5F5F5F5F5F5F5F5F5F5F5F5F5F5F5F5F5F5F5F5F5F5F5F5F5F5F5F5F5F5F5F5F5F5F5F5F5F5F5F5F5F5F5F5F5F5F5F5F5F5F5F5F5F5F5F5F5F5F5F5F5F5F5F5F5F5F5F5F5F5F5F5F5F5F5F5F5F5F5F5F5F5F5F5F5F5F5F5F5F5F5F5F5F5
310
F5F5F5F5F5F5F5F5F5F5F5F5F5F5F5F5F5F5F5F5F5F5F5F5F5F5F5F5F5F5F5F5F5F5F5F5F5E2F5F5F5F5F5F5F5F5F5F5F5E2E2EFE2F5F5F5F5F5F5F5F5F5F5F5F5F5F5F5F5F5F5F5F5F5F5F5F5F5F5F5F5F5F5F5F5F5F5F5F5F5F5F5F5F5F5F5F5F5F5F5F5F5F5F5F5F5F5F5F5F5F5F5F5F5F5F5F5F5F5F5F5F5F5F5F5F5F5
310
F5F5F5F5F5F5F5F5F5F5F5F5F5F5F5F5F5F5F5F5F5F5F5F5F5F5F5F5F5F5F5F5F5F5F5F5F5F5F5F5F5F5F5F5F5F5F5F5F5F5F5F5F5F5F5F5F5F5F5F5F5F5F5F5F5F5F5F5F5F5F5F5F5F5F5F5F5F5F5F5F5F5F5F5F5F5F5F5F5F5F5F5F5F5F5F5F5F5F5F5F5F5E2E2EFE2F5F5F5F5F5F5F5F5F5F5F5F5F5F5F5F5F5F5F5F5F5
310
F5F5F5F5F5F5F5F5F5F5F5F5F5F5F5F5F5F5F5F5F5F5F5F5F5F5F5F5F5F5F5F5F5F5F5F5F5F5F5F5F5F5F5F5F5F5F5F5F5F5F5F5F5F5F5F5F5F5F5F5F5F5F5F5F5F5F5F5F5F5F5F5F5F5F5F5F5F5F5F5F5F5F5F5F5F5F5F5F5F5F5F5F5F5F5F5F5F5F5F5F5F5F5F5F5F5F5F5F5F5F5F5F5F5F5F5F5F5F5F5F5F5F5F5F5F5F5
310
F5F5F5F5F5F5F5F5F5F5F5F5F5F5F5F5F5F5F5F5F5F5F5F5F5F5F5F5E2E2EFE2F5F5F5F5F5F5F5F5F5F5F5F5F5F5F5F5F5F5F5F5F5F5F5F5F5F5F5F5F5F5F5F5F5F5F5F5F5F5F5F5F5F5F5F5F5F5F5F5F5F5F5F5F5F5F5F5F5F5F5F5F5F5F5F5F5F5F5F5F5F5F5F5F5F5F5F5F5F5F5F5F5F5F5F5F5F5F5F5F5F5F5F5F5F5F5
310
F5F5F5F5F5F5F5F5F5F5F5F5F5F5F5F5F5F5F5F5F5F5F5F5F5F5F5F5F5F5F5F5F5F5F5F5F5F5F5F5F5F5F5F5F5F5F5F5F5F5F5F5F5F5F5F5F5F5F5F5F5F5F5F5F5F5F5F5F5F5F5F5F5F5F5F5F5F5F5F5F5E2E2EFE2F5F5F5F5F5F5F5F5F5F5F5F5F5F5F5F5F5F5F5F5F5F5F5F5F5F5F5F5F5F5F5F5F5F5F5F5F5F5F5F5F5F5
310
F5F5F5F5F5F5F5F5F5F5F5F5F5F5F5F5F5F5F5F5F5F5F5F5F5F5F5F5F5F5F5F5F5F5F5F5F5F5F5F5F5F5F5F5F5F5F5F5F5F5F5F5F5F5F5F5F5F5F5F5F5F5F5F5F5F5F5F5F5F5F5F5F5F5F5F5F5F5F5F5F5F5F5F5F5F5F5F5F5F5F5F5F5F5F5F5F5F5F5F5F5F5F5F5F5F5F5F5F5F5F5F5F5F5F5F5F5F5F5F5F5F5F5F5F5F5F5
310
F5F5F5F5F5F5F5E2E2EFE2F5F5F5F5F5F5F5F5F5F5F5F5F5F5F5F5F5F5F5F5F5F5F5F5F5F5F5F5F5F5F5F5F5F5F5F5F5F5F5F5F5F5F5F5F5F5F5F5F5F5F5F5F5F5F5F5F5F5F5F5F5F5F5F5F5F5F5F5F5F5F5F5F5F5F5F5F5F5F5F5F5F5F5F5F5F5F5F5F5F5F5F5F5F5F5F5F5F5F5F5F5F5F5F5F5F5F5F5F5F5F5F5F5F5F5F5
310
F5F5F5F5F5F5F5F5F5F5F5F5F5F5F5F5F5F5F5F5F5F5F5F5F5F5F5F5F5F5F5F5F5F5F5F5F5F5F5F5F5F5F5F5F5F5F5F5F5F5F5F5F5F5F5F5F5F5F5F5E2E2EFE2F5F5F5F5F5F5F5F5F5F5F5F5F5F5F5F5F5F5F5F5F5F5F5F5F5F5F5F5F5F5F5F5F5F5F5F5F5F5F5F5F5F5F5F5F5F5F5F5F5F5F5F5F5F5F5F5F5F5F5F5F5F5F5
310
F5F5F5F5F5F5F5F5F5F5F5F5F5F5F5F5F5F5F5F5F5F5F5F5F5F5F5F5F5F5F5F5F5F5F5F5F5F5F5F5F5F5F5F5F5F5F5F5F5F5F5F5F5F5F5F5F5F5F5F5F5F5F5F5F5F5F5F5F5F5F5F5F5F5F5F5F5F5F5F5F5F5F5F5F5F5F5F5F5F5F5F5F5F5F5F5F5F5F5F5F5F5F5F5F5F5F5F5F5F5F5F5F5E2E2EFE2F5F5F5F5F5F5F5F5F5F5
310
F5F5F5F5F5F5F5F5F5F5F5F5F5F5F5F5F5F5F5F5F5F5F5F5F5F5F5F5F5F5F5F5F5F5F5F5F5F5F5F5F5F5F5F5F5F5F5F5F5F5F5F5F5F5F5F5F5F5F5F5F5F5F5F5F5F5F5F5F5F5F5F5F5F5F5F5F5F5F5F5F5F5F5F5F5F5F5F5F5F5F5F5F5F5F5F5F5F5F5F5F5F5F5F5F5F5F5F5F5F5F5F5F5F5F5F5F5F5F5F5F5F5F5F5F5F5F5
310
F5F5F5F5F5F5F5F5F5F5F5F5F5F5F5F5F5F5F5F5F5F5F5F5F5F5F5F5F5F5F5F5F5F5F5F5F5F5F5E2E2EFE2F5F5F5F5F5F5F5F5F5F5F5F5F5F5F5F5F5F5F5F5F5F5F5F5F5F5F5F5F5F5F5F5F5F5F5F5F5F5F5F5F5F5F5F5F5F5F5F5F5F5F5F5F5F5F5F5F5F5F5F5F5F5F5F5F5F5F5F5F5F5F5F5F5F5F5F5F5F5F5F5F5F5F5F5
310
F5F5F5F5F5F5F5F5F5F5F5F5F5F5F5F5F5F5F5F5F5F5F5F5F5F5F5F5F5F5F5F5F5F5F5F5F5F5F5F5F5F5F5F5F5F5F5F5F5F5F5F5F5F5F5F5F5F5F5F5F5F5F5F5F5F5F5F5F5F5F5F5F5F5F5F5F5F5F5F5F5F5F5F5F5F5F5F5F5F5F5F5E2E2EFE2F5F5F5F5F5F5F5F5F5F5F5E2F5F5F5F5F5F5F5F5F5F5F5F5F5F5F5F5F5F5F5
310
F5F5F5F5F5F5F5F5F5F5F5F5F5F5F5F5F5F5F5F5F5F5F5F5F5F5F5F5F5F5F5F5F5F5F5F5F5F5F5F5F5F5F5F5F5F5F5F5F5F5F5F5F5F5F5F5F5F5F5F5F5F5F5F5F5F5F5F5F5F5F5F5F5F5F5F5F5F5F5F5F5F5F5F5F5F5F5F5F5F5F5F5F5F5F5F5F5F5F5F5F5F5F5F5F5F5F5F5F5F5F5F5F5F5F5F5F5F5F5F5F5F5F5F5F5F5F5
310
F5F5F5F5F5F5E2F5F5F5F5F5F5F5F5F5F5F5E2E2EFE2F5F5F5F5F5F5F5F5F5F5F5E2F5F5F5F5F5F5F5F5F5F5F5F5F5F5F5F5F5F5F5F5F5F5F5F5F5F5F5F5F5F5F5F5F5F5F5F5F5F5F5F5F5F5F5F5F5F5F5F5F5F5F5F5F5F5F5F5F5F5F5F5F5F5F5F5F5F5F5F5F5F5F5F5F5F5F5F5F5F5F5F5F5F5F5F5F5F5F5F5F5F5F5F5F5
310
F5F5F5F5F5F5F5F5F5F5F5F5F5F5F5F5F5F5F5F5F5F5F5F5F5F5F5F5F5F5F5F5F5F5F5F5F5F5F5F5F5F5F5F5F5F5F5F5F5F5F5F5F5F5F5F5F5F5F5E2F5F5F5F5F5F5F5F5F5F5F5E2E2EFE2F5F5F5F5F5F5F5F5F5F5F5E2F5F5F5F5F5F5F5F5F5F5F5F5F5F5F5F5F5F5F5F5F5F5F5F5F5F5F5F5F5F5F5F5F5F5F5F5F5F5F5F5
310
F5F5F5F5F5F5F5F5F5F5F5F5F5F5F5F5F5F5F5F5F5F5F5F5F5F5F5F5F5F5F5F5F5F5F5F5F5F5F5F5F5F5F5F5F5F5F5F5F5F5F5F5F5F5F5F5F5F5F5F5F5F5F5F5F5F5F5F5F5F5F5F5F5F5F5F5F5F5F5F5F5F5F5F5F5F5F5F5F5F5F5F5F5F5F5F5F5F5F5F5F5F5F5F5F5F5F5F5F5F5F5F5E2F5F5F5F5F5F5F5F5F5F5F5E2E2EF
310
E2F5F5F5F5F5F5F5F5F5F5F5E2F5F5F5F5F5F5F5F5F5F5F5F5F5F5F5F5F5F5F5F5F5F5F5F5F5F5F5F5F5F5F5F5F5F5F5F5F5F5F5F5F5F5F5F5F5F5F5F5F5F5F5F5F5F5F5F5F5F5F5F5F5F5F5F5F5F5F5F5F5F5F5F5F5F5F5F5F5F5F5F5F5F5F5F5F5F5F5F5F5F5F5F5F5F5F5F5F5F5F5F5F5F5F5F5F5F5F5F5F5F5F5F5F5F5
310
F5F5F5F5F5F5F5F5F5F5F5F5F5F5F5F5F5F5F5F5F5F5F5F5F5F5F5F5F5F5F5F5F5F5F5F5F5F5E2F5F5F5F5F5F5F5F5F5F5F5E2E2EFE2F5F5F5F5F5F5F5F5F5F5F5E2F5F5F5F5F5F5F5F5F5F5F5F5F5F5F5F5F5F5F5F5F5F5F5F5F5F5F5F5F5F5F5F5F5F5F5F5F5F5F5F5F5F5F5F5F5F5F5F5F5F5F5F5F5F5F5F5F5F5F5F5F5
310
F5F5F5F5F5F5F5F5F5F5F5F5F5F5F5F5F5F5F5F5F5F5F5F5F5F5F5F5F5F5F5F5F5F5F5F5F5F5F5F5F5F5F5F5F5F5F5F5F5F5F5F5F5F5F5F5F5F5F5F5F5F5F5F5F5F5F5F5F5F5F5F5F5F5F5F5F5F5F5F5F5F5F5F5F5F5F5F5F5F5F5E2F5F5F5F5F5F5F5F5F5F5F5E2E2EFE2F5F5F5F5F5F5F5F5F5F5F5E2F5F5F5F5F5F5F5F5
310
F5F5F5F5F5F5F5F5F5F5F5F5F5F5F5F5F5F5F5F5F5F5F5F5F5F5F5F5F5F5F5F5F5F5F5F5F5F5F5F5F5F5F5F5F5F5F5F5F5F5F5F5F5F5F5F5F5F5F5F5F5F5F5F5F5F5F5F5F5F5F5F5F5F5F5F5F5F5F5F5F5F5F5F5F5F5F5F5F5F5F5F5F5F5F5F5F5F5F5F5F5F5F5F5F5F5F5F5F5F5F5F5F5F5F5F5F5F5F5F5F5F5F5F5F5F5F5
310
F5F5F5F5F5F5F5F5F5F5F5F5F5F5F5F5F5E2F5F5F5F5F5F5F5F5F5F5F5E2E2EFE2F5F5F5F5F5F5F5F5F5F5F5E2F5F5F5F5F5F5F5F5F5F5F5F5F5F5F5F5F5F5F5F5F5F5F5F5F5F5F5F5F5F5F5F5F5F5F5F5F5F5F5F5F5F5F5F5F5F5F5F5F5F5F5F5F5F5F5F5F5F5F5F5F5F5F5F5F5F5F5F5F5F5F5F5F5F5F5F5F5F5F5F5F5F5
310
F5F5F5F5F5F5F5F5F5F5F5F5F5F5F5F5F5F5F5F5F5F5F5F5F5F5F5F5F5F5F5F5F5F5F5F5F5F5F5F5F5F5F5F5F5F5F5F5F5F5F5F5F5F5F5F5F5F5F5F5F5F5F5F5F5F5F5F5F5F5E2F5F5F5F5F5F5F5F5F5F5F5E2E2EFE2F5F5F5F5F5F5F5F5F5F5F5E2F5F5F5F5F5F5F5F5F5F5F5F5F5F5F5F5F5F5F5F5F5F5F5F5F5F5F5F5F5
310
F5F5F5F5F5F5F5F5F5F5F5F5F5F5F5F5F5F5F5F5F5F5F5F5F5F5F5F5F5F5F5F5F5F5F5F5F5F5F5F5F5F5F5F5F5F5F5F5F5F5F5F5F5F5F5F5F5F5F5F5F5F5F5F5F5F5F5F5F5F5F5F5F5F5F5F5F5F5F5F5F5F5F5F5F5F5F5F5F5F5F5F5F5F5F5F5F5F5F5F5F5F5F5F5F5F5F5F5F5F5F5F5F5F5F5F5F5F5F5F5F5F5F5E2F5F5F5
310
F5F5F5F5F5F5F5F5E2E2EFE2F5F5F5F5F5F5F5F5F5F5F5E2F5F5F5F5F5F5F5F5F5F5F5F5F5F5F5F5F5F5F5F5F5F5F5F5F5F5F5F5F5F5F5F5F5F5F5F5F5F5F5F5F5F5F5F5F5F5F5F5F5F5F5F5F5F5F5F5F5F5F5F5F5F5F5F5F5F5F5F5F5F5F5F5F5F5F5F5F5F5F5F5F5F5F5F5F5F5F5F5F5F5F5F5F5F5F5F5F5F5F5F5F5F5F5
310
F5F5F5F5F5F5F5F5F5F5F5F5F5F5F5F5F5F5F5F5F5F5F5F5F5F5F5F5F5F5F5F5F5F5F5F5F5F5F5F5F5F5F5F5F5F5F5F5F5E2F5F5F5F5F5F5F5F5F5F5F5E2E2EFE2F5F5F5F5F5F5F5F5F5F5F5E2F5F5F5F5F5F5F5F5F5F5F5F5F5F5F5F5F5F5F5F5F5F5F5F5F5F5F5F5F5F5F5F5F5F5F5F5F5F5F5F5F5F5F5F5F5F5F5F5F5F5
310
F5F5F5F5F5F5F5F5F5F5F5F5F5F5F5F5F5F5F5F5F5F5F5F5F5F5F5F5F5F5F5F5F5F5F5F5F5F5F5F5F5F5F5F5F5F5F5F5F5F5F5F5F5F5F5F5F5F5F5F5F5F5F5F5F5F5F5F5F5F5F5F5F5F5F5F5F5F5F5F5F5F5F5F5F5F5F5F5F5F5F5F5F5F5F5F5F5F5F5F5F5F5E2F5F5F5F5F5F5F5F5F5F5F5E2E2EFE2F5F5F5F5F5F5F5F5F5
310
F5F5E2F5F5F5F5F5F5F5F5F5F5F5F5F5F5F5F5F5F5F5F5F5F5F5F5F5F5F5F5F5F5F5F5F5F5F5F5F5F5F5F5F5F5F5F5F5F5F5F5F5F5F5F5F5F5F5F5F5F5F5F5F5F5F5F5F5F5F5F5F5F5F5F5F5F5F5F5F5F5F5F5F5F5F5F5F5F5F5F5F5F5F5F5F5F5F5F5F5F5F5F5F5F5F5F5F5F5F5F5F5F5F5F5F5F5F5F5F5F5F5F5F5F5F5F5
310
F5F5F5F5F5F5F5F5F5F5F5F5F5F5F5F5F5F5F5F5F5F5F5F5F5F5F5F5E2F5F5F5F5F5F5F5F5F5F5F5E2E2EFE2F5F5F5F5F5F5F5F5F5F5F5E2F5F5F5F5F5F5F5F5F5F5F5F5F5F5F5F5F5F5F5F5F5F5F5F5F5F5F5F5F5F5F5F5F5F5F5F5F5F5F5F5F5F5F5F5F5F5F5F5F5F5F5F5F5F5F5F5F5F5F5F5F5F5F5F5F5F5F5F5F5F5F5
310
F5F5F5F5F5F5F5F5F5F5F5F5F5F5F5F5F5F5F5F5F5F5F5F5F5F5F5F5F5F5F5F5F5F5F5F5F5F5F5F5F5F5F5F5F5F5F5F5F5F5F5F5F5F5F5F5F5F5F5F5F5F5F5F5F5F5F5F5F5F5F5F5F5F5F5F5F5F5F5F5F5E2F5F5F5F5F5F5F5F5F5F5F5E2E2EFE2F5F5F5F5F5F5F5F5F5F5F5E2F5F5F5F5F5F5F5F5F5F5F5F5F5F5F5F5F5F5
310
F5F5F5F5F5F5F5F5F5F5F5F5F5F5F5F5F5F5F5F5F5F5F5F5F5F5F5F5F5F5F5F5F5F5F5F5F5F5F5F5F5F5F5F5F5F5F5F5F5F5F5F5F5F5F5F5F5F5F5F5F5F5F5F5F5F5F5F5F5F5F5F5F5F5F5F5F5F5F5F5F5F5F5F5F5F5F5F5F5F5F5F5F5F5F5F5F5F5F5F5F5F5F5F5F5F5F5F5F5F5F5F5F5F5F5F5F5F5F5F5F5F5F5F5F5F5F5
310
F5F5F5F5F5F5F5E2F5F5F5F5F5F5F5F5F5F5F5E2E2EFE2F5F5F5F5F5F5F5F5F5F5F5E2F5F5F5F5F5F5F5F5F5F5F5F5F5F5F5F5F5F5F5F5F5F5F5F5F5F5F5F5F5F5F5F5F5F5F5F5F5F5F5F5F5F5F5F5F5F5F5F5F5F5F5F5F5F5F5F5F5F5F5F5F5F5F5F5F5F5F5F5F5F5F5F5F5F5F5F5F5F5F5F5F5F5F5F5F5F5F5F5F5F5F5F5
310
F5F5F5F5F5F5F5F5F5F5F5F5F5F5F5F5F5F5F5F5F5F5F5F5F5F5F5F5F5F5F5F5F5F5F5F5F5F5F5F5F5F5F5F5F5F5F5F5F5F5F5F5F5F5F5F5F5F5F5F5E2F5F5F5F5F5F5F5F5F5F5F5E2E2EFE2F5F5F5F5F5F5F5F5F5F5F5E2F5F5F5F5F5F5F5F5F5F5F5F5F5F5F5F5F5F5F5F5F5F5F5F5F5F5F5F5F5F5F5F5F5F5F5F5F5F5F5
310
F5F5F5F5F5F5F5F5F5F5F5F5F5F5F5F5F5F5F5F5F5F5F5F5F5F5F5F5F5F5F5F5F5F5F5F5F5F5F5F5F5F5F5F5F5F5F5F5F5F5F5F5F5F5F5F5F5F5F5F5F5F5F5F5F5F5F5F5F5F5F5F5F5F5F5F5F5F5F5F5F5F5F5F5F5F5F5F5F5F5F5F5F5F5F5F5F5F5F5F5F5F5F5F5F5F5F5F5F5F5F5F5F5E2F5F5F5F5F5F5F5F5F5F5F5E2E2
310
EFE2F5F5F5F5F5F5F5F5F5F5F5F5F5F5F5F5F5F5F5F5F5F5F5F5F5F5F5F5F5F5F5F5F5F5F5F5F5F5F5F5F5F5F5F5F5F5F5F5F5F5F5F5F5F5F5F5F5F5F5F5F5F5F5F5F5F5F5F5F5F5F5F5F5F5F5F5F5F5F5F5F5F5F5F5F5F5F5F5F5F5F5F5F5F5F5F5F5F5F5F5F5F5F5F5F5F5F5F5F5F5F5F5F5F5F5F5F5F5F5F5F5F5F5F5F5
310
F5F5F5F5F5F5F5F5F5F5F5F5F5F5F5F5F5F5F5F5F5F5F5F5F5F5F5F5F5F5F5F5F5F5F5F5F5F5F5F5F5F5F5F5F5F5F5F5F5F5F5E2E2EFE2F5F5F5F5F5F5F5F5F5F5F5F5F5F5F5F5F5F5F5F5F5F5F5F5F5F5F5F5F5F5F5F5F5F5F5F5F5F5F5F5F5F5F5F5F5F5F5F5F5F5F5F5F5F5F5F5F5F5F5F5F5F5F5F5F5F5F5F5F5F5F5F5
310
F5F5F5F5F5F5F5F5F5F5F5F5F5F5F5F5F5F5F5F5F5F5F5F5F5F5F5F5F5F5F5F5F5F5F5F5F5F5F5F5F5F5F5F5F5F5F5F5F5F5F5F5F5F5F5F5F5F5F5F5F5F5F5F5F5F5F5F5F5F5F5F5F5F5F5F5F5F5F5F5F5F5F5F5F5F5F5F5F5F5F5F5F5F5F5F5F5F5F5F5F5F5F5F5E2E2EFE2F5F5F5F5F5F5F5F5F5F5F5F5F5F5F5F5F5F5F5
310
F5F5F5F5F5F5F5F5F5F5F5F5F5F5F5F5F5F5F5F5F5F5F5F5F5F5F5F5F5F5F5F5F5F5F5F5F5F5F5F5F5F5F5F5F5F5F5F5F5F5F5F5F5F5F5F5F5F5F5F5F5F5F5F5F5F5F5F5F5F5F5F5F5F5F5F5F5F5F5F5F5F5F5F5F5F5F5F5F5F5F5F5F5F5F5F5F5F5F5F5F5F5F5F5F5F5F5F5F5F5F5F5F5F5F5F5F5F5F5F5F5F5F5F5F5F5F5
310
F5F5F5F5F5F5F5F5F5F5F5F5F5F5F5F5F5F5F5F5F5F5F5F5F5F5F5F5F5F5E2E2EFE2F5F5F5F5F5F5F5F5F5F5F5F5F5F5F5F5F5F5F5F5F5F5F5F5F5F5F5F5F5F5F5F5F5F5F5F5F5F5F5F5F5F5F5F5F5F5F5F5F5F5F5F5F5F5F5F5F5F5F5F5F5F5F5F5F5F5F5F5F5F5F5F5F5F5F5F5F5F5F5F5F5F5F5F5F5F5F5F5F5F5F5F5F5
310
F5F5F5F5F5F5F5F5F5F5F5F5F5F5F5F5F5F5F5F5F5F5F5F5F5F5F5F5F5F5F5F5F5F5F5F5F5F5F5F5F5F5F5F5F5F5F5F5F5F5F5F5F5F5F5F5F5F5F5F5F5F5F5F5F5F5F5F5F5F5F5F5F5F5F5F5F5F5F5F5F5F5F5E2E2EFE2F5F5F5F5F5F5F5F5F5F5F5F5F5F5F5F5F5F5F5F5F5F5F5F5F5F5F5F5F5F5F5F5F5F5F5F5F5F5F5F5
310
F5F5F5F5F5F5F5F5F5F5F5F5F5F5F5F5F5F5F5F5F5F5F5F5F5F5F5F5F5F5F5F5F5F5F5F5F5F5F5F5F5F5F5F5F5F5F5F5F5F5F5F5F5F5F5F5F5F5F5F5F5F5F5F5F5F5F5F5F5F5F5F5F5F5F5F5F5F5F5F5F5F5F5F5F5F5F5F5F5F5F5F5F5F5F5F5F5F5F5F5F5F5F5F5F5F5F5F5F5F5F5F5F5F5F5F5F5F5F5F5F5F5F5F5F5F5F5
310
F5F5F5F5F5F5F5F5F5E2E2EFE2F5F5F5F5F5F5F5F5F5F5F5F5F5F5F5F5F5F5F5F5F5F5F5F5F5F5F5F5F5F5F5F5F5F5F5F5F5F5F5F5F5F5F5F5F5F5F5F5F5F5F5F5F5F5F5F5F5F5F5F5F5F5F5F5F5F5F5F5F5F5F5F5F5F5F5F5F5F5F5F5F5F5F5F5F5F5F5F5F5F5F5F5F5F5F5F5F5F5F5F5F5F5F5F5F5F5F5F5F5F5F5F5F5F5
310
F5F5F5F5F5F5F5F5F5F5F5F5F5F5F5F5F5F5F5F5F5F5F5F5F5F5F5F5F5F5F5F5F5F5F5F5F5F5F5F5F5F5F5F5F5F5F5F5F5F5F5F5F5F5F5F5F5F5F5F5F5F5E2E2EFE2F5F5F5F5F5F5F5F5F5F5F5F5F5F5F5F5F5F5F5F5F5F5F5F5F5F5F5F5F5F5F5F5F5F5F5F5F5F5F5F5F5F5F5F5F5F5F5F5F5F5F5F5F5F5F5F5F5F5F5F5F5
310
F5F5F5F5F5F5F5F5F5F5F5F5F5F5F5F5F5F5F5F5F5F5F5F5F5F5F5F5F5F5F5F5F5F5F5F5F5F5F5F5F5F5F5F5F5F5F5F5F5F5F5F5F5F5F5F5F5F5F5F5F5F5F5F5F5F5F5F5F5F5F5F5F5F5F5F5F5F5F5F5F5F5F5F5F5F5F5F5F5F5F5F5F5F5F5F5F5F5F5F5F5F5F5F5F5F5F5F5F5F5F5F5F5F5F5E2E2EFE2F5F5F5F5F5F5F5F5
310
F5F5F5F5F5F5F5F5F5F5F5F5F5F5F5F5F5F5F5F5F5F5F5F5F5F5F5F5F5F5F5F5F5F5F5F5F5F5F5F5F5F5F5F5F5F5F5F5F5F5F5F5F5F5F5F5F5F5F5F5F5F5F5F5F5F5F5F5F5F5F5F5F5F5F5F5F5F5F5F5F5F5F5F5F5F5F5F5F5F5F5F5F5F5F5F5F5F5F5F5F5F5F5F5F5F5F5F5F5F5F5F5F5F5F5F5F5F5F5F5F5F5F5F5F5F5F5
310
F5F5F5F5F5F5F5F5F5F5F5F5F5F5F5F5F5F5F5F5F5F5F5F5F5F5F5F5F5F5F5F5F5F5F5F5F5F5F5F5F5E2E2EFE2F5F5F5F5F5F5F5F5F5F5F5F5F5F5F5F5F5F5F5F5F5F5F5F5F5F5F5F5F5F5F5F5F5F5F5F5F5F5F5F5F5F5F5F5F5F5F5F5F5F5F5F5F5F5F5F5F5F5F5F5F5F5F5F5F5F5F5F5F5F5F5F5F5F5F5F5F5F5F5F5F5F5
310
F5F5F5F5F5F5F5F5F5F5F5F5F5F5F5F5F5F5F5F5F5F5F5F5F5F5F5F5F5F5F5F5F5F5F5F5F5F5F5F5F5F5F5F5F5F5F5F5F5F5F5F5F5F5F5F5F5F5F5F5F5F5F5F5F5F5F5F5F5F5F5F5F5F5F5F5F5F5F5F5F5F5F5F5F5F5F5F5F5F5F5F5F5F5E2E2EFE2F5F5F5F5F5F5F5F5F5F5F5E2F5F5F5F5F5F5F5F5F5F5F5F5F5F5F5F5F5
310
F5F5F5F5F5F5F5F5F5F5F5F5F5F5F5F5F5F5F5F5F5F5F5F5F5F5F5F5F5F5F5F5F5F5F5F5F5F5F5F5F5F5F5F5F5F5F5F5F5F5F5F5F5F5F5F5F5F5F5F5F5F5F5F5F5F5F5F5F5F5F5F5F5F5F5F5F5F5F5F5F5F5F5F5F5F5F5F5F5F5F5F5F5F5F5F5F5F5F5F5F5F5F5F5F5F5F5F5F5F5F5F5F5F5F5F5F5F5F5F5F5F5F5F5F5F5F5
310
F5F5F5F5F5F5F5F5E2F5F5F5F5F5F5F5F5F5F5F5E2E2EFE2F5F5F5F5F5F5F5F5F5F5F5E2F5F5F5F5F5F5F5F5F5F5F5F5F5F5F5F5F5F5F5F5F5F5F5F5F5F5F5F5F5F5F5F5F5F5F5F5F5F5F5F5F5F5F5F5F5F5F5F5F5F5F5F5F5F5F5F5F5F5F5F5F5F5F5F5F5F5F5F5F5F5F5F5F5F5F5F5F5F5F5F5F5F5F5F5F5F5F5F5F5F5F5
310
F5F5F5F5F5F5F5F5F5F5F5F5F5F5F5F5F5F5F5F5F5F5F5F5F5F5F5F5F5F5F5F5F5F5F5F5F5F5F5F5F5F5F5F5F5F5F5F5F5F5F5F5F5F5F5F5F5F5F5F5F5E2F5F5F5F5F5F5F5F5F5F5F5E2E2EFE2F5F5F5F5F5F5F5F5F5F5F5E2F5F5F5F5F5F5F5F5F5F5F5F5F5F5F5F5F5F5F5F5F5F5F5F5F5F5F5F5F5F5F5F5F5F5F5F5F5F5
310
F5F5F5F5F5F5F5F5F5F5F5F5F5F5F5F5F5F5F5F5F5F5F5F5F5F5F5F5F5F5F5F5F5F5F5F5F5F5F5F5F5F5F5F5F5F5F5F5F5F5F5F5F5F5F5F5F5F5F5F5F5F5F5F5F5F5F5F5F5F5F5F5F5F5F5F5F5F5F5F5F5F5F5F5F5F5F5F5F5F5F5F5F5F5F5F5F5F5F5F5F5F5F5F5F5F5F5F5F5F5F5F5F5F5E2F5F5F5F5F5F5F5F5F5F5F5E2
310
E2EFE2F5F5F5F5F5F5F5F5F5F5F5E2F5F5F5F5F5F5F5F5F5F5F5F5F5F5F5F5F5F5F5F5F5F5F5F5F5F5F5F5F5F5F5F5F5F5F5F5F5F5F5F5F5F5F5F5F5F5F5F5F5F5F5F5F5F5F5F5F5F5F5F5F5F5F5F5F5F5F5F5F5F5F5F5F5F5F5F5F5F5F5F5F5F5F5F5F5F5F5F5F5F5F5F5F5F5F5F5F5F5F5F5F5F5F5F5F5F5F5F5F5F5F5F5
310
F5F5F5F5F5F5F5F5F5F5F5F5F5F5F5F5F5F5F5F5F5F5F5F5F5F5F5F5F5F5F5F5F5F5F5F5F5F5F5F5E2F5F5F5F5F5F5F5F5F5F5F5E2E2EFE2F5F5F5F5F5F5F5F5F5F5F5E2F5F5F5F5F5F5F5F5F5F5F5F5F5F5F5F5F5F5F5F5F5F5F5F5F5F5F5F5F5F5F5F5F5F5F5F5F5F5F5F5F5F5F5F5F5F5F5F5F5F5F5F5F5F5F5F5F5F5F5
310
F5F5F5F5F5F5F5F5F5F5F5F5F5F5F5F5F5F5F5F5F5F5F5F5F5F5F5F5F5F5F5F5F5F5F5F5F5F5F5F5F5F5F5F5F5F5F5F5F5F5F5F5F5F5F5F5F5F5F5F5F5F5F5F5F5F5F5F5F5F5F5F5F5F5F5F5F5F5F5F5F5F5F5F5F5F5F5F5F5F5F5F5F5E2F5F5F5F5F5F5F5F5F5F5F5E2E2EFE2F5F5F5F5F5F5F5F5F5F5F5E2F5F5F5F5F5F5
310
F5F5F5F5F5F5F5F5F5F5F5F5F5F5F5F5F5F5F5F5F5F5F5F5F5F5F5F5F5F5F5F5F5F5F5F5F5F5F5F5F5F5F5F5F5F5F5F5F5F5F5F5F5F5F5F5F5F5F5F5F5F5F5F5F5F5F5F5F5F5F5F5F5F5F5F5F5F5F5F5F5F5F5F5F5F5F5F5F5F5F5F5F5F5F5F5F5F5F5F5F5F5F5F5F5F5F5F5F5F5F5F5F5F5F5F5F5F5F5F5F5F5F5F5F5F5F5
310
F5F5F5F5F5F5F5F5F5F5F5F5F5F5F5F5F5F5F5E2F5F5F5F5F5F5F5F5F5F5F5E2E2EFE2F5F5F5F5F5F5F5F5F5F5F5E2F5F5F5F5F5F5F5F5F5F5F5F5F5F5F5F5F5F5F5F5F5F5F5F5F5F5F5F5F5F5F5F5F5F5F5F5F5F5F5F5F5F5F5F5F5F5F5F5F5F5F5F5F5F5F5F5F5F5F5F5F5F5F5F5F5F5F5F5F5F5F5F5F5F5F5F5F5F5F5F5
310
F5F5F5F5F5F5F5F5F5F5F5F5F5F5F5F5F5F5F5F5F5F5F5F5F5F5F5F5F5F5F5F5F5F5F5F5F5F5F5F5F5F5F5F5F5F5F5F5F5F5F5F5F5F5F5F5F5F5F5F5F5F5F5F5F5F5F5F5F5F5F5F5E2F5F5F5F5F5F5F5F5F5F5F5E2E2EFE2F5F5F5F5F5F5F5F5F5F5F5E2F5F5F5F5F5F5F5F5F5F5F5F5F5F5F5F5F5F5F5F5F5F5F5F5F5F5F5
310
F5F5F5F5F5F5F5F5F5F5F5F5F5F5F5F5F5F5F5F5F5F5F5F5F5F5F5F5F5F5F5F5F5F5F5F5F5F5F5F5F5F5F5F5F5F5F5F5F5F5F5F5F5F5F5F5F5F5F5F5F5F5F5F5F5F5F5F5F5F5F5F5F5F5F5F5F5F5F5F5F5F5F5F5F5F5F5F5F5F5F5F5F5F5F5F5F5F5F5F5F5F5F5F5F5F5F5F5F5F5F5F5F5F5F5F5F5F5F5F5F5F5F5F5F5E2F5
310
F5F5F5F5F5F5F5F5F5F5E2E2EFE2F5F5F5F5F5F5F5F5F5F5F5E2F5F5F5F5F5F5F5F5F5F5F5F5F5F5F5F5F5F5F5F5F5F5F5F5F5F5F5F5F5F5F5F5F5F5F5F5F5F5F5F5F5F5F5F5F5F5F5F5F5F5F5F5F5F5F5F5F5F5F5F5F5F5F5F5F5F5F5F5F5F5F5F5F5F5F5F5F5F5F5F5F5F5F5F5F5F5F5F5F5F5F5F5F5F5F5F5F5F5F5F5F5
310
F5F5F5F5F5F5F5F5F5F5F5F5F5F5F5F5F5F5F5F5F5F5F5F5F5F5F5F5F5F5F5F5F5F5F5F5F5F5F5F5F5F5F5F5F5F5F5F5F5F5F5E2F5F5F5F5F5F5F5F5F5F5F5E2E2EFE2F5F5F5F5F5F5F5F5F5F5F5E2F5F5F5F5F5F5F5F5F5F5F5F5F5F5F5F5F5F5F5F5F5F5F5F5F5F5F5F5F5F5F5F5F5F5F5F5F5F5F5F5F5F5F5F5F5F5F5F5
310
F5F5F5F5F5F5F5F5F5F5F5F5F5F5F5F5F5F5F5F5F5F5F5F5F5F5F5F5F5F5F5F5F5F5F5F5F5F5F5F5F5F5F5F5F5F5F5F5F5F5F5F5F5F5F5F5F5F5F5F5F5F5F5F5F5F5F5F5F5F5F5F5F5F5F5F5F5F5F5F5F5F5F5F5F5F5F5F5F5F5F5F5F5F5F5F5F5F5F5F5F5F5F5F5E2F5F5F5F5F5F5F5F5F5F5F5E2E2EFE2F5F5F5F5F5F5F5
310
F5F5F5F5E2F5F5F5F5F5F5F5F5F5F5F5F5F5F5F5F5F5F5F5F5F5F5F5F5F5F5F5F5F5F5F5F5F5F5F5F5F5F5F5F5F5F5F5F5F5F5F5F5F5F5F5F5F5F5F5F5F5F5F5F5F5F5F5F5F5F5F5F5F5F5F5F5F5F5F5F5F5F5F5F5F5F5F5F5F5F5F5F5F5F5F5F5F5F5F5F5F5F5F5F5F5F5F5F5F5F5F5F5F5F5F5F5F5F5F5F5F5F5F5F5F5F5
310
F5F5F5F5F5F5F5F5F5F5F5F5F5F5F5F5F5F5F5F5F5F5F5F5F5F5F5F5F5F5E2F5F5F5F5F5F5F5F5F5F5F5E2E2EFE2F5F5F5F5F5F5F5F5F5F5F5E2F5F5F5F5F5F5F5F5F5F5F5F5F5F5F5F5F5F5F5F5F5F5F5F5F5F5F5F5F5F5F5F5F5F5F5F5F5F5F5F5F5F5F5F5F5F5F5F5F5F5F5F5F5F5F5F5F5F5F5F5F5F5F5F5F5F5F5F5F5
310
F5F5F5F5F5F5F5F5F5F5F5F5F5F5F5F5F5F5F5F5F5F5F5F5F5F5F5F5F5F5F5F5F5F5F5F5F5F5F5F5F5F5F5F5F5F5F5F5F5F5F5F5F5F5F5F5F5F5F5F5F5F5F5F5F5F5F5F5F5F5F5F5F5F5F5F5F5F5F5F5F5F5F5E2F5F5F5F5F5F5F5F5F5F5F5E2E2EFE2F5F5F5F5F5F5F5F5F5F5F5E2F5F5F5F5F5F5F5F5F5F5F5F5F5F5F5F5
310
F5F5F5F5F5F5F5F5F5F5F5F5F5F5F5F5F5F5F5F5F5F5F5F5F5F5F5F5F5F5F5F5F5F5F5F5F5F5F5F5F5F5F5F5F5F5F5F5F5F5F5F5F5F5F5F5F5F5F5F5F5F5F5F5F5F5F5F5F5F5F5F5F5F5F5F5F5F5F5F5F5F5F5F5F5F5F5F5F5F5F5F5F5F5F5F5F5F5F5F5F5F5F5F5F5F5F5F5F5F5F5F5F5F5F5F5F5F5F5F5F5F5F5F5F5F5F5
310
F5F5F5F5F5F5F5F5F5E2F5F5F5F5F5F5F5F5F5F5F5E2E2EFE2F5F5F5F5F5F5F5F5F5F5F5E2F5F5F5F5F5F5F5F5F5F5F5F5F5F5F5F5F5F5F5F5F5F5F5F5F5F5F5F5F5F5F5F5F5F5F5F5F5F5F5F5F5F5F5F5F5F5F5F5F5F5F5F5F5F5F5F5F5F5F5F5F5F5F5F5F5F5F5F5F5F5F5F5F5F5F5F5F5F5F5F5F5F5F5F5F5F5F5F5F5F5
310
F5F5F5F5F5F5F5F5F5F5F5F5F5F5F5F5F5F5F5F5F5F5F5F5F5F5F5F5F5F5F5F5F5F5F5F5F5F5F5F5F5F5F5F5F5F5F5F5F5F5F5F5F5F5F5F5F5F5F5F5F5F5E2F5F5F5F5F5F5F5F5F5F5F5E2E2EFE2F5F5F5F5F5F5F5F5F5F5F5E2F5F5F5F5F5F5F5F5F5F5F5F5F5F5F5F5F5F5F5F5F5F5F5F5F5F5F5F5F5F5F5F5F5F5F5F5F5
310
F5F5F5F5F5F5F5F5F5F5F5F5F5F5F5F5F5F5F5F5F5F5F5F5F5F5F5F5F5F5F5F5F5F5F5F5F5F5F5F5F5F5F5F5F5F5F5F5F5F5F5F5F5F5F5F5F5F5F5F5F5F5F5F5F5F5F5F5F5F5F5F5F5F5F5F5F5F5F5F5F5F5F5F5F5F5F5F5F5F5F5F5F5F5F5F5F5F5F5F5F5F5F5F5F5F5F5F5F5F5F5F5F5F5F5E2F5F5F5F5F5F5F5F5F5F5F5
310
E2E2EFE2F5F5F5F5F5F5F5F5F5F5F5F5F5F5F5F5F5F5F5F5F5F5F5F5F5F5F5F5F5F5F5F5F5F5F5F5F5F5F5F5F5F5F5F5F5F5F5F5F5F5F5F5F5F5F5F5F5F5F5F5F5F5F5F5F5F5F5F5F5F5F5F5F5F5F5F5F5F5F5F5F5F5F5F5F5F5F5F5F5F5F5F5F5F5F5F5F5F5F5F5F5F5F5F5F5F5F5F5F5F5F5F5F5F5F5F5F5F5F5F5F5F5F5
310
F5F5F5F5F5F5F5F5F5F5F5F5F5F5F5F5F5F5F5F5F5F5F5F5F5F5F5F5F5F5F5F5F5F5F5F5F5F5F5F5F5F5F5F5F5F5F5F5F5F5F5F5F5E2E2EFE2F5F5F5F5F5F5F5F5F5F5F5F5F5F5F5F5F5F5F5F5F5F5F5F5F5F5F5F5F5F5F5F5F5F5F5F5F5F5F5F5F5F5F5F5F5F5F5F5F5F5F5F5F5F5F5F5F5F5F5F5F5F5F5F5F5F5F5F5F5F5
310
F5F5F5F5F5F5F5F5F5F5F5F5F5F5F5F5F5F5F5F5F5F5F5F5F5F5F5F5F5F5F5F5F5F5F5F5F5F5F5F5F5F5F5F5F5F5F5F5F5F5F5F5F5F5F5F5F5F5F5F5F5F5F5F5F5F5F5F5F5F5F5F5F5F5F5F5F5F5F5F5F5F5F5F5F5F5F5F5F5F5F5F5F5F5F5F5F5F5F5F5F5F5F5F5F5F5E2E2EFE2F5F5F5F5F5F5F5F5F5F5F5F5F5F5F5F5F5
310
F5F5F5F5F5F5F5F5F5F5F5F5F5F5F5F5F5F5F5F5F5F5F5F5F5F5F5F5F5F5F5F5F5F5F5F5F5F5F5F5F5F5F5F5F5F5F5F5F5F5F5F5F5F5F5F5F5F5F5F5F5F5F5F5F5F5F5F5F5F5F5F5F5F5F5F5F5F5F5F5F5F5F5F5F5F5F5F5F5F5F5F5F5F5F5F5F5F5F5F5F5F5F5F5F5F5F5F5F5F5F5F5F5F5F5F5F5F5F5F5F5F5F5F5F5F5F5
310
F5F5F5F5F5F5F5F5F5F5F5F5F5F5F5F5F5F5F5F5F5F5F5F5F5F5F5F5F5F5F5F5E2E2EFE2F5F5F5F5F5F5F5F5F5F5F5F5F5F5F5F5F5F5F5F5F5F5F5F5F5F5F5F5F5F5F5F5F5F5F5F5F5F5F5F5F5F5F5F5F5F5F5F5F5F5F5F5F5F5F5F5F5F5F5F5F5F5F5F5F5F5F5F5F5F5F5F5F5F5F5F5F5F5F5F5F5F5F5F5F5F5F5F5F5F5F5
310
F5F5F5F5F5F5F5F5F5F5F5F5F5F5F5F5F5F5F5F5F5F5F5F5F5F5F5F5F5F5F5F5F5F5F5F5F5F5F5F5F5F5F5F5F5F5F5F5F5F5F5F5F5F5F5F5F5F5F5F5F5F5F5F5F5F5F5F5F5F5F5F5F5F5F5F5F5F5F5F5F5F5F5F5F5E2E2EFE2F5F5F5F5F5F5F5F5F5F5F5F5F5F5F5F5F5F5F5F5F5F5F5F5F5F5F5F5F5F5F5F5F5F5F5F5F5F5
310
F5F5F5F5F5F5F5F5F5F5F5F5F5F5F5F5F5F5F5F5F5F5F5F5F5F5F5F5F5F5F5F5F5F5F5F5F5F5F5F5F5F5F5F5F5F5F5F5F5F5F5F5F5F5F5F5F5F5F5F5F5F5F5F5F5F5F5F5F5F5F5F5F5F5F5F5F5F5F5F5F5F5F5F5F5F5F5F5F5F5F5F5F5F5F5F5F5F5F5F5F5F5F5F5F5F5F5F5F5F5F5F5F5F5F5F5F5F5F5F5F5F5F5F5F5F5F5
310
F5F5F5F5F5F5F5F5F5F5F5E2E2EFE2F5F5F5F5F5F5F5F5F5F5F5F5F5F5F5F5F5F5F5F5F5F5F5F5F5F5F5F5F5F5F5F5F5F5F5F5F5F5F5F5F5F5F5F5F5F5F5F5F5F5F5F5F5F5F5F5F5F5F5F5F5F5F5F5F5F5F5F5F5F5F5F5F5F5F5F5F5F5F5F5F5F5F5F5F5F5F5F5F5F5F5F5F5F5F5F5F5F5F5F5F5F5F5F5F5F5F5F5F5F5F5F5
310
F5F5F5F5F5F5F5F5F5F5F5F5F5F5F5F5F5F5F5F5F5F5F5F5F5F5F5F5F5F5F5F5F5F5F5F5F5F5F5F5F5F5F5F5F5F5F5F5F5F5F5F5F5F5F5F5F5F5F5F5F5F5F5F5E2E2EFE2F5F5F5F5F5F5F5F5F5F5F5F5F5F5F5F5F5F5F5F5F5F5F5F5F5F5F5F5F5F5F5F5F5F5F5F5F5F5F5F5F5F5F5F5F5F5F5F5F5F5F5F5F5F5F5F5F5F5F5
310
F5F5F5F5F5F5F5F5F5F5F5F5F5F5F5F5F5F5F5F5F5F5F5F5F5F5F5F5F5F5F5F5F5F5F5F5F5F5F5F5F5F5F5F5F5F5F5F5F5F5F5F5F5F5F5F5F5F5F5F5F5F5F5F5F5F5F5F5F5F5F5F5F5F5F5F5F5F5F5F5F5F5F5F5F5F5F5F5F5F5F5F5F5F5F5F5F5F5F5F5F5F5F5F5F5F5F5F5F5F5F5F5F5F5F5F5F5E2E2EFE2F5F5F5F5F5F5
310
F5F5F5F5F5F5F5F5F5F5F5F5F5F5F5F5F5F5F5F5F5F5F5F5F5F5F5F5F5F5F5F5F5F5F5F5F5F5F5F5F5F5F5F5F5F5F5F5F5F5F5F5F5F5F5F5F5F5F5F5F5F5F5F5F5F5F5F5F5F5F5F5F5F5F5F5F5F5F5F5F5F5F5F5F5F5F5F5F5F5F5F5F5F5F5F5F5F5F5F5F5F5F5F5F5F5F5F5F5F5F5F5F5F5F5F5F5F5F5F5F5F5F5F5F5F5F5
310
F5F5F5F5F5F5F5F5F5F5F5F5F5F5F5F5F5F5F5F5F5F5F5F5F5F5F5F5F5F5F5F5F5F5F5F5F5F5F5F5F5F5F5E2E2EFE2F5F5F5F5F5F5F5F5F5F5F5E2F5F5F5F5F5F5F5F5F5F5F5F5F5F5F5F5F5F5F5F5F5F5F5F5F5F5F5F5F5F5F5F5F5F5F5F5F5F5F5F5F5F5F5F5F5F5F5F5F5F5F5F5F5F5F5F5F5F5F5F5F5F5F5F5F5F5F5F5
310
F5F5F5F5F5F5F5F5F5F5F5F5F5F5F5F5F5F5F5F5F5F5F5F5F5F5F5F5F5F5F5F5F5F5F5F5F5F5F5F5F5F5F5F5F5F5F5F5F5F5F5F5F5F5F5F5F5F5F5F5F5F5F5F5F5F5F5F5F5F5F5F5F5F5F5F5F5F5F5F5F5F5F5F5E2F5F5F5F5F5F5F5F5F5F5F5E2E2EFE2F5F5F5F5F5F5F5F5F5F5F5E2F5F5F5F5F5F5F5F5F5F5F5F5F5F5F5
310
F5F5F5F5F5F5F5F5F5F5F5F5F5F5F5F5F5F5F5F5F5F5F5F5F5F5F5F5F5F5F5F5F5F5F5F5F5F5F5F5F5F5F5F5F5F5F5F5F5F5F5F5F5F5F5F5F5F5F5F5F5F5F5F5F5F5F5F5F5F5F5F5F5F5F5F5F5F5F5F5F5F5F5F5F5F5F5F5F5F5F5F5F5F5F5F5F5F5F5F5F5F5F5F5F5F5F5F5F5F5F5F5F5F5F5F5F5F5F5F5F5F5F5F5F5F5F5
310
F5F5F5F5F5F5F5F5F5F5E2F5F5F5F5F5F5F5F5F5F5F5E2E2EFE2F5F5F5F5F5F5F5F5F5F5F5E2F5F5F5F5F5F5F5F5F5F5F5F5F5F5F5F5F5F5F5F5F5F5F5F5F5F5F5F5F5F5F5F5F5F5F5F5F5F5F5F5F5F5F5F5F5F5F5F5F5F5F5F5F5F5F5F5F5F5F5F5F5F5F5F5F5F5F5F5F5F5F5F5F5F5F5F5F5F5F5F5F5F5F5F5F5F5F5F5F5
310
F5F5F5F5F5F5F5F5F5F5F5F5F5F5F5F5F5F5F5F5F5F5F5F5F5F5F5F5F5F5F5F5F5F5F5F5F5F5F5F5F5F5F5F5F5F5F5F5F5F5F5F5F5F5F5F5F5F5F5F5F5F5F5E2F5F5F5F5F5F5F5F5F5F5F5E2E2EFE2F5F5F5F5F5F5F5F5F5F5F5E2F5F5F5F5F5F5F5F5F5F5F5F5F5F5F5F5F5F5F5F5F5F5F5F5F5F5F5F5F5F5F5F5F5F5F5F5
310
F5F5F5F5F5F5F5F5F5F5F5F5F5F5F5F5F5F5F5F5F5F5F5F5F5F5F5F5F5F5F5F5F5F5F5F5F5F5F5F5F5F5F5F5F5F5F5F5F5F5F5F5F5F5F5F5F5F5F5F5F5F5F5F5F5F5F5F5F5F5F5F5F5F5F5F5F5F5F5F5F5F5F5F5F5F5F5F5F5F5F5F5F5F5F5F5F5F5F5F5F5F5F5F5F5F5F5F5F5F5F5F5F5F5F5F5E2F5F5F5F5F5F5F5F5F5F5
310
F5E2E2EFE2F5F5F5F5F5F5F5F5F5F5F5E2F5F5F5F5F5F5F5F5F5F5F5F5F5F5F5F5F5F5F5F5F5F5F5F5F5F5F5F5F5F5F5F5F5F5F5F5F5F5F5F5F5F5F5F5F5F5F5F5F5F5F5F5F5F5F5F5F5F5F5F5F5F5F5F5F5F5F5F5F5F5F5F5F5F5F5F5F5F5F5F5F5F5F5F5F5F5F5F5F5F5F5F5F5F5F5F5F5F5F5F5F5F5F5F5F5F5F5F5F5F5
310
F5F5F5F5F5F5F5F5F5F5F5F5F5F5F5F5F5F5F5F5F5F5F5F5F5F5F5F5F5F5F5F5F5F5F5F5F5F5F5F5F5F5E2F5F5F5F5F5F5F5F5F5F5F5E2E2EFE2F5F5F5F5F5F5F5F5F5F5F5E2F5F5F5F5F5F5F5F5F5F5F5F5F5F5F5F5F5F5F5F5F5F5F5F5F5F5F5F5F5F5F5F5F5F5F5F5F5F5F5F5F5F5F5F5F5F5F5F5F5F5F5F5F5F5F5F5F5
310
F5F5F5F5F5F5F5F5F5F5F5F5F5F5F5F5F5F5F5F5F5F5F5F5F5F5F5F5F5F5F5F5F5F5F5F5F5F5F5F5F5F5F5F5F5F5F5F5F5F5F5F5F5F5F5F5F5F5F5F5F5F5F5F5F5F5F5F5F5F5F5F5F5F5F5F5F5F5F5F5F5F5F5F5F5F5F5F5F5F5F5F5F5F5F5E2F5F5F5F5F5F5F5F5F5F5F5E2E2EFE2F5F5F5F5F5F5F5F5F5F5F5E2F5F5F5F5
310
F5F5F5F5F5F5F5F5F5F5F5F5F5F5F5F5F5F5F5F5F5F5F5F5F5F5F5F5F5F5F5F5F5F5F5F5F5F5F5F5F5F5F5F5F5F5F5F5F5F5F5F5F5F5F5F5F5F5F5F5F5F5F5F5F5F5F5F5F5F5F5F5F5F5F5F5F5F5F5F5F5F5F5F5F5F5F5F5F5F5F5F5F5F5F5F5F5F5F5F5F5F5F5F5F5F5F5F5F5F5F5F5F5F5F5F5F5F5F5F5F5F5F5F5F5F5F5
310
F5F5F5F5F5F5F5F5F5F5F5F5F5F5F5F5F5F5F5F5F5E2F5F5F5F5F5F5F5F5F5F5F5E2E2EFE2F5F5F5F5F5F5F5F5F5F5F5E2F5F5F5F5F5F5F5F5F5F5F5F5F5F5F5F5F5F5F5F5F5F5F5F5F5F5F5F5F5F5F5F5F5F5F5F5F5F5F5F5F5F5F5F5F5F5F5F5F5F5F5F5F5F5F5F5F5F5F5F5F5F5F5F5F5F5F5F5F5F5F5F5F5F5F5F5F5F5
310
F5F5F5F5F5F5F5F5F5F5F5F5F5F5F5F5F5F5F5F5F5F5F5F5F5F5F5F5F5F5F5F5F5F5F5F5F5F5F5F5F5F5F5F5F5F5F5F5F5F5F5F5F5F5F5F5F5F5F5F5F5F5F5F5F5F5F5F5F5F5F5F5F5F5E2F5F5F5F5F5F5F5F5F5F5F5E2E2EFE2F5F5F5F5F5F5F5F5F5F5F5E2F5F5F5F5F5F5F5F5F5F5F5F5F5F5F5F5F5F5F5F5F5F5F5F5F5
310
F5F5F5F5F5F5F5F5F5F5F5F5F5F5F5F5F5F5F5F5F5F5F5F5F5F5F5F5F5F5F5F5F5F5F5F5F5F5F5F5F5F5F5F5F5F5F5F5F5F5F5F5F5F5F5F5F5F5F5F5F5F5F5F5F5F5F5F5F5F5F5F5F5F5F5F5F5F5F5F5F5F5F5F5F5F5F5F5F5F5F5F5F5F5F5F5F5F5F5F5F5F5F5F5F5F5F5F5F5F5F5F5F5F5F5F5F5F5F5F5F5F5F5F5F5F5F5
310
E2F5F5F5F5F5F5F5F5F5F5F5E2E2EFE2F5F5F5F5F5F5F5F5F5F5F5E2F5F5F5F5F5F5F5F5F5F5F5F5F5F5F5F5F5F5F5F5F5F5F5F5F5F5F5F5F5F5F5F5F5F5F5F5F5F5F5F5F5F5F5F5F5F5F5F5F5F5F5F5F5F5F5F5F5F5F5F5F5F5F5F5F5F5F5F5F5F5F5F5F5F5F5F5F5F5F5F5F5F5F5F5F5F5F5F5F5F5F5F5F5F5F5F5F5F5F5
310
F5F5F5F5F5F5F5F5F5F5F5F5F5F5F5F5F5F5F5F5F5F5F5F5F5F5F5F5F5F5F5F5F5F5F5F5F5F5F5F5F5F5F5F5F5F5F5F5F5F5F5F5F5E2F5F5F5F5F5F5F5F5F5F5F5E2E2EFE2F5F5F5F5F5F5F5F5F5F5F5E2F5F5F5F5F5F5F5F5F5F5F5F5F5F5F5F5F5F5F5F5F5F5F5F5F5F5F5F5F5F5F5F5F5F5F5F5F5F5F5F5F5F5F5F5F5F5
310
F5F5F5F5F5F5F5F5F5F5F5F5F5F5F5F5F5F5F5F5F5F5F5F5F5F5F5F5F5F5F5F5F5F5F5F5F5F5F5F5F5F5F5F5F5F5F5F5F5F5F5F5F5F5F5F5F5F5F5F5F5F5F5F5F5F5F5F5F5F5F5F5F5F5F5F5F5F5F5F5F5F5F5F5F5F5F5F5F5F5F5F5F5F5F5F5F5F5F5F5F5F5F5F5F5F5E2F5F5F5F5F5F5F5F5F5F5F5E2E2EFE2F5F5F5F5F5
310
F5F5F5F5F5F5E2F5F5F5F5F5F5F5F5F5F5F5F5F5F5F5F5F5F5F5F5F5F5F5F5F5F5F5F5F5F5F5F5F5F5F5F5F5F5F5F5F5F5F5F5F5F5F5F5F5F5F5F5F5F5F5F5F5F5F5F5F5F5F5F5F5F5F5F5F5F5F5F5F5F5F5F5F5F5F5F5F5F5F5F5F5F5F5F5F5F5F5F5F5F5F5F5F5F5F5F5F5F5F5F5F5F5F5F5F5F5F5F5F5F5F5F5F5F5F5F5
310
F5F5F5F5F5F5F5F5F5F5F5F5F5F5F5F5F5F5F5F5F5F5F5F5F5F5F5F5F5F5F5F5E2F5F5F5F5F5F5F5F5F5F5F5E2E2EFE2F5F5F5F5F5F5F5F5F5F5F5E2F5F5F5F5F5F5F5F5F5F5F5F5F5F5F5F5F5F5F5F5F5F5F5F5F5F5F5F5F5F5F5F5F5F5F5F5F5F5F5F5F5F5F5F5F5F5F5F5F5F5F5F5F5F5F5F5F5F5F5F5F5F5F5F5F5F5F5
310
F5F5F5F5F5F5F5F5F5F5F5F5F5F5F5F5F5F5F5F5F5F5F5F5F5F5F5F5F5F5F5F5F5F5F5F5F5F5F5F5F5F5F5F5F5F5F5F5F5F5F5F5F5F5F5F5F5F5F5F5F5F5F5F5F5F5F5F5F5F5F5F5F5F5F5F5F5F5F5F5F5F5F5F5F5E2F5F5F5F5F5F5F5F5F5F5F5E2E2EFE2F5F5F5F5F5F5F5F5F5F5F5E2F5F5F5F5F5F5F5F5F5F5F5F5F5F5
310
F5F5F5F5F5F5F5F5F5F5F5F5F5F5F5F5F5F5F5F5F5F5F5F5F5F5F5F5F5F5F5F5F5F5F5F5F5F5F5F5F5F5F5F5F5F5F5F5F5F5F5F5F5F5F5F5F5F5F5F5F5F5F5F5F5F5F5F5F5F5F5F5F5F5F5F5F5F5F5F5F5F5F5F5F5F5F5F5F5F5F5F5F5F5F5F5F5F5F5F5F5F5F5F5F5F5F5F5F5F5F5F5F5F5F5F5F5F5F5F5F5F5F5F5F5F5F5
310
F5F5F5F5F5F5F5F5F5F5F5E2F5F5F5F5F5F5F5F5F5F5F5E2E2EFE2F5F5F5F5F5F5F5F5F5F5F5E2F5F5F5F5F5F5F5F5F5F5F5F5F5F5F5F5F5F5F5F5F5F5F5F5F5F5F5F5F5F5F5F5F5F5F5F5F5F5F5F5F5F5F5F5F5F5F5F5F5F5F5F5F5F5F5F5F5F5F5F5F5F5F5F5F5F5F5F5F5F5F5F5F5F5F5F5F5F5F5F5F5F5F5F5F5F5F5F5
310
F5F5F5F5F5F5F5F5F5F5F5F5F5F5F5F5F5F5F5F5F5F5F5F5F5F5F5F5F5F5F5F5F5F5F5F5F5F5F5F5F5F5F5F5F5F5F5F5F5F5F5F5F5F5F5F5F5F5F5F5F5F5F5F5E2F5F5F5F5F5F5F5F5F5F5F5E2E2EFE2F5F5F5F5F5F5F5F5F5F5F5F5F5F5F5F5F5F5F5F5F5F5F5F5F5F5F5F5F5F5F5F5F5F5F5F5F5F5F5F5F5F5F5F5F5F5F5
310
F5F5F5F5F5F5F5F5F5F5F5F5F5F5F5F5F5F5F5F5F5F5F5F5F5F5F5F5F5F5F5F5F5F5F5F5F5F5F5F5F5F5F5F5F5F5F5F5F5F5F5F5F5F5F5F5F5F5F5F5F5F5F5F5F5F5F5F5F5F5F5F5F5F5F5F5F5F5F5F5F5F5F5F5F5F5F5F5F5F5F5F5F5F5F5F5F5F5F5F5F5F5F5F5F5F5F5F5F5F5F5F5F5F5F5F5F5F5F5F5F5F5F5F5F5F5F5
310
F5F5E2E2EFE2F5F5F5F5F5F5F5F5F5F5F5F5F5F5F5F5F5F5F5F5F5F5F5F5F5F5F5F5F5F5F5F5F5F5F5F5F5F5F5F5F5F5F5F5F5F5F5F5F5F5F5F5F5F5F5F5F5F5F5F5F5F5F5F5F5F5F5F5F5F5F5F5F5F5F5F5F5F5F5F5F5F5F5F5F5F5F5F5F5F5F5F5F5F5F5F5F5F5F5F5F5F5F5F5F5F5F5F5F5F5F5F5F5F5F5F5F5F5F5F5F5
310
F5F5F5F5F5F5F5F5F5F5F5F5F5F5F5F5F5F5F5F5F5F5F5F5F5F5F5F5F5F5F5F5F5F5F5F5F5F5F5F5F5F5F5F5F5F5F5F5F5F5F5F5F5F5F5E2E2EFE2F5F5F5F5F5F5F5F5F5F5F5F5F5F5F5F5F5F5F5F5F5F5F5F5F5F5F5F5F5F5F5F5F5F5F5F5F5F5F5F5F5F5F5F5F5F5F5F5F5F5F5F5F5F5F5F5F5F5F5F5F5F5F5F5F5F5F5F5
310
F5F5F5F5F5F5F5F5F5F5F5F5F5F5F5F5F5F5F5F5F5F5F5F5F5F5F5F5F5F5F5F5F5F5F5F5F5F5F5F5F5F5F5F5F5F5F5F5F5F5F5F5F5F5F5F5F5F5F5F5F5F5F5F5F5F5F5F5F5F5F5F5F5F5F5F5F5F5F5F5F5F5F5F5F5F5F5F5F5F5F5F5F5F5F5F5F5F5F5F5F5F5F5F5F5F5F5F5E2E2EFE2F5F5F5F5F5F5F5F5F5F5F5F5F5F5F5
310
F5F5F5F5F5F5F5F5F5F5F5F5F5F5F5F5F5F5F5F5F5F5F5F5F5F5F5F5F5F5F5F5F5F5F5F5F5F5F5F5F5F5F5F5F5F5F5F5F5F5F5F5F5F5F5F5F5F5F5F5F5F5F5F5F5F5F5F5F5F5F5F5F5F5F5F5F5F5F5F5F5F5F5F5F5F5F5F5F5F5F5F5F5F5F5F5F5F5F5F5F5F5F5F5F5F5F5F5F5F5F5F5F5F5F5F5F5F5F5F5F5F5F5F5F5F5F5
310
F5F5F5F5F5F5F5F5F5F5F5F5F5F5F5F5F5F5F5F5F5F5F5F5F5F5F5F5F5F5F5F5F5F5E2E2EFE2F5F5F5F5F5F5F5F5F5F5F5F5F5F5F5F5F5F5F5F5F5F5F5F5F5F5F5F5F5F5F5F5F5F5F5F5F5F5F5F5F5F5F5F5F5F5F5F5F5F5F5F5F5F5F5F5F5F5F5F5F5F5F5F5F5F5F5F5F5F5F5F5F5F5F5F5F5F5F5F5F5F5F5F5F5F5F5F5F5
310
F5F5F5F5F5F5F5F5F5F5F5F5F5F5F5F5F5F5F5F5F5F5F5F5F5F5F5F5F5F5F5F5F5F5F5F5F5F5F5F5F5F5F5F5F5F5F5F5F5F5F5F5F5F5F5F5F5F5F5F5F5F5F5F5F5F5F5F5F5F5F5F5F5F5F5F5F5F5F5F5F5F5F5F5F5F5F5E2E2EFE2F5F5F5F5F5F5F5F5F5F5F5F5F5F5F5F5F5F5F5F5F5F5F5F5F5F5F5F5F5F5F5F5F5F5F5F5
310
F5F5F5F5F5F5F5F5F5F5F5F5F5F5F5F5F5F5F5F5F5F5F5F5F5F5F5F5F5F5F5F5F5F5F5F5F5F5F5F5F5F5F5F5F5F5F5F5F5F5F5F5F5F5F5F5F5F5F5F5F5F5F5F5F5F5F5F5F5F5F5F5F5F5F5F5F5F5F5F5F5F5F5F5F5F5F5F5F5F5F5F5F5F5F5F5F5F5F5F5F5F5F5F5F5F5F5F5F5F5F5F5F5F5F5F5F5F5F5F5F5F5F5F5F5F5F5
310
F5F5F5F5F5F5F5F5F5F5F5F5F5E2E2EFE2F5F5F5F5F5F5F5F5F5F5F5F5F5F5F5F5F5F5F5F5F5F5F5F5F5F5F5F5F5F5F5F5F5F5F5F5F5F5F5F5F5F5F5F5F5F5F5F5F5F5F5F5F5F5F5F5F5F5F5F5F5F5F5F5F5F5F5F5F5F5F5F5F5F5F5F5F5F5F5F5F5F5F5F5F5F5F5F5F5F5F5F5F5F5F5F5F5F5F5F5F5F5F5F5F5F5F5F5F5F5
310
F5F5F5F5F5F5F5F5F5F5F5F5F5F5F5F5F5F5F5F5F5F5F5F5F5F5F5F5F5F5F5F5F5F5F5F5F5F5F5F5F5F5F5F5F5F5F5F5F5F5F5F5F5F5F5F5F5F5F5F5F5F5F5F5F5F5E2E2EFE2F5F5F5F5F5F5F5F5F5F5F5F5F5F5F5F5F5F5F5F5F5F5F5F5F5F5F5F5F5F5F5F5F5F5F5F5F5F5F5F5F5F5F5F5F5F5F5F5F5F5F5F5F5F5F5F5F5
310
F5F5F5F5F5F5F5F5F5F5F5F5F5F5F5F5F5F5F5F5F5F5F5F5F5F5F5F5F5F5F5F5F5F5F5F5F5F5F5F5F5F5F5F5F5F5F5F5F5F5F5F5F5F5F5F5F5F5F5F5F5F5F5F5F5F5F5F5F5F5F5F5F5F5F5F5F5F5F5F5F5F5F5F5F5F5F5F5F5F5F5F5F5F5F5F5F5F5F5F5F5F5F5F5F5F5F5F5F5F5F5F5F5F5F5F5F5F5F5E2E2EFE2F5F5F5F5
310
F5F5F5F5F5F5F5E2F5F5F5F5F5F5F5F5F5F5F5F5F5F5F5F5F5F5F5F5F5F5F5F5F5F5F5F5F5F5F5F5F5F5F5F5F5F5F5F5F5F5F5F5F5F5F5F5F5F5F5F5F5F5F5F5F5F5F5F5F5F5F5F5F5F5F5F5F5F5F5F5F5F5F5F5F5F5F5F5F5F5F5F5F5F5F5F5F5F5F5F5F5F5F5F5F5F5F5F5F5F5F5F5F5F5F5F5F5F5F5F5F5F5F5F5F5F5F5
310
F5F5F5F5F5F5F5F5F5F5F5F5F5F5F5F5F5F5F5F5F5F5F5F5F5F5F5F5F5F5F5F5F5E2F5F5F5F5F5F5F5F5F5F5F5E2E2EFE2F5F5F5F5F5F5F5F5F5F5F5E2F5F5F5F5F5F5F5F5F5F5F5F5F5F5F5F5F5F5F5F5F5F5F5F5F5F5F5F5F5F5F5F5F5F5F5F5F5F5F5F5F5F5F5F5F5F5F5F5F5F5F5F5F5F5F5F5F5F5F5F5F5F5F5F5F5F5
310
F5F5F5F5F5F5F5F5F5F5F5F5F5F5F5F5F5F5F5F5F5F5F5F5F5F5F5F5F5F5F5F5F5F5F5F5F5F5F5F5F5F5F5F5F5F5F5F5F5F5F5F5F5F5F5F5F5F5F5F5F5F5F5F5F5F5F5F5F5F5F5F5F5F5F5F5F5F5F5F5F5F5F5F5F5F5E2F5F5F5F5F5F5F5F5F5F5F5E2E2EFE2F5F5F5F5F5F5F5F5F5F5F5E2F5F5F5F5F5F5F5F5F5F5F5F5F5
310
F5F5F5F5F5F5F5F5F5F5F5F5F5F5F5F5F5F5F5F5F5F5F5F5F5F5F5F5F5F5F5F5F5F5F5F5F5F5F5F5F5F5F5F5F5F5F5F5F5F5F5F5F5F5F5F5F5F5F5F5F5F5F5F5F5F5F5F5F5F5F5F5F5F5F5F5F5F5F5F5F5F5F5F5F5F5F5F5F5F5F5F5F5F5F5F5F5F5F5F5F5F5F5F5F5F5F5F5F5F5F5F5F5F5F5F5F5F5F5F5F5F5F5F5F5F5F5
310
F5F5F5F5F5F5F5F5F5F5F5F5E2F5F5F5F5F5F5F5F5F5F5F5E2E2EFE2F5F5F5F5F5F5F5F5F5F5F5E2F5F5F5F5F5F5F5F5F5F5F5F5F5F5F5F5F5F5F5F5F5F5F5F5F5F5F5F5F5F5F5F5F5F5F5F5F5F5F5F5F5F5F5F5F5F5F5F5F5F5F5F5F5F5F5F5F5F5F5F5F5F5F5F5F5F5F5F5F5F5F5F5F5F5F5F5F5F5F5F5F5F5F5F5F5F5F5
310
F5F5F5F5F5F5F5F5F5F5F5F5F5F5F5F5F5F5F5F5F5F5F5F5F5F5F5F5F5F5F5F5F5F5F5F5F5F5F5F5F5F5F5F5F5F5F5F5F5F5F5F5F5F5F5F5F5F5F5F5F5F5F5F5F5E2F5F5F5F5F5F5F5F5F5F5F5E2E2EFE2F5F5F5F5F5F5F5F5F5F5F5E2F5F5F5F5F5F5F5F5F5F5F5F5F5F5F5F5F5F5F5F5F5F5F5F5F5F5F5F5F5F5F5F5F5F5
310
F5F5F5F5F5F5F5F5F5F5F5F5F5F5F5F5F5F5F5F5F5F5F5F5F5F5F5F5F5F5F5F5F5F5F5F5F5F5F5F5F5F5F5F5F5F5F5F5F5F5F5F5F5F5F5F5F5F5F5F5F5F5F5F5F5F5F5F5F5F5F5F5F5F5F5F5F5F5F5F5F5F5F5F5F5F5F5F5F5F5F5F5F5F5F5F5F5F5F5F5F5F5F5F5F5F5F5F5F5F5F5F5F5F5F5F5F5F5E2F5F5F5F5F5F5F5F5
310
F5F5F5E2E2EFE2F5F5F5F5F5F5F5F5F5F5F5E2F5F5F5F5F5F5F5F5F5F5F5F5F5F5F5F5F5F5F5F5F5F5F5F5F5F5F5F5F5F5F5F5F5F5F5F5F5F5F5F5F5F5F5F5F5F5F5F5F5F5F5F5F5F5F5F5F5F5F5F5F5F5F5F5F5F5F5F5F5F5F5F5F5F5F5F5F5F5F5F5F5F5F5F5F5F5F5F5F5F5F5F5F5F5F5F5F5F5F5F5F5F5F5F5F5F5F5F5
310
F5F5F5F5F5F5F5F5F5F5F5F5F5F5F5F5F5F5F5F5F5F5F5F5F5F5F5F5F5F5F5F5F5F5F5F5F5F5F5F5F5F5F5F5E2F5F5F5F5F5F5F5F5F5F5F5E2E2EFE2F5F5F5F5F5F5F5F5F5F5F5E2F5F5F5F5F5F5F5F5F5F5F5F5F5F5F5F5F5F5F5F5F5F5F5F5F5F5F5F5F5F5F5F5F5F5F5F5F5F5F5F5F5F5F5F5F5F5F5F5F5F5F5F5F5F5F5
310
F5F5F5F5F5F5F5F5F5F5F5F5F5F5F5F5F5F5F5F5F5F5F5F5F5F5F5F5F5F5F5F5F5F5F5F5F5F5F5F5F5F5F5F5F5F5F5F5F5F5F5F5F5F5F5F5F5F5F5F5F5F5F5F5F5F5F5F5F5F5F5F5F5F5F5F5F5F5F5F5F5F5F5F5F5F5F5F5F5F5F5F5F5F5F5F5F5E2F5F5F5F5F5F5F5F5F5F5F5E2E2EFE2F5F5F5F5F5F5F5F5F5F5F5E2E2E2
310
E2E2E2E2E2E2F5F5F5F5F5F5F5F5F5E2E2E2E2E2E2E2E2E2E2E2E2E2E2E2E2F5F5F5F5F5F5F5F5F5E2E2E2E2E2E2E2E2E2E2E2E2E2E2E2E2E2F5F5F5F5F5F5F5F5F5E2E2E2E2E2E2E2E2E2E2E2E2E2E2E2E2F5F5F5F5F5F5F5F5F5E2E2E2E2E2E2E2E2E2E2E2E2E2E2E2E2E2F5F5F5F5F5F5F5F5F5E2E2E2E2E2E2E2E2E2E2
310
E2E2E2E2E2E2F5F5F5F5F5F5F5F5F5E2E2E2E2E2E2E2E2E2F5F5F5F5F5F5F5F5F5F5F5E2E2EFE2F5F5F5F5F5F5F5F5F5F5F5F5F5F5F5F5F5F5F5F5F5F5F5F5F5F5F5F5F5F5F5F5F5F5F5F5F5F5F5F5F5F5F5F5F5F5F5F5F5F5F5F5F5F5F5F5F5F5F5F5F5F5F5F5F5F5F5F5F5F5F5F5F5F5F5F5F5F5F5F5F5F5F5F5F5F5F5F5
310
F5F5F5F5F5F5F5F5F5F5F5F5F5F5F5F5F5F5F5F5F5F5F5F5F5F5F5F5F5F5F5F5F5F5F5F5F5F5F5F5F5F5F5F5F5F5F5F5F5F5F5F5F5F5F5F5F5F5F5F5F5F5F5F5F5F5F5F5F5F5F5F5F5F5F5F5F5F5F5F5F5F5F5F5F5F5F5F5E2E2EFE2F5F5F5F5F5F5F5F5F5F5F5F5F5F5F5F5F5F5F5F5F5F5F5F5F5F5F5F5F5F5F5F5F5F5F5
310
F5F5F5F5F5F5F5F5F5F5F5F5F5F5F5F5F5F5F5F5F5F5F5F5F5F5F5F5F5F5F5F5F5F5F5F5F5F5F5F5F5F5F5F5F5F5F5F5F5F5F5F5F5F5F5F5F5F5F5F5F5F5F5F5F5F5F5F5F5F5F5F5F5F5F5F5F5F5F5F5F5F5F5F5F5F5F5F5F5F5F5F5F5F5F5F5F5F5F5F5F5F5F5F5F5F5F5F5F5F5F5F5F5F5F5F5F5F5F5F5F5F5F5F5F5F5F5
310
F5F5F5F5F5F5F5F5F5F5F5F5F5F5E2E2EFE2F5F5F5F5F5F5F5F5F5F5F5F5F5F5F5F5F5F5F5F5F5F5F5F5F5F5F5F5F5F5F5F5F5F5F5F5F5F5F5F5F5F5F5F5F5F5F5F5F5F5F5F5F5F5F5F5F5F5F5F5F5F5F5F5F5F5F5F5F5F5F5F5F5F5F5F5F5F5F5F5F5F5F5F5F5F5F5F5F5F5F5F5F5F5F5F5F5F5F5F5F5F5F5F5F5F5F5F5F5
310
F5F5F5F5F5F5F5F5F5F5F5F5F5F5F5F5F5F5F5F5F5F5F5F5F5F5F5F5F5F5F5F5F5F5F5F5F5F5F5F5F5F5F5F5F5F5F5F5F5F5F5F5F5F5F5F5F5F5F5F5F5F5F5F5F5F5F5E2E2EFE2F5F5F5F5F5F5F5F5F5F5F5F5F5F5F5F5F5F5F5F5F5F5F5F5F5F5F5F5F5F5F5F5F5F5F5F5F5F5F5F5F5F5F5F5F5F5F5F5F5F5F5F5F5F5F5F5
310
F5F5F5F5F5F5F5F5F5F5F5F5F5F5F5F5F5F5F5F5F5F5F5F5F5F5F5F5F5F5F5F5F5F5F5F5F5F5F5F5F5F5F5F5F5F5F5F5F5F5F5F5F5F5F5F5F5F5F5F5F5F5F5F5F5F5F5F5F5F5F5F5F5F5F5F5F5F5F5F5F5F5F5F5F5F5F5F5F5F5F5F5F5F5F5F5F5F5F5F5F5F5F5F5F5F5F5F5F5F5F5F5F5F5F5F5F5F5F5F5E2EFEFE2E2E2E2
310
E2E2E2E2E2E2E2E2E2E2E2E2E2E2E2E2E2E2E2E2E2E2E2E2E2E2E2E2E2E2E2E2E2E2E2E2E2E2E2E2E2E2E2E2E2E2E2E2E2E2E2E2E2E2E2E2E2E2E2E2E2E2E2E2E2E2E2E2E2E2E2E2E2E2E2E2E2E2E2E2E2E2E2E2E2E2E2E2E2E2E2E2E2E2E2E2E2E2E2E2E2E2E2E2E2E2E2E2E2E2E2E2E2E2E2E2E2E2E2E2E2E2E2E2E2E2E2
310
E2E2E2E2E2E2E2E2E2E2E2E2E2E2E2E2E2E2E2E2E2E2E2E2E2E2E2E2E2E2E2E2E2E2E2E2E2E2E2E2E2E2E2E2E2E2E2EF
  0
XRECORD
  5
F
102
{ACAD_REACTORS
330
E
102
}
330
E
100
AcDbXrecord
280
     1
270
     1
271
     1
  0
XRECORD
  5
10
102
{ACAD_REACTORS
330
E
102
}
330
E
100
AcDbXrecord
280
     1
270
     1
271
     1
  0
XRECORD
  5
11
102
{ACAD_REACTORS
330
E
102
}
330
E
100
AcDbXrecord
280
     1
270
     1
271
     1
  0
XRECORD
  5
12
102
{ACAD_REACTORS
330
E
102
}
330
E
100
AcDbXrecord
280
     1
270
     1
271
     1
  0
CELLSTYLEMAP
  5
27FAC5
102
{ACAD_REACTORS
330
43
102
}
330
43
100
AcDbCellStyleMap
 90
        3
300
CELLSTYLE
  1
TABLEFORMAT_BEGIN
 90
        5
170
     1
 91
        0
 92
    32768
 62
   257
 93
        1
300
CONTENTFORMAT
  1
CONTENTFORMAT_BEGIN
 90
        0
 91
        0
 92
      512
 93
        0
300

 40
0.0
140
1.0
 94
        5
 62
     0
340
23
144
6.0
309
CONTENTFORMAT_END
171
     1
301
MARGIN
  1
CELLMARGIN_BEGIN
 40
1.5
 40
1.5
 40
1.5
 40
1.5
 40
4.5
 40
4.5
309
CELLMARGIN_END
 94
        6
 95
        1
302
GRIDFORMAT
  1
GRIDFORMAT_BEGIN
 90
        0
 91
        1
 62
     0
 92
       -2
340
26
 93
        0
 40
1.125
309
GRIDFORMAT_END
 95
        2
302
GRIDFORMAT
  1
GRIDFORMAT_BEGIN
 90
        0
 91
        1
 62
     0
 92
       -2
340
26
 93
        0
 40
1.125
309
GRIDFORMAT_END
 95
        4
302
GRIDFORMAT
  1
GRIDFORMAT_BEGIN
 90
        0
 91
        1
 62
     0
 92
       -2
340
26
 93
        0
 40
1.125
309
GRIDFORMAT_END
 95
        8
302
GRIDFORMAT
  1
GRIDFORMAT_BEGIN
 90
        0
 91
        1
 62
     0
 92
       -2
340
26
 93
        0
 40
1.125
309
GRIDFORMAT_END
 95
       16
302
GRIDFORMAT
  1
GRIDFORMAT_BEGIN
 90
        0
 91
        1
 62
     0
 92
       -2
340
26
 93
        0
 40
1.125
309
GRIDFORMAT_END
 95
       32
302
GRIDFORMAT
  1
GRIDFORMAT_BEGIN
 90
        0
 91
        1
 62
     0
 92
       -2
340
26
 93
        0
 40
1.125
309
GRIDFORMAT_END
309
TABLEFORMAT_END
  1
CELLSTYLE_BEGIN
 90
        1
 91
        1
300
_TITLE
309
CELLSTYLE_END
300
CELLSTYLE
  1
TABLEFORMAT_BEGIN
 90
        5
170
     1
 91
        0
 92
        0
 62
   257
 93
        1
300
CONTENTFORMAT
  1
CONTENTFORMAT_BEGIN
 90
        0
 91
        0
 92
      512
 93
        0
300

 40
0.0
140
1.0
 94
        5
 62
     0
340
23
144
4.5
309
CONTENTFORMAT_END
171
     1
301
MARGIN
  1
CELLMARGIN_BEGIN
 40
1.5
 40
1.5
 40
1.5
 40
1.5
 40
4.5
 40
4.5
309
CELLMARGIN_END
 94
        6
 95
        1
302
GRIDFORMAT
  1
GRIDFORMAT_BEGIN
 90
        0
 91
        1
 62
     0
 92
       -2
340
26
 93
        0
 40
1.125
309
GRIDFORMAT_END
 95
        2
302
GRIDFORMAT
  1
GRIDFORMAT_BEGIN
 90
        0
 91
        1
 62
     0
 92
       -2
340
26
 93
        0
 40
1.125
309
GRIDFORMAT_END
 95
        4
302
GRIDFORMAT
  1
GRIDFORMAT_BEGIN
 90
        0
 91
        1
 62
     0
 92
       -2
340
26
 93
        0
 40
1.125
309
GRIDFORMAT_END
 95
        8
302
GRIDFORMAT
  1
GRIDFORMAT_BEGIN
 90
        0
 91
        1
 62
     0
 92
       -2
340
26
 93
        0
 40
1.125
309
GRIDFORMAT_END
 95
       16
302
GRIDFORMAT
  1
GRIDFORMAT_BEGIN
 90
        0
 91
        1
 62
     0
 92
       -2
340
26
 93
        0
 40
1.125
309
GRIDFORMAT_END
 95
       32
302
GRIDFORMAT
  1
GRIDFORMAT_BEGIN
 90
        0
 91
        1
 62
     0
 92
       -2
340
26
 93
        0
 40
1.125
309
GRIDFORMAT_END
309
TABLEFORMAT_END
  1
CELLSTYLE_BEGIN
 90
        2
 91
        1
300
_HEADER
309
CELLSTYLE_END
300
CELLSTYLE
  1
TABLEFORMAT_BEGIN
 90
        5
170
     1
 91
        0
 92
        0
 62
   257
 93
        1
300
CONTENTFORMAT
  1
CONTENTFORMAT_BEGIN
 90
        0
 91
        0
 92
      512
 93
        0
300

 40
0.0
140
1.0
 94
        2
 62
     0
340
23
144
4.5
309
CONTENTFORMAT_END
171
     1
301
MARGIN
  1
CELLMARGIN_BEGIN
 40
1.5
 40
1.5
 40
1.5
 40
1.5
 40
4.5
 40
4.5
309
CELLMARGIN_END
 94
        6
 95
        1
302
GRIDFORMAT
  1
GRIDFORMAT_BEGIN
 90
        0
 91
        1
 62
     0
 92
       -2
340
26
 93
        0
 40
1.125
309
GRIDFORMAT_END
 95
        2
302
GRIDFORMAT
  1
GRIDFORMAT_BEGIN
 90
        0
 91
        1
 62
     0
 92
       -2
340
26
 93
        0
 40
1.125
309
GRIDFORMAT_END
 95
        4
302
GRIDFORMAT
  1
GRIDFORMAT_BEGIN
 90
        0
 91
        1
 62
     0
 92
       -2
340
26
 93
        0
 40
1.125
309
GRIDFORMAT_END
 95
        8
302
GRIDFORMAT
  1
GRIDFORMAT_BEGIN
 90
        0
 91
        1
 62
     0
 92
       -2
340
26
 93
        0
 40
1.125
309
GRIDFORMAT_END
 95
       16
302
GRIDFORMAT
  1
GRIDFORMAT_BEGIN
 90
        0
 91
        1
 62
     0
 92
       -2
340
26
 93
        0
 40
1.125
309
GRIDFORMAT_END
 95
       32
302
GRIDFORMAT
  1
GRIDFORMAT_BEGIN
 90
        0
 91
        1
 62
     0
 92
       -2
340
26
 93
        0
 40
1.125
309
GRIDFORMAT_END
309
TABLEFORMAT_END
  1
CELLSTYLE_BEGIN
 90
        3
 91
        2
300
_DATA
309
CELLSTYLE_END
  0
ENDSEC
  0
EOF
