  0
SECTION
  2
HEADER
  9
$ACADVER
  1
AC1027
  9
$ACADMAINTVER
 70
    55
  9
$DWGCODEPAGE
  3
ANSI_949
  9
$LASTSAVEDBY
  1
DESKTOP
  9
$REQUIREDVERSIONS
160
                 0
  9
$INSBASE
 10
0.0
 20
0.0
 30
0.0
  9
$EXTMIN
 10
-2.761407230552549
 20
-2.757139335387591
 30
-0.000000000000001
  9
$EXTMAX
 10
227.7841192568823
 20
159.7725375026824
 30
0.0000000000000142
  9
$LIMMIN
 10
0.0
 20
0.0
  9
$LIMMAX
 10
420.0
 20
297.0
  9
$ORTHOMODE
 70
     0
  9
$REGENMODE
 70
     1
  9
$FILLMODE
 70
     1
  9
$QTEXTMODE
 70
     0
  9
$MIRRTEXT
 70
     0
  9
$LTSCALE
 40
5.0
  9
$ATTMODE
 70
     1
  9
$TEXTSIZE
 40
3.0
  9
$TRACEWID
 40
1.0
  9
$TEXTSTYLE
  7
Standard
  9
$CLAYER
  8
0
  9
$CELTYPE
  6
Continuous
  9
$CECOLOR
 62
     7
  9
$CELTSCALE
 40
1.0
  9
$DISPSILH
 70
     0
  9
$DIMSCALE
 40
1.0
  9
$DIMASZ
 40
2.5
  9
$DIMEXO
 40
0.625
  9
$DIMDLI
 40
3.75
  9
$DIMRND
 40
0.0
  9
$DIMDLE
 40
0.0
  9
$DIMEXE
 40
1.25
  9
$DIMTP
 40
0.0
  9
$DIMTM
 40
0.000000001
  9
$DIMTXT
 40
3.0
  9
$DIMCEN
 40
-0.5
  9
$DIMTSZ
 40
0.0
  9
$DIMTOL
 70
     0
  9
$DIMLIM
 70
     0
  9
$DIMTIH
 70
     0
  9
$DIMTOH
 70
     0
  9
$DIMSE1
 70
     0
  9
$DIMSE2
 70
     0
  9
$DIMTAD
 70
     1
  9
$DIMZIN
 70
     8
  9
$DIMBLK
  1

  9
$DIMASO
 70
     1
  9
$DIMSHO
 70
     1
  9
$DIMPOST
  1

  9
$DIMAPOST
  1

  9
$DIMALT
 70
     0
  9
$DIMALTD
 70
     3
  9
$DIMALTF
 40
0.03937007874016
  9
$DIMLFAC
 40
1.0
  9
$DIMTOFL
 70
     1
  9
$DIMTVP
 40
0.0
  9
$DIMTIX
 70
     0
  9
$DIMSOXD
 70
     0
  9
$DIMSAH
 70
     0
  9
$DIMBLK1
  1

  9
$DIMBLK2
  1

  9
$DIMSTYLE
  2
Standard
  9
$DIMCLRD
 70
     3
  9
$DIMCLRE
 70
     3
  9
$DIMCLRT
 70
     2
  9
$DIMTFAC
 40
0.7
  9
$DIMGAP
 40
0.625
  9
$DIMJUST
 70
     0
  9
$DIMSD1
 70
     0
  9
$DIMSD2
 70
     0
  9
$DIMTOLJ
 70
     0
  9
$DIMTZIN
 70
     8
  9
$DIMALTZ
 70
     0
  9
$DIMALTTZ
 70
     0
  9
$DIMUPT
 70
     0
  9
$DIMDEC
 70
     8
  9
$DIMTDEC
 70
     8
  9
$DIMALTU
 70
     2
  9
$DIMALTTD
 70
     3
  9
$DIMTXSTY
  7
Standard
  9
$DIMAUNIT
 70
     1
  9
$DIMADEC
 70
     0
  9
$DIMALTRND
 40
0.0
  9
$DIMAZIN
 70
     0
  9
$DIMDSEP
 70
    46
  9
$DIMATFIT
 70
     3
  9
$DIMFRAC
 70
     0
  9
$DIMLDRBLK
  1

  9
$DIMLUNIT
 70
     2
  9
$DIMLWD
 70
    -1
  9
$DIMLWE
 70
    -1
  9
$DIMTMOVE
 70
     0
  9
$DIMFXL
 40
1.0
  9
$DIMFXLON
 70
     0
  9
$DIMJOGANG
 40
0.7853981633974483
  9
$DIMTFILL
 70
     0
  9
$DIMTFILLCLR
 70
     0
  9
$DIMARCSYM
 70
     1
  9
$DIMLTYPE
  6

  9
$DIMLTEX1
  6

  9
$DIMLTEX2
  6

  9
$DIMTXTDIRECTION
 70
     0
  9
$LUNITS
 70
     2
  9
$LUPREC
 70
     4
  9
$SKETCHINC
 40
0.0
  9
$FILLETRAD
 40
0.0
  9
$AUNITS
 70
     0
  9
$AUPREC
 70
     0
  9
$MENU
  1
.
  9
$ELEVATION
 40
0.0
  9
$PELEVATION
 40
0.0
  9
$THICKNESS
 40
0.0
  9
$LIMCHECK
 70
     0
  9
$CHAMFERA
 40
1.5
  9
$CHAMFERB
 40
1.5
  9
$CHAMFERC
 40
0.0
  9
$CHAMFERD
 40
0.0087266462599716
  9
$SKPOLY
 70
     0
  9
$TDCREATE
 40
2455072.745932974
  9
$TDUCREATE
 40
2455072.370932974
  9
$TDUPDATE
 40
2460823.669679584
  9
$TDUUPDATE
 40
2460823.294679584
  9
$TDINDWG
 40
131.6307621991
  9
$TDUSRTIMER
 40
131.6307620139
  9
$USRTIMER
 70
     1
  9
$ANGBASE
 50
0.0
  9
$ANGDIR
 70
     0
  9
$PDMODE
 70
     0
  9
$PDSIZE
 40
0.0
  9
$PLINEWID
 40
0.0
  9
$SPLFRAME
 70
     0
  9
$SPLINETYPE
 70
     6
  9
$SPLINESEGS
 70
     8
  9
$HANDSEED
  5
2706B
  9
$SURFTAB1
 70
     6
  9
$SURFTAB2
 70
     6
  9
$SURFTYPE
 70
     6
  9
$SURFU
 70
     6
  9
$SURFV
 70
     6
  9
$UCSBASE
  2

  9
$UCSNAME
  2

  9
$UCSORG
 10
0.0
 20
0.0
 30
0.0
  9
$UCSXDIR
 10
1.0
 20
0.0
 30
0.0
  9
$UCSYDIR
 10
0.0
 20
1.0
 30
0.0
  9
$UCSORTHOREF
  2

  9
$UCSORTHOVIEW
 70
     0
  9
$UCSORGTOP
 10
0.0
 20
0.0
 30
0.0
  9
$UCSORGBOTTOM
 10
0.0
 20
0.0
 30
0.0
  9
$UCSORGLEFT
 10
0.0
 20
0.0
 30
0.0
  9
$UCSORGRIGHT
 10
0.0
 20
0.0
 30
0.0
  9
$UCSORGFRONT
 10
0.0
 20
0.0
 30
0.0
  9
$UCSORGBACK
 10
0.0
 20
0.0
 30
0.0
  9
$PUCSBASE
  2

  9
$PUCSNAME
  2

  9
$PUCSORG
 10
0.0
 20
0.0
 30
0.0
  9
$PUCSXDIR
 10
1.0
 20
0.0
 30
0.0
  9
$PUCSYDIR
 10
0.0
 20
1.0
 30
0.0
  9
$PUCSORTHOREF
  2

  9
$PUCSORTHOVIEW
 70
     0
  9
$PUCSORGTOP
 10
0.0
 20
0.0
 30
0.0
  9
$PUCSORGBOTTOM
 10
0.0
 20
0.0
 30
0.0
  9
$PUCSORGLEFT
 10
0.0
 20
0.0
 30
0.0
  9
$PUCSORGRIGHT
 10
0.0
 20
0.0
 30
0.0
  9
$PUCSORGFRONT
 10
0.0
 20
0.0
 30
0.0
  9
$PUCSORGBACK
 10
0.0
 20
0.0
 30
0.0
  9
$USERI1
 70
     0
  9
$USERI2
 70
     0
  9
$USERI3
 70
     0
  9
$USERI4
 70
     0
  9
$USERI5
 70
     0
  9
$USERR1
 40
0.0
  9
$USERR2
 40
0.0
  9
$USERR3
 40
0.0
  9
$USERR4
 40
0.0
  9
$USERR5
 40
0.0
  9
$WORLDVIEW
 70
     1
  9
$SHADEDGE
 70
     3
  9
$SHADEDIF
 70
    70
  9
$TILEMODE
 70
     1
  9
$MAXACTVP
 70
    64
  9
$PINSBASE
 10
0.0
 20
0.0
 30
0.0
  9
$PLIMCHECK
 70
     0
  9
$PEXTMIN
 10
1.000000000000000E+20
 20
1.000000000000000E+20
 30
1.000000000000000E+20
  9
$PEXTMAX
 10
-1.000000000000000E+20
 20
-1.000000000000000E+20
 30
-1.000000000000000E+20
  9
$PLIMMIN
 10
-20.0
 20
-7.5
  9
$PLIMMAX
 10
277.0
 20
202.5
  9
$UNITMODE
 70
     0
  9
$VISRETAIN
 70
     1
  9
$PLINEGEN
 70
     0
  9
$PSLTSCALE
 70
     1
  9
$TREEDEPTH
 70
  3020
  9
$CMLSTYLE
  2
Standard
  9
$CMLJUST
 70
     0
  9
$CMLSCALE
 40
20.0
  9
$PROXYGRAPHICS
 70
     1
  9
$MEASUREMENT
 70
     1
  9
$CELWEIGHT
370
    -1
  9
$ENDCAPS
280
     0
  9
$JOINSTYLE
280
     0
  9
$LWDISPLAY
290
     0
  9
$INSUNITS
 70
     4
  9
$HYPERLINKBASE
  1

  9
$STYLESHEET
  1
ksm0910.ctb
  9
$XEDIT
290
     1
  9
$CEPSNTYPE
380
     0
  9
$PSTYLEMODE
290
     1
  9
$FINGERPRINTGUID
  2
{D2C70C36-9B4F-4E20-9CCB-531AA1EE4AC8}
  9
$VERSIONGUID
  2
{A6DF90B8-9D5C-4DFF-8F55-B43C575C86AF}
  9
$EXTNAMES
290
     1
  9
$PSVPSCALE
 40
0.0
  9
$OLESTARTUP
290
     0
  9
$SORTENTS
280
   127
  9
$INDEXCTL
280
     0
  9
$HIDETEXT
280
     1
  9
$XCLIPFRAME
280
     2
  9
$HALOGAP
280
     0
  9
$OBSCOLOR
 70
   257
  9
$OBSLTYPE
280
     0
  9
$INTERSECTIONDISPLAY
280
     0
  9
$INTERSECTIONCOLOR
 70
   257
  9
$DIMASSOC
280
     1
  9
$PROJECTNAME
  1

  9
$CAMERADISPLAY
290
     0
  9
$LENSLENGTH
 40
50.0
  9
$CAMERAHEIGHT
 40
0.0
  9
$STEPSPERSEC
 40
2.0
  9
$STEPSIZE
 40
6.0
  9
$3DDWFPREC
 40
2.0
  9
$PSOLWIDTH
 40
5.0
  9
$PSOLHEIGHT
 40
80.0
  9
$LOFTANG1
 40
1.570796326794896
  9
$LOFTANG2
 40
1.570796326794896
  9
$LOFTMAG1
 40
0.0
  9
$LOFTMAG2
 40
0.0
  9
$LOFTPARAM
 70
     7
  9
$LOFTNORMALS
280
     1
  9
$LATITUDE
 40
37.795
  9
$LONGITUDE
 40
-122.394
  9
$NORTHDIRECTION
 40
0.0
  9
$TIMEZONE
 70
 -8000
  9
$LIGHTGLYPHDISPLAY
280
     1
  9
$TILEMODELIGHTSYNCH
280
     1
  9
$CMATERIAL
347
3D
  9
$SOLIDHIST
280
     1
  9
$SHOWHIST
280
     1
  9
$DWFFRAME
280
     2
  9
$DGNFRAME
280
     0
  9
$REALWORLDSCALE
290
     1
  9
$INTERFERECOLOR
 62
     1
  9
$INTERFEREOBJVS
345
46
  9
$INTERFEREVPVS
346
47
  9
$CSHADOW
280
     0
  9
$SHADOWPLANELOCATION
 40
0.0
  0
ENDSEC
  0
SECTION
  2
CLASSES
  0
CLASS
  1
ACDBDICTIONARYWDFLT
  2
AcDbDictionaryWithDefault
  3
ObjectDBX Classes
 90
        0
 91
        1
280
     0
281
     0
  0
CLASS
  1
DICTIONARYVAR
  2
AcDbDictionaryVar
  3
ObjectDBX Classes
 90
        0
 91
       18
280
     0
281
     0
  0
CLASS
  1
TABLESTYLE
  2
AcDbTableStyle
  3
ObjectDBX Classes
 90
     4095
 91
        1
280
     0
281
     0
  0
CLASS
  1
MATERIAL
  2
AcDbMaterial
  3
ObjectDBX Classes
 90
     1153
 91
        3
280
     0
281
     0
  0
CLASS
  1
VISUALSTYLE
  2
AcDbVisualStyle
  3
ObjectDBX Classes
 90
     4095
 91
       26
280
     0
281
     0
  0
CLASS
  1
SCALE
  2
AcDbScale
  3
ObjectDBX Classes
 90
     1153
 91
       17
280
     0
281
     0
  0
CLASS
  1
MLEADERSTYLE
  2
AcDbMLeaderStyle
  3
ACDB_MLEADERSTYLE_CLASS
 90
     4095
 91
        1
280
     0
281
     0
  0
CLASS
  1
CELLSTYLEMAP
  2
AcDbCellStyleMap
  3
ObjectDBX Classes
 90
     1152
 91
        2
280
     0
281
     0
  0
CLASS
  1
SORTENTSTABLE
  2
AcDbSortentsTable
  3
ObjectDBX Classes
 90
        0
 91
        1
280
     0
281
     0
  0
CLASS
  1
DIMASSOC
  2
AcDbDimAssoc
  3
"AcDbDimAssoc|Product Desc:     AcDim ARX App For Dimension|Company:          Autodesk, Inc.|WEB Address:      www.autodesk.com"
 90
        0
 91
        0
280
     0
281
     0
  0
CLASS
  1
SOLID_BACKGROUND
  2
AcDbSolidBackground
  3
SCENEOE
 90
     4095
 91
        0
280
     0
281
     0
  0
CLASS
  1
NPOCOLLECTION
  2
AcDbImpNonPersistentObjectsCollection
  3
ObjectDBX Classes
 90
     1153
 91
        0
280
     0
281
     0
  0
CLASS
  1
ACAD_EVALUATION_GRAPH
  2
AcDbEvalGraph
  3
ObjectDBX Classes
 90
     1153
 91
        0
280
     0
281
     0
  0
CLASS
  1
ACAECUSTOBJ
  2
AcAeEditorObj
  3
AcAeEditorObj
 90
     1024
 91
        0
280
     1
281
     0
  0
CLASS
  1
ACDB_DYNAMICBLOCKPURGEPREVENTER_VERSION
  2
AcDbDynamicBlockPurgePreventer
  3
ObjectDBX Classes
 90
     1153
 91
        0
280
     0
281
     0
  0
CLASS
  1
HELIX
  2
AcDbHelix
  3
ObjectDBX Classes
 90
     4095
 91
        0
280
     0
281
     1
  0
CLASS
  1
MULTILEADER
  2
AcDbMLeader
  3
ACDB_MLEADER_CLASS
 90
     1025
 91
        1
280
     0
281
     1
  0
CLASS
  1
ACMDIMBREAKPERSREACTOR
  2
AcmDimBreakPersReactor
  3
amgDimApp().moduleName()
 90
     1023
 91
        0
280
     1
281
     0
  0
CLASS
  1
ACDB_MTEXTOBJECTCONTEXTDATA_CLASS
  2
AcDbMTextObjectContextData
  3
ObjectDBX Classes
 90
     1153
 91
        0
280
     0
281
     0
  0
CLASS
  1
BREAKDATA
  2
AcDbBreakData
  3
ObjectDBX Classes
 90
     1024
 91
        0
280
     0
281
     0
  0
CLASS
  1
EXACXREFPANELOBJECT
  2
ExAcXREFPanelObject
  3
EXAC_ESW
 90
     1025
 91
        0
280
     1
281
     0
  0
CLASS
  1
ACDBSECTIONVIEWSTYLE
  2
AcDbSectionViewStyle
  3
ObjectDBX Classes
 90
     1025
 91
        1
280
     0
281
     0
  0
CLASS
  1
ACDBDETAILVIEWSTYLE
  2
AcDbDetailViewStyle
  3
ObjectDBX Classes
 90
     1025
 91
        1
280
     0
281
     0
  0
ENDSEC
  0
SECTION
  2
TABLES
  0
TABLE
  2
VPORT
  5
2C
102
{ACAD_XDICTIONARY
360
31
102
}
330
0
100
AcDbSymbolTable
 70
     1
  0
VPORT
  5
2D
330
2C
100
AcDbSymbolTableRecord
100
AcDbViewportTableRecord
  2
*Active
 70
     0
 10
0.0
 20
0.0
 11
1.0
 21
1.0
 12
112.5104547421412
 22
78.51299136644358
 13
0.0
 23
0.0
 14
2.0
 24
2.0
 15
2.0
 25
2.0
 16
0.0
 26
0.0
 36
1.0
 17
0.0
 27
0.0
 37
0.0
 40
163.7274201614818
 41
2.15871121718377
 42
50.0
 43
0.0
 44
0.0
 50
0.0
 51
0.0
 71
     0
 72
  1000
 73
     1
 74
     3
 75
     0
 76
     0
 77
     0
 78
     1
281
     0
 65
     1
110
0.0
120
0.0
130
0.0
111
1.0
121
0.0
131
0.0
112
0.0
122
1.0
132
0.0
 79
     0
146
0.0
348
2E
 60
     3
 61
     5
292
     1
282
     1
141
0.0
142
0.0
 63
   250
421
  3355443
1001
ACAD_NAV_VCDISPLAY
1070
     3
  0
ENDTAB
  0
TABLE
  2
LTYPE
  5
27
330
0
100
AcDbSymbolTable
 70
     3
  0
LTYPE
  5
28
330
27
100
AcDbSymbolTableRecord
100
AcDbLinetypeTableRecord
  2
ByBlock
 70
     0
  3

 72
    65
 73
     0
 40
0.0
  0
LTYPE
  5
29
330
27
100
AcDbSymbolTableRecord
100
AcDbLinetypeTableRecord
  2
ByLayer
 70
     0
  3

 72
    65
 73
     0
 40
0.0
  0
LTYPE
  5
14
330
27
100
AcDbSymbolTableRecord
100
AcDbLinetypeTableRecord
  2
Continuous
 70
     0
  3
Solid line
 72
    65
 73
     0
 40
0.0
  0
LTYPE
  5
4DD
330
27
100
AcDbSymbolTableRecord
100
AcDbLinetypeTableRecord
  2
CENTER
 70
     0
  3
____ _ ____ _ ____ _ ____ _ ____ _ ____ _ ____ 
 72
    65
 73
     4
 40
2.0
 49
1.25
 74
     0
 49
-0.25
 74
     0
 49
0.25
 74
     0
 49
-0.25
 74
     0
  0
LTYPE
  5
268FC
330
27
100
AcDbSymbolTableRecord
100
AcDbLinetypeTableRecord
  2
HIDDEN
 70
     0
  3
Hidden __ __ __ __ __ __ __ __ __ __ __ __ __ _
 72
    65
 73
     2
 40
9.524999999999998
 49
6.349999999999999
 74
     0
 49
-3.174999999999999
 74
     0
  0
ENDTAB
  0
TABLE
  2
LAYER
  5
21
102
{ACAD_XDICTIONARY
360
22
102
}
330
0
100
AcDbSymbolTable
 70
     4
  0
LAYER
  5
6
102
{ACAD_XDICTIONARY
360
7
102
}
330
21
100
AcDbSymbolTableRecord
100
AcDbLayerTableRecord
  2
0
 70
     0
 62
     7
  6
Continuous
370
    -3
390
9
347
C
348
0
  0
LAYER
  5
1A4
330
21
100
AcDbSymbolTableRecord
100
AcDbLayerTableRecord
  2
DEFPOINTS
 70
     0
 62
     7
  6
Continuous
290
     0
370
    -3
390
9
347
C
348
0
  0
LAYER
  5
1DDF3
330
21
100
AcDbSymbolTableRecord
100
AcDbLayerTableRecord
  2
Layer 1
 70
     0
 62
     7
  6
Continuous
370
     0
390
9
347
C
348
0
  0
LAYER
  5
236BF
102
{ACAD_XDICTIONARY
360
236C0
102
}
330
21
100
AcDbSymbolTableRecord
100
AcDbLayerTableRecord
  2
CT
 70
     0
 62
     2
  6
CENTER
370
    -3
390
9
347
C
348
0
  0
ENDTAB
  0
TABLE
  2
STYLE
  5
24
330
0
100
AcDbSymbolTable
 70
     4
  0
STYLE
  5
25
330
24
100
AcDbSymbolTableRecord
100
AcDbTextStyleTableRecord
  2
Standard
 70
     0
 40
3.0
 41
1.0
 50
0.0
 71
     0
 42
3.0
  3
isocp.shx
  4
whgtxt.shx
  0
STYLE
  5
35
330
24
100
AcDbSymbolTableRecord
100
AcDbTextStyleTableRecord
  2
ROMANS
 70
     0
 40
2.5
 41
1.0
 50
0.0
 71
     0
 42
2.5
  3
romans.shx
  4

  0
STYLE
  5
5C
330
24
100
AcDbSymbolTableRecord
100
AcDbTextStyleTableRecord
  2
굴림
 70
     0
 40
3.0
 41
1.0
 50
0.0
 71
     0
 42
3.0
  3

  4

1001
ACAD
1000
Gulim
1071
    33074
  0
ENDTAB
  0
TABLE
  2
VIEW
  5
2A
330
0
100
AcDbSymbolTable
 70
     0
  0
ENDTAB
  0
TABLE
  2
UCS
  5
2B
330
0
100
AcDbSymbolTable
 70
     0
  0
ENDTAB
  0
TABLE
  2
APPID
  5
32
330
0
100
AcDbSymbolTable
 70
    45
  0
APPID
  5
13
330
32
100
AcDbSymbolTableRecord
100
AcDbRegAppTableRecord
  2
ACAD
 70
     0
  0
APPID
  5
1A
330
32
100
AcDbSymbolTableRecord
100
AcDbRegAppTableRecord
  2
ACAD_PSEXT
 70
     0
  0
APPID
  5
37
330
32
100
AcDbSymbolTableRecord
100
AcDbRegAppTableRecord
  2
ACAD_DSTYLE_DIMJAG
 70
     0
  0
APPID
  5
38
330
32
100
AcDbSymbolTableRecord
100
AcDbRegAppTableRecord
  2
ACAD_DSTYLE_DIMTALN
 70
     0
  0
APPID
  5
36
330
32
100
AcDbSymbolTableRecord
100
AcDbRegAppTableRecord
  2
ACAD_DSTYLE_DIMJOGGED_JOGANGLE_SYMBOL
 70
     0
  0
APPID
  5
183
330
32
100
AcDbSymbolTableRecord
100
AcDbRegAppTableRecord
  2
AcAecLayerStandard
 70
     0
  0
APPID
  5
3DE
330
32
100
AcDbSymbolTableRecord
100
AcDbRegAppTableRecord
  2
ACAD_DSTYLE_DIMRADIAL_EXTENSION
 70
     0
  0
APPID
  5
530
330
32
100
AcDbSymbolTableRecord
100
AcDbRegAppTableRecord
  2
GRADIENTCOLOR1ACI
 70
     0
  0
APPID
  5
531
330
32
100
AcDbSymbolTableRecord
100
AcDbRegAppTableRecord
  2
GRADIENTCOLOR2ACI
 70
     0
  0
APPID
  5
30
330
32
100
AcDbSymbolTableRecord
100
AcDbRegAppTableRecord
  2
ACAD_NAV_VCDISPLAY
 70
     0
  0
APPID
  5
C34
330
32
100
AcDbSymbolTableRecord
100
AcDbRegAppTableRecord
  2
ACAD_MLEADERVER
 70
     0
  0
APPID
  5
C97
330
32
100
AcDbSymbolTableRecord
100
AcDbRegAppTableRecord
  2
ACAD_EXEMPT_FROM_CAD_STANDARDS
 70
     0
  0
APPID
  5
D79
330
32
100
AcDbSymbolTableRecord
100
AcDbRegAppTableRecord
  2
AcadAnnoMonitorAlertIconDisabled
 70
     0
  0
APPID
  5
1A45
330
32
100
AcDbSymbolTableRecord
100
AcDbRegAppTableRecord
  2
GENIUS_GENODEF_13
 70
     0
  0
APPID
  5
1A46
330
32
100
AcDbSymbolTableRecord
100
AcDbRegAppTableRecord
  2
GENIUS_GENOBJ-N-FIL_13
 70
     0
  0
APPID
  5
1A47
330
32
100
AcDbSymbolTableRecord
100
AcDbRegAppTableRecord
  2
ACAD_DSTYLE_DIMBREAK
 70
     0
  0
APPID
  5
1A48
330
32
100
AcDbSymbolTableRecord
100
AcDbRegAppTableRecord
  2
GENIUS_GENOBJ-N-HTC_13
 70
     0
  0
APPID
  5
1A49
330
32
100
AcDbSymbolTableRecord
100
AcDbRegAppTableRecord
  2
GENIUS_GENHATCH_13
 70
     0
  0
APPID
  5
1A4A
330
32
100
AcDbSymbolTableRecord
100
AcDbRegAppTableRecord
  2
GENIUS_GENREC_14
 70
     0
  0
APPID
  5
1A4B
330
32
100
AcDbSymbolTableRecord
100
AcDbRegAppTableRecord
  2
GENIUS_GENOBJ-N-REC_13
 70
     0
  0
APPID
  5
1A4C
330
32
100
AcDbSymbolTableRecord
100
AcDbRegAppTableRecord
  2
ACAUTHENVIRON
 70
     0
  0
APPID
  5
1A4D
330
32
100
AcDbSymbolTableRecord
100
AcDbRegAppTableRecord
  2
AcDbDynamicBlockTrueName
 70
     0
  0
APPID
  5
1A4E
330
32
100
AcDbSymbolTableRecord
100
AcDbRegAppTableRecord
  2
AcDbDynamicBlockGUID
 70
     0
  0
APPID
  5
1A4F
330
32
100
AcDbSymbolTableRecord
100
AcDbRegAppTableRecord
  2
AcDbBlockRepETag
 70
     0
  0
APPID
  5
1A50
330
32
100
AcDbSymbolTableRecord
100
AcDbRegAppTableRecord
  2
DCO15
 70
     0
  0
APPID
  5
1A51
330
32
100
AcDbSymbolTableRecord
100
AcDbRegAppTableRecord
  2
ACAD_DSTYLE_DIMTEXT_FILL
 70
     0
  0
APPID
  5
1A52
330
32
100
AcDbSymbolTableRecord
100
AcDbRegAppTableRecord
  2
ACAD_DSTYLE_DIM_LINETYPE
 70
     0
  0
APPID
  5
1A53
330
32
100
AcDbSymbolTableRecord
100
AcDbRegAppTableRecord
  2
ACAD_DSTYLE_DIM_EXT1_LINETYPE
 70
     0
  0
APPID
  5
1A54
330
32
100
AcDbSymbolTableRecord
100
AcDbRegAppTableRecord
  2
ACAD_DSTYLE_DIM_EXT2_LINETYPE
 70
     0
  0
APPID
  5
1A55
330
32
100
AcDbSymbolTableRecord
100
AcDbRegAppTableRecord
  2
ACAD_DSTYLE_DIMINSPECT
 70
     0
  0
APPID
  5
1A56
330
32
100
AcDbSymbolTableRecord
100
AcDbRegAppTableRecord
  2
AcadAnnotative
 70
     0
  0
APPID
  5
1A57
330
32
100
AcDbSymbolTableRecord
100
AcDbRegAppTableRecord
  2
GENIUS_GENDTOL_13
 70
     0
  0
APPID
  5
1A58
330
32
100
AcDbSymbolTableRecord
100
AcDbRegAppTableRecord
  2
GENIUS_GENFIL_13
 70
     0
  0
APPID
  5
1A59
330
32
100
AcDbSymbolTableRecord
100
AcDbRegAppTableRecord
  2
GENIUS_GENOBJ-N-CHA_13
 70
     0
  0
APPID
  5
1A5A
330
32
100
AcDbSymbolTableRecord
100
AcDbRegAppTableRecord
  2
AcadAnnotativeDecomposition
 70
     0
  0
APPID
  5
1A5B
330
32
100
AcDbSymbolTableRecord
100
AcDbRegAppTableRecord
  2
MCAD_NO_VIS
 70
     0
  0
APPID
  5
1A5C
330
32
100
AcDbSymbolTableRecord
100
AcDbRegAppTableRecord
  2
ACAD_TEMP_GRAPHIC
 70
     0
  0
APPID
  5
1A5D
330
32
100
AcDbSymbolTableRecord
100
AcDbRegAppTableRecord
  2
ACATTRIBSERVICES
 70
     0
  0
APPID
  5
1A5E
330
32
100
AcDbSymbolTableRecord
100
AcDbRegAppTableRecord
  2
DESIGNERASSEMBLIES
 70
     0
  0
APPID
  5
1A5F
330
32
100
AcDbSymbolTableRecord
100
AcDbRegAppTableRecord
  2
GENIUS_GENDIMSH_14
 70
     0
  0
APPID
  5
1A60
330
32
100
AcDbSymbolTableRecord
100
AcDbRegAppTableRecord
  2
ACAD_DSTYLE_DIMARC_LENGTH_SYMBOL
 70
     0
  0
APPID
  5
1A61
330
32
100
AcDbSymbolTableRecord
100
AcDbRegAppTableRecord
  2
ACAD_SPLINE_DATA
 70
     0
  0
APPID
  5
1A62
330
32
100
AcDbSymbolTableRecord
100
AcDbRegAppTableRecord
  2
GENIUS_GENOREF_13
 70
     0
  0
APPID
  5
1A63
330
32
100
AcDbSymbolTableRecord
100
AcDbRegAppTableRecord
  2
ACAD_DSTYLE_DIMANGULAR_EXTENSION
 70
     0
  0
APPID
  5
23F4C
330
32
100
AcDbSymbolTableRecord
100
AcDbRegAppTableRecord
  2
HATCHBACKGROUNDCOLOR
 70
     0
  0
ENDTAB
  0
TABLE
  2
DIMSTYLE
  5
33
330
0
100
AcDbSymbolTable
 70
     3
100
AcDbDimStyleTable
 71
     1
340
34
  0
DIMSTYLE
105
34
330
33
100
AcDbSymbolTableRecord
100
AcDbDimStyleTableRecord
  2
Standard
 70
     0
 41
2.5
 73
     0
 77
     3
 78
     8
140
2.5
141
-1.0
147
1.0
175
     1
176
     3
177
     3
178
     2
179
     8
271
     8
272
     8
275
     1
340
35
1001
ACAD_DSTYLE_DIMJOGGED_JOGANGLE_SYMBOL
1070
   384
1040
0.7853981633974483
1001
ACAD_DSTYLE_DIMJAG
1070
   388
1040
1.5
1001
ACAD_DSTYLE_DIMTALN
1070
   392
1070
     0
  0
DIMSTYLE
105
1A8
102
{ACAD_REACTORS
330
26DF6
330
26DF7
330
26E2C
330
26E56
330
26E57
102
}
330
33
100
AcDbSymbolTableRecord
100
AcDbDimStyleTableRecord
  2
Standard$0
 70
     0
 41
2.5
 73
     0
 77
     3
 78
     8
140
2.5
141
-1.0
147
1.0
175
     1
176
     3
177
     3
178
     2
179
     8
271
     8
272
     8
275
     1
340
35
  0
ENDTAB
  0
TABLE
  2
BLOCK_RECORD
  5
1
330
0
100
AcDbSymbolTable
 70
     6
  0
BLOCK_RECORD
  5
2
102
{ACAD_XDICTIONARY
360
3
102
}
330
1
100
AcDbSymbolTableRecord
100
AcDbBlockTableRecord
  2
*Model_Space
340
16
 70
     0
280
     1
281
     0
  0
BLOCK_RECORD
  5
1B
330
1
100
AcDbSymbolTableRecord
100
AcDbBlockTableRecord
  2
*Paper_Space
340
1E
 70
     0
280
     1
281
     0
  0
BLOCK_RECORD
  5
26EAC
330
1
100
AcDbSymbolTableRecord
100
AcDbBlockTableRecord
  2
*D0
340
0
 70
     0
280
     1
281
     0
  0
BLOCK_RECORD
  5
26EB6
330
1
100
AcDbSymbolTableRecord
100
AcDbBlockTableRecord
  2
*D1
340
0
 70
     0
280
     1
281
     0
  0
BLOCK_RECORD
  5
26EE6
330
1
100
AcDbSymbolTableRecord
100
AcDbBlockTableRecord
  2
*D2
340
0
 70
     0
280
     1
281
     0
  0
BLOCK_RECORD
  5
26F16
330
1
100
AcDbSymbolTableRecord
100
AcDbBlockTableRecord
  2
*D3
340
0
 70
     0
280
     1
281
     0
  0
BLOCK_RECORD
  5
26F24
330
1
100
AcDbSymbolTableRecord
100
AcDbBlockTableRecord
  2
*D4
340
0
 70
     0
280
     1
281
     0
  0
ENDTAB
  0
ENDSEC
  0
SECTION
  2
BLOCKS
  0
BLOCK
  5
5
330
2
100
AcDbEntity
  8
0
100
AcDbBlockBegin
  2
*Model_Space
 70
     0
 10
0.0
 20
0.0
 30
0.0
  3
*Model_Space
  1

  0
ENDBLK
  5
15
330
2
100
AcDbEntity
  8
0
100
AcDbBlockEnd
  0
BLOCK
  5
1C
330
1B
100
AcDbEntity
 67
     1
  8
0
100
AcDbBlockBegin
  2
*Paper_Space
 70
     0
 10
0.0
 20
0.0
 30
0.0
  3
*Paper_Space
  1

  0
ENDBLK
  5
1D
330
1B
100
AcDbEntity
 67
     1
  8
0
100
AcDbBlockEnd
  0
BLOCK
  5
26EAD
330
26EAC
100
AcDbEntity
  8
0
 62
     7
100
AcDbBlockBegin
  2
*D0
 70
     1
 10
0.0
 20
0.0
 30
0.0
  3
*D0
  1

  0
LINE
  5
26FBF
330
26EAC
100
AcDbEntity
  8
0
  6
Continuous
 62
     3
440
 16777216
100
AcDbLine
 10
54.60833925945201
 20
110.5026013376538
 30
0.0
 11
13.02576233132654
 21
110.5026013376539
 31
0.0
  0
LINE
  5
26FC0
330
26EAC
100
AcDbEntity
  8
0
  6
Continuous
 62
     3
440
 16777216
100
AcDbLine
 10
14.27576233132653
 20
108.0026013376538
 30
0.0
 11
14.27576233132653
 21
73.72760133765385
 31
0.0
  0
SOLID
  5
26FC1
330
26EAC
100
AcDbEntity
  8
0
  6
Continuous
 62
     3
440
 16777216
100
AcDbTrace
 10
13.85909566465987
 20
108.0026013376538
 30
0.0
 11
14.6924289979932
 21
108.0026013376538
 31
0.0
 12
14.27576233132653
 22
110.5026013376539
 32
0.0
 13
14.27576233132653
 23
110.5026013376539
 33
0.0
  0
MTEXT
  5
26FC2
330
26EAC
100
AcDbEntity
  8
0
  6
Continuous
 62
     2
440
 16777216
100
AcDbMText
 10
12.15046705573597
 20
79.00260133765385
 30
0.0
 40
3.0
 41
0.0
 46
0.0
 71
     5
 72
     1
  1
%%C2.48
 11
0.0000000000000001
 21
1.0
 31
0.0
 73
     1
 44
1.0
  0
POINT
  5
26FC3
330
26EAC
100
AcDbEntity
  8
DEFPOINTS
  6
Continuous
 62
     0
440
 16777216
100
AcDbPoint
 10
55.23333925945201
 20
47.50260133765386
 30
0.0
  0
POINT
  5
26FC4
330
26EAC
100
AcDbEntity
  8
DEFPOINTS
  6
Continuous
 62
     0
440
 16777216
100
AcDbPoint
 10
55.23333925945201
 20
110.5026013376538
 30
0.0
  0
POINT
  5
26FC5
330
26EAC
100
AcDbEntity
  8
DEFPOINTS
  6
Continuous
 62
     0
440
 16777216
100
AcDbPoint
 10
14.27576233132653
 20
110.5026013376539
 30
0.0
  0
ENDBLK
  5
26EAE
330
26EAC
100
AcDbEntity
  8
0
 62
     7
100
AcDbBlockEnd
  0
BLOCK
  5
26EB7
330
26EB6
100
AcDbEntity
  8
0
 62
     7
100
AcDbBlockBegin
  2
*D1
 70
     1
 10
0.0
 20
0.0
 30
0.0
  3
*D1
  1

  0
LINE
  5
26FC6
330
26EB6
100
AcDbEntity
  8
0
  6
Continuous
 62
     3
440
 16777216
100
AcDbLine
 10
105.6503392594523
 20
99.6401013376542
 30
0.0
 11
127.4909534883947
 21
99.6401013376542
 31
0.0
  0
LINE
  5
26FC7
330
26EB6
100
AcDbEntity
  8
0
  6
Continuous
 62
     3
440
 16777216
100
AcDbLine
 10
105.6503392594523
 20
58.36510133765279
 30
0.0
 11
127.4909534883946
 21
58.36510133765278
 31
0.0
  0
LINE
  5
26FC8
330
26EB6
100
AcDbEntity
  8
0
  6
Continuous
 62
     3
440
 16777216
100
AcDbLine
 10
126.2409534883947
 20
97.1401013376542
 30
0.0
 11
126.2409534883947
 21
60.86510133765278
 31
0.0
  0
SOLID
  5
26FC9
330
26EB6
100
AcDbEntity
  8
0
  6
Continuous
 62
     3
440
 16777216
100
AcDbTrace
 10
125.824286821728
 20
97.1401013376542
 30
0.0
 11
126.6576201550613
 21
97.1401013376542
 31
0.0
 12
126.2409534883947
 22
99.6401013376542
 32
0.0
 13
126.2409534883947
 23
99.6401013376542
 33
0.0
  0
SOLID
  5
26FCA
330
26EB6
100
AcDbEntity
  8
0
  6
Continuous
 62
     3
440
 16777216
100
AcDbTrace
 10
125.824286821728
 20
60.86510133765278
 30
0.0
 11
126.6576201550613
 21
60.86510133765278
 31
0.0
 12
126.2409534883947
 22
58.36510133765278
 32
0.0
 13
126.2409534883947
 23
58.36510133765278
 33
0.0
  0
MTEXT
  5
26FCB
330
26EB6
100
AcDbEntity
  8
0
  6
Continuous
 62
     2
440
 16777216
100
AcDbMText
 10
124.1156582128041
 20
79.00260133765318
 30
0.0
 40
3.0
 41
0.0
 46
0.0
 71
     5
 72
     1
  1
%%C1.625
 11
0.0000000000000001
 21
1.0
 31
0.0
 73
     1
 44
1.0
  0
POINT
  5
26FCC
330
26EB6
100
AcDbEntity
  8
DEFPOINTS
  6
Continuous
 62
     0
440
 16777216
100
AcDbPoint
 10
105.0253392594524
 20
99.6401013376542
 30
0.0
  0
POINT
  5
26FCD
330
26EB6
100
AcDbEntity
  8
DEFPOINTS
  6
Continuous
 62
     0
440
 16777216
100
AcDbPoint
 10
105.0253392594524
 20
58.36510133765279
 30
0.0
  0
POINT
  5
26FCE
330
26EB6
100
AcDbEntity
  8
DEFPOINTS
  6
Continuous
 62
     0
440
 16777216
100
AcDbPoint
 10
126.2409534883947
 20
58.36510133765278
 30
0.0
  0
ENDBLK
  5
26EB8
330
26EB6
100
AcDbEntity
  8
0
 62
     7
100
AcDbBlockEnd
  0
BLOCK
  5
26EE7
330
26EE6
100
AcDbEntity
  8
0
 62
     7
100
AcDbBlockBegin
  2
*D2
 70
     1
 10
0.0
 20
0.0
 30
0.0
  3
*D2
  1

  0
LINE
  5
26FCF
330
26EE6
100
AcDbEntity
  8
0
  6
Continuous
 62
     3
440
 16777216
100
AcDbLine
 10
80.13333925945255
 20
85.51560133765377
 30
0.0
 11
80.13333925945255
 21
126.7230027400686
 31
0.0
  0
LINE
  5
26FD0
330
26EE6
100
AcDbEntity
  8
0
  6
Continuous
 62
     3
440
 16777216
100
AcDbLine
 10
105.5333392594522
 20
99.75710133765545
 30
0.0
 11
105.5333392594522
 21
126.7230027400686
 31
0.0
  0
LINE
  5
26FD1
330
26EE6
100
AcDbEntity
  8
0
  6
Continuous
 62
     3
440
 16777216
100
AcDbLine
 10
82.63333925945255
 20
125.4730027400686
 30
0.0
 11
103.0333392594522
 21
125.4730027400686
 31
0.0
  0
SOLID
  5
26FD2
330
26EE6
100
AcDbEntity
  8
0
  6
Continuous
 62
     3
440
 16777216
100
AcDbTrace
 10
82.63333925945255
 20
125.8896694067353
 30
0.0
 11
82.63333925945255
 21
125.0563360734019
 31
0.0
 12
80.13333925945255
 22
125.4730027400686
 32
0.0
 13
80.13333925945255
 23
125.4730027400686
 33
0.0
  0
SOLID
  5
26FD3
330
26EE6
100
AcDbEntity
  8
0
  6
Continuous
 62
     3
440
 16777216
100
AcDbTrace
 10
103.0333392594522
 20
125.8896694067353
 30
0.0
 11
103.0333392594522
 21
125.0563360734019
 31
0.0
 12
105.5333392594522
 22
125.4730027400686
 32
0.0
 13
105.5333392594522
 23
125.4730027400686
 33
0.0
  0
MTEXT
  5
26FD4
330
26EE6
100
AcDbEntity
  8
0
  6
Continuous
 62
     2
440
 16777216
100
AcDbMText
 10
92.83333925945237
 20
127.5980027400686
 30
0.0
 40
3.0
 41
0.0
 46
0.0
 71
     5
 72
     1
  1
1.00
 73
     1
 44
1.0
  0
POINT
  5
26FD5
330
26EE6
100
AcDbEntity
  8
DEFPOINTS
  6
Continuous
 62
     0
440
 16777216
100
AcDbPoint
 10
80.13333925945255
 20
84.89060133765377
 30
0.0
  0
POINT
  5
26FD6
330
26EE6
100
AcDbEntity
  8
DEFPOINTS
  6
Continuous
 62
     0
440
 16777216
100
AcDbPoint
 10
105.5333392594522
 20
99.13210133765545
 30
0.0
  0
POINT
  5
26FD7
330
26EE6
100
AcDbEntity
  8
DEFPOINTS
  6
Continuous
 62
     0
440
 16777216
100
AcDbPoint
 10
105.5333392594522
 20
125.4730027400686
 30
0.0
  0
ENDBLK
  5
26EE8
330
26EE6
100
AcDbEntity
  8
0
 62
     7
100
AcDbBlockEnd
  0
BLOCK
  5
26F17
330
26F16
100
AcDbEntity
  8
0
 62
     7
100
AcDbBlockBegin
  2
*D3
 70
     1
 10
0.0
 20
0.0
 30
0.0
  3
*D3
  1

  0
LINE
  5
26FD8
330
26F16
100
AcDbEntity
  8
0
  6
Continuous
 62
     3
440
 16777216
100
AcDbLine
 10
102.7393392594523
 20
101.3050189824541
 30
0.0
 11
102.7393392594523
 21
118.7230027400686
 31
0.0
  0
LINE
  5
26FD9
330
26F16
100
AcDbEntity
  8
0
  6
Continuous
 62
     3
440
 16777216
100
AcDbLine
 10
105.5333392594522
 20
100.015101337654
 30
0.0
 11
105.5333392594522
 21
118.7230027400686
 31
0.0
  0
LINE
  5
26FDA
330
26F16
100
AcDbEntity
  8
0
  6
Continuous
 62
     3
440
 16777216
100
AcDbLine
 10
100.2393392594523
 20
117.4730027400686
 30
0.0
 11
97.73933925945232
 21
117.4730027400686
 31
0.0
  0
LINE
  5
26FDB
330
26F16
100
AcDbEntity
  8
0
  6
Continuous
 62
     3
440
 16777216
100
AcDbLine
 10
108.0333392594522
 20
117.4730027400686
 30
0.0
 11
114.7833392594522
 21
117.4730027400686
 31
0.0
  0
LINE
  5
26FDC
330
26F16
100
AcDbEntity
  8
0
  6
Continuous
 62
     3
440
 16777216
100
AcDbLine
 10
102.7393392594523
 20
117.4730027400686
 30
0.0
 11
105.5333392594522
 21
117.4730027400686
 31
0.0
  0
SOLID
  5
26FDD
330
26F16
100
AcDbEntity
  8
0
  6
Continuous
 62
     3
440
 16777216
100
AcDbTrace
 10
100.2393392594523
 20
117.8896694067353
 30
0.0
 11
100.2393392594523
 21
117.056336073402
 31
0.0
 12
102.7393392594523
 22
117.4730027400686
 32
0.0
 13
102.7393392594523
 23
117.4730027400686
 33
0.0
  0
SOLID
  5
26FDE
330
26F16
100
AcDbEntity
  8
0
  6
Continuous
 62
     3
440
 16777216
100
AcDbTrace
 10
108.0333392594522
 20
117.8896694067353
 30
0.0
 11
108.0333392594522
 21
117.056336073402
 31
0.0
 12
105.5333392594522
 22
117.4730027400686
 32
0.0
 13
105.5333392594522
 23
117.4730027400686
 33
0.0
  0
MTEXT
  5
26FDF
330
26F16
100
AcDbEntity
  8
0
  6
Continuous
 62
     2
440
 16777216
100
AcDbMText
 10
112.6583392594522
 20
119.5980027400686
 30
0.0
 40
3.0
 41
0.0
 46
0.0
 71
     5
 72
     1
  1
.11
 73
     1
 44
1.0
  0
POINT
  5
26FE0
330
26F16
100
AcDbEntity
  8
DEFPOINTS
  6
Continuous
 62
     0
440
 16777216
100
AcDbPoint
 10
102.7393392594523
 20
100.6800189824541
 30
0.0
  0
POINT
  5
26FE1
330
26F16
100
AcDbEntity
  8
DEFPOINTS
  6
Continuous
 62
     0
440
 16777216
100
AcDbPoint
 10
105.5333392594522
 20
99.39010133765401
 30
0.0
  0
POINT
  5
26FE2
330
26F16
100
AcDbEntity
  8
DEFPOINTS
  6
Continuous
 62
     0
440
 16777216
100
AcDbPoint
 10
105.5333392594522
 20
117.4730027400686
 30
0.0
  0
ENDBLK
  5
26F18
330
26F16
100
AcDbEntity
  8
0
 62
     7
100
AcDbBlockEnd
  0
BLOCK
  5
26F25
330
26F24
100
AcDbEntity
  8
0
 62
     7
100
AcDbBlockBegin
  2
*D4
 70
     1
 10
0.0
 20
0.0
 30
0.0
  3
*D4
  1

  0
LINE
  5
26FE3
330
26F24
100
AcDbEntity
  8
0
  6
Continuous
 62
     3
440
 16777216
100
AcDbLine
 10
95.37333925945233
 20
82.2146013376539
 30
0.0
 11
95.37333925945233
 21
118.7230027400686
 31
0.0
  0
LINE
  5
26FE4
330
26F24
100
AcDbEntity
  8
0
  6
Continuous
 62
     3
440
 16777216
100
AcDbLine
 10
102.7393392594523
 20
101.3050189824541
 30
0.0
 11
102.7393392594523
 21
118.7230027400686
 31
0.0
  0
LINE
  5
26FE5
330
26F24
100
AcDbEntity
  8
0
  6
Continuous
 62
     3
440
 16777216
100
AcDbLine
 10
97.87333925945233
 20
117.4730027400686
 30
0.0
 11
100.2393392594523
 21
117.4730027400686
 31
0.0
  0
SOLID
  5
26FE6
330
26F24
100
AcDbEntity
  8
0
  6
Continuous
 62
     3
440
 16777216
100
AcDbTrace
 10
97.87333925945233
 20
117.8896694067353
 30
0.0
 11
97.87333925945233
 21
117.056336073402
 31
0.0
 12
95.37333925945233
 22
117.4730027400686
 32
0.0
 13
95.37333925945233
 23
117.4730027400686
 33
0.0
  0
SOLID
  5
26FE7
330
26F24
100
AcDbEntity
  8
0
  6
Continuous
 62
     3
440
 16777216
100
AcDbTrace
 10
100.2393392594523
 20
117.8896694067353
 30
0.0
 11
100.2393392594523
 21
117.056336073402
 31
0.0
 12
102.7393392594523
 22
117.4730027400686
 32
0.0
 13
102.7393392594523
 23
117.4730027400686
 33
0.0
  0
MTEXT
  5
26FE8
330
26F24
100
AcDbEntity
  8
0
  6
Continuous
 62
     2
440
 16777216
100
AcDbMText
 10
99.05633925945233
 20
119.5982980156591
 30
0.0
 40
3.0
 41
0.0
 46
0.0
 71
     5
 72
     1
  1
.29
 73
     1
 44
1.0
  0
POINT
  5
26FE9
330
26F24
100
AcDbEntity
  8
DEFPOINTS
  6
Continuous
 62
     0
440
 16777216
100
AcDbPoint
 10
95.37333925945233
 20
81.5896013376539
 30
0.0
  0
POINT
  5
26FEA
330
26F24
100
AcDbEntity
  8
DEFPOINTS
  6
Continuous
 62
     0
440
 16777216
100
AcDbPoint
 10
102.7393392594523
 20
100.6800189824541
 30
0.0
  0
POINT
  5
26FEB
330
26F24
100
AcDbEntity
  8
DEFPOINTS
  6
Continuous
 62
     0
440
 16777216
100
AcDbPoint
 10
102.7393392594523
 20
117.4730027400686
 30
0.0
  0
ENDBLK
  5
26F26
330
26F24
100
AcDbEntity
  8
0
 62
     7
100
AcDbBlockEnd
  0
ENDSEC
  0
SECTION
  2
ENTITIES
  0
LWPOLYLINE
  5
24498
330
2
100
AcDbEntity
  8
0
 62
     0
100
AcDbPolyline
 90
        4
 70
     1
 43
0.0
 10
0.0
 20
0.0
 10
0.0
 20
157.0185665514604
 10
225.0080000000002
 20
157.0185665514604
 10
225.0080000000002
 20
0.0
  0
LINE
  5
24499
330
2
100
AcDbEntity
  8
0
  6
Continuous
 62
     7
100
AcDbLine
 10
168.7560000000005
 20
-2.744000000000232
 30
0.0
 11
168.7560000000005
 21
0.0
 31
0.0
  0
LINE
  5
2449A
330
2
100
AcDbEntity
  8
0
  6
Continuous
 62
     7
100
AcDbLine
 10
166.0120000000003
 20
0.0
 30
0.0
 11
166.0120000000003
 21
22.08073592129877
 31
0.0
  0
LINE
  5
2449B
330
2
100
AcDbEntity
  8
0
  6
Continuous
 62
     7
100
AcDbLine
 10
56.25200000000041
 20
-2.744000000000232
 30
0.0
 11
56.25200000000041
 21
0.0
 31
0.0
  0
LINE
  5
2449C
330
2
100
AcDbEntity
  8
0
  6
Continuous
 62
     7
100
AcDbLine
 10
168.7560000000005
 20
159.7625665514599
 30
0.0
 11
168.7560000000005
 21
157.0185665514604
 31
0.0
  0
LINE
  5
2449D
330
2
100
AcDbEntity
  8
0
  6
Continuous
 62
     7
100
AcDbLine
 10
56.25200000000041
 20
159.7625665514599
 30
0.0
 11
56.25200000000041
 21
157.0185665514604
 31
0.0
  0
LINE
  5
2449E
330
2
100
AcDbEntity
  8
0
  6
Continuous
 62
     7
100
AcDbLine
 10
-2.743999999999505
 20
39.25464163786455
 30
0.0
 11
0.0
 21
39.25464163786455
 31
0.0
  0
LINE
  5
2449F
330
2
100
AcDbEntity
  8
0
  6
Continuous
 62
     7
100
AcDbLine
 10
-2.743999999999505
 20
117.7639249135951
 30
0.0
 11
0.0
 21
117.7639249135951
 31
0.0
  0
LINE
  5
244A0
330
2
100
AcDbEntity
  8
0
  6
Continuous
 62
     7
100
AcDbLine
 10
227.7520000000004
 20
39.25464163786455
 30
0.0
 11
225.0080000000002
 21
39.25464163786455
 31
0.0
  0
LINE
  5
244A1
330
2
100
AcDbEntity
  8
0
  6
Continuous
 62
     7
100
AcDbLine
 10
227.7520000000004
 20
117.7639249135951
 30
0.0
 11
225.0080000000002
 21
117.7639249135951
 31
0.0
  0
LINE
  5
244A2
330
2
100
AcDbEntity
  8
0
  6
Continuous
 62
     7
100
AcDbLine
 10
225.0080000000002
 20
22.08073592129877
 30
0.0
 11
166.0120000000003
 21
22.08073592129877
 31
0.0
  0
LINE
  5
244A3
330
2
100
AcDbEntity
  8
0
  6
Continuous
 62
     7
100
AcDbLine
 10
166.0120000000003
 20
7.360245307099103
 30
0.0
 11
225.0080000000002
 21
7.360245307099103
 31
0.0
  0
LINE
  5
244A4
330
2
100
AcDbEntity
  8
0
  6
Continuous
 62
     7
100
AcDbLine
 10
166.0120000000003
 20
14.72049061419893
 30
0.0
 11
225.0080000000002
 21
14.72049061419893
 31
0.0
  0
LINE
  5
244A5
330
2
100
AcDbEntity
  8
0
  6
Continuous
 62
     7
100
AcDbLine
 10
166.0120000000003
 20
0.0
 30
0.0
 11
225.0080000000002
 21
0.0
 31
0.0
  0
LINE
  5
244A6
330
2
100
AcDbEntity
  8
0
  6
Continuous
 62
     7
100
AcDbLine
 10
225.0080000000002
 20
78.50928327572984
 30
0.0
 11
227.7520000000004
 21
78.50928327572984
 31
0.0
  0
LINE
  5
244A7
330
2
100
AcDbEntity
  8
0
  6
Continuous
 62
     7
100
AcDbLine
 10
226.3800000000003
 20
77.5763232757301
 30
0.0
 11
226.3800000000003
 21
79.44224327572957
 31
0.0
  0
LINE
  5
244A8
330
2
100
AcDbEntity
  8
0
  6
Continuous
 62
     7
100
AcDbLine
 10
226.3800000000003
 20
77.5763232757301
 30
0.0
 11
225.0080000000002
 21
78.50928327572984
 31
0.0
  0
LINE
  5
244A9
330
2
100
AcDbEntity
  8
0
  6
Continuous
 62
     7
100
AcDbLine
 10
225.0080000000002
 20
78.50928327572984
 30
0.0
 11
226.3800000000003
 21
79.44224327572957
 31
0.0
  0
LINE
  5
244AA
330
2
100
AcDbEntity
  8
0
  6
Continuous
 62
     7
100
AcDbLine
 10
0.0
 20
78.50928327572984
 30
0.0
 11
-2.743999999999505
 21
78.50928327572984
 31
0.0
  0
LINE
  5
244AB
330
2
100
AcDbEntity
  8
0
  6
Continuous
 62
     7
100
AcDbLine
 10
-1.372000000000116
 20
77.5763232757301
 30
0.0
 11
-1.372000000000116
 21
79.44224327572957
 31
0.0
  0
LINE
  5
244AC
330
2
100
AcDbEntity
  8
0
  6
Continuous
 62
     7
100
AcDbLine
 10
-1.372000000000116
 20
77.5763232757301
 30
0.0
 11
0.0
 21
78.50928327572984
 31
0.0
  0
LINE
  5
244AD
330
2
100
AcDbEntity
  8
0
  6
Continuous
 62
     7
100
AcDbLine
 10
0.0
 20
78.50928327572984
 30
0.0
 11
-1.372000000000116
 21
79.44224327572957
 31
0.0
  0
LINE
  5
244AE
330
2
100
AcDbEntity
  8
0
  6
Continuous
 62
     7
100
AcDbLine
 10
112.5040000000008
 20
157.0185665514604
 30
0.0
 11
112.5040000000008
 21
159.7625665514599
 31
0.0
  0
LINE
  5
244AF
330
2
100
AcDbEntity
  8
0
  6
Continuous
 62
     7
100
AcDbLine
 10
111.5710400000003
 20
158.3905665514597
 30
0.0
 11
113.4369600000005
 21
158.3905665514597
 31
0.0
  0
LINE
  5
244B0
330
2
100
AcDbEntity
  8
0
  6
Continuous
 62
     7
100
AcDbLine
 10
111.5710400000003
 20
158.3905665514597
 30
0.0
 11
112.5040000000008
 21
157.0185665514604
 31
0.0
  0
LINE
  5
244B1
330
2
100
AcDbEntity
  8
0
  6
Continuous
 62
     7
100
AcDbLine
 10
112.5040000000008
 20
157.0185665514604
 30
0.0
 11
113.4369600000005
 21
158.3905665514597
 31
0.0
  0
LINE
  5
244B2
330
2
100
AcDbEntity
  8
0
  6
Continuous
 62
     7
100
AcDbLine
 10
112.5040000000008
 20
0.0
 30
0.0
 11
112.5040000000008
 21
-2.744000000000232
 31
0.0
  0
LINE
  5
244B3
330
2
100
AcDbEntity
  8
0
  6
Continuous
 62
     7
100
AcDbLine
 10
111.5710400000003
 20
-1.372000000000116
 30
0.0
 11
113.4369600000005
 21
-1.372000000000116
 31
0.0
  0
LINE
  5
244B4
330
2
100
AcDbEntity
  8
0
  6
Continuous
 62
     7
100
AcDbLine
 10
111.5710400000003
 20
-1.372000000000116
 30
0.0
 11
112.5040000000008
 21
0.0
 31
0.0
  0
LINE
  5
244B5
330
2
100
AcDbEntity
  8
0
  6
Continuous
 62
     7
100
AcDbLine
 10
112.5040000000008
 20
0.0
 30
0.0
 11
113.4369600000005
 21
-1.372000000000116
 31
0.0
  0
TEXT
  5
244B6
330
2
100
AcDbEntity
  8
0
 62
     2
100
AcDbText
 10
27.5513824191039
 20
-2.223293668079713
 30
0.0
 40
1.536639999999999
  1
4
  7
굴림
100
AcDbText
  0
TEXT
  5
244B7
330
2
100
AcDbEntity
  8
0
 62
     2
100
AcDbText
 10
83.8555354796008
 20
-2.223293668079713
 30
0.0
 40
1.536639999999999
  1
3
  7
굴림
100
AcDbText
  0
TEXT
  5
244B8
330
2
100
AcDbEntity
  8
0
 62
     2
100
AcDbText
 10
140.0347713325274
 20
-2.223293668079713
 30
0.0
 40
1.536639999999999
  1
2
  7
굴림
100
AcDbText
  0
TEXT
  5
244B9
330
2
100
AcDbEntity
  8
0
 62
     2
100
AcDbText
 10
196.4583337130228
 20
-2.223293668079713
 30
0.0
 40
1.536639999999999
  1
1
  7
굴림
100
AcDbText
  0
TEXT
  5
244BA
330
2
100
AcDbEntity
  8
0
 62
     2
100
AcDbText
 10
27.5513824191039
 20
157.8934544272532
 30
0.0
 40
1.536639999999999
  1
4
  7
굴림
100
AcDbText
  0
TEXT
  5
244BB
330
2
100
AcDbEntity
  8
0
 62
     2
100
AcDbText
 10
83.8555354796008
 20
157.8934544272532
 30
0.0
 40
1.536639999999999
  1
3
  7
굴림
100
AcDbText
  0
TEXT
  5
244BC
330
2
100
AcDbEntity
  8
0
 62
     2
100
AcDbText
 10
140.0347713325274
 20
157.8934544272532
 30
0.0
 40
1.536639999999999
  1
2
  7
굴림
100
AcDbText
  0
TEXT
  5
244BD
330
2
100
AcDbEntity
  8
0
 62
     2
100
AcDbText
 10
196.4583337130228
 20
157.8934544272532
 30
0.0
 40
1.536639999999999
  1
1
  7
굴림
100
AcDbText
  0
TEXT
  5
244BE
330
2
100
AcDbEntity
  8
0
 62
     2
100
AcDbText
 10
-2.2183515358367
 20
19.1156593872467
 30
0.0
 40
1.536639999999999
  1
A
  7
굴림
100
AcDbText
  0
TEXT
  5
244BF
330
2
100
AcDbEntity
  8
0
 62
     2
100
AcDbText
 10
-2.2183515358367
 20
58.04464354033408
 30
0.0
 40
1.536639999999999
  1
B
  7
굴림
100
AcDbText
  0
TEXT
  5
244C0
330
2
100
AcDbEntity
  8
0
 62
     2
100
AcDbText
 10
-2.2183515358367
 20
97.34510025766503
 30
0.0
 40
1.536639999999999
  1
C
  7
굴림
100
AcDbText
  0
TEXT
  5
244C1
330
2
100
AcDbEntity
  8
0
 62
     2
100
AcDbText
 10
-2.2183515358367
 20
136.887561075174
 30
0.0
 40
1.536639999999999
  1
D
  7
굴림
100
AcDbText
  0
TEXT
  5
244C2
330
2
100
AcDbEntity
  8
0
 62
     2
100
AcDbText
 10
225.8300052596256
 20
19.1156593872467
 30
0.0
 40
1.536639999999999
  1
A
  7
굴림
100
AcDbText
  0
TEXT
  5
244C3
330
2
100
AcDbEntity
  8
0
 62
     2
100
AcDbText
 10
225.8300052596256
 20
58.04464354033408
 30
0.0
 40
1.536639999999999
  1
B
  7
굴림
100
AcDbText
  0
TEXT
  5
244C4
330
2
100
AcDbEntity
  8
0
 62
     2
100
AcDbText
 10
225.8300052596256
 20
97.34510025766503
 30
0.0
 40
1.536639999999999
  1
C
  7
굴림
100
AcDbText
  0
TEXT
  5
244C5
330
2
100
AcDbEntity
  8
0
 62
     2
100
AcDbText
 10
225.8300052596256
 20
136.887561075174
 30
0.0
 40
1.536639999999999
  1
D
  7
굴림
100
AcDbText
  0
TEXT
  5
244C6
330
2
100
AcDbEntity
  8
0
 62
     2
100
AcDbText
 10
182.9353822341007
 20
10.11395664310621
 30
0.0
 40
2.151295999999999
  1
www.maritool.com
  7
굴림
100
AcDbText
  0
TEXT
  5
244C7
330
2
100
AcDbEntity
  8
0
 62
     2
100
AcDbText
 10
168.2272035263675
 20
2.907911979038908
 30
0.0
 40
1.721036799999999
  1
ITEM#
  7
굴림
100
AcDbText
  0
TEXT
  5
244C8
330
2
100
AcDbEntity
  8
0
 62
     2
100
AcDbText
 10
177.6851972933233
 20
2.498998435826797
 30
0.0
 40
2.581555199999999
  1
HSK63A-APU13-3.29
  7
굴림
100
AcDbText
  0
LWPOLYLINE
  5
24547
102
{ACAD_REACTORS
330
24548
102
}
330
2
100
AcDbEntity
  8
Layer 1
 62
   103
100
AcDbPolyline
 90
        8
 70
     1
 43
0.0
 10
212.1335453027059
 20
21.26288252181685
 10
191.0917647891481
 20
21.26370979842459
 10
190.7778863115702
 20
20.23129292384101
 10
198.0698916373352
 20
20.23093068607114
 10
196.6743733270239
 20
15.3917977645483
 10
198.0418615593378
 20
15.3917977645483
 10
199.4371122213357
 20
20.23093068607114
 10
211.8181109756843
 20
20.23031965724431
  0
HATCH
  5
24548
330
2
100
AcDbEntity
  8
0
  6
Continuous
 62
    93
100
AcDbHatch
 10
0.0
 20
0.0
 30
0.0
210
0.0
220
0.0
230
1.0
  2
SOLID
 70
     1
 71
     1
 91
        1
 92
        7
 72
     0
 73
     1
 93
        8
 10
191.0917647891481
 20
21.26370979842459
 10
190.7778863115702
 20
20.23129292384101
 10
198.0698916373352
 20
20.23093068607114
 10
196.6743733270239
 20
15.3917977645483
 10
198.0418615593378
 20
15.3917977645483
 10
199.4371122213357
 20
20.23093068607114
 10
211.8181109756843
 20
20.23031965724431
 10
212.1335453027059
 20
21.26288252181685
 97
        1
330
24547
 75
     1
 76
     1
 47
0.0428322549537331
 98
        1
 10
200.3510957739556
 20
20.75357156670134
450
        0
451
        0
460
0.0
461
0.0
452
        0
462
1.0
453
        2
463
0.0
 63
     5
421
      255
463
1.0
 63
     2
421
 16776960
470
LINEAR
1001
GRADIENTCOLOR1ACI
1070
     5
1001
GRADIENTCOLOR2ACI
1070
     2
1001
ACAD
1010
0.0
1020
0.0
1030
0.0
  0
HATCH
  5
24549
330
2
100
AcDbEntity
  8
0
  6
Continuous
 62
     0
100
AcDbHatch
 10
0.0
 20
0.0
 30
0.0
210
0.0
220
0.0
230
1.0
  2
SOLID
 70
     1
 71
     1
 91
        1
 92
        5
 93
       13
 72
     4
 94
        3
 73
     0
 74
     0
 95
        8
 96
        4
 40
1.0
 40
1.0
 40
1.0
 40
1.0
 40
2.0
 40
2.0
 40
2.0
 40
2.0
 10
183.5969550362024
 20
18.26454011600208
 10
183.5969550362024
 20
18.26454011600208
 10
182.9696360510148
 20
15.3917977645483
 10
182.9696360510148
 20
15.3917977645483
 97
        0
 72
     4
 94
        3
 73
     0
 74
     0
 95
        8
 96
        4
 40
0.0
 40
0.0
 40
0.0
 40
0.0
 40
1.0
 40
1.0
 40
1.0
 40
1.0
 10
182.9696360510148
 20
15.3917977645483
 10
182.9696360510148
 20
15.3917977645483
 10
184.3494604374479
 20
15.3917977645483
 10
184.3494604374479
 20
15.3917977645483
 97
        0
 72
     4
 94
        3
 73
     0
 74
     0
 95
        8
 96
        4
 40
12.0
 40
12.0
 40
12.0
 40
12.0
 40
13.0
 40
13.0
 40
13.0
 40
13.0
 10
184.3494604374479
 20
15.3917977645483
 10
184.3494604374479
 20
15.3917977645483
 10
185.0709916292391
 20
19.81996885504623
 10
185.0709916292391
 20
19.81996885504623
 97
        0
 72
     4
 94
        3
 73
     0
 74
     0
 95
        8
 96
        4
 40
11.0
 40
11.0
 40
11.0
 40
11.0
 40
12.0
 40
12.0
 40
12.0
 40
12.0
 10
185.0709916292391
 20
19.81996885504623
 10
185.0709916292391
 20
19.81996885504623
 10
183.5842295754446
 20
19.81996885504623
 10
183.5842295754446
 20
19.81996885504623
 97
        0
 72
     4
 94
        3
 73
     0
 74
     0
 95
        8
 96
        4
 40
10.0
 40
10.0
 40
10.0
 40
10.0
 40
11.0
 40
11.0
 40
11.0
 40
11.0
 10
183.5842295754446
 20
19.81996885504623
 10
183.5842295754446
 20
19.81996885504623
 10
182.0537678514389
 20
17.38645899206012
 10
182.0537678514389
 20
17.38645899206012
 97
        0
 72
     4
 94
        3
 73
     0
 74
     0
 95
        8
 96
        4
 40
9.0
 40
9.0
 40
9.0
 40
9.0
 40
10.0
 40
10.0
 40
10.0
 40
10.0
 10
182.0537678514389
 20
17.38645899206012
 10
182.0537678514389
 20
17.38645899206012
 10
181.7843196124151
 20
19.81996885504623
 10
181.7843196124151
 20
19.81996885504623
 97
        0
 72
     4
 94
        3
 73
     0
 74
     0
 95
        8
 96
        4
 40
8.0
 40
8.0
 40
8.0
 40
8.0
 40
9.0
 40
9.0
 40
9.0
 40
9.0
 10
181.7843196124151
 20
19.81996885504623
 10
181.7843196124151
 20
19.81996885504623
 10
180.322619136572
 20
19.81996885504623
 10
180.322619136572
 20
19.81996885504623
 97
        0
 72
     4
 94
        3
 73
     0
 74
     0
 95
        8
 96
        4
 40
7.0
 40
7.0
 40
7.0
 40
7.0
 40
8.0
 40
8.0
 40
8.0
 40
8.0
 10
180.322619136572
 20
19.81996885504623
 10
180.322619136572
 20
19.81996885504623
 10
178.7107679526613
 20
15.3917977645483
 10
178.7107679526613
 20
15.3917977645483
 97
        0
 72
     4
 94
        3
 73
     0
 74
     0
 95
        8
 96
        4
 40
6.0
 40
6.0
 40
6.0
 40
6.0
 40
7.0
 40
7.0
 40
7.0
 40
7.0
 10
178.7107679526613
 20
15.3917977645483
 10
178.7107679526613
 20
15.3917977645483
 10
180.0592288570667
 20
15.3917977645483
 10
180.0592288570667
 20
15.3917977645483
 97
        0
 72
     4
 94
        3
 73
     0
 74
     0
 95
        8
 96
        4
 40
5.0
 40
5.0
 40
5.0
 40
5.0
 40
6.0
 40
6.0
 40
6.0
 40
6.0
 10
180.0592288570667
 20
15.3917977645483
 10
180.0592288570667
 20
15.3917977645483
 10
180.968819510068
 20
18.3271698215277
 10
180.968819510068
 20
18.3271698215277
 97
        0
 72
     4
 94
        3
 73
     0
 74
     0
 95
        8
 96
        4
 40
4.0
 40
4.0
 40
4.0
 40
4.0
 40
5.0
 40
5.0
 40
5.0
 40
5.0
 10
180.968819510068
 20
18.3271698215277
 10
180.968819510068
 20
18.3271698215277
 10
181.3012387247203
 20
15.3917977645483
 10
181.3012387247203
 20
15.3917977645483
 97
        0
 72
     4
 94
        3
 73
     0
 74
     0
 95
        8
 96
        4
 40
3.0
 40
3.0
 40
3.0
 40
3.0
 40
4.0
 40
4.0
 40
4.0
 40
4.0
 10
181.3012387247203
 20
15.3917977645483
 10
181.3012387247203
 20
15.3917977645483
 10
181.7403516754945
 20
15.3917977645483
 10
181.7403516754945
 20
15.3917977645483
 97
        0
 72
     4
 94
        3
 73
     0
 74
     0
 95
        8
 96
        4
 40
2.0
 40
2.0
 40
2.0
 40
2.0
 40
3.0
 40
3.0
 40
3.0
 40
3.0
 10
181.7403516754945
 20
15.3917977645483
 10
181.7403516754945
 20
15.3917977645483
 10
183.5969550362024
 20
18.26454011600208
 10
183.5969550362024
 20
18.26454011600208
 97
        0
 97
       13
330
24557
330
24555
330
24554
330
24553
330
24552
330
24551
330
24550
330
2454F
330
2454E
330
2454D
330
2454C
330
2454B
330
2454A
 75
     1
 76
     1
 47
0.0269459378258844
 98
        1
 10
183.6769880547908
 20
16.89731224355119
450
        0
451
        0
460
0.0
461
0.0
452
        0
462
1.0
453
        2
463
0.0
 63
     5
421
      255
463
1.0
 63
     2
421
 16776960
470
LINEAR
1001
GRADIENTCOLOR1ACI
1070
     5
1001
GRADIENTCOLOR2ACI
1070
     2
1001
ACAD
1010
0.0
1020
0.0
1030
0.0
  0
SPLINE
  5
2454A
102
{ACAD_REACTORS
330
24549
102
}
330
2
100
AcDbEntity
  8
Layer 1
100
AcDbSpline
210
0.0
220
0.0
230
1.0
 70
    24
 71
     3
 72
     8
 73
     4
 74
     0
 42
0.000000001
 43
0.0000000001
 40
0.0
 40
0.0
 40
0.0
 40
0.0
 40
1.0
 40
1.0
 40
1.0
 40
1.0
 10
184.3494604374479
 20
15.3917977645483
 30
0.0
 10
184.3494604374479
 20
15.3917977645483
 30
0.0
 10
182.9696360510148
 20
15.3917977645483
 30
0.0
 10
182.9696360510148
 20
15.3917977645483
 30
0.0
  0
SPLINE
  5
2454B
102
{ACAD_REACTORS
330
24549
102
}
330
2
100
AcDbEntity
  8
Layer 1
100
AcDbSpline
210
0.0
220
0.0
230
1.0
 70
    24
 71
     3
 72
     8
 73
     4
 74
     0
 42
0.000000001
 43
0.0000000001
 40
1.0
 40
1.0
 40
1.0
 40
1.0
 40
2.0
 40
2.0
 40
2.0
 40
2.0
 10
182.9696360510148
 20
15.3917977645483
 30
0.0
 10
182.9696360510148
 20
15.3917977645483
 30
0.0
 10
183.5969550362024
 20
18.26454011600208
 30
0.0
 10
183.5969550362024
 20
18.26454011600208
 30
0.0
  0
SPLINE
  5
2454C
102
{ACAD_REACTORS
330
24549
102
}
330
2
100
AcDbEntity
  8
Layer 1
100
AcDbSpline
210
0.0
220
0.0
230
1.0
 70
    24
 71
     3
 72
     8
 73
     4
 74
     0
 42
0.000000001
 43
0.0000000001
 40
2.0
 40
2.0
 40
2.0
 40
2.0
 40
3.0
 40
3.0
 40
3.0
 40
3.0
 10
183.5969550362024
 20
18.26454011600208
 30
0.0
 10
183.5969550362024
 20
18.26454011600208
 30
0.0
 10
181.7403516754945
 20
15.3917977645483
 30
0.0
 10
181.7403516754945
 20
15.3917977645483
 30
0.0
  0
SPLINE
  5
2454D
102
{ACAD_REACTORS
330
24549
102
}
330
2
100
AcDbEntity
  8
Layer 1
100
AcDbSpline
210
0.0
220
0.0
230
1.0
 70
    24
 71
     3
 72
     8
 73
     4
 74
     0
 42
0.000000001
 43
0.0000000001
 40
3.0
 40
3.0
 40
3.0
 40
3.0
 40
4.0
 40
4.0
 40
4.0
 40
4.0
 10
181.7403516754945
 20
15.3917977645483
 30
0.0
 10
181.7403516754945
 20
15.3917977645483
 30
0.0
 10
181.3012387247203
 20
15.3917977645483
 30
0.0
 10
181.3012387247203
 20
15.3917977645483
 30
0.0
  0
SPLINE
  5
2454E
102
{ACAD_REACTORS
330
24549
102
}
330
2
100
AcDbEntity
  8
Layer 1
100
AcDbSpline
210
0.0
220
0.0
230
1.0
 70
    24
 71
     3
 72
     8
 73
     4
 74
     0
 42
0.000000001
 43
0.0000000001
 40
4.0
 40
4.0
 40
4.0
 40
4.0
 40
5.0
 40
5.0
 40
5.0
 40
5.0
 10
181.3012387247203
 20
15.3917977645483
 30
0.0
 10
181.3012387247203
 20
15.3917977645483
 30
0.0
 10
180.968819510068
 20
18.3271698215277
 30
0.0
 10
180.968819510068
 20
18.3271698215277
 30
0.0
  0
SPLINE
  5
2454F
102
{ACAD_REACTORS
330
24549
102
}
330
2
100
AcDbEntity
  8
Layer 1
100
AcDbSpline
210
0.0
220
0.0
230
1.0
 70
    24
 71
     3
 72
     8
 73
     4
 74
     0
 42
0.000000001
 43
0.0000000001
 40
5.0
 40
5.0
 40
5.0
 40
5.0
 40
6.0
 40
6.0
 40
6.0
 40
6.0
 10
180.968819510068
 20
18.3271698215277
 30
0.0
 10
180.968819510068
 20
18.3271698215277
 30
0.0
 10
180.0592288570667
 20
15.3917977645483
 30
0.0
 10
180.0592288570667
 20
15.3917977645483
 30
0.0
  0
SPLINE
  5
24550
102
{ACAD_REACTORS
330
24549
102
}
330
2
100
AcDbEntity
  8
Layer 1
100
AcDbSpline
210
0.0
220
0.0
230
1.0
 70
    24
 71
     3
 72
     8
 73
     4
 74
     0
 42
0.000000001
 43
0.0000000001
 40
6.0
 40
6.0
 40
6.0
 40
6.0
 40
7.0
 40
7.0
 40
7.0
 40
7.0
 10
180.0592288570667
 20
15.3917977645483
 30
0.0
 10
180.0592288570667
 20
15.3917977645483
 30
0.0
 10
178.7107679526613
 20
15.3917977645483
 30
0.0
 10
178.7107679526613
 20
15.3917977645483
 30
0.0
  0
SPLINE
  5
24551
102
{ACAD_REACTORS
330
24549
102
}
330
2
100
AcDbEntity
  8
Layer 1
100
AcDbSpline
210
0.0
220
0.0
230
1.0
 70
    24
 71
     3
 72
     8
 73
     4
 74
     0
 42
0.000000001
 43
0.0000000001
 40
7.0
 40
7.0
 40
7.0
 40
7.0
 40
8.0
 40
8.0
 40
8.0
 40
8.0
 10
178.7107679526613
 20
15.3917977645483
 30
0.0
 10
178.7107679526613
 20
15.3917977645483
 30
0.0
 10
180.322619136572
 20
19.81996885504623
 30
0.0
 10
180.322619136572
 20
19.81996885504623
 30
0.0
  0
SPLINE
  5
24552
102
{ACAD_REACTORS
330
24549
102
}
330
2
100
AcDbEntity
  8
Layer 1
100
AcDbSpline
210
0.0
220
0.0
230
1.0
 70
    24
 71
     3
 72
     8
 73
     4
 74
     0
 42
0.000000001
 43
0.0000000001
 40
8.0
 40
8.0
 40
8.0
 40
8.0
 40
9.0
 40
9.0
 40
9.0
 40
9.0
 10
180.322619136572
 20
19.81996885504623
 30
0.0
 10
180.322619136572
 20
19.81996885504623
 30
0.0
 10
181.7843196124151
 20
19.81996885504623
 30
0.0
 10
181.7843196124151
 20
19.81996885504623
 30
0.0
  0
SPLINE
  5
24553
102
{ACAD_REACTORS
330
24549
102
}
330
2
100
AcDbEntity
  8
Layer 1
100
AcDbSpline
210
0.0
220
0.0
230
1.0
 70
    24
 71
     3
 72
     8
 73
     4
 74
     0
 42
0.000000001
 43
0.0000000001
 40
9.0
 40
9.0
 40
9.0
 40
9.0
 40
10.0
 40
10.0
 40
10.0
 40
10.0
 10
181.7843196124151
 20
19.81996885504623
 30
0.0
 10
181.7843196124151
 20
19.81996885504623
 30
0.0
 10
182.0537678514389
 20
17.38645899206012
 30
0.0
 10
182.0537678514389
 20
17.38645899206012
 30
0.0
  0
SPLINE
  5
24554
102
{ACAD_REACTORS
330
24549
102
}
330
2
100
AcDbEntity
  8
Layer 1
100
AcDbSpline
210
0.0
220
0.0
230
1.0
 70
    24
 71
     3
 72
     8
 73
     4
 74
     0
 42
0.000000001
 43
0.0000000001
 40
10.0
 40
10.0
 40
10.0
 40
10.0
 40
11.0
 40
11.0
 40
11.0
 40
11.0
 10
182.0537678514389
 20
17.38645899206012
 30
0.0
 10
182.0537678514389
 20
17.38645899206012
 30
0.0
 10
183.5842295754446
 20
19.81996885504623
 30
0.0
 10
183.5842295754446
 20
19.81996885504623
 30
0.0
  0
SPLINE
  5
24555
102
{ACAD_REACTORS
330
24549
102
}
330
2
100
AcDbEntity
  8
Layer 1
100
AcDbSpline
210
0.0
220
0.0
230
1.0
 70
    24
 71
     3
 72
     8
 73
     4
 74
     0
 42
0.000000001
 43
0.0000000001
 40
11.0
 40
11.0
 40
11.0
 40
11.0
 40
12.0
 40
12.0
 40
12.0
 40
12.0
 10
183.5842295754446
 20
19.81996885504623
 30
0.0
 10
183.5842295754446
 20
19.81996885504623
 30
0.0
 10
185.0709916292391
 20
19.81996885504623
 30
0.0
 10
185.0709916292391
 20
19.81996885504623
 30
0.0
  0
SPLINE
  5
24556
102
{ACAD_REACTORS
330
2455C
102
}
330
2
100
AcDbEntity
  8
Layer 1
100
AcDbSpline
210
0.0
220
0.0
230
1.0
 70
     8
 71
     3
 72
     8
 73
     4
 74
     0
 42
0.000000001
 43
0.0000000001
 40
12.0
 40
12.0
 40
12.0
 40
12.0
 40
13.0
 40
13.0
 40
13.0
 40
13.0
 10
192.8834999311563
 20
17.21489642264923
 30
0.0
 10
193.0808297337265
 20
17.27489830836339
 30
0.0
 10
193.2766266414066
 20
17.36305193039943
 30
0.0
 10
193.449843764033
 20
17.4953918559454
 30
0.0
  0
SPLINE
  5
24557
102
{ACAD_REACTORS
330
24549
102
}
330
2
100
AcDbEntity
  8
Layer 1
100
AcDbSpline
210
0.0
220
0.0
230
1.0
 70
    24
 71
     3
 72
     8
 73
     4
 74
     0
 42
0.000000001
 43
0.0000000001
 40
12.0
 40
12.0
 40
12.0
 40
12.0
 40
13.0
 40
13.0
 40
13.0
 40
13.0
 10
185.0709916292391
 20
19.81996885504623
 30
0.0
 10
185.0709916292391
 20
19.81996885504623
 30
0.0
 10
184.3494604374479
 20
15.3917977645483
 30
0.0
 10
184.3494604374479
 20
15.3917977645483
 30
0.0
  0
HATCH
  5
24558
330
2
100
AcDbEntity
  8
0
  6
Continuous
 62
     0
100
AcDbHatch
 10
0.0
 20
0.0
 30
0.0
210
0.0
220
0.0
230
1.0
  2
SOLID
 70
     1
 71
     0
 91
        1
 92
        5
 93
        2
 72
     4
 94
        3
 73
     0
 74
     0
 95
       35
 96
       31
 40
9.999999403953552
 40
9.999999403953552
 40
9.999999403953552
 40
9.999999403953552
 40
10.9999988079071
 40
10.9999988079071
 40
10.9999988079071
 40
11.9999988079071
 40
11.9999988079071
 40
11.9999988079071
 40
12.9999988079071
 40
12.9999988079071
 40
12.9999988079071
 40
13.9999988079071
 40
13.9999988079071
 40
13.9999988079071
 40
14.9999988079071
 40
14.9999988079071
 40
14.9999988079071
 40
15.9999988079071
 40
15.9999988079071
 40
15.9999988079071
 40
16.9999988079071
 40
16.9999988079071
 40
16.9999988079071
 40
17.9999988079071
 40
17.9999988079071
 40
17.9999988079071
 40
18.9999988079071
 40
18.9999988079071
 40
18.9999988079071
 40
18.99999940395355
 40
18.99999940395355
 40
18.99999940395355
 40
18.99999940395355
 10
186.8242097456659
 20
16.10690539679845
 10
186.8242109002326
 20
16.10690539679845
 10
187.792731668146
 20
16.10690539679845
 10
187.792731668146
 20
16.10690539679845
 10
187.792731668146
 20
16.10690539679845
 10
187.8366989866721
 20
15.3917977645483
 10
187.8366989866721
 20
15.3917977645483
 10
187.8366989866721
 20
15.3917977645483
 10
189.172799371228
 20
15.3917977645483
 10
189.172799371228
 20
15.3917977645483
 10
189.172799371228
 20
15.3917977645483
 10
188.8402593032922
 20
19.8261463711161
 10
188.8402593032922
 20
19.8261463711161
 10
188.8402593032922
 20
19.8261463711161
 10
187.3599207716426
 20
19.8261463711161
 10
187.3599207716426
 20
19.8261463711161
 10
187.3599207716426
 20
19.8261463711161
 10
184.4872749876027
 20
15.3917977645483
 10
184.4872749876027
 20
15.3917977645483
 10
184.4872749876027
 20
15.3917977645483
 10
185.9235488366699
 20
15.3917977645483
 10
185.9235488366699
 20
15.3917977645483
 10
185.9235488366699
 20
15.3917977645483
 10
185.930678737635
 20
15.40177374716868
 10
185.930678737635
 20
15.40177374716868
 10
185.930678737635
 20
15.40177374716868
 10
187.6923392186509
 20
18.3271698215277
 10
187.6923392186509
 20
18.3271698215277
 10
187.6923392186509
 20
18.3271698215277
 10
187.6923392186509
 20
18.32716982152723
 10
187.692339218651
 20
18.3271698215263
 97
        0
 72
     4
 94
        3
 73
     0
 74
     0
 95
       17
 96
       13
 40
6.999999403953552
 40
6.999999403953552
 40
6.999999403953552
 40
6.999999403953552
 40
7.999998807907104
 40
7.999998807907104
 40
7.999998807907104
 40
8.999998807907104
 40
8.999998807907104
 40
8.999998807907104
 40
9.999998807907104
 40
9.999998807907104
 40
9.999998807907104
 40
9.999999403953552
 40
9.999999403953552
 40
9.999999403953552
 40
9.999999403953552
 10
187.692339218651
 20
18.3271698215263
 10
187.6923392860599
 20
18.32716827364405
 10
187.7488860079451
 20
17.02871052261607
 10
187.7488860079451
 20
17.02871052261607
 10
187.7488860079451
 20
17.02871052261607
 10
187.3050277763185
 20
17.02871052261607
 10
187.3050277763185
 20
17.02871052261607
 10
187.3050277763185
 20
17.02871052261607
 10
186.8242097456649
 20
16.10690539679845
 10
186.8242097456649
 20
16.10690539679845
 10
186.8242097456649
 20
16.10690539679845
 10
186.8242097456652
 20
16.10690539679845
 10
186.8242097456659
 20
16.10690539679845
 97
        0
 97
        0
 75
     1
 76
     1
 47
0.0269459378258844
 98
        1
 10
188.6226826221784
 20
17.22252071276443
450
        0
451
        0
460
0.0
461
0.0
452
        0
462
1.0
453
        2
463
0.0
 63
     5
421
      255
463
1.0
 63
     2
421
 16776960
470
LINEAR
1001
GRADIENTCOLOR1ACI
1070
     5
1001
GRADIENTCOLOR2ACI
1070
     2
1001
ACAD
1010
0.0
1020
0.0
1030
0.0
  0
SPLINE
  5
24559
330
2
100
AcDbEntity
  8
Layer 1
100
AcDbSpline
210
0.0
220
0.0
230
1.0
 70
    11
 71
     3
 72
    41
 73
    37
 74
     0
 42
0.000000001
 43
0.0000000001
 40
0.0
 40
0.0
 40
0.0
 40
0.0
 40
1.0
 40
1.0
 40
1.0
 40
2.0
 40
2.0
 40
2.0
 40
3.0
 40
3.0
 40
3.0
 40
4.0
 40
4.0
 40
4.0
 40
5.0
 40
5.0
 40
5.0
 40
6.0
 40
6.0
 40
6.0
 40
7.0
 40
7.0
 40
7.0
 40
8.0
 40
8.0
 40
8.0
 40
9.0
 40
9.0
 40
9.0
 40
10.0
 40
10.0
 40
10.0
 40
11.0
 40
11.0
 40
11.0
 40
12.0
 40
12.0
 40
12.0
 40
12.0
 10
185.9235488366699
 20
15.3917977645483
 30
0.0
 10
185.9235488366699
 20
15.3917977645483
 30
0.0
 10
184.4872749876027
 20
15.3917977645483
 30
0.0
 10
184.4872749876027
 20
15.3917977645483
 30
0.0
 10
184.4872749876027
 20
15.3917977645483
 30
0.0
 10
187.3599207716426
 20
19.8261463711161
 30
0.0
 10
187.3599207716426
 20
19.8261463711161
 30
0.0
 10
187.3599207716426
 20
19.8261463711161
 30
0.0
 10
188.8402593032922
 20
19.8261463711161
 30
0.0
 10
188.8402593032922
 20
19.8261463711161
 30
0.0
 10
188.8402593032922
 20
19.8261463711161
 30
0.0
 10
189.172799371228
 20
15.3917977645483
 30
0.0
 10
189.172799371228
 20
15.3917977645483
 30
0.0
 10
189.172799371228
 20
15.3917977645483
 30
0.0
 10
187.8366989866721
 20
15.3917977645483
 30
0.0
 10
187.8366989866721
 20
15.3917977645483
 30
0.0
 10
187.8366989866721
 20
15.3917977645483
 30
0.0
 10
187.792731668146
 20
16.10690539679845
 30
0.0
 10
187.792731668146
 20
16.10690539679845
 30
0.0
 10
187.792731668146
 20
16.10690539679845
 30
0.0
 10
186.8242097456649
 20
16.10690539679845
 30
0.0
 10
186.8242097456649
 20
16.10690539679845
 30
0.0
 10
186.8242097456649
 20
16.10690539679845
 30
0.0
 10
187.3050277763185
 20
17.02871052261607
 30
0.0
 10
187.3050277763185
 20
17.02871052261607
 30
0.0
 10
187.3050277763185
 20
17.02871052261607
 30
0.0
 10
187.7488860079451
 20
17.02871052261607
 30
0.0
 10
187.7488860079451
 20
17.02871052261607
 30
0.0
 10
187.7488860079451
 20
17.02871052261607
 30
0.0
 10
187.6923392186509
 20
18.3271698215277
 30
0.0
 10
187.6923392186509
 20
18.3271698215277
 30
0.0
 10
187.6923392186509
 20
18.3271698215277
 30
0.0
 10
185.930678737635
 20
15.40177374716868
 30
0.0
 10
185.930678737635
 20
15.40177374716868
 30
0.0
 10
185.930678737635
 20
15.40177374716868
 30
0.0
 10
185.9235488366699
 20
15.3917977645483
 30
0.0
 10
185.9235488366699
 20
15.3917977645483
 30
0.0
  0
HATCH
  5
2455A
330
2
100
AcDbEntity
  8
0
  6
Continuous
 62
     0
100
AcDbHatch
 10
0.0
 20
0.0
 30
0.0
210
0.0
220
0.0
230
1.0
  2
SOLID
 70
     1
 71
     1
 91
        1
 92
        5
 93
        1
 72
     4
 94
        3
 73
     0
 74
     0
 95
       17
 96
       13
 40
0.0
 40
0.0
 40
0.0
 40
0.0
 40
1.0
 40
1.0
 40
1.0
 40
2.0
 40
2.0
 40
2.0
 40
3.0
 40
3.0
 40
3.0
 40
4.0
 40
4.0
 40
4.0
 40
4.0
 10
195.2879073555894
 20
15.3917977645483
 10
195.2879073555894
 20
15.3917977645483
 10
193.920564153741
 20
15.3917977645483
 10
193.920564153741
 20
15.3917977645483
 10
193.920564153741
 20
15.3917977645483
 10
195.1061245273842
 20
19.81996885504623
 10
195.1061245273842
 20
19.81996885504623
 10
195.1061245273842
 20
19.81996885504623
 10
196.4733694430491
 20
19.81996885504623
 10
196.4733694430491
 20
19.81996885504623
 10
196.4733694430491
 20
19.81996885504623
 10
195.2879073555894
 20
15.3917977645483
 10
195.2879073555894
 20
15.3917977645483
 97
        0
 97
        1
330
2455B
 75
     1
 76
     1
 47
0.0269459378258844
 98
        1
 10
194.7193995005225
 20
16.60142735166292
450
        0
451
        0
460
0.0
461
0.0
452
        0
462
1.0
453
        2
463
0.0
 63
     5
421
      255
463
1.0
 63
     2
421
 16776960
470
LINEAR
1001
GRADIENTCOLOR1ACI
1070
     5
1001
GRADIENTCOLOR2ACI
1070
     2
1001
ACAD
1010
0.0
1020
0.0
1030
0.0
  0
SPLINE
  5
2455B
102
{ACAD_REACTORS
330
2455A
102
}
330
2
100
AcDbEntity
  8
Layer 1
100
AcDbSpline
210
0.0
220
0.0
230
1.0
 70
    11
 71
     3
 72
    17
 73
    13
 74
     0
 42
0.000000001
 43
0.0000000001
 40
0.0
 40
0.0
 40
0.0
 40
0.0
 40
1.0
 40
1.0
 40
1.0
 40
2.0
 40
2.0
 40
2.0
 40
3.0
 40
3.0
 40
3.0
 40
4.0
 40
4.0
 40
4.0
 40
4.0
 10
195.2879073555894
 20
15.3917977645483
 30
0.0
 10
195.2879073555894
 20
15.3917977645483
 30
0.0
 10
193.920564153741
 20
15.3917977645483
 30
0.0
 10
193.920564153741
 20
15.3917977645483
 30
0.0
 10
193.920564153741
 20
15.3917977645483
 30
0.0
 10
195.1061245273842
 20
19.81996885504623
 30
0.0
 10
195.1061245273842
 20
19.81996885504623
 30
0.0
 10
195.1061245273842
 20
19.81996885504623
 30
0.0
 10
196.4733694430491
 20
19.81996885504623
 30
0.0
 10
196.4733694430491
 20
19.81996885504623
 30
0.0
 10
196.4733694430491
 20
19.81996885504623
 30
0.0
 10
195.2879073555894
 20
15.3917977645483
 30
0.0
 10
195.2879073555894
 20
15.3917977645483
 30
0.0
  0
HATCH
  5
2455C
330
2
100
AcDbEntity
  8
0
  6
Continuous
 62
     0
100
AcDbHatch
 10
0.0
 20
0.0
 30
0.0
210
0.0
220
0.0
230
1.0
  2
SOLID
 70
     1
 71
     1
 91
        1
 92
        5
 93
       14
 72
     4
 94
        3
 73
     0
 74
     0
 95
        8
 96
        4
 40
11.0
 40
11.0
 40
11.0
 40
11.0
 40
12.0
 40
12.0
 40
12.0
 40
12.0
 10
193.5141289374893
 20
15.33216085380836
 10
193.5141289374893
 20
15.33216085380836
 10
192.8834999311563
 20
17.21489642264923
 10
192.8834999311563
 20
17.21489642264923
 97
        0
 72
     4
 94
        3
 73
     0
 74
     0
 95
        8
 96
        4
 40
12.0
 40
12.0
 40
12.0
 40
12.0
 40
13.0
 40
13.0
 40
13.0
 40
13.0
 10
192.8834999311563
 20
17.21489642264923
 10
193.0808297337265
 20
17.27489830836339
 10
193.2766266414066
 20
17.36305193039943
 10
193.449843764033
 20
17.4953918559454
 97
        0
 72
     4
 94
        3
 73
     0
 74
     0
 95
        8
 96
        4
 40
13.0
 40
13.0
 40
13.0
 40
13.0
 40
14.0
 40
14.0
 40
14.0
 40
14.0
 10
193.449843764033
 20
17.4953918559454
 10
193.8325321900294
 20
17.79026730321484
 10
194.0333170890197
 20
18.21062114652004
 10
194.0333170890197
 20
18.62440544029514
 97
        0
 72
     4
 94
        3
 73
     0
 74
     0
 95
        8
 96
        4
 40
0.0
 40
0.0
 40
0.0
 40
0.0
 40
1.0
 40
1.0
 40
1.0
 40
1.0
 10
194.0333170890197
 20
18.62440544029514
 10
194.0333170890197
 20
19.51499304000963
 10
193.2493021816917
 20
19.82865253260379
 10
192.5656806146144
 20
19.82865253260379
 97
        0
 72
     4
 94
        3
 73
     0
 74
     0
 95
        8
 96
        4
 40
1.0
 40
1.0
 40
1.0
 40
1.0
 40
2.0
 40
2.0
 40
2.0
 40
2.0
 10
192.5656806146144
 20
19.82865253260379
 10
192.5656806146144
 20
19.82865253260379
 10
190.6086847549734
 20
19.82865253260379
 10
190.6086847549734
 20
19.82865253260379
 97
        0
 72
     4
 94
        3
 73
     0
 74
     0
 95
        8
 96
        4
 40
2.0
 40
2.0
 40
2.0
 40
2.0
 40
3.0
 40
3.0
 40
3.0
 40
3.0
 10
190.6086847549734
 20
19.82865253260379
 10
190.6086847549734
 20
19.82865253260379
 10
189.4169432971212
 20
15.40036512577635
 10
189.4169432971212
 20
15.40036512577635
 97
        0
 72
     4
 94
        3
 73
     0
 74
     0
 95
        8
 96
        4
 40
3.0
 40
3.0
 40
3.0
 40
3.0
 40
4.0
 40
4.0
 40
4.0
 40
4.0
 10
189.4169432971212
 20
15.40036512577635
 10
189.4169432971212
 20
15.40036512577635
 10
190.8221942734046
 20
15.40036512577635
 10
190.8221942734046
 20
15.40036512577635
 97
        0
 72
     4
 94
        3
 73
     0
 74
     0
 95
        8
 96
        4
 40
4.0
 40
4.0
 40
4.0
 40
4.0
 40
5.0
 40
5.0
 40
5.0
 40
5.0
 10
190.8221942734046
 20
15.40036512577635
 10
190.8221942734046
 20
15.40036512577635
 10
191.7439020725629
 20
18.83755082506895
 10
191.7439020725629
 20
18.83755082506895
 97
        0
 72
     4
 94
        3
 73
     0
 74
     0
 95
        8
 96
        4
 40
5.0
 40
5.0
 40
5.0
 40
5.0
 40
6.0
 40
6.0
 40
6.0
 40
6.0
 10
191.7439020725629
 20
18.83755082506895
 10
191.7439020725629
 20
18.83755082506895
 10
192.157929682987
 20
18.83755082506895
 10
192.157929682987
 20
18.83755082506895
 97
        0
 72
     4
 94
        3
 73
     0
 74
     0
 95
        8
 96
        4
 40
6.0
 40
6.0
 40
6.0
 40
6.0
 40
7.0
 40
7.0
 40
7.0
 40
7.0
 10
192.6534927025866
 20
18.48019166226359
 10
192.6534927025866
 20
18.78112569409995
 10
192.4024385838536
 20
18.83755082506895
 10
192.157929682987
 20
18.83755082506895
 97
        0
 72
     4
 94
        3
 73
     0
 74
     0
 95
        8
 96
        4
 40
7.0
 40
7.0
 40
7.0
 40
7.0
 40
8.0
 40
8.0
 40
8.0
 40
8.0
 10
192.6534927025866
 20
18.48019166226359
 10
192.6534927025866
 20
18.31719383890731
 10
192.5281359648747
 20
18.0535602494062
 10
192.1141083544513
 20
18.06626137849953
 97
        0
 72
     4
 94
        3
 73
     0
 74
     0
 95
        8
 96
        4
 40
8.0
 40
8.0
 40
8.0
 40
8.0
 40
9.0
 40
9.0
 40
9.0
 40
9.0
 10
192.1141083544513
 20
18.06626137849953
 10
192.1141083544513
 20
18.06626137849953
 10
191.8489175383947
 20
17.09550094284486
 10
191.8489175383947
 20
17.09550094284486
 97
        0
 72
     4
 94
        3
 73
     0
 74
     0
 95
        8
 96
        4
 40
9.0
 40
9.0
 40
9.0
 40
9.0
 40
10.0
 40
10.0
 40
10.0
 40
10.0
 10
191.8489175383947
 20
17.09550094284486
 10
191.8489175383947
 20
17.09550094284486
 10
192.355405475547
 20
15.33216085380836
 10
192.355405475547
 20
15.33216085380836
 97
        0
 72
     4
 94
        3
 73
     0
 74
     0
 95
        8
 96
        4
 40
10.0
 40
10.0
 40
10.0
 40
10.0
 40
11.0
 40
11.0
 40
11.0
 40
11.0
 10
192.355405475547
 20
15.33216085380836
 10
192.355405475547
 20
15.33216085380836
 10
193.5141289374893
 20
15.33216085380836
 10
193.5141289374893
 20
15.33216085380836
 97
        0
 97
       13
330
24567
330
24556
330
24568
330
2455D
330
2455E
330
2455F
330
24560
330
24561
330
24562
330
24563
330
24564
330
24565
330
24566
 75
     1
 76
     1
 47
0.0269459378258844
 98
        1
 10
192.573711088641
 20
16.98591353496949
450
        0
451
        0
460
0.0
461
0.0
452
        0
462
1.0
453
        2
463
0.0
 63
     5
421
      255
463
1.0
 63
     2
421
 16776960
470
LINEAR
1001
GRADIENTCOLOR1ACI
1070
     5
1001
GRADIENTCOLOR2ACI
1070
     2
1001
ACAD
1010
0.0
1020
0.0
1030
0.0
  0
SPLINE
  5
2455D
102
{ACAD_REACTORS
330
2455C
102
}
330
2
100
AcDbEntity
  8
Layer 1
100
AcDbSpline
210
0.0
220
0.0
230
1.0
 70
     8
 71
     3
 72
     8
 73
     4
 74
     0
 42
0.000000001
 43
0.0000000001
 40
0.0
 40
0.0
 40
0.0
 40
0.0
 40
1.0
 40
1.0
 40
1.0
 40
1.0
 10
194.0333170890197
 20
18.62440544029514
 30
0.0
 10
194.0333170890197
 20
19.51499304000963
 30
0.0
 10
193.2493021816917
 20
19.82865253260379
 30
0.0
 10
192.5656806146144
 20
19.82865253260379
 30
0.0
  0
SPLINE
  5
2455E
102
{ACAD_REACTORS
330
2455C
102
}
330
2
100
AcDbEntity
  8
Layer 1
100
AcDbSpline
210
0.0
220
0.0
230
1.0
 70
    24
 71
     3
 72
     8
 73
     4
 74
     0
 42
0.000000001
 43
0.0000000001
 40
1.0
 40
1.0
 40
1.0
 40
1.0
 40
2.0
 40
2.0
 40
2.0
 40
2.0
 10
192.5656806146144
 20
19.82865253260379
 30
0.0
 10
192.5656806146144
 20
19.82865253260379
 30
0.0
 10
190.6086847549734
 20
19.82865253260379
 30
0.0
 10
190.6086847549734
 20
19.82865253260379
 30
0.0
  0
SPLINE
  5
2455F
102
{ACAD_REACTORS
330
2455C
102
}
330
2
100
AcDbEntity
  8
Layer 1
100
AcDbSpline
210
0.0
220
0.0
230
1.0
 70
    24
 71
     3
 72
     8
 73
     4
 74
     0
 42
0.000000001
 43
0.0000000001
 40
2.0
 40
2.0
 40
2.0
 40
2.0
 40
3.0
 40
3.0
 40
3.0
 40
3.0
 10
190.6086847549734
 20
19.82865253260379
 30
0.0
 10
190.6086847549734
 20
19.82865253260379
 30
0.0
 10
189.4169432971212
 20
15.40036512577635
 30
0.0
 10
189.4169432971212
 20
15.40036512577635
 30
0.0
  0
SPLINE
  5
24560
102
{ACAD_REACTORS
330
2455C
102
}
330
2
100
AcDbEntity
  8
Layer 1
100
AcDbSpline
210
0.0
220
0.0
230
1.0
 70
    24
 71
     3
 72
     8
 73
     4
 74
     0
 42
0.000000001
 43
0.0000000001
 40
3.0
 40
3.0
 40
3.0
 40
3.0
 40
4.0
 40
4.0
 40
4.0
 40
4.0
 10
189.4169432971212
 20
15.40036512577635
 30
0.0
 10
189.4169432971212
 20
15.40036512577635
 30
0.0
 10
190.8221942734046
 20
15.40036512577635
 30
0.0
 10
190.8221942734046
 20
15.40036512577635
 30
0.0
  0
SPLINE
  5
24561
102
{ACAD_REACTORS
330
2455C
102
}
330
2
100
AcDbEntity
  8
Layer 1
100
AcDbSpline
210
0.0
220
0.0
230
1.0
 70
    24
 71
     3
 72
     8
 73
     4
 74
     0
 42
0.000000001
 43
0.0000000001
 40
4.0
 40
4.0
 40
4.0
 40
4.0
 40
5.0
 40
5.0
 40
5.0
 40
5.0
 10
190.8221942734046
 20
15.40036512577635
 30
0.0
 10
190.8221942734046
 20
15.40036512577635
 30
0.0
 10
191.7439020725629
 20
18.83755082506895
 30
0.0
 10
191.7439020725629
 20
18.83755082506895
 30
0.0
  0
SPLINE
  5
24562
102
{ACAD_REACTORS
330
2455C
102
}
330
2
100
AcDbEntity
  8
Layer 1
100
AcDbSpline
210
0.0
220
0.0
230
1.0
 70
    24
 71
     3
 72
     8
 73
     4
 74
     0
 42
0.000000001
 43
0.0000000001
 40
5.0
 40
5.0
 40
5.0
 40
5.0
 40
6.0
 40
6.0
 40
6.0
 40
6.0
 10
191.7439020725629
 20
18.83755082506895
 30
0.0
 10
191.7439020725629
 20
18.83755082506895
 30
0.0
 10
192.157929682987
 20
18.83755082506895
 30
0.0
 10
192.157929682987
 20
18.83755082506895
 30
0.0
  0
SPLINE
  5
24563
102
{ACAD_REACTORS
330
2455C
102
}
330
2
100
AcDbEntity
  8
Layer 1
100
AcDbSpline
210
0.0
220
0.0
230
1.0
 70
     8
 71
     3
 72
    11
 73
     7
 74
     0
 42
0.000000001
 43
0.0000000001
 40
6.0
 40
6.0
 40
6.0
 40
6.0
 40
7.0
 40
7.0
 40
7.0
 40
8.0
 40
8.0
 40
8.0
 40
8.0
 10
192.157929682987
 20
18.83755082506895
 30
0.0
 10
192.4024385838536
 20
18.83755082506895
 30
0.0
 10
192.6534927025866
 20
18.78112569409995
 30
0.0
 10
192.6534927025866
 20
18.48019166226359
 30
0.0
 10
192.6534927025866
 20
18.31719383890731
 30
0.0
 10
192.5281359648747
 20
18.0535602494062
 30
0.0
 10
192.1141083544513
 20
18.06626137849953
 30
0.0
  0
SPLINE
  5
24564
102
{ACAD_REACTORS
330
2455C
102
}
330
2
100
AcDbEntity
  8
Layer 1
100
AcDbSpline
210
0.0
220
0.0
230
1.0
 70
    24
 71
     3
 72
     8
 73
     4
 74
     0
 42
0.000000001
 43
0.0000000001
 40
8.0
 40
8.0
 40
8.0
 40
8.0
 40
9.0
 40
9.0
 40
9.0
 40
9.0
 10
192.1141083544513
 20
18.06626137849953
 30
0.0
 10
192.1141083544513
 20
18.06626137849953
 30
0.0
 10
191.8489175383947
 20
17.09550094284486
 30
0.0
 10
191.8489175383947
 20
17.09550094284486
 30
0.0
  0
SPLINE
  5
24565
102
{ACAD_REACTORS
330
2455C
102
}
330
2
100
AcDbEntity
  8
Layer 1
100
AcDbSpline
210
0.0
220
0.0
230
1.0
 70
    24
 71
     3
 72
     8
 73
     4
 74
     0
 42
0.000000001
 43
0.0000000001
 40
9.0
 40
9.0
 40
9.0
 40
9.0
 40
10.0
 40
10.0
 40
10.0
 40
10.0
 10
191.8489175383947
 20
17.09550094284486
 30
0.0
 10
191.8489175383947
 20
17.09550094284486
 30
0.0
 10
192.355405475547
 20
15.33216085380836
 30
0.0
 10
192.355405475547
 20
15.33216085380836
 30
0.0
  0
SPLINE
  5
24566
102
{ACAD_REACTORS
330
2455C
102
}
330
2
100
AcDbEntity
  8
Layer 1
100
AcDbSpline
210
0.0
220
0.0
230
1.0
 70
    24
 71
     3
 72
     8
 73
     4
 74
     0
 42
0.000000001
 43
0.0000000001
 40
10.0
 40
10.0
 40
10.0
 40
10.0
 40
11.0
 40
11.0
 40
11.0
 40
11.0
 10
192.355405475547
 20
15.33216085380836
 30
0.0
 10
192.355405475547
 20
15.33216085380836
 30
0.0
 10
193.5141289374893
 20
15.33216085380836
 30
0.0
 10
193.5141289374893
 20
15.33216085380836
 30
0.0
  0
SPLINE
  5
24567
102
{ACAD_REACTORS
330
2455C
102
}
330
2
100
AcDbEntity
  8
Layer 1
100
AcDbSpline
210
0.0
220
0.0
230
1.0
 70
    24
 71
     3
 72
     8
 73
     4
 74
     0
 42
0.000000001
 43
0.0000000001
 40
11.0
 40
11.0
 40
11.0
 40
11.0
 40
12.0
 40
12.0
 40
12.0
 40
12.0
 10
193.5141289374893
 20
15.33216085380836
 30
0.0
 10
193.5141289374893
 20
15.33216085380836
 30
0.0
 10
192.8834999311563
 20
17.21489642264923
 30
0.0
 10
192.8834999311563
 20
17.21489642264923
 30
0.0
  0
SPLINE
  5
24568
102
{ACAD_REACTORS
330
2455C
102
}
330
2
100
AcDbEntity
  8
Layer 1
100
AcDbSpline
210
0.0
220
0.0
230
1.0
 70
     8
 71
     3
 72
     8
 73
     4
 74
     0
 42
0.000000001
 43
0.0000000001
 40
13.0
 40
13.0
 40
13.0
 40
13.0
 40
14.0
 40
14.0
 40
14.0
 40
14.0
 10
193.449843764033
 20
17.4953918559454
 30
0.0
 10
193.8325321900294
 20
17.79026730321484
 30
0.0
 10
194.0333170890197
 20
18.21062114652004
 30
0.0
 10
194.0333170890197
 20
18.62440544029514
 30
0.0
  0
HATCH
  5
24569
330
2
100
AcDbEntity
  8
0
  6
Continuous
 62
     0
100
AcDbHatch
 10
0.0
 20
0.0
 30
0.0
210
0.0
220
0.0
230
1.0
  2
SOLID
 70
     1
 71
     1
 91
        2
 92
        5
 93
        4
 72
     4
 94
        3
 73
     0
 74
     0
 95
        8
 96
        4
 40
0.0
 40
0.0
 40
0.0
 40
0.0
 40
1.0
 40
1.0
 40
1.0
 40
1.0
 10
199.521835078617
 20
17.18732864628537
 10
199.521835078617
 20
16.03977433326063
 10
200.3077478558087
 20
15.16023330942325
 10
201.6673769603512
 20
15.16023330942325
 97
        0
 72
     4
 94
        3
 73
     0
 74
     0
 95
        8
 96
        4
 40
3.0
 40
3.0
 40
3.0
 40
3.0
 40
4.0
 40
4.0
 40
4.0
 40
4.0
 10
201.6673769603512
 20
15.16023330942325
 10
203.4700126882475
 20
15.16023330942325
 10
204.3993362985282
 20
16.53864645929052
 10
204.3993362985282
 20
17.78610658851167
 97
        0
 72
     4
 94
        3
 73
     0
 74
     0
 95
        8
 96
        4
 40
2.0
 40
2.0
 40
2.0
 40
2.0
 40
3.0
 40
3.0
 40
3.0
 40
3.0
 10
204.3993362985282
 20
17.78610658851167
 10
204.3993362985282
 20
18.90266506406687
 10
203.613545179661
 20
19.82578139614188
 10
202.197709929134
 20
19.82578139614188
 97
        0
 72
     4
 94
        3
 73
     0
 74
     0
 95
        8
 96
        4
 40
1.0
 40
1.0
 40
1.0
 40
1.0
 40
2.0
 40
2.0
 40
2.0
 40
2.0
 10
202.197709929134
 20
19.82578139614188
 10
200.4574362584492
 20
19.82578139614188
 10
199.521835078617
 20
18.44096901839866
 10
199.521835078617
 20
17.18732864628537
 97
        0
 97
        1
330
2456A
 92
       20
 93
        4
 72
     4
 94
        3
 73
     0
 74
     0
 95
        8
 96
        4
 40
2.0
 40
2.0
 40
2.0
 40
2.0
 40
3.0
 40
3.0
 40
3.0
 40
3.0
 10
201.7486203895475
 20
16.22060726700938
 10
201.287073037518
 20
16.22060726700938
 10
200.8877660843755
 20
16.52628597350622
 10
200.8877660843755
 20
17.17496816050179
 97
        0
 72
     4
 94
        3
 73
     0
 74
     0
 95
        8
 96
        4
 40
1.0
 40
1.0
 40
1.0
 40
1.0
 40
2.0
 40
2.0
 40
2.0
 40
2.0
 10
200.8877660843755
 20
17.17496816050179
 10
200.8877660843755
 20
17.84861731273477
 10
201.3557381087565
 20
18.8153360149895
 10
202.2101920732421
 20
18.8153360149895
 97
        0
 72
     4
 94
        3
 73
     0
 74
     0
 95
        8
 96
        4
 40
0.0
 40
0.0
 40
0.0
 40
0.0
 40
1.0
 40
1.0
 40
1.0
 40
1.0
 10
202.2101920732421
 20
18.8153360149895
 10
202.6592816128279
 20
18.8153360149895
 10
203.0460090952023
 20
18.50977896681643
 10
203.0460090952023
 20
17.86725269104854
 97
        0
 72
     4
 94
        3
 73
     0
 74
     0
 95
        8
 96
        4
 40
3.0
 40
3.0
 40
3.0
 40
3.0
 40
4.0
 40
4.0
 40
4.0
 40
4.0
 10
203.0460090952023
 20
17.86725269104854
 10
203.0460090952023
 20
17.22487240527034
 10
202.6718854152612
 20
16.22060726700938
 10
201.7486203895475
 20
16.22060726700938
 97
        0
 97
        1
330
2456B
 75
     1
 76
     1
 47
0.0269459378258844
 98
        2
 10
200.460966501596
 20
16.51270046100608
 10
200.460966501596
 20
16.51270046100608
450
        0
451
        0
460
0.0
461
0.0
452
        0
462
1.0
453
        2
463
0.0
 63
     5
421
      255
463
1.0
 63
     2
421
 16776960
470
LINEAR
1001
GRADIENTCOLOR1ACI
1070
     5
1001
GRADIENTCOLOR2ACI
1070
     2
1001
ACAD
1010
0.0
1020
0.0
1030
0.0
  0
SPLINE
  5
2456A
102
{ACAD_REACTORS
330
24569
102
}
330
2
100
AcDbEntity
  8
Layer 1
100
AcDbSpline
210
0.0
220
0.0
230
1.0
 70
     9
 71
     3
 72
    17
 73
    13
 74
     0
 42
0.000000001
 43
0.0000000001
 40
0.0
 40
0.0
 40
0.0
 40
0.0
 40
1.0
 40
1.0
 40
1.0
 40
2.0
 40
2.0
 40
2.0
 40
3.0
 40
3.0
 40
3.0
 40
4.0
 40
4.0
 40
4.0
 40
4.0
 10
201.6673769603512
 20
15.16023330942325
 30
0.0
 10
200.3077478558087
 20
15.16023330942325
 30
0.0
 10
199.521835078617
 20
16.03977433326063
 30
0.0
 10
199.521835078617
 20
17.18732864628537
 30
0.0
 10
199.521835078617
 20
18.44096901839866
 30
0.0
 10
200.4574362584492
 20
19.82578139614188
 30
0.0
 10
202.197709929134
 20
19.82578139614188
 30
0.0
 10
203.613545179661
 20
19.82578139614188
 30
0.0
 10
204.3993362985282
 20
18.90266506406687
 30
0.0
 10
204.3993362985282
 20
17.78610658851167
 30
0.0
 10
204.3993362985282
 20
16.53864645929052
 30
0.0
 10
203.4700126882475
 20
15.16023330942325
 30
0.0
 10
201.6673769603512
 20
15.16023330942325
 30
0.0
  0
SPLINE
  5
2456B
102
{ACAD_REACTORS
330
24569
102
}
330
2
100
AcDbEntity
  8
Layer 1
100
AcDbSpline
210
0.0
220
0.0
230
1.0
 70
     9
 71
     3
 72
    17
 73
    13
 74
     0
 42
0.000000001
 43
0.0000000001
 40
0.0
 40
0.0
 40
0.0
 40
0.0
 40
1.0
 40
1.0
 40
1.0
 40
2.0
 40
2.0
 40
2.0
 40
3.0
 40
3.0
 40
3.0
 40
4.0
 40
4.0
 40
4.0
 40
4.0
 10
203.0460090952023
 20
17.86725269104854
 30
0.0
 10
203.0460090952023
 20
18.50977896681643
 30
0.0
 10
202.6592816128279
 20
18.8153360149895
 30
0.0
 10
202.2101920732421
 20
18.8153360149895
 30
0.0
 10
201.3557381087565
 20
18.8153360149895
 30
0.0
 10
200.8877660843755
 20
17.84861731273477
 30
0.0
 10
200.8877660843755
 20
17.17496816050179
 30
0.0
 10
200.8877660843755
 20
16.52628597350622
 30
0.0
 10
201.287073037518
 20
16.22060726700938
 30
0.0
 10
201.7486203895475
 20
16.22060726700938
 30
0.0
 10
202.6718854152612
 20
16.22060726700938
 30
0.0
 10
203.0460090952023
 20
17.22487240527034
 30
0.0
 10
203.0460090952023
 20
17.86725269104854
 30
0.0
  0
HATCH
  5
2456C
330
2
100
AcDbEntity
  8
0
  6
Continuous
 62
     0
100
AcDbHatch
 10
0.0
 20
0.0
 30
0.0
210
0.0
220
0.0
230
1.0
  2
SOLID
 70
     1
 71
     1
 91
        2
 92
        5
 93
        4
 72
     4
 94
        3
 73
     0
 74
     0
 95
        8
 96
        4
 40
0.0
 40
0.0
 40
0.0
 40
0.0
 40
1.0
 40
1.0
 40
1.0
 40
1.0
 10
204.5516525209809
 20
17.18732864628537
 10
204.5516525209809
 20
16.03977433326063
 10
205.3376626248326
 20
15.16023330942325
 10
206.6971700710507
 20
15.16023330942325
 97
        0
 72
     4
 94
        3
 73
     0
 74
     0
 95
        8
 96
        4
 40
3.0
 40
3.0
 40
3.0
 40
3.0
 40
4.0
 40
4.0
 40
4.0
 40
4.0
 10
206.6971700710507
 20
15.16023330942325
 10
208.4998301306121
 20
15.16023330942325
 10
209.4291537408928
 20
16.53864645929052
 10
209.4291537408928
 20
17.78610658851167
 97
        0
 72
     4
 94
        3
 73
     0
 74
     0
 95
        8
 96
        4
 40
2.0
 40
2.0
 40
2.0
 40
2.0
 40
3.0
 40
3.0
 40
3.0
 40
3.0
 10
209.4291537408928
 20
17.78610658851167
 10
209.4291537408928
 20
18.90266506406687
 10
208.6432409637004
 20
19.82578139614188
 10
207.2275273714978
 20
19.82578139614188
 97
        0
 72
     4
 94
        3
 73
     0
 74
     0
 95
        8
 96
        4
 40
1.0
 40
1.0
 40
1.0
 40
1.0
 40
2.0
 40
2.0
 40
2.0
 40
2.0
 10
207.2275273714978
 20
19.82578139614188
 10
205.4871320424893
 20
19.82578139614188
 10
204.5516525209809
 20
18.44096901839866
 10
204.5516525209809
 20
17.18732864628537
 97
        0
 97
        1
330
2456E
 92
       20
 93
        4
 72
     4
 94
        3
 73
     0
 74
     0
 95
        8
 96
        4
 40
2.0
 40
2.0
 40
2.0
 40
2.0
 40
3.0
 40
3.0
 40
3.0
 40
3.0
 10
206.778194515263
 20
16.22060726700938
 10
206.3166471632329
 20
16.22060726700938
 10
205.9176820814544
 20
16.52628597350622
 10
205.9176820814544
 20
17.17496816050179
 97
        0
 72
     4
 94
        3
 73
     0
 74
     0
 95
        8
 96
        4
 40
1.0
 40
1.0
 40
1.0
 40
1.0
 40
2.0
 40
2.0
 40
2.0
 40
2.0
 10
205.9176820814544
 20
17.17496816050179
 10
205.9176820814544
 20
17.84861731273477
 10
206.3854327799861
 20
18.8153360149895
 10
207.2396445406325
 20
18.8153360149895
 97
        0
 72
     4
 94
        3
 73
     0
 74
     0
 95
        8
 96
        4
 40
0.0
 40
0.0
 40
0.0
 40
0.0
 40
1.0
 40
1.0
 40
1.0
 40
1.0
 10
207.2396445406325
 20
18.8153360149895
 10
207.688977396868
 20
18.8153360149895
 10
208.0757048792424
 20
18.50977896681643
 10
208.0757048792424
 20
17.86725269104854
 97
        0
 72
     4
 94
        3
 73
     0
 74
     0
 95
        8
 96
        4
 40
3.0
 40
3.0
 40
3.0
 40
3.0
 40
4.0
 40
4.0
 40
4.0
 40
4.0
 10
208.0757048792424
 20
17.86725269104854
 10
208.0757048792424
 20
17.22487240527034
 10
207.7013378826516
 20
16.22060726700938
 10
206.778194515263
 20
16.22060726700938
 97
        0
 97
        1
330
2456D
 75
     1
 76
     1
 47
0.0269459378258844
 98
        2
 10
205.8325870541136
 20
16.86761058688489
 10
205.8325870541136
 20
16.86761058688489
450
        0
451
        0
460
0.0
461
0.0
452
        0
462
1.0
453
        2
463
0.0
 63
     5
421
      255
463
1.0
 63
     2
421
 16776960
470
LINEAR
1001
GRADIENTCOLOR1ACI
1070
     5
1001
GRADIENTCOLOR2ACI
1070
     2
1001
ACAD
1010
0.0
1020
0.0
1030
0.0
  0
SPLINE
  5
2456D
102
{ACAD_REACTORS
330
2456C
102
}
330
2
100
AcDbEntity
  8
Layer 1
100
AcDbSpline
210
0.0
220
0.0
230
1.0
 70
     9
 71
     3
 72
    17
 73
    13
 74
     0
 42
0.000000001
 43
0.0000000001
 40
0.0
 40
0.0
 40
0.0
 40
0.0
 40
1.0
 40
1.0
 40
1.0
 40
2.0
 40
2.0
 40
2.0
 40
3.0
 40
3.0
 40
3.0
 40
4.0
 40
4.0
 40
4.0
 40
4.0
 10
208.0757048792424
 20
17.86725269104854
 30
0.0
 10
208.0757048792424
 20
18.50977896681643
 30
0.0
 10
207.688977396868
 20
18.8153360149895
 30
0.0
 10
207.2396445406325
 20
18.8153360149895
 30
0.0
 10
206.3854327799861
 20
18.8153360149895
 30
0.0
 10
205.9176820814544
 20
17.84861731273477
 30
0.0
 10
205.9176820814544
 20
17.17496816050179
 30
0.0
 10
205.9176820814544
 20
16.52628597350622
 30
0.0
 10
206.3166471632329
 20
16.22060726700938
 30
0.0
 10
206.778194515263
 20
16.22060726700938
 30
0.0
 10
207.7013378826516
 20
16.22060726700938
 30
0.0
 10
208.0757048792424
 20
17.22487240527034
 30
0.0
 10
208.0757048792424
 20
17.86725269104854
 30
0.0
  0
SPLINE
  5
2456E
102
{ACAD_REACTORS
330
2456C
102
}
330
2
100
AcDbEntity
  8
Layer 1
100
AcDbSpline
210
0.0
220
0.0
230
1.0
 70
     9
 71
     3
 72
    17
 73
    13
 74
     0
 42
0.000000001
 43
0.0000000001
 40
0.0
 40
0.0
 40
0.0
 40
0.0
 40
1.0
 40
1.0
 40
1.0
 40
2.0
 40
2.0
 40
2.0
 40
3.0
 40
3.0
 40
3.0
 40
4.0
 40
4.0
 40
4.0
 40
4.0
 10
206.6971700710507
 20
15.16023330942325
 30
0.0
 10
205.3376626248326
 20
15.16023330942325
 30
0.0
 10
204.5516525209809
 20
16.03977433326063
 30
0.0
 10
204.5516525209809
 20
17.18732864628537
 30
0.0
 10
204.5516525209809
 20
18.44096901839866
 30
0.0
 10
205.4871320424893
 20
19.82578139614188
 30
0.0
 10
207.2275273714978
 20
19.82578139614188
 30
0.0
 10
208.6432409637004
 20
19.82578139614188
 30
0.0
 10
209.4291537408928
 20
18.90266506406687
 30
0.0
 10
209.4291537408928
 20
17.78610658851167
 30
0.0
 10
209.4291537408928
 20
16.53864645929052
 30
0.0
 10
208.4998301306121
 20
15.16023330942325
 30
0.0
 10
206.6971700710507
 20
15.16023330942325
 30
0.0
  0
HATCH
  5
2456F
330
2
100
AcDbEntity
  8
0
  6
Continuous
 62
     0
100
AcDbHatch
 10
0.0
 20
0.0
 30
0.0
210
0.0
220
0.0
230
1.0
  2
SOLID
 70
     1
 71
     1
 91
        1
 92
        5
 93
        6
 72
     4
 94
        3
 73
     0
 74
     0
 95
        8
 96
        4
 40
4.0
 40
4.0
 40
4.0
 40
4.0
 40
5.0
 40
5.0
 40
5.0
 40
5.0
 10
210.7786622236781
 20
16.31408952366464
 10
210.7786622236781
 20
16.31408952366464
 10
211.6831418532136
 20
19.69487703882614
 10
211.6831418532136
 20
19.69487703882614
 97
        0
 72
     4
 94
        3
 73
     0
 74
     0
 95
        8
 96
        4
 40
3.0
 40
3.0
 40
3.0
 40
3.0
 40
4.0
 40
4.0
 40
4.0
 40
4.0
 10
211.6831418532136
 20
19.69487703882614
 10
211.6831418532136
 20
19.69487703882614
 10
210.2982078171459
 20
19.69487703882614
 10
210.2982078171459
 20
19.69487703882614
 97
        0
 72
     4
 94
        3
 73
     0
 74
     0
 95
        8
 96
        4
 40
2.0
 40
2.0
 40
2.0
 40
2.0
 40
3.0
 40
3.0
 40
3.0
 40
3.0
 10
210.2982078171459
 20
19.69487703882614
 10
210.2982078171459
 20
19.69487703882614
 10
209.1195333046766
 20
15.29128365672795
 10
209.1195333046766
 20
15.29128365672795
 97
        0
 72
     4
 94
        3
 73
     0
 74
     0
 95
        8
 96
        4
 40
1.0
 40
1.0
 40
1.0
 40
1.0
 40
2.0
 40
2.0
 40
2.0
 40
2.0
 10
209.1195333046766
 20
15.29128365672795
 10
209.1195333046766
 20
15.29128365672795
 10
211.9701838853296
 20
15.29128365672795
 10
211.9701838853296
 20
15.29128365672795
 97
        0
 72
     4
 94
        3
 73
     0
 74
     0
 95
        8
 96
        4
 40
0.0
 40
0.0
 40
0.0
 40
0.0
 40
1.0
 40
1.0
 40
1.0
 40
1.0
 10
211.9701838853296
 20
15.29128365672795
 10
211.9701838853296
 20
15.29128365672795
 10
212.3085386368723
 20
16.31408952366464
 10
212.3085386368723
 20
16.31408952366464
 97
        0
 72
     4
 94
        3
 73
     0
 74
     0
 95
        8
 96
        4
 40
5.0
 40
5.0
 40
5.0
 40
5.0
 40
6.0
 40
6.0
 40
6.0
 40
6.0
 10
212.3085386368723
 20
16.31408952366464
 10
212.3085386368723
 20
16.31408952366464
 10
210.7786622236781
 20
16.31408952366464
 10
210.7786622236781
 20
16.31408952366464
 97
        0
 97
        6
330
24574
330
24573
330
24572
330
24571
330
24570
330
24575
 75
     1
 76
     1
 47
0.0168242271866721
 98
        1
 10
210.3545578016609
 20
16.60134532767106
450
        0
451
        0
460
0.0
461
0.0
452
        0
462
1.0
453
        2
463
0.0
 63
     5
421
      255
463
1.0
 63
     2
421
 16776960
470
LINEAR
1001
GRADIENTCOLOR1ACI
1070
     5
1001
GRADIENTCOLOR2ACI
1070
     2
1001
ACAD
1010
0.0
1020
0.0
1030
0.0
  0
SPLINE
  5
24570
102
{ACAD_REACTORS
330
2456F
102
}
330
2
100
AcDbEntity
  8
Layer 1
100
AcDbSpline
210
0.0
220
0.0
230
1.0
 70
    24
 71
     3
 72
     8
 73
     4
 74
     0
 42
0.000000001
 43
0.0000000001
 40
0.0
 40
0.0
 40
0.0
 40
0.0
 40
1.0
 40
1.0
 40
1.0
 40
1.0
 10
212.3085386368723
 20
16.31408952366464
 30
0.0
 10
212.3085386368723
 20
16.31408952366464
 30
0.0
 10
211.9701838853296
 20
15.29128365672795
 30
0.0
 10
211.9701838853296
 20
15.29128365672795
 30
0.0
  0
SPLINE
  5
24571
102
{ACAD_REACTORS
330
2456F
102
}
330
2
100
AcDbEntity
  8
Layer 1
100
AcDbSpline
210
0.0
220
0.0
230
1.0
 70
    24
 71
     3
 72
     8
 73
     4
 74
     0
 42
0.000000001
 43
0.0000000001
 40
1.0
 40
1.0
 40
1.0
 40
1.0
 40
2.0
 40
2.0
 40
2.0
 40
2.0
 10
211.9701838853296
 20
15.29128365672795
 30
0.0
 10
211.9701838853296
 20
15.29128365672795
 30
0.0
 10
209.1195333046766
 20
15.29128365672795
 30
0.0
 10
209.1195333046766
 20
15.29128365672795
 30
0.0
  0
SPLINE
  5
24572
102
{ACAD_REACTORS
330
2456F
102
}
330
2
100
AcDbEntity
  8
Layer 1
100
AcDbSpline
210
0.0
220
0.0
230
1.0
 70
    24
 71
     3
 72
     8
 73
     4
 74
     0
 42
0.000000001
 43
0.0000000001
 40
2.0
 40
2.0
 40
2.0
 40
2.0
 40
3.0
 40
3.0
 40
3.0
 40
3.0
 10
209.1195333046766
 20
15.29128365672795
 30
0.0
 10
209.1195333046766
 20
15.29128365672795
 30
0.0
 10
210.2982078171459
 20
19.69487703882614
 30
0.0
 10
210.2982078171459
 20
19.69487703882614
 30
0.0
  0
SPLINE
  5
24573
102
{ACAD_REACTORS
330
2456F
102
}
330
2
100
AcDbEntity
  8
Layer 1
100
AcDbSpline
210
0.0
220
0.0
230
1.0
 70
    24
 71
     3
 72
     8
 73
     4
 74
     0
 42
0.000000001
 43
0.0000000001
 40
3.0
 40
3.0
 40
3.0
 40
3.0
 40
4.0
 40
4.0
 40
4.0
 40
4.0
 10
210.2982078171459
 20
19.69487703882614
 30
0.0
 10
210.2982078171459
 20
19.69487703882614
 30
0.0
 10
211.6831418532136
 20
19.69487703882614
 30
0.0
 10
211.6831418532136
 20
19.69487703882614
 30
0.0
  0
SPLINE
  5
24574
102
{ACAD_REACTORS
330
2456F
102
}
330
2
100
AcDbEntity
  8
Layer 1
100
AcDbSpline
210
0.0
220
0.0
230
1.0
 70
    24
 71
     3
 72
     8
 73
     4
 74
     0
 42
0.000000001
 43
0.0000000001
 40
4.0
 40
4.0
 40
4.0
 40
4.0
 40
5.0
 40
5.0
 40
5.0
 40
5.0
 10
211.6831418532136
 20
19.69487703882614
 30
0.0
 10
211.6831418532136
 20
19.69487703882614
 30
0.0
 10
210.7786622236781
 20
16.31408952366464
 30
0.0
 10
210.7786622236781
 20
16.31408952366464
 30
0.0
  0
SPLINE
  5
24575
102
{ACAD_REACTORS
330
2456F
102
}
330
2
100
AcDbEntity
  8
Layer 1
100
AcDbSpline
210
0.0
220
0.0
230
1.0
 70
    24
 71
     3
 72
     8
 73
     4
 74
     0
 42
0.000000001
 43
0.0000000001
 40
5.0
 40
5.0
 40
5.0
 40
5.0
 40
6.0
 40
6.0
 40
6.0
 40
6.0
 10
210.7786622236781
 20
16.31408952366464
 30
0.0
 10
210.7786622236781
 20
16.31408952366464
 30
0.0
 10
212.3085386368723
 20
16.31408952366464
 30
0.0
 10
212.3085386368723
 20
16.31408952366464
 30
0.0
  0
LINE
  5
266E9
330
2
100
AcDbEntity
  8
0
  6
Continuous
 62
     3
100
AcDbLine
 10
54.73333925945201
 20
47.30260133765381
 30
0.0
 11
54.73333925945201
 21
35.81456412102892
 31
0.0
  0
MTEXT
  5
266EA
330
2
100
AcDbEntity
  8
0
  6
Continuous
 62
     2
100
AcDbMText
 10
54.73387342859962
 20
33.36574901723287
 30
0.0
 40
3.0
 41
0.0
 46
0.0
 71
     5
 72
     1
  1
0.00
 73
     1
 44
1.0
  0
LINE
  5
266EB
330
2
100
AcDbEntity
  8
0
  6
Continuous
 62
     3
100
AcDbLine
 10
80.73333925945201
 20
47.30260133765381
 30
0.0
 11
80.73333925945201
 21
35.84732274161337
 31
0.0
  0
MTEXT
  5
266EC
330
2
100
AcDbEntity
  8
0
  6
Continuous
 62
     2
100
AcDbMText
 10
80.43952532630475
 20
33.36574901723287
 30
0.0
 40
3.0
 41
0.0
 46
0.0
 71
     5
 72
     1
  1
1.02
 73
     1
 44
1.0
  0
LINE
  5
266ED
330
2
100
AcDbEntity
  8
0
  6
Continuous
 62
     3
100
AcDbLine
 10
22.73333925945201
 20
56.72652849672108
 30
0.0
 11
22.73333925945201
 21
35.81456412102892
 31
0.0
  0
MTEXT
  5
266EE
330
2
100
AcDbEntity
  8
0
  6
Continuous
 62
     2
100
AcDbMText
 10
22.73387342859962
 20
33.36574901723287
 30
0.0
 40
3.0
 41
0.0
 46
0.0
 71
     5
 72
     1
  1
1.26
 73
     1
 44
1.0
  0
LINE
  5
266F1
330
2
100
AcDbEntity
  8
0
  6
Continuous
 62
     3
100
AcDbLine
 10
105.5333392594522
 20
58.43571022576566
 30
0.0
 11
105.5333392594517
 21
35.84732274161257
 31
0.0
  0
MTEXT
  5
266F2
330
2
100
AcDbEntity
  8
0
  6
Continuous
 62
     2
100
AcDbMText
 10
105.2395253263045
 20
33.36574901723208
 30
0.0
 40
3.0
 41
7.735831105580928
 46
0.0
 71
     5
 72
     1
  1
2.00
 73
     1
 44
1.0
  0
HATCH
  5
26D85
330
2
100
AcDbEntity
  8
0
  6
Continuous
 62
     4
100
AcDbHatch
 10
0.0
 20
0.0
 30
0.0
210
0.0
220
0.0
230
1.0
  2
ANSI31
 70
     0
 71
     0
 91
       19
 92
        7
 72
     0
 73
     1
 93
        4
 10
71.733339259452
 20
88.00260133765386
 10
64.73333925945201
 20
88.00260133765386
 10
65.23333925945201
 20
87.50260133765385
 10
71.733339259452
 20
87.50260133765385
 97
        0
 92
        7
 72
     0
 73
     1
 93
        4
 10
100.7393392594523
 20
91.96236631073418
 10
100.7393392594523
 20
84.5906013376541
 10
101.0393392594507
 20
84.59060133765417
 10
101.0393392594516
 20
91.78916122997833
 97
        0
 92
        7
 72
     0
 73
     1
 93
        4
 10
104.7393392594523
 20
84.59060133765422
 10
104.7393392594523
 20
91.9623663107348
 10
104.4393392594539
 20
91.78916122997817
 10
104.4393392594539
 20
84.59060133765422
 97
        0
 92
        7
 72
     0
 73
     1
 93
        9
 10
105.5333392594522
 20
84.87927647224848
 10
105.5333392594522
 20
99.39010133765407
 10
105.2833392594522
 20
99.6401013376542
 10
105.0893392594527
 20
99.6401013376542
 10
104.8393392594517
 20
99.39010133765414
 10
104.8393392594527
 20
92.02010133765401
 10
104.7393392594523
 20
91.96236631073418
 10
104.7393392594523
 20
84.59060133765422
 10
105.0333392594522
 20
84.59060133765365
 97
        0
 92
        9
 93
        4
 72
     1
 10
65.27056770726005
 20
71.22833726894175
 11
65.27056770726005
 21
79.75260133765369
 72
     1
 10
65.27056770726005
 20
79.75260133765369
 11
69.77056770726005
 21
79.75260133765369
 72
     1
 10
69.77056770726005
 20
79.75260133765369
 11
69.77056770726005
 21
71.22833726894175
 72
     1
 10
69.77056770726005
 20
71.22833726894175
 11
65.27056770726005
 21
71.22833726894175
 97
        0
 92
        9
 93
        4
 72
     1
 10
109.7143392594517
 20
113.8480027400686
 11
124.1181308872184
 21
113.8480027400686
 72
     1
 10
124.1181308872184
 20
113.8480027400686
 11
124.1181308872184
 21
109.3480027400686
 72
     1
 10
124.1181308872184
 20
109.3480027400686
 11
109.7143392594517
 21
109.3480027400686
 72
     1
 10
109.7143392594517
 20
109.3480027400686
 11
109.7143392594517
 21
113.8480027400686
 97
        0
 92
        9
 93
        4
 72
     1
 10
96.09874140771546
 20
121.8485932912497
 11
102.0139371111901
 21
121.8485932912497
 72
     1
 10
102.0139371111901
 20
121.8485932912497
 11
102.0139371111901
 21
117.3480027400686
 72
     1
 10
102.0139371111901
 20
117.3480027400686
 11
96.09874140771546
 21
117.3480027400686
 72
     1
 10
96.09874140771546
 20
117.3480027400686
 11
96.09874140771546
 21
121.8485932912497
 97
        0
 92
        9
 93
        4
 72
     1
 10
110.4083392594522
 20
121.8480027400686
 11
114.9083392594522
 21
121.8480027400686
 72
     1
 10
114.9083392594522
 20
121.8480027400686
 11
114.9083392594522
 21
117.3480027400686
 72
     1
 10
114.9083392594522
 20
117.3480027400686
 11
110.4083392594522
 21
117.3480027400686
 72
     1
 10
110.4083392594522
 20
117.3480027400686
 11
110.4083392594522
 21
121.8480027400686
 97
        0
 92
        9
 93
        4
 72
     1
 10
90.00833925945256
 20
129.8485932912497
 11
95.71070146417708
 21
129.8485932912497
 72
     1
 10
95.71070146417708
 20
129.8485932912497
 11
95.71070146417708
 21
125.3480027400686
 72
     1
 10
95.71070146417708
 20
125.3480027400686
 11
90.00833925945256
 21
125.3480027400686
 72
     1
 10
90.00833925945256
 20
125.3480027400686
 11
90.00833925945256
 21
129.8485932912497
 97
        0
 92
        9
 93
        4
 72
     1
 10
89.98215815709057
 20
137.8480027400686
 11
95.68452036181509
 21
137.8480027400686
 72
     1
 10
95.68452036181509
 20
137.8480027400686
 11
95.68452036181509
 21
133.3480027400686
 72
     1
 10
95.68452036181509
 20
133.3480027400686
 11
89.98215815709057
 21
133.3480027400686
 72
     1
 10
89.98215815709057
 20
133.3480027400686
 11
89.98215815709057
 21
137.8480027400686
 97
        0
 92
        9
 93
        4
 72
     1
 10
9.900171780145797
 20
73.60260133765371
 11
9.900171780145797
 21
84.40260133765372
 72
     1
 10
9.900171780145797
 20
84.40260133765372
 11
14.40076233132652
 21
84.40260133765372
 72
     1
 10
14.40076233132652
 20
84.40260133765372
 11
14.40076233132652
 21
73.60260133765371
 72
     1
 10
14.40076233132652
 20
73.60260133765371
 11
9.900171780145797
 21
73.60260133765371
 97
        0
 92
        9
 93
        4
 72
     1
 10
89.98215815709057
 20
137.8480027400686
 11
95.68452036181509
 21
137.8480027400686
 72
     1
 10
95.68452036181509
 20
137.8480027400686
 11
95.68452036181509
 21
133.3480027400686
 72
     1
 10
95.68452036181509
 20
133.3480027400686
 11
89.98215815709057
 21
133.3480027400686
 72
     1
 10
89.98215815709057
 20
133.3480027400686
 11
89.98215815709057
 21
137.8480027400686
 97
        0
 92
        9
 93
        4
 72
     1
 10
89.98215815709057
 20
137.8480027400686
 11
95.68452036181509
 21
137.8480027400686
 72
     1
 10
95.68452036181509
 20
137.8480027400686
 11
95.68452036181509
 21
133.3480027400686
 72
     1
 10
95.68452036181509
 20
133.3480027400686
 11
89.98215815709057
 21
133.3480027400686
 72
     1
 10
89.98215815709057
 20
133.3480027400686
 11
89.98215815709057
 21
137.8480027400686
 97
        0
 92
        9
 93
        4
 72
     1
 10
113.8659534883946
 20
92.97892023529181
 11
113.8659534883946
 21
98.68128244001622
 72
     1
 10
113.8659534883946
 20
98.68128244001622
 11
118.3659534883946
 21
98.68128244001622
 72
     1
 10
118.3659534883946
 20
98.68128244001622
 11
118.3659534883946
 21
92.97892023529181
 72
     1
 10
118.3659534883946
 20
92.97892023529181
 11
113.8659534883946
 21
92.97892023529181
 97
        0
 92
        9
 93
        4
 72
     1
 10
109.7143392594517
 20
113.8480027400686
 11
124.1181308872184
 21
113.8480027400686
 72
     1
 10
124.1181308872184
 20
113.8480027400686
 11
124.1181308872184
 21
109.3480027400686
 72
     1
 10
124.1181308872184
 20
109.3480027400686
 11
109.7143392594517
 21
109.3480027400686
 72
     1
 10
109.7143392594517
 20
109.3480027400686
 11
109.7143392594517
 21
113.8480027400686
 97
        0
 92
        9
 93
        4
 72
     1
 10
110.4083392594522
 20
121.8480027400686
 11
114.9083392594522
 21
121.8480027400686
 72
     1
 10
114.9083392594522
 20
121.8480027400686
 11
114.9083392594522
 21
117.3480027400686
 72
     1
 10
114.9083392594522
 20
117.3480027400686
 11
110.4083392594522
 21
117.3480027400686
 72
     1
 10
110.4083392594522
 20
117.3480027400686
 11
110.4083392594522
 21
121.8480027400686
 97
        0
 92
        9
 93
        4
 72
     1
 10
89.98215815709057
 20
137.8480027400686
 11
95.68452036181509
 21
137.8480027400686
 72
     1
 10
95.68452036181509
 20
137.8480027400686
 11
95.68452036181509
 21
133.3480027400686
 72
     1
 10
95.68452036181509
 20
133.3480027400686
 11
89.98215815709057
 21
133.3480027400686
 72
     1
 10
89.98215815709057
 20
133.3480027400686
 11
89.98215815709057
 21
137.8480027400686
 97
        0
 92
        9
 93
        4
 72
     1
 10
121.8653629372139
 20
72.94046930329682
 11
121.8653629372139
 21
85.06473337200873
 72
     1
 10
121.8653629372139
 20
85.06473337200873
 11
126.3659534883946
 21
85.06473337200873
 72
     1
 10
126.3659534883946
 20
85.06473337200873
 11
126.3659534883946
 21
72.94046930329682
 72
     1
 10
126.3659534883946
 20
72.94046930329682
 11
121.8653629372139
 21
72.94046930329682
 97
        0
 92
        7
 72
     1
 73
     1
 93
      104
 10
100.6393392594528
 20
92.02010133765412
 42
0.0
 10
100.6393392594528
 20
99.39010133765414
 42
0.0
 10
100.6393392594519
 20
99.39010133765419
 42
0.0
 10
100.3893392594519
 20
99.6401013376542
 42
0.0
 10
100.3893392594537
 20
99.64010133765277
 42
0.0
 10
81.74933925945799
 20
99.6401013376473
 42
0.0
 10
81.74933925945163
 20
99.64010133765368
 42
0.0
 10
80.73333925945201
 20
100.6561013376537
 42
0.0
 10
80.73333925945201
 20
100.6561013376537
 42
0.0
 10
80.73333925945201
 20
110.0026013376538
 42
0.0
 10
80.73333925945201
 20
110.0026013376538
 42
0.4142135623730951
 10
80.233339259452
 20
110.5026013376538
 42
0.0
 10
76.11083833421265
 20
110.5026013376538
 42
0.0
 10
76.11083833421265
 20
110.5026013376538
 42
0.0
 10
74.60833925945201
 20
107.900196601846
 42
0.0
 10
74.60833925945201
 20
107.900196601846
 42
0.0
 10
74.60833925945201
 20
107.0026013376538
 42
0.0
 10
74.60833925945201
 20
107.0026013376538
 42
-0.4142135623730992
 10
74.10833925945201
 20
106.5026013376538
 42
0.0
 10
72.73333925945201
 20
106.5026013376538
 42
0.0
 10
72.73333925945201
 20
106.5026013376538
 42
0.0
 10
71.35833925945201
 20
106.5026013376538
 42
0.0
 10
71.35833925945201
 20
106.5026013376538
 42
-0.4142135623730951
 10
70.85833925945201
 20
107.0026013376538
 42
0.0
 10
70.85833925945201
 20
107.900196601846
 42
0.0
 10
70.85833925945201
 20
107.900196601846
 42
0.0
 10
69.35584018469319
 20
110.5026013376538
 42
0.0
 10
69.35584018469319
 20
110.5026013376538
 42
0.0
 10
66.733339259452
 20
110.5026013376538
 42
0.0
 10
66.733339259452
 20
110.5026013376538
 42
0.0
 10
66.733339259452
 20
105.802601337654
 42
0.0
 10
66.73333925945292
 20
105.802601337654
 42
-0.4142135623730992
 10
66.43333925945274
 20
105.5026013376538
 42
0.0
 10
62.59936466323608
 20
105.5026013376538
 42
0.0
 10
62.59936466323608
 20
105.502601337654
 42
0.0
 10
61.733339259452
 20
105.0026013376538
 42
0.0
 10
61.733339259452
 20
105.0026013376538
 42
0.0
 10
60.86731385566793
 20
105.502601337654
 42
0.0
 10
60.86731385566793
 20
105.5026013376538
 42
0.0
 10
57.0333392594531
 20
105.5026013376538
 42
0.0
 10
57.0333392594531
 20
105.502601337654
 42
-0.4142135623730951
 10
56.733339259452
 20
105.802601337654
 42
0.0
 10
56.733339259452
 20
110.5026013376538
 42
0.0
 10
56.733339259452
 20
110.5026013376538
 42
0.0
 10
55.23333925945201
 20
110.5026013376538
 42
0.0
 10
55.23333925945201
 20
110.5026013376538
 42
0.4142135623730951
 10
54.73333925945201
 20
110.0026013376538
 42
0.0
 10
54.73333925945201
 20
104.4230264523495
 42
0.0
 10
54.73333925945201
 20
104.4230264523495
 42
0.0
 10
54.83333925945237
 20
103.7114894801108
 42
0.0
 10
54.83333925945237
 20
103.7114894801108
 42
0.0
 10
54.83333925945237
 20
103.6230264523494
 42
0.0
 10
54.83333925945237
 20
103.6230264523494
 42
-0.1474768247823459
 10
54.73333925945201
 20
103.2913639733139
 42
-0.2513806714127607
 10
54.233339259452
 20
103.023026452349
 42
0.0
 10
53.55874091951966
 20
103.023026452349
 42
0.0
 10
53.55874091951966
 20
103.0230264523493
 42
-0.0655434628152163
 10
53.40344949245821
 20
103.0434709565754
 42
0.0
 10
52.73333925945201
 20
103.2230264523488
 42
0.0
 10
52.73333925945201
 20
103.2230264523488
 42
0.0
 10
23.87329592683648
 20
101.7771710697845
 42
0.0
 10
23.87329592683739
 20
101.7771710697839
 42
0.399627051629197
 10
22.73333925945201
 20
100.578674178587
 42
0.0
 10
22.73333925945201
 20
96.57995160684386
 42
0.0
 10
22.73333925945201
 20
96.57995160684386
 42
0.0
 10
23.73333925945201
 20
96.00260133765386
 42
0.0
 10
23.73333925945201
 20
96.00260133765386
 42
0.0
 10
35.73731385566873
 20
96.00260133765386
 42
0.0
 10
35.73731385566873
 20
96.00260133765386
 42
0.0
 10
37.29615958248007
 20
98.70260133765459
 42
0.0
 10
37.29615958248007
 20
98.70260133765453
 42
-0.2679491924310481
 10
37.81577482475052
 20
99.00260133765385
 42
0.0
 10
48.48834126105441
 20
99.00260133765385
 42
0.0
 10
48.48834126105441
 20
99.00260133765385
 42
-0.2277350772924277
 10
54.73333925945201
 20
96.00260133765386
 42
0.0
 10
62.4041830618645
 20
96.00260133765386
 42
0.0
 10
62.4041830618645
 20
96.00260133765472
 42
-0.5982346904412836
 10
64.73333925945201
 20
94.75260133765386
 42
0.0
 10
64.73333925945201
 20
88.00260133765386
 42
0.0
 10
64.73333925945201
 20
88.00260133765386
 42
0.0
 10
71.733339259452
 20
88.00260133765386
 42
0.0
 10
71.733339259452
 20
88.00260133765386
 42
0.0
 10
71.733339259452
 20
88.50260133765386
 42
0.0
 10
71.733339259452
 20
88.50260133765386
 42
0.0
 10
76.733339259452
 20
88.50260133765386
 42
0.0
 10
76.733339259452
 20
88.50260133765386
 42
0.0
 10
76.733339259452
 20
83.75260133765413
 42
0.0
 10
76.733339259452
 20
83.75260133765413
 42
0.0
 10
77.2833392594531
 20
83.20260133765373
 42
0.0
 10
77.2833392594531
 20
83.20260133765373
 42
0.0
 10
79.58333925945146
 20
83.2026013376539
 42
0.0
 10
79.58333925945055
 20
83.20260133765373
 42
0.0
 10
80.13333925945165
 20
84.15522928181678
 42
0.0
 10
80.13333925945255
 20
84.15522928181838
 42
0.0
 10
80.13333925945255
 20
84.89060133765377
 42
0.0
 10
80.13333925945255
 20
84.89060133765377
 42
0.0
 10
85.13333925945255
 20
84.8906013376539
 42
0.0
 10
85.13333925945255
 20
84.8906013376539
 42
0.0
 10
85.13333925945255
 20
84.59060133765389
 42
0.0
 10
85.13333925945255
 20
84.59060133765389
 42
0.0
 10
100.7393392594523
 20
84.59060133765417
 42
0.0
 10
100.7393392594523
 20
84.59060133765422
 42
0.0
 10
100.7393392594523
 20
91.96236631073418
 42
0.0
 10
100.7393392594523
 20
91.9623663107348
 42
0.0
 97
        0
 75
     1
 76
     1
 52
0.0
 41
1.0
 77
     0
 78
     1
 53
45.0
 43
-6488.38170059185
 44
540.4954235588848
 45
-2.245064030267288
 46
2.245064030267288
 79
     0
 47
0.0
 98
        5
 10
69.6563294840763
 20
95.07496846046928
 10
70.24876820340989
 20
87.68505112730782
 10
100.9912771576065
 20
89.96514205170262
 10
104.6140631347981
 20
90.33308125251108
 10
105.010305351053
 20
90.10665712893667
1001
ACAD
1010
0.0
1020
0.0
1030
0.0
1001
HATCHBACKGROUNDCOLOR
1071
-939524096
1000
없음
1000

  0
HATCH
  5
26D86
330
2
100
AcDbEntity
  8
0
  6
Continuous
 62
     4
100
AcDbHatch
 10
0.0
 20
0.0
 30
0.0
210
0.0
220
0.0
230
1.0
  2
ANSI31
 70
     0
 71
     0
 91
       13
 92
        7
 72
     1
 73
     1
 93
       10
 10
177.3747508712496
 20
99.51934738365975
 42
0.3521443773867603
 10
159.087250871251
 20
81.23184738365944
 42
0.0
 10
159.2164969172564
 20
81.10260133765313
 42
0.0
 10
166.5864969172563
 20
81.10260133765406
 42
0.0
 10
166.6442319441759
 20
81.00260133765369
 42
0.0
 10
174.3861674834771
 20
81.00260133765363
 42
-0.2128130054298819
 10
177.6039969172563
 20
84.22043077143161
 42
0.0
 10
177.6039969172563
 20
91.9623663107348
 42
0.0
 10
177.5039969172568
 20
92.02010133765412
 42
0.0
 10
177.5039969172559
 20
99.39010133765419
 42
0.0
 97
        0
 92
        7
 72
     1
 73
     1
 93
       10
 10
159.0872508712501
 20
76.77335529164679
 42
0.3521443773867505
 10
177.3747508712505
 20
58.48585529164807
 42
0.0
 10
177.5039969172568
 20
58.61510133765358
 42
0.0
 10
177.5039969172559
 20
65.9851013376537
 42
0.0
 10
177.6039969172563
 20
66.04283636457353
 42
0.0
 10
177.6039969172563
 20
73.7847719038757
 42
-0.2128130054298519
 10
174.386167483478
 20
77.00260133765368
 42
0.0
 10
166.6442319441759
 20
77.00260133765386
 42
0.0
 10
166.5864969172563
 20
76.90260133765423
 42
0.0
 10
159.2164969172564
 20
76.90260133765332
 42
0.0
 97
        0
 92
        7
 72
     1
 73
     1
 93
        4
 10
166.6442319441759
 20
77.00260133765368
 42
0.0
 10
174.386167483478
 20
77.00260133765358
 42
-0.0142273193457846
 10
174.2808640051454
 20
77.30260133765205
 42
0.0
 10
166.8174370249318
 20
77.30260133765296
 42
0.0
 97
        0
 92
        7
 72
     1
 73
     1
 93
        4
 10
174.386167483478
 20
81.00260133765369
 42
0.0
 10
166.6442319441759
 20
81.00260133765351
 42
0.0
 10
166.8174370249318
 20
80.70260133765533
 42
0.0
 10
174.2808640051454
 20
80.70260133765556
 42
-0.0142273193457704
 97
        0
 92
        7
 72
     1
 73
     1
 93
        4
 10
177.6039969172563
 20
91.96236631073418
 42
0.0
 10
177.6039969172563
 20
84.220430771432
 42
-0.0142273193457813
 10
177.9039969172546
 20
84.32573424976419
 42
0.0
 10
177.9039969172555
 20
91.78916122997833
 42
0.0
 97
        0
 92
        7
 72
     1
 73
     1
 93
        4
 10
177.6039969172563
 20
73.7847719038757
 42
0.0
 10
177.6039969172563
 20
66.0428363645729
 42
0.0
 10
177.9039969172546
 20
66.21604144532955
 42
0.0
 10
177.9039969172546
 20
73.67946842554323
 42
-0.0142273193457813
 97
        0
 92
        7
 72
     1
 73
     1
 93
        4
 10
181.6039969172562
 20
66.04283636457353
 42
0.0
 10
181.6039969172562
 20
73.78477190387645
 42
-0.0142273193457838
 10
181.3039969172579
 20
73.6794684255438
 42
0.0
 10
181.303996917257
 20
66.21604144532938
 42
0.0
 97
        0
 92
        7
 72
     1
 73
     1
 93
       10
 10
181.8332429632629
 20
58.48585529164802
 42
0.3521443773867658
 10
200.1207429632624
 20
76.77335529164793
 42
0.0
 10
199.991496917257
 20
76.90260133765423
 42
0.0
 10
192.6214969172562
 20
76.90260133765332
 42
0.0
 10
192.5637618903366
 20
77.00260133765368
 42
0.0
 10
184.8218263510326
 20
77.00260133765358
 42
-0.2128130054297602
 10
181.6039969172562
 20
73.78477190387645
 42
0.0
 10
181.6039969172562
 20
66.0428363645729
 42
0.0
 10
181.7039969172557
 20
65.98510133765358
 42
0.0
 10
181.7039969172566
 20
58.61510133765353
 42
0.0
 97
        0
 92
        7
 72
     1
 73
     1
 93
        4
 10
184.8218263510326
 20
77.00260133765368
 42
0.0
 10
192.5637618903366
 20
77.00260133765386
 42
0.0
 10
192.3905568095807
 20
77.30260133765205
 42
0.0
 10
184.9271298293653
 20
77.30260133765193
 42
-0.0142273193457845
 97
        0
 92
        7
 72
     1
 73
     1
 93
        4
 10
192.5637618903366
 20
81.00260133765369
 42
0.0
 10
184.8218263510336
 20
81.00260133765351
 42
-0.0142273193457705
 10
184.9271298293653
 20
80.70260133765533
 42
0.0
 10
192.3905568095807
 20
80.70260133765442
 42
0.0
 97
        0
 92
        7
 72
     1
 73
     1
 93
       10
 10
200.1207429632624
 20
81.23184738365933
 42
0.3521443773867689
 10
181.833242963262
 20
99.51934738365963
 42
0.0
 10
181.7039969172557
 20
99.39010133765414
 42
0.0
 10
181.7039969172566
 20
92.02010133765401
 42
0.0
 10
181.6039969172562
 20
91.96236631073418
 42
0.0
 10
181.6039969172562
 20
84.22043077143127
 42
-0.2128130054297901
 10
184.8218263510336
 20
81.00260133765369
 42
0.0
 10
192.5637618903366
 20
81.00260133765351
 42
0.0
 10
192.6214969172571
 20
81.10260133765313
 42
0.0
 10
199.991496917257
 20
81.10260133765406
 42
0.0
 97
        0
 92
        7
 72
     1
 73
     1
 93
        4
 10
181.6039969172562
 20
84.22043077143161
 42
0.0
 10
181.6039969172562
 20
91.9623663107348
 42
0.0
 10
181.3039969172579
 20
91.78916122997817
 42
0.0
 10
181.3039969172579
 20
84.32573424976386
 42
-0.0142273193457838
 97
        0
 92
        9
 93
        4
 72
     1
 10
113.8659534883946
 20
92.97892023529181
 11
113.8659534883946
 21
98.68128244001622
 72
     1
 10
113.8659534883946
 20
98.68128244001622
 11
118.3659534883946
 21
98.68128244001622
 72
     1
 10
118.3659534883946
 20
98.68128244001622
 11
118.3659534883946
 21
92.97892023529181
 72
     1
 10
118.3659534883946
 20
92.97892023529181
 11
113.8659534883946
 21
92.97892023529181
 97
        0
 75
     1
 76
     1
 52
0.0
 41
1.0
 77
     0
 78
     1
 53
45.0
 43
-6488.38170059185
 44
540.4954235588848
 45
-2.245064030267288
 46
2.245064030267288
 79
     0
 47
0.0
 98
       12
 10
171.4115334944509
 20
91.04637248925667
 10
172.1360906898891
 20
74.16418983554518
 10
172.2583597166186
 20
77.26620032851525
 10
172.530068664908
 20
80.75313183156191
 10
177.7378235071211
 20
87.13829211636157
 10
177.7378235071211
 20
68.39037468439653
 10
181.541748783172
 20
70.51876144599646
 10
183.8512748436316
 20
70.2470524977071
 10
189.1948841599879
 20
77.22091550380037
 10
189.8288717059969
 20
80.88898630570657
 10
189.285453809418
 20
83.19851236616603
 10
181.4058943090268
 20
87.54585553879559
1001
ACAD
1010
0.0
1020
0.0
1030
0.0
1001
HATCHBACKGROUNDCOLOR
1071
-939524096
1000
없음
1000

  0
LINE
  5
26D87
330
2
100
AcDbEntity
  8
0
  6
CENTER
 62
     3
100
AcDbLine
 10
20.73333925945201
 20
79.00260133765385
 30
0.0
 11
107.5333392594522
 21
79.00260133765385
 31
0.0
  0
LINE
  5
26D88
330
2
100
AcDbEntity
  8
0
  6
Continuous
100
AcDbLine
 10
54.73333925945201
 20
110.0026013376538
 30
0.0
 11
54.73333925945201
 21
103.2913639733135
 31
0.0
  0
LINE
  5
26D89
330
2
100
AcDbEntity
  8
0
  6
Continuous
100
AcDbLine
 10
55.23333925945201
 20
110.5026013376538
 30
0.0
 11
69.35584018469319
 21
110.5026013376538
 31
0.0
  0
ARC
  5
26D8A
330
2
100
AcDbEntity
  8
0
  6
Continuous
100
AcDbCircle
 10
55.23333925945201
 20
110.0026013376538
 30
0.0
 40
0.5
100
AcDbArc
 50
90.0
 51
180.0
  0
LINE
  5
26D8B
330
2
100
AcDbEntity
  8
0
  6
Continuous
100
AcDbLine
 10
55.23333925945201
 20
47.50260133765386
 30
0.0
 11
69.35584018469319
 21
47.50260133765386
 31
0.0
  0
CIRCLE
  5
26D8C
330
2
100
AcDbEntity
  8
0
  6
Continuous
100
AcDbCircle
 10
45.73333925945201
 20
79.00260133765385
 30
0.0
 40
3.75
  0
LINE
  5
26D8D
330
2
100
AcDbEntity
  8
0
  6
Continuous
100
AcDbLine
 10
23.87329592683648
 20
101.7771710697845
 30
0.0
 11
52.73333925945201
 21
103.2230264523488
 31
0.0
  0
LINE
  5
26D8E
330
2
100
AcDbEntity
  8
0
  6
Continuous
100
AcDbLine
 10
22.73333925945201
 20
100.578674178587
 30
0.0
 11
22.73333925945201
 21
86.2726013376543
 31
0.0
  0
ARC
  5
26D8F
330
2
100
AcDbEntity
  8
0
  6
Continuous
100
AcDbCircle
 10
23.93333925945274
 20
100.578674178587
 30
0.0
 40
1.199999999999999
100
AcDbArc
 50
92.86805555553742
 51
180.0
  0
LINE
  5
26D90
330
2
100
AcDbEntity
  8
0
  6
Continuous
100
AcDbLine
 10
23.73333925945201
 20
85.27260133765429
 30
0.0
 11
31.23333925945201
 21
85.27260133765429
 31
0.0
  0
LINE
  5
26D91
330
2
100
AcDbEntity
  8
0
  6
Continuous
100
AcDbLine
 10
32.73333925945201
 20
83.7726013376543
 30
0.0
 11
32.73333925945201
 21
79.00260133765385
 31
0.0
  0
LINE
  5
26D92
330
2
100
AcDbEntity
  8
0
  6
Continuous
100
AcDbLine
 10
23.73333925945201
 20
72.73260133765433
 30
0.0
 11
27.23333925945201
 21
72.73260133765433
 31
0.0
  0
LINE
  5
26D93
330
2
100
AcDbEntity
  8
0
  6
Continuous
100
AcDbLine
 10
22.73333925945201
 20
57.42652849672158
 30
0.0
 11
22.73333925945201
 21
71.73260133765433
 31
0.0
  0
LINE
  5
26D94
330
2
100
AcDbEntity
  8
0
  6
Continuous
100
AcDbLine
 10
28.73333925945201
 20
69.05394750170143
 30
0.0
 11
28.73333925945201
 21
79.00260133765385
 31
0.0
  0
LINE
  5
26D95
330
2
100
AcDbEntity
  8
0
  6
Continuous
100
AcDbLine
 10
23.87329592683648
 20
56.22803160552411
 30
0.0
 11
52.73333925945201
 21
54.78217622295886
 31
0.0
  0
ARC
  5
26D96
330
2
100
AcDbEntity
  8
0
  6
Continuous
100
AcDbCircle
 10
23.93333925945274
 20
57.42652849672158
 30
0.0
 40
1.199999999999999
100
AcDbArc
 50
180.0
 51
267.1319444444169
  0
LINE
  5
26D97
330
2
100
AcDbEntity
  8
0
  6
Continuous
100
AcDbLine
 10
22.73333925945201
 20
86.2726013376543
 30
0.0
 11
23.73333925945201
 21
85.27260133765429
 31
0.0
  0
LINE
  5
26D98
330
2
100
AcDbEntity
  8
0
  6
Continuous
100
AcDbLine
 10
22.73333925945201
 20
71.73260133765433
 30
0.0
 11
23.73333925945201
 21
72.73260133765433
 31
0.0
  0
ARC
  5
26D99
330
2
100
AcDbEntity
  8
0
  6
Continuous
100
AcDbCircle
 10
31.23333925945201
 20
83.7726013376543
 30
0.0
 40
1.5
100
AcDbArc
 50
0.0
 51
90.0
  0
ARC
  5
26D9A
330
2
100
AcDbEntity
  8
0
  6
Continuous
100
AcDbCircle
 10
27.23333925945201
 20
74.23260133765433
 30
0.0
 40
1.5
100
AcDbArc
 50
270.0
 51
0.0
  0
ARC
  5
26D9B
330
2
100
AcDbEntity
  8
0
  6
Continuous
100
AcDbCircle
 10
45.73333925945201
 20
79.00260133765385
 30
0.0
 40
4.25
100
AcDbArc
 50
180.0
 51
0.0
  0
LINE
  5
26D9C
330
2
100
AcDbEntity
  8
0
  6
Continuous
100
AcDbLine
 10
52.73333925945201
 20
103.2230264523488
 30
0.0
 11
53.40344949245821
 21
103.0434709565754
 31
0.0
  0
LINE
  5
26D9D
330
2
100
AcDbEntity
  8
0
  6
Continuous
100
AcDbLine
 10
54.233339259452
 20
103.023026452349
 30
0.0
 11
53.55874091951966
 21
103.023026452349
 31
0.0
  0
LINE
  5
26D9E
330
2
100
AcDbEntity
  8
0
  6
Continuous
100
AcDbLine
 10
54.83333925945237
 20
103.7114894801108
 30
0.0
 11
54.83333925945237
 21
103.6230264523494
 31
0.0
  0
ARC
  5
26D9F
330
2
100
AcDbEntity
  8
0
  6
Continuous
100
AcDbCircle
 10
54.233339259452
 20
103.6230264523494
 30
0.0
 40
0.6
100
AcDbArc
 50
270.0
 51
0.0
  0
LINE
  5
26DA0
330
2
100
AcDbEntity
  8
0
  6
Continuous
100
AcDbLine
 10
54.73333925945201
 20
104.4230264523495
 30
0.0
 11
54.83333925945237
 21
103.7114894801108
 31
0.0
  0
LINE
  5
26DA1
330
2
100
AcDbEntity
  8
0
  6
Continuous
100
AcDbLine
 10
52.73333925945201
 20
79.00260133765385
 30
0.0
 11
52.73333925945201
 21
54.78217622295886
 31
0.0
  0
LINE
  5
26DA2
330
2
100
AcDbEntity
  8
0
  6
Continuous
100
AcDbLine
 10
53.47974942096709
 20
54.97695378066982
 30
0.0
 11
53.47974942096709
 21
79.00260133765385
 31
0.0
  0
LINE
  5
26DA3
330
2
100
AcDbEntity
  8
0
  6
Continuous
100
AcDbLine
 10
23.73333925945201
 20
96.00260133765386
 30
0.0
 11
35.73731385566873
 21
96.00260133765386
 31
0.0
  0
LINE
  5
26DA4
330
2
100
AcDbEntity
  8
0
  6
Continuous
100
AcDbLine
 10
23.73333925945201
 20
85.27260133765429
 30
0.0
 11
23.73333925945201
 21
96.00260133765386
 31
0.0
  0
LINE
  5
26DA5
330
2
100
AcDbEntity
  8
0
  6
Continuous
100
AcDbLine
 10
23.73333925945201
 20
96.00260133765386
 30
0.0
 11
22.73333925945201
 21
96.57995160684386
 31
0.0
  0
LINE
  5
26DA6
330
2
100
AcDbEntity
  8
0
  6
Continuous
100
AcDbLine
 10
23.73333925945201
 20
72.73260133765433
 30
0.0
 11
23.73333925945201
 21
69.30444182111404
 31
0.0
  0
LINE
  5
26DA7
330
2
100
AcDbEntity
  8
0
  6
Continuous
100
AcDbLine
 10
23.73333925945201
 20
69.30444182111404
 30
0.0
 11
28.73333925945201
 21
69.05394750170143
 31
0.0
  0
LINE
  5
26DA8
330
2
100
AcDbEntity
  8
0
  6
Continuous
100
AcDbLine
 10
22.73333925945201
 20
68.30444182111404
 30
0.0
 11
23.73333925945201
 21
69.30444182111404
 31
0.0
  0
LINE
  5
26DA9
330
2
100
AcDbEntity
  8
0
  6
Continuous
100
AcDbLine
 10
54.73333925945201
 20
48.00260133765386
 30
0.0
 11
54.73333925945201
 21
79.00260133765385
 31
0.0
  0
ARC
  5
26DAA
330
2
100
AcDbEntity
  8
0
  6
Continuous
100
AcDbCircle
 10
55.23333925945201
 20
48.00260133765386
 30
0.0
 40
0.5
100
AcDbArc
 50
180.0
 51
270.0
  0
LINE
  5
26DAB
330
2
100
AcDbEntity
  8
0
  6
Continuous
100
AcDbLine
 10
35.73731385566873
 20
96.00260133765386
 30
0.0
 11
37.29615958248007
 21
98.70260133765459
 31
0.0
  0
LINE
  5
26DAC
330
2
100
AcDbEntity
  8
0
  6
Continuous
100
AcDbLine
 10
37.81577482475052
 20
99.00260133765385
 30
0.0
 11
48.48834126105441
 21
99.00260133765385
 31
0.0
  0
LINE
  5
26DAD
330
2
100
AcDbEntity
  8
0
  6
Continuous
100
AcDbLine
 10
35.73731385566873
 20
96.00260133765386
 30
0.0
 11
35.73731385566873
 21
79.00260133765385
 31
0.0
  0
LINE
  5
26DAE
330
2
100
AcDbEntity
  8
0
  6
Continuous
100
AcDbLine
 10
37.46936466323689
 20
98.89249928621048
 30
0.0
 11
37.46936466323689
 21
79.00260133765385
 31
0.0
  0
ARC
  5
26DAF
330
2
100
AcDbEntity
  8
0
  6
Continuous
100
AcDbCircle
 10
37.81577482475052
 20
98.4026013376544
 30
0.0
 40
0.6
100
AcDbArc
 50
90.0
 51
149.9999999999699
  0
LINE
  5
26DB0
330
2
100
AcDbEntity
  8
0
  6
Continuous
100
AcDbLine
 10
54.73333925945201
 20
96.00260133765386
 30
0.0
 11
62.4041830618645
 21
96.00260133765386
 31
0.0
  0
ARC
  5
26DB1
330
2
100
AcDbEntity
  8
0
  6
Continuous
100
AcDbCircle
 10
48.48834126105441
 20
91.00260133765386
 30
0.0
 40
8.0
100
AcDbArc
 50
38.68218745347956
 51
90.0
  0
LINE
  5
26DB2
330
2
100
AcDbEntity
  8
0
  6
Continuous
100
AcDbLine
 10
64.73333925945201
 20
94.75260133765386
 30
0.0
 11
64.73333925945201
 21
79.00260133765385
 31
0.0
  0
LINE
  5
26DB3
330
2
100
AcDbEntity
  8
0
  6
Continuous
100
AcDbLine
 10
54.73333925945201
 20
96.00260133765386
 30
0.0
 11
54.73333925945201
 21
79.00260133765385
 31
0.0
  0
ARC
  5
26DB4
330
2
100
AcDbEntity
  8
0
  6
Continuous
100
AcDbCircle
 10
63.23333925945201
 20
94.75260133765386
 30
0.0
 40
1.5
100
AcDbArc
 50
0.0
 51
123.5573097618576
  0
LINE
  5
26DB5
330
2
100
AcDbEntity
  8
0
  6
Continuous
100
AcDbLine
 10
62.4041830618645
 20
96.00260133765386
 30
0.0
 11
62.4041830618645
 21
79.00260133765385
 31
0.0
  0
LINE
  5
26DB6
330
2
100
AcDbEntity
  8
0
  6
Continuous
100
AcDbLine
 10
61.733339259452
 20
105.0026013376538
 30
0.0
 11
60.86731385566793
 21
105.5026013376538
 31
0.0
  0
LINE
  5
26DB7
330
2
100
AcDbEntity
  8
0
  6
Continuous
100
AcDbLine
 10
61.733339259452
 20
105.5026013376538
 30
0.0
 11
57.0333392594531
 21
105.5026013376538
 31
0.0
  0
LINE
  5
26DB8
330
2
100
AcDbEntity
  8
0
  6
Continuous
100
AcDbLine
 10
56.733339259452
 20
105.802601337654
 30
0.0
 11
56.733339259452
 21
110.5026013376538
 31
0.0
  0
ARC
  5
26DB9
330
2
100
AcDbEntity
  8
0
  6
Continuous
100
AcDbCircle
 10
57.0333392594531
 20
105.802601337654
 30
0.0
 40
0.3
100
AcDbArc
 50
180.0
 51
270.0
  0
LINE
  5
26DBA
330
2
100
AcDbEntity
  8
CT
  6
CENTER
 62
     3
100
AcDbLine
 10
61.733339259452
 20
103.4521472430371
 30
0.0
 11
61.733339259452
 21
111.6273836680395
 31
0.0
  0
LINE
  5
26DBB
330
2
100
AcDbEntity
  8
0
  6
Continuous
100
AcDbLine
 10
66.733339259452
 20
110.5026013376538
 30
0.0
 11
66.733339259452
 21
105.802601337654
 31
0.0
  0
LINE
  5
26DBC
330
2
100
AcDbEntity
  8
0
  6
Continuous
100
AcDbLine
 10
61.733339259452
 20
105.5026013376538
 30
0.0
 11
66.43333925945274
 21
105.5026013376538
 31
0.0
  0
LINE
  5
26DBD
330
2
100
AcDbEntity
  8
0
  6
Continuous
100
AcDbLine
 10
61.733339259452
 20
105.0026013376538
 30
0.0
 11
62.59936466323608
 21
105.5026013376538
 31
0.0
  0
ARC
  5
26DBE
330
2
100
AcDbEntity
  8
0
  6
Continuous
100
AcDbCircle
 10
66.43333925945274
 20
105.802601337654
 30
0.0
 40
0.3
100
AcDbArc
 50
270.0
 51
0.0
  0
LINE
  5
26DBF
330
2
100
AcDbEntity
  8
0
  6
Continuous
100
AcDbLine
 10
65.23333925945201
 20
87.50260133765385
 30
0.0
 11
71.733339259452
 21
87.50260133765385
 31
0.0
  0
LINE
  5
26DC0
330
2
100
AcDbEntity
  8
0
  6
Continuous
 62
     3
100
AcDbLine
 10
64.73333925945201
 20
88.00260133765386
 30
0.0
 11
71.733339259452
 21
88.00260133765386
 31
0.0
  0
LINE
  5
26DC1
330
2
100
AcDbEntity
  8
0
  6
Continuous
100
AcDbLine
 10
65.23333925945201
 20
87.50260133765385
 30
0.0
 11
65.23333925945201
 21
79.00260133765385
 31
0.0
  0
LINE
  5
26DC2
330
2
100
AcDbEntity
  8
0
  6
Continuous
100
AcDbLine
 10
65.23333925945201
 20
87.50260133765385
 30
0.0
 11
64.73333925945201
 21
88.00260133765386
 31
0.0
  0
LINE
  5
26DC3
330
2
100
AcDbEntity
  8
0
  6
Continuous
100
AcDbLine
 10
76.733339259452
 20
88.50260133765386
 30
0.0
 11
76.733339259452
 21
79.00260133765385
 31
0.0
  0
LINE
  5
26DC4
330
2
100
AcDbEntity
  8
0
  6
Continuous
100
AcDbLine
 10
71.733339259452
 20
88.50260133765386
 30
0.0
 11
71.733339259452
 21
79.00260133765385
 31
0.0
  0
LINE
  5
26DC5
330
2
100
AcDbEntity
  8
0
  6
Continuous
100
AcDbLine
 10
71.733339259452
 20
88.50260133765386
 30
0.0
 11
76.733339259452
 21
88.50260133765386
 31
0.0
  0
LINE
  5
26DC6
330
2
100
AcDbEntity
  8
0
  6
Continuous
100
AcDbLine
 10
80.73333925945201
 20
48.00260133765386
 30
0.0
 11
80.73333925945201
 21
79.00260133765385
 31
0.0
  0
LINE
  5
26DC7
330
2
100
AcDbEntity
  8
0
  6
Continuous
100
AcDbLine
 10
105.5333392594522
 20
58.61510133765335
 30
0.0
 11
105.5333392594522
 21
79.00260133765391
 31
0.0
  0
LINE
  5
26DC8
330
2
100
AcDbEntity
  8
0
  6
Continuous
100
AcDbLine
 10
80.73333925945201
 20
110.0026013376538
 30
0.0
 11
80.73333925945201
 21
100.6561013376537
 31
0.0
  0
LINE
  5
26DC9
330
2
100
AcDbEntity
  8
0
  6
Continuous
 62
     7
100
AcDbLine
 10
81.74933925945163
 20
99.64010133765368
 30
0.0
 11
80.73333925945201
 21
100.6561013376537
 31
0.0
  0
LINE
  5
26DCA
330
2
100
AcDbEntity
  8
0
  6
Continuous
100
AcDbLine
 10
67.73333925945201
 20
71.00260133765385
 30
0.0
 11
80.73333925945201
 21
71.00260133765385
 31
0.0
  0
ARC
  5
26DCB
330
2
100
AcDbEntity
  8
0
  6
Continuous
100
AcDbCircle
 10
67.73333925945201
 20
79.00260133765385
 30
0.0
 40
8.0
100
AcDbArc
 50
180.0
 51
270.0
  0
LINE
  5
26DCC
330
2
100
AcDbEntity
  8
0
  6
Continuous
100
AcDbLine
 10
80.73333925945201
 20
59.00260133765385
 30
0.0
 11
74.60833925945201
 21
59.00260133765385
 31
0.0
  0
LINE
  5
26DCD
330
2
100
AcDbEntity
  8
0
  6
Continuous
100
AcDbLine
 10
80.73333925945201
 20
54.66641429037844
 30
0.0
 11
76.11083833421265
 21
54.66641429037844
 31
0.0
  0
SPLINE
  5
26DCE
330
2
100
AcDbEntity
  8
0
  6
Continuous
100
AcDbSpline
210
0.0
220
0.0
230
1.0
 70
     8
 71
     3
 72
    12
 73
     8
 74
     0
 42
0.000000001
 43
0.0000000001
 40
0.0
 40
0.0
 40
0.0
 40
0.0
 40
1.548202861183926
 40
3.326995733343188
 40
5.025827162034554
 40
6.955362372577159
 40
9.569926835470804
 40
9.569926835470804
 40
9.569926835470804
 40
9.569926835470804
 10
59.73333925945201
 20
54.66641429037844
 30
0.0
 10
59.99893144206919
 20
55.11226975038096
 30
0.0
 10
60.56967322309549
 20
56.07038657751388
 30
0.0
 10
61.84560562558738
 20
57.18576591243567
 30
0.0
 10
63.33436521869874
 20
58.21507526405321
 30
0.0
 10
65.34380811736093
 20
58.8732580204022
 30
0.0
 10
66.86060894439481
 20
58.95536117742864
 30
0.0
 10
67.73333925945201
 20
59.00260133765385
 30
0.0
  0
LINE
  5
26DCF
330
2
100
AcDbEntity
  8
0
  6
Continuous
100
AcDbLine
 10
70.85833925945201
 20
107.900196601846
 30
0.0
 11
69.35584018469319
 21
110.5026013376538
 31
0.0
  0
LINE
  5
26DD0
330
2
100
AcDbEntity
  8
0
  6
Continuous
100
AcDbLine
 10
70.85833925945201
 20
107.0026013376538
 30
0.0
 11
70.85833925945201
 21
107.900196601846
 31
0.0
  0
LINE
  5
26DD1
330
2
100
AcDbEntity
  8
0
  6
Continuous
100
AcDbLine
 10
74.60833925945201
 20
107.0026013376538
 30
0.0
 11
74.60833925945201
 21
107.900196601846
 31
0.0
  0
LINE
  5
26DD2
330
2
100
AcDbEntity
  8
0
  6
Continuous
100
AcDbLine
 10
74.10833925945201
 20
106.5026013376538
 30
0.0
 11
72.73333925945201
 21
106.5026013376538
 31
0.0
  0
LINE
  5
26DD3
330
2
100
AcDbEntity
  8
0
  6
Continuous
100
AcDbLine
 10
71.35833925945201
 20
106.5026013376538
 30
0.0
 11
72.73333925945201
 21
106.5026013376538
 31
0.0
  0
ARC
  5
26DD4
330
2
100
AcDbEntity
  8
0
  6
Continuous
100
AcDbCircle
 10
71.35833925945201
 20
107.0026013376538
 30
0.0
 40
0.5
100
AcDbArc
 50
180.0
 51
270.0
  0
ARC
  5
26DD5
330
2
100
AcDbEntity
  8
0
  6
Continuous
100
AcDbCircle
 10
74.10833925945201
 20
107.0026013376538
 30
0.0
 40
0.5
100
AcDbArc
 50
270.0
 51
0.0
  0
LINE
  5
26DD6
330
2
100
AcDbEntity
  8
0
  6
Continuous
100
AcDbLine
 10
74.60833925945201
 20
107.900196601846
 30
0.0
 11
76.11083833421265
 21
110.5026013376538
 31
0.0
  0
LINE
  5
26DD7
330
2
100
AcDbEntity
  8
0
  6
Continuous
100
AcDbLine
 10
76.11083833421265
 20
110.5026013376538
 30
0.0
 11
80.233339259452
 21
110.5026013376538
 31
0.0
  0
LINE
  5
26DD8
330
2
100
AcDbEntity
  8
0
  6
Continuous
100
AcDbLine
 10
70.85833925945201
 20
50.10500607346256
 30
0.0
 11
69.35584018469319
 21
47.50260133765386
 31
0.0
  0
LINE
  5
26DD9
330
2
100
AcDbEntity
  8
0
  6
Continuous
100
AcDbLine
 10
70.85833925945201
 20
71.00260133765385
 30
0.0
 11
70.85833925945201
 21
50.10500607346256
 31
0.0
  0
LINE
  5
26DDA
330
2
100
AcDbEntity
  8
0
  6
Continuous
100
AcDbLine
 10
74.60833925945201
 20
71.00260133765385
 30
0.0
 11
74.60833925945201
 21
50.10500607346256
 31
0.0
  0
LINE
  5
26DDB
330
2
100
AcDbEntity
  8
0
  6
Continuous
100
AcDbLine
 10
74.10833925945201
 20
51.50260133765385
 30
0.0
 11
72.73333925945201
 21
51.50260133765385
 31
0.0
  0
LINE
  5
26DDC
330
2
100
AcDbEntity
  8
0
  6
Continuous
100
AcDbLine
 10
71.35833925945201
 20
51.50260133765385
 30
0.0
 11
72.73333925945201
 21
51.50260133765385
 31
0.0
  0
ARC
  5
26DDD
330
2
100
AcDbEntity
  8
0
  6
Continuous
100
AcDbCircle
 10
71.35833925945201
 20
51.00260133765385
 30
0.0
 40
0.5
100
AcDbArc
 50
90.0
 51
180.0
  0
ARC
  5
26DDE
330
2
100
AcDbEntity
  8
0
  6
Continuous
100
AcDbCircle
 10
74.10833925945201
 20
51.00260133765385
 30
0.0
 40
0.5
100
AcDbArc
 50
0.0
 51
90.0
  0
LINE
  5
26DDF
330
2
100
AcDbEntity
  8
0
  6
Continuous
100
AcDbLine
 10
74.60833925945201
 20
50.10500607346256
 30
0.0
 11
76.11083833421265
 21
47.50260133765386
 31
0.0
  0
LINE
  5
26DE0
330
2
100
AcDbEntity
  8
0
  6
Continuous
100
AcDbLine
 10
69.35584018469319
 20
47.50260133765386
 30
0.0
 11
69.35584018469319
 21
54.66641429037844
 31
0.0
  0
LINE
  5
26DE1
330
2
100
AcDbEntity
  8
0
  6
Continuous
100
AcDbLine
 10
76.11083833421265
 20
47.50260133765386
 30
0.0
 11
76.11083833421265
 21
54.66641429037844
 31
0.0
  0
LINE
  5
26DE2
330
2
100
AcDbEntity
  8
0
  6
Continuous
100
AcDbLine
 10
76.11083833421265
 20
47.50260133765386
 30
0.0
 11
80.233339259452
 21
47.50260133765386
 31
0.0
  0
LINE
  5
26DE3
330
2
100
AcDbEntity
  8
0
  6
Continuous
100
AcDbLine
 10
76.11083833421265
 20
59.00260133765385
 30
0.0
 11
76.11083833421265
 21
71.00260133765385
 31
0.0
  0
LINE
  5
26DE4
330
2
100
AcDbEntity
  8
0
  6
Continuous
100
AcDbLine
 10
69.35584018469319
 20
59.00260133765385
 30
0.0
 11
69.35584018469319
 21
71.00260133765385
 31
0.0
  0
LINE
  5
26DE5
330
2
100
AcDbEntity
  8
0
  6
Continuous
100
AcDbLine
 10
69.35584018469319
 20
54.66641429037844
 30
0.0
 11
59.73333925945201
 21
54.66641429037844
 31
0.0
  0
LINE
  5
26DE6
330
2
100
AcDbEntity
  8
0
  6
Continuous
100
AcDbLine
 10
70.85833925945201
 20
59.00260133765385
 30
0.0
 11
67.73333925945201
 21
59.00260133765385
 31
0.0
  0
LINE
  5
26DE7
330
2
100
AcDbEntity
  8
0
  6
Continuous
100
AcDbLine
 10
74.60833925945201
 20
58.14424540884118
 30
0.0
 11
76.11083833421265
 21
54.66641429037844
 31
0.0
  0
LINE
  5
26DE8
330
2
100
AcDbEntity
  8
0
  6
Continuous
100
AcDbLine
 10
70.85833925945201
 20
58.14424540884118
 30
0.0
 11
69.35584018469319
 21
54.66641429037844
 31
0.0
  0
ARC
  5
26DE9
330
2
100
AcDbEntity
  8
0
  6
Continuous
100
AcDbCircle
 10
80.233339259452
 20
48.00260133765386
 30
0.0
 40
0.5
100
AcDbArc
 50
270.0
 51
0.0
  0
ARC
  5
26DEA
330
2
100
AcDbEntity
  8
0
  6
Continuous
100
AcDbCircle
 10
80.233339259452
 20
110.0026013376538
 30
0.0
 40
0.5
100
AcDbArc
 50
0.0
 51
90.0
  0
LINE
  5
26DEB
330
2
100
AcDbEntity
  8
0
  6
Continuous
 62
     3
100
AcDbLine
 10
45.73333925945201
 20
78.50260133765385
 30
0.0
 11
45.73333925945201
 21
79.50260133765386
 31
0.0
  0
LINE
  5
26DEC
330
2
100
AcDbEntity
  8
0
  6
Continuous
 62
     3
100
AcDbLine
 10
45.73333925945201
 20
78.00260133765386
 30
0.0
 11
45.73333925945201
 21
74.25260133765386
 31
0.0
  0
LINE
  5
26DED
330
2
100
AcDbEntity
  8
0
  6
Continuous
 62
     3
100
AcDbLine
 10
45.73333925945201
 20
80.00260133765385
 30
0.0
 11
45.73333925945201
 21
83.75260133765385
 31
0.0
  0
ARC
  5
26DEE
330
2
100
AcDbEntity
  8
0
  6
Continuous
100
AcDbCircle
 10
54.233339259452
 20
54.38217622295923
 30
0.0
 40
0.6
100
AcDbArc
 50
33.55730976191301
 51
90.0
  0
LINE
  5
26DEF
330
2
100
AcDbEntity
  8
0
  6
Continuous
100
AcDbLine
 10
54.233339259452
 20
54.9821762229596
 30
0.0
 11
53.55874091951966
 21
54.9821762229596
 31
0.0
  0
LINE
  5
26DF0
330
2
100
AcDbEntity
  8
0
  6
Continuous
100
AcDbLine
 10
52.73333925945201
 20
54.78217622295886
 30
0.0
 11
53.40344949245821
 21
54.96173171873232
 31
0.0
  0
ARC
  5
26DF1
330
2
100
AcDbEntity
  8
0
  6
Continuous
100
AcDbCircle
 10
53.55874091951966
 20
54.38217622295923
 30
0.0
 40
0.6
100
AcDbArc
 50
90.0
 51
104.9999999999944
  0
ARC
  5
26DF2
330
2
100
AcDbEntity
  8
0
  6
Continuous
100
AcDbCircle
 10
53.55874091951966
 20
103.6230264523494
 30
0.0
 40
0.6
100
AcDbArc
 50
255.0000000000056
 51
270.0
  0
LINE
  5
26DF3
330
2
100
AcDbEntity
  8
0
100
AcDbLine
 10
77.2833392594531
 20
83.20260133765373
 30
0.0
 11
76.733339259452
 21
83.75260133765413
 31
0.0
  0
LINE
  5
26DF4
330
2
100
AcDbEntity
  8
0
  6
Continuous
 62
     7
100
AcDbLine
 10
105.2833392594522
 20
58.36510133765336
 30
0.0
 11
81.74933925945344
 21
58.36510133765421
 31
0.0
  0
LINE
  5
26DF5
330
2
100
AcDbEntity
  8
0
  6
Continuous
 62
     7
100
AcDbLine
 10
77.2833392594531
 20
83.20260133765385
 30
0.0
 11
77.2833392594531
 21
79.00260133765385
 31
0.0
  0
DIMENSION
  5
26DF6
330
2
100
AcDbEntity
  8
0
  6
Continuous
 62
     7
100
AcDbDimension
280
     0
  2
*D0
 10
14.27576233132653
 20
110.5026013376539
 30
0.0
 11
14.27576233132652
 21
79.00260133765385
 31
0.0
 70
   160
  1
%%C2.48
 71
     5
 42
63.0
 73
     0
 74
     0
 75
     0
  3
Standard$0
100
AcDbAlignedDimension
 13
55.23333925945201
 23
47.50260133765386
 33
0.0
 14
55.23333925945201
 24
110.5026013376538
 34
0.0
 50
90.0
100
AcDbRotatedDimension
1001
ACAD
1000
DSTYLE
1002
{
1070
    75
1070
     1
1070
   281
1070
     1
1070
   282
1070
     0
1070
    42
1040
0.625
1070
    43
1040
3.75
1070
    44
1040
1.25
1070
    48
1040
0.000000001
1070
    74
1070
     0
1070
    77
1070
     1
1070
    90
1070
     1
1070
   140
1040
3.0
1070
   141
1040
-0.5
1070
   143
1040
0.03937007874016
1070
   146
1040
0.7
1070
   147
1040
0.625
1070
   171
1070
     3
1070
   172
1070
     1
1070
   175
1070
     0
1070
   179
1070
     0
1070
   274
1070
     3
1070
   283
1070
     0
1070
   284
1070
     8
1070
   340
1005
25
1070
   371
1070
    -1
1070
   372
1070
    -1
1002
}
  0
DIMENSION
  5
26DF7
330
2
100
AcDbEntity
  8
0
  6
Continuous
 62
     7
100
AcDbDimension
280
     0
  2
*D1
 10
126.2409534883947
 20
58.36510133765278
 30
0.0
 11
126.2409534883946
 21
79.00260133765318
 31
0.0
 70
   160
  1
%%C1.625
 71
     5
 42
41.2750000000014
 73
     0
 74
     0
 75
     0
  3
Standard$0
100
AcDbAlignedDimension
 13
105.0253392594524
 23
99.6401013376542
 33
0.0
 14
105.0253392594524
 24
58.36510133765279
 34
0.0
 50
90.0
100
AcDbRotatedDimension
1001
ACAD
1000
DSTYLE
1002
{
1070
    42
1040
0.625
1070
    43
1040
3.75
1070
    44
1040
1.25
1070
    48
1040
0.000000001
1070
    74
1070
     0
1070
    77
1070
     1
1070
    90
1070
     1
1070
   140
1040
3.0
1070
   141
1040
-0.5
1070
   143
1040
0.03937007874016
1070
   146
1040
0.7
1070
   147
1040
0.625
1070
   171
1070
     3
1070
   172
1070
     1
1070
   175
1070
     0
1070
   274
1070
     3
1070
   283
1070
     0
1070
   284
1070
     8
1070
   340
1005
25
1070
   371
1070
    -1
1070
   372
1070
    -1
1002
}
  0
LINE
  5
26DF8
330
2
100
AcDbEntity
  8
0
  6
Continuous
 62
     7
100
AcDbLine
 10
81.74933925945163
 20
58.36510133765398
 30
0.0
 11
81.74933925945163
 21
79.00260133765368
 31
0.0
  0
LINE
  5
26DF9
330
2
100
AcDbEntity
  8
0
  6
Continuous
100
AcDbLine
 10
105.5333392594522
 20
99.39010133765401
 30
0.0
 11
105.5333392594522
 21
79.0026013376538
 31
0.0
  0
LINE
  5
26DFA
330
2
100
AcDbEntity
  8
0
  6
Continuous
 62
     7
100
AcDbLine
 10
77.2833392594531
 20
83.20260133765373
 30
0.0
 11
79.58333925945146
 21
83.2026013376539
 31
0.0
  0
LINE
  5
26DFD
330
2
100
AcDbEntity
  8
0
100
AcDbLine
 10
105.0333392594522
 20
84.57760133765367
 30
0.0
 11
105.5333392594522
 21
84.87927647224848
 31
0.0
  0
LINE
  5
26DFE
330
2
100
AcDbEntity
  8
0
  6
Continuous
 62
     7
100
AcDbLine
 10
105.0333392594522
 20
84.57760133765374
 30
0.0
 11
105.0333392594522
 21
79.00260133765385
 31
0.0
  0
CIRCLE
  5
26DFF
330
2
100
AcDbEntity
  8
0
  6
Continuous
 62
     7
100
AcDbCircle
 10
179.6039969172563
 20
79.00260133765385
 30
0.0
 40
31.5
  0
LINE
  5
26E00
330
2
100
AcDbEntity
  8
0
  6
Continuous
 62
     3
100
AcDbLine
 10
179.1039969172562
 20
79.00260133765385
 30
0.0
 11
180.1039969172562
 21
79.00260133765385
 31
0.0
  0
LINE
  5
26E01
330
2
100
AcDbEntity
  8
0
  6
Continuous
 62
     3
100
AcDbLine
 10
179.6039969172563
 20
78.50260133765385
 30
0.0
 11
179.6039969172563
 21
79.50260133765386
 31
0.0
  0
LINE
  5
26E02
330
2
100
AcDbEntity
  8
0
  6
Continuous
 62
     3
100
AcDbLine
 10
178.6039969172563
 20
79.00260133765385
 30
0.0
 11
147.6039969172562
 21
79.00260133765385
 31
0.0
  0
LINE
  5
26E03
330
2
100
AcDbEntity
  8
0
  6
Continuous
 62
     3
100
AcDbLine
 10
180.6039969172562
 20
79.00260133765385
 30
0.0
 11
211.6039969172563
 21
79.00260133765385
 31
0.0
  0
LINE
  5
26E04
330
2
100
AcDbEntity
  8
0
  6
Continuous
 62
     3
100
AcDbLine
 10
179.6039969172563
 20
78.00260133765386
 30
0.0
 11
179.6039969172563
 21
47.00260133765385
 31
0.0
  0
LINE
  5
26E05
330
2
100
AcDbEntity
  8
0
  6
Continuous
 62
     3
100
AcDbLine
 10
179.6039969172563
 20
80.00260133765385
 30
0.0
 11
179.6039969172563
 21
111.0026013376538
 31
0.0
  0
MULTILEADER
  5
26E07
330
2
100
AcDbEntity
  8
0
  6
Continuous
 62
     7
160
               684
310
AC020000180000000C00000016000000020000C30C00000033000000000000000C00000013000000993A00000C00000016000000020000C3D000000026000000307A6E952E3F63405C55765509A85D40000000000000000000000000000000000000000000000000000000000000F03F000000000000F03F00000000000000
310
00000000000000000036002D004D003400780030002E0037000000640008000000010000000000000000000440000000000000F03F0000000000000000000000000000F03F0000000000000000000000000000000000000000000000000000000001000000000000000000000072006F006D0061006E0073002E0073006800
310
780000002E0000002E000C00000033000000000000000C00000010000000000000000C00000016000000030000C30C00000012000000000000000C00000013000000010000000C00000014000000010000005400000007000000030000007DBB66B20CC464403CC4EF4DDE5F5440000000000000000064BA26933FD2644080
310
09CD9E2AC053400000000000000000B019E163EBAA64405DE4ED9D064E544000000000000000000C000000130000008913000054000000060000000300000096EA230B7CB764404DD4EE75F25654400000000000000000242A9E68ED0163405C55765509F85D40000000000000000024B73D896B2E63405C55765509F85D40
310
00000000000000000C00000013000000112700003C000000060000000200000024B73D896B2E63405C55765509F85D40000000000000000024B73D896B3E63405C55765509F85D4000000000000000000C00000016000000030000C30C00000012000000000000000C00000017000000000000000C000000130000009A3A00
310
000C00000016000000070000C30C00000012000000000000000C00000017000000FFFFFFFF0C0000003300000000000000
100
AcDbMLeader
270
     2
300
CONTEXT_DATA{
 40
1.0
 10
153.950626965082
 20
119.8755696921921
 30
0.0
 41
2.5
140
2.5
145
0.5
174
     2
175
     2
176
     0
177
     1
290
     1
304
6-M4x0.7
 11
0.0
 21
0.0
 31
1.0
340
35
 12
154.450626965082
 22
121.1255696921921
 32
0.0
 13
1.0
 23
0.0
 33
0.0
 42
0.0
 43
25.95238095238094
 44
0.0
 45
1.0
170
     1
 90
-1023410174
171
     1
172
     5
 91
-939524096
141
1.5
 92
        0
291
     0
292
     0
173
     0
293
     0
142
0.0
143
0.0
294
     0
295
     0
296
     0
110
159.5714395777796
120
93.52023079428164
130
0.0
111
1.0
121
0.0
131
0.0
112
0.0
122
1.0
132
0.0
297
     0
302
LEADER{
290
     1
291
     1
 10
153.450626965082
 20
119.8755696921921
 30
0.0
 11
1.0
 21
0.0
 31
0.0
 90
        0
 40
0.5
304
LEADER_LINE{
 10
166.5702605968864
 20
79.00260133765368
 30
0.0
 10
152.0602305497315
 20
119.8755696921921
 30
0.0
 91
        0
305
}
271
     0
303
}
272
     9
273
     9
301
}
340
BD9
 90
   314368
170
     1
 91
-1023410173
341
28
171
    -1
290
     1
291
     1
 41
0.5
 42
2.5
172
     2
343
35
173
     2
 95
        2
174
     1
175
     0
 92
-1023410174
292
     0
 93
-1023410174
 10
1.0
 20
1.0
 30
1.0
 43
0.0
176
     1
293
     0
294
     0
178
     0
179
     1
 45
1.0
271
     0
272
     9
273
     9
295
     0
  0
HATCH
  5
26E08
330
2
100
AcDbEntity
  8
0
  6
Continuous
 62
     4
100
AcDbHatch
 10
0.0
 20
0.0
 30
0.0
210
0.0
220
0.0
230
1.0
  2
ANSI31
 70
     0
 71
     0
 91
        2
 92
        7
 72
     1
 73
     1
 93
       11
 10
181.1039969172544
 20
105.5026013376536
 42
0.0
 10
179.6039969172563
 20
104.6365759338689
 42
0.0
 10
179.6039969172563
 20
102.4761761271713
 42
0.0
 10
181.2397069148211
 20
102.4234312535974
 42
0.0
 10
184.8041755908162
 20
103.2548239324407
 42
0.0
 10
185.9923314694316
 20
104.6800696136003
 42
0.0
 10
187.378512807738
 20
107.4513790512128
 42
0.0
 10
187.8398431186853
 20
109.4068911229193
 42
0.0262874048598193
 10
184.6039969172562
 20
110.1032444178217
 42
0.0
 10
184.6039969172562
 20
105.802601337654
 42
-0.4142135623728731
 10
184.3039969172552
 20
105.5026013376538
 42
0.0
 97
        0
 92
        7
 72
     1
 73
     1
 93
       12
 10
178.1039969172562
 20
105.5026013376541
 42
0.0
 10
174.9039969172555
 20
105.5026013376538
 42
-0.4142135623728731
 10
174.6039969172563
 20
105.802601337654
 42
0.0
 10
174.6039969172544
 20
110.1032444178217
 42
0.031014729528923
 10
170.7952036673488
 20
109.2458677201129
 42
0.0
 10
171.4176176941856
 20
107.5701496516789
 42
0.0
 10
172.2097216132607
 20
106.0657243324057
 42
0.0
 10
173.8335353754756
 20
104.0862173734837
 42
0.0
 10
175.7741902892559
 20
103.0568736938691
 42
0.0
 10
178.784185389779
 20
102.5026116539067
 42
0.0
 10
179.6039969172563
 20
102.4761761271717
 42
0.0
 10
179.6039969172563
 20
104.6365759338695
 42
0.0
 97
        0
 75
     0
 76
     1
 52
0.0
 41
0.5
 77
     0
 78
     1
 53
45.0
 43
2814.038353076655
 44
1610.119509896556
 45
-1.122532015133643
 46
1.122532015133644
 79
     0
 47
0.0371735490245486
 98
        2
 10
183.0171798748489
 20
104.6620652426983
 10
178.8885570573258
 20
104.2903496152805
1001
ACAD
1010
0.0
1020
0.0
1030
0.0
  0
LINE
  5
26E09
330
2
100
AcDbEntity
  8
0
  6
Continuous
100
AcDbLine
 10
159.6039969172562
 20
59.00260133765385
 30
0.0
 11
159.6039969172562
 21
54.66641429037799
 31
0.0
  0
LINE
  5
26E0A
330
2
100
AcDbEntity
  8
0
  6
Continuous
100
AcDbLine
 10
153.1039969172544
 20
71.00260133765385
 30
0.0
 11
153.1039969172544
 21
87.00260133765386
 31
0.0
  0
LINE
  5
26E0B
330
2
100
AcDbEntity
  8
0
  6
Continuous
100
AcDbLine
 10
159.6039969172562
 20
59.00260133765385
 30
0.0
 11
155.2678098699799
 21
59.00260133765385
 31
0.0
  0
LINE
  5
26E0C
330
2
100
AcDbEntity
  8
0
  6
Continuous
100
AcDbLine
 10
149.1368014440905
 20
71.00260133765385
 30
0.0
 11
153.1039969172544
 21
71.00260133765385
 31
0.0
  0
LINE
  5
26E0D
330
2
100
AcDbEntity
  8
0
  6
Continuous
100
AcDbLine
 10
149.1368014440905
 20
87.00260133765386
 30
0.0
 11
153.1039969172544
 21
87.00260133765386
 31
0.0
  0
LINE
  5
26E0E
330
2
100
AcDbEntity
  8
0
  6
Continuous
100
AcDbLine
 10
206.1039969172563
 20
70.00260133765386
 30
0.0
 11
206.1039969172563
 21
88.00260133765386
 31
0.0
  0
LINE
  5
26E0F
330
2
100
AcDbEntity
  8
0
  6
Continuous
100
AcDbLine
 10
206.1039969172563
 20
70.00260133765386
 30
0.0
 11
209.7909146135026
 21
70.00260133765386
 31
0.0
  0
LINE
  5
26E10
330
2
100
AcDbEntity
  8
0
  6
Continuous
100
AcDbLine
 10
206.1039969172563
 20
88.00260133765386
 30
0.0
 11
209.7909146135026
 21
88.00260133765386
 31
0.0
  0
LINE
  5
26E11
330
2
100
AcDbEntity
  8
0
  6
Continuous
 62
     3
100
AcDbLine
 10
171.4176176941838
 20
107.570149651676
 30
0.0
 11
172.2097216132607
 21
106.0657243324069
 31
0.0
  0
LINE
  5
26E12
330
2
100
AcDbEntity
  8
0
  6
Continuous
 62
     3
100
AcDbLine
 10
170.7952036673488
 20
109.2458677201131
 30
0.0
 11
171.4176176941838
 21
107.570149651676
 31
0.0
  0
LINE
  5
26E13
330
2
100
AcDbEntity
  8
0
  6
Continuous
100
AcDbLine
 10
179.6039969172563
 20
105.5026013376538
 30
0.0
 11
184.3039969172552
 21
105.5026013376538
 31
0.0
  0
LINE
  5
26E14
330
2
100
AcDbEntity
  8
0
  6
Continuous
 62
     3
100
AcDbLine
 10
178.7841853897772
 20
102.5026116539063
 30
0.0
 11
181.2397069148211
 21
102.4234312535974
 31
0.0
  0
LINE
  5
26E15
330
2
100
AcDbEntity
  8
0
  6
Continuous
100
AcDbLine
 10
174.6039969172544
 20
110.1032444178219
 30
0.0
 11
174.6039969172563
 21
105.802601337654
 31
0.0
  0
LINE
  5
26E16
330
2
100
AcDbEntity
  8
0
  6
Continuous
 62
     3
100
AcDbLine
 10
175.7741902892559
 20
103.0568736938687
 30
0.0
 11
178.7841853897772
 21
102.5026116539063
 31
0.0
  0
LINE
  5
26E17
330
2
100
AcDbEntity
  8
0
  6
Continuous
100
AcDbLine
 10
179.6039969172563
 20
105.5026013376538
 30
0.0
 11
174.9039969172555
 21
105.5026013376538
 31
0.0
  0
ARC
  5
26E18
330
2
100
AcDbEntity
  8
0
  6
Continuous
100
AcDbCircle
 10
174.9039969172555
 20
105.802601337654
 30
0.0
 40
0.3
100
AcDbArc
 50
180.0
 51
270.0
  0
LINE
  5
26E19
330
2
100
AcDbEntity
  8
0
  6
Continuous
 62
     3
100
AcDbLine
 10
173.8335353754738
 20
104.0862173734842
 30
0.0
 11
175.7741902892559
 21
103.0568736938687
 31
0.0
  0
LINE
  5
26E1A
330
2
100
AcDbEntity
  8
0
  6
Continuous
 62
     3
100
AcDbLine
 10
172.2097216132607
 20
106.0657243324069
 30
0.0
 11
173.8335353754738
 21
104.0862173734842
 31
0.0
  0
LINE
  5
26E1B
330
2
100
AcDbEntity
  8
0
  6
Continuous
 62
     3
100
AcDbLine
 10
187.378512807738
 20
107.4513790512125
 30
0.0
 11
187.8398431186853
 21
109.4068911229193
 31
0.0
  0
LINE
  5
26E1C
330
2
100
AcDbEntity
  8
0
  6
Continuous
100
AcDbLine
 10
184.6039969172562
 20
110.1032444178219
 30
0.0
 11
184.6039969172562
 21
105.802601337654
 31
0.0
  0
LINE
  5
26E1D
330
2
100
AcDbEntity
  8
0
  6
Continuous
 62
     3
100
AcDbLine
 10
181.2397069148211
 20
102.4234312535974
 30
0.0
 11
184.8041755908162
 21
103.2548239324407
 31
0.0
  0
LINE
  5
26E1E
330
2
100
AcDbEntity
  8
0
  6
Continuous
 62
     3
100
AcDbLine
 10
185.9923314694316
 20
104.6800696136012
 30
0.0
 11
187.378512807738
 21
107.4513790512125
 31
0.0
  0
ARC
  5
26E1F
330
2
100
AcDbEntity
  8
0
  6
Continuous
100
AcDbCircle
 10
184.3039969172552
 20
105.802601337654
 30
0.0
 40
0.3
100
AcDbArc
 50
270.0
 51
0.0
  0
LINE
  5
26E20
330
2
100
AcDbEntity
  8
0
  6
Continuous
 62
     3
100
AcDbLine
 10
184.8041755908162
 20
103.2548239324407
 30
0.0
 11
185.9923314694316
 21
104.6800696136012
 31
0.0
  0
LINE
  5
26E21
330
2
100
AcDbEntity
  8
0
  6
Continuous
100
AcDbLine
 10
179.6039969172563
 20
104.6365759338691
 30
0.0
 11
181.1039969172562
 21
105.5026013376538
 31
0.0
  0
LINE
  5
26E22
330
2
100
AcDbEntity
  8
0
  6
Continuous
100
AcDbLine
 10
179.6039969172563
 20
104.6365759338695
 30
0.0
 11
178.1039969172562
 21
105.5026013376538
 31
0.0
  0
LINE
  5
26E23
330
2
100
AcDbEntity
  8
0
  6
Continuous
 62
     3
100
AcDbLine
 10
105.033339259454
 20
84.57760133765424
 30
0.0
 11
119.4909534883946
 21
84.57760133765424
 31
0.0
  0
LINE
  5
26E24
330
2
100
AcDbEntity
  8
0
  6
Continuous
 62
     3
100
AcDbLine
 10
118.2409534883946
 20
82.07760133765424
 30
0.0
 11
118.2409534883946
 21
66.35356150989832
 31
0.0
  0
SOLID
  5
26E25
330
2
100
AcDbEntity
  8
0
  6
Continuous
 62
     3
100
AcDbTrace
 10
117.8242868217286
 20
82.07760133765424
 30
0.0
 11
118.6576201550607
 21
82.07760133765424
 31
0.0
 12
118.2409534883946
 22
84.57760133765424
 32
0.0
 13
118.2409534883946
 23
84.57760133765424
 33
0.0
  0
MTEXT
  5
26E26
330
2
100
AcDbEntity
  8
0
  6
Continuous
 62
     2
100
AcDbMText
 10
115.9990253491033
 20
71.51781839120236
 30
0.0
 40
3.0
 41
8.100000000000022
 46
0.0
 71
     5
 72
     1
  1
%%C.439
 11
0.0000000000000001
 21
1.0
 31
0.0
 73
     1
 44
1.0
  0
LINE
  5
26E28
330
2
100
AcDbEntity
  8
0
  6
Continuous
 62
     7
100
AcDbLine
 10
81.74933925945163
 20
58.36510133765398
 30
0.0
 11
80.73333925945201
 21
57.34910133765396
 31
0.0
  0
LINE
  5
26E29
330
2
100
AcDbEntity
  8
0
  6
Continuous
 62
     7
100
AcDbLine
 10
105.2833392594513
 20
58.36510133765239
 30
0.0
 11
105.2833392594503
 21
79.00260133765295
 31
0.0
  0
LINE
  5
26E2B
330
2
100
AcDbEntity
  8
0
  6
Continuous
100
AcDbLine
 10
80.13333925945255
 20
84.89060133765377
 30
0.0
 11
80.13333925945255
 21
79.00260133765385
 31
0.0
  0
DIMENSION
  5
26E2C
330
2
100
AcDbEntity
  8
0
  6
Continuous
 62
     7
100
AcDbDimension
280
     0
  2
*D2
 10
105.5333392594522
 20
125.4730027400686
 30
0.0
 11
92.83333925945237
 21
127.5980027400686
 31
0.0
 70
    32
  1
1.00
 71
     5
 42
25.39999999999964
 73
     0
 74
     0
 75
     0
  3
Standard$0
100
AcDbAlignedDimension
 13
80.13333925945255
 23
84.89060133765377
 33
0.0
 14
105.5333392594522
 24
99.13210133765545
 34
0.0
100
AcDbRotatedDimension
1001
ACAD
1000
DSTYLE
1002
{
1070
    42
1040
0.625
1070
    43
1040
3.75
1070
    44
1040
1.25
1070
    48
1040
0.000000001
1070
    74
1070
     0
1070
    77
1070
     1
1070
    90
1070
     1
1070
   140
1040
3.0
1070
   141
1040
-0.5
1070
   143
1040
0.03937007874016
1070
   146
1040
0.7
1070
   147
1040
0.625
1070
   171
1070
     3
1070
   172
1070
     1
1070
   175
1070
     0
1070
   274
1070
     3
1070
   283
1070
     0
1070
   284
1070
     8
1070
   340
1005
25
1070
   371
1070
    -1
1070
   372
1070
    -1
1002
}
  0
LINE
  5
26E2D
330
2
100
AcDbEntity
  8
0
  6
Continuous
100
AcDbLine
 10
85.13333925945255
 20
84.8906013376539
 30
0.0
 11
85.13333925945255
 21
79.00260133765385
 31
0.0
  0
LINE
  5
26E2E
330
2
100
AcDbEntity
  8
0
  6
Continuous
 62
     7
100
AcDbLine
 10
80.13333925945255
 20
84.89060133765377
 30
0.0
 11
85.13333925945255
 21
84.8906013376539
 31
0.0
  0
LINE
  5
26E2F
330
2
100
AcDbEntity
  8
0
  6
Continuous
 62
     7
100
AcDbLine
 10
85.13333925945255
 20
84.5776013376539
 30
0.0
 11
105.0333392594522
 21
84.57760133765424
 31
0.0
  0
LINE
  5
26E30
330
2
100
AcDbEntity
  8
0
100
AcDbLine
 10
79.58333925945055
 20
83.20260133765373
 30
0.0
 11
80.13333925945165
 21
84.15522928181678
 31
0.0
  0
LINE
  5
26E31
330
2
100
AcDbEntity
  8
0
  6
Continuous
 62
     7
100
AcDbLine
 10
79.58333925945146
 20
83.20260133765385
 30
0.0
 11
79.58333925945146
 21
79.00260133765385
 31
0.0
  0
LINE
  5
26E34
330
2
100
AcDbEntity
  8
0
  6
CENTER
 62
     3
100
AcDbLine
 10
102.7393392594523
 20
100.6800189824541
 30
0.0
 11
102.7393392594523
 21
83.37965633359402
 31
0.0
  0
LINE
  5
26E35
330
2
100
AcDbEntity
  8
0
  6
Continuous
 62
     3
100
AcDbLine
 10
104.7393392594523
 20
91.96236631073418
 30
0.0
 11
104.7393392594523
 21
84.57760133765424
 31
0.0
  0
ARC
  5
26E36
330
2
100
AcDbEntity
  8
0
  6
Continuous
 62
     3
100
AcDbCircle
 10
102.7393392594523
 20
79.00260133765385
 30
0.0
 40
2.0
100
AcDbArc
 50
345.5224878140701
 51
284.4775121859299
  0
CIRCLE
  5
26E37
330
2
100
AcDbEntity
  8
0
  6
Continuous
 62
     7
100
AcDbCircle
 10
102.7393392594523
 20
79.00260133765385
 30
0.0
 40
1.7
  0
LINE
  5
26E38
330
2
100
AcDbEntity
  8
0
  6
Continuous
 62
     7
100
AcDbLine
 10
104.4393392594539
 20
91.78916122997817
 30
0.0
 11
104.4393392594539
 21
84.57760133765418
 31
0.0
  0
LINE
  5
26E39
330
2
100
AcDbEntity
  8
0
  6
Continuous
 62
     7
100
AcDbLine
 10
105.2833392594522
 20
99.6401013376542
 30
0.0
 11
81.74933925945799
 21
99.6401013376473
 31
0.0
  0
LINE
  5
26E3A
330
2
100
AcDbEntity
  8
0
  6
Continuous
 62
     7
100
AcDbLine
 10
105.5333392594522
 20
99.39010133765407
 30
0.0
 11
105.2833392594522
 21
99.64010133765407
 31
0.0
  0
LINE
  5
26E3B
330
2
100
AcDbEntity
  8
0
  6
Continuous
 62
     7
100
AcDbLine
 10
105.2833392594522
 20
58.3651013376533
 30
0.0
 11
105.5333392594522
 21
58.6151013376533
 31
0.0
  0
LINE
  5
26E3C
330
2
100
AcDbEntity
  8
0
  6
Continuous
 62
     7
100
AcDbLine
 10
104.8393392594517
 20
99.39010133765414
 30
0.0
 11
104.8393392594517
 21
92.02010133765412
 31
0.0
  0
LINE
  5
26E3D
330
2
100
AcDbEntity
  8
0
  6
Continuous
 62
     7
100
AcDbLine
 10
104.8393392594527
 20
92.02010133765417
 30
0.0
 11
102.7393392594523
 21
92.02010133765412
 31
0.0
  0
LINE
  5
26E3E
330
2
100
AcDbEntity
  8
0
  6
Continuous
 62
     7
100
AcDbLine
 10
104.8393392594527
 20
92.02010133765401
 30
0.0
 11
104.439339259453
 21
91.78916122997833
 31
0.0
  0
LINE
  5
26E3F
330
2
100
AcDbEntity
  8
0
  6
Continuous
 62
     7
100
AcDbLine
 10
104.439339259453
 20
91.78916122997817
 30
0.0
 11
102.7393392594523
 21
91.78916122997817
 31
0.0
  0
LINE
  5
26E40
330
2
100
AcDbEntity
  8
0
  6
Continuous
 62
     7
100
AcDbLine
 10
104.8393392594527
 20
99.39010133765419
 30
0.0
 11
105.0893392594527
 21
99.6401013376542
 31
0.0
  0
LINE
  5
26E41
330
2
100
AcDbEntity
  8
0
  6
Continuous
 62
     7
100
AcDbLine
 10
104.8393392594517
 20
99.39010133765306
 30
0.0
 11
102.7393392594523
 21
99.39010133765306
 31
0.0
  0
LINE
  5
26E42
330
2
100
AcDbEntity
  8
0
  6
Continuous
 62
     3
100
AcDbLine
 10
100.7393392594523
 20
91.96236631073418
 30
0.0
 11
100.7393392594523
 21
84.57760133765424
 31
0.0
  0
LINE
  5
26E43
330
2
100
AcDbEntity
  8
0
  6
Continuous
 62
     7
100
AcDbLine
 10
101.0393392594507
 20
91.78916122997817
 30
0.0
 11
101.0393392594507
 21
84.57760133765418
 31
0.0
  0
LINE
  5
26E44
330
2
100
AcDbEntity
  8
0
  6
Continuous
 62
     7
100
AcDbLine
 10
100.6393392594528
 20
99.39010133765414
 30
0.0
 11
100.6393392594528
 21
92.02010133765412
 31
0.0
  0
LINE
  5
26E45
330
2
100
AcDbEntity
  8
0
  6
Continuous
 62
     7
100
AcDbLine
 10
100.6393392594519
 20
92.02010133765417
 30
0.0
 11
102.7393392594523
 21
92.02010133765412
 31
0.0
  0
LINE
  5
26E46
330
2
100
AcDbEntity
  8
0
  6
Continuous
 62
     7
100
AcDbLine
 10
100.6393392594519
 20
92.02010133765401
 30
0.0
 11
101.0393392594516
 21
91.78916122997833
 31
0.0
  0
LINE
  5
26E47
330
2
100
AcDbEntity
  8
0
  6
Continuous
 62
     7
100
AcDbLine
 10
101.0393392594516
 20
91.78916122997817
 30
0.0
 11
102.7393392594523
 21
91.78916122997817
 31
0.0
  0
LINE
  5
26E48
330
2
100
AcDbEntity
  8
0
  6
Continuous
 62
     7
100
AcDbLine
 10
100.6393392594519
 20
99.39010133765419
 30
0.0
 11
100.3893392594519
 21
99.6401013376542
 31
0.0
  0
LINE
  5
26E49
330
2
100
AcDbEntity
  8
0
  6
Continuous
 62
     7
100
AcDbLine
 10
100.6393392594528
 20
99.39010133765306
 30
0.0
 11
102.7393392594523
 21
99.39010133765306
 31
0.0
  0
ARC
  5
26E4A
330
2
100
AcDbEntity
  8
0
  6
Continuous
 62
     7
100
AcDbCircle
 10
102.7393392594523
 20
79.00260133765385
 30
0.0
 40
2.1
100
AcDbArc
 50
180.0
 51
0.0
  0
LINE
  5
26E4B
330
2
100
AcDbEntity
  8
0
  6
Continuous
 62
     3
100
AcDbLine
 10
102.7393392594523
 20
78.50260133765385
 30
0.0
 11
102.7393392594523
 21
79.50260133765386
 31
0.0
  0
LINE
  5
26E4C
330
2
100
AcDbEntity
  8
0
  6
Continuous
 62
     3
100
AcDbLine
 10
102.7393392594523
 20
80.00260133765385
 30
0.0
 11
102.7393392594523
 21
81.60260133765389
 31
0.0
  0
LINE
  5
26E4D
330
2
100
AcDbEntity
  8
0
  6
Continuous
 62
     3
100
AcDbLine
 10
102.7393392594523
 20
78.00260133765386
 30
0.0
 11
102.7393392594523
 21
76.40260133765384
 31
0.0
  0
LINE
  5
26E4F
330
2
100
AcDbEntity
  8
0
  6
CENTER
 62
     3
100
AcDbLine
 10
102.7393392594523
 20
57.32518369285362
 30
0.0
 11
102.7393392594523
 21
74.61254634171371
 31
0.0
  0
ARC
  5
26E50
330
2
100
AcDbEntity
  8
0
  6
Continuous
 62
     3
100
AcDbCircle
 10
95.37333925945233
 20
79.00260133765385
 30
0.0
 40
2.0
100
AcDbArc
 50
345.5224878140701
 51
284.4775121859299
  0
CIRCLE
  5
26E51
330
2
100
AcDbEntity
  8
0
  6
Continuous
 62
     7
100
AcDbCircle
 10
95.37333925945233
 20
79.00260133765385
 30
0.0
 40
1.7
  0
ARC
  5
26E52
330
2
100
AcDbEntity
  8
0
  6
Continuous
 62
     7
100
AcDbCircle
 10
95.37333925945233
 20
79.00260133765385
 30
0.0
 40
2.1
100
AcDbArc
 50
180.0
 51
0.0
  0
LINE
  5
26E53
330
2
100
AcDbEntity
  8
0
  6
Continuous
 62
     3
100
AcDbLine
 10
95.37333925945233
 20
78.50260133765385
 30
0.0
 11
95.37333925945233
 21
79.50260133765386
 31
0.0
  0
LINE
  5
26E54
330
2
100
AcDbEntity
  8
0
  6
Continuous
 62
     3
100
AcDbLine
 10
95.37333925945233
 20
80.00260133765385
 30
0.0
 11
95.37333925945233
 21
81.60260133765389
 31
0.0
  0
LINE
  5
26E55
330
2
100
AcDbEntity
  8
0
  6
Continuous
 62
     3
100
AcDbLine
 10
95.37333925945233
 20
78.00260133765386
 30
0.0
 11
95.37333925945233
 21
76.40260133765384
 31
0.0
  0
DIMENSION
  5
26E56
330
2
100
AcDbEntity
  8
0
  6
Continuous
 62
     7
100
AcDbDimension
280
     0
  2
*D3
 10
105.5333392594522
 20
117.4730027400686
 30
0.0
 11
112.6583392594522
 21
119.5980027400686
 31
0.0
 70
    32
  1
.11
 71
     5
 42
2.793999999999869
 73
     0
 74
     0
 75
     0
  3
Standard$0
100
AcDbAlignedDimension
 13
102.7393392594523
 23
100.6800189824541
 33
0.0
 14
105.5333392594522
 24
99.39010133765401
 34
0.0
100
AcDbRotatedDimension
1001
ACAD
1000
DSTYLE
1002
{
1070
   171
1070
     3
1070
   143
1040
0.03937007874016
1070
   274
1070
     3
1070
   141
1040
-0.5
1070
    43
1040
3.75
1070
    44
1040
1.25
1070
    42
1040
0.625
1070
   147
1040
0.625
1070
   371
1070
    -1
1070
   372
1070
    -1
1070
   175
1070
     0
1070
    77
1070
     1
1070
   146
1040
0.7
1070
    48
1040
0.000000001
1070
   172
1070
     1
1070
    74
1070
     0
1070
   283
1070
     0
1070
   340
1005
25
1070
   140
1040
3.0
1070
   284
1070
     8
1070
    90
1070
     1
1002
}
  0
DIMENSION
  5
26E57
330
2
100
AcDbEntity
  8
0
  6
Continuous
 62
     7
100
AcDbDimension
280
     0
  2
*D4
 10
102.7393392594523
 20
117.4730027400686
 30
0.0
 11
99.05633925945233
 21
119.5982980156591
 31
0.0
 70
    32
  1
.29
 71
     5
 42
7.365999999999985
 73
     0
 74
     0
 75
     0
  3
Standard$0
100
AcDbAlignedDimension
 13
95.37333925945233
 23
81.5896013376539
 33
0.0
 14
102.7393392594523
 24
100.6800189824541
 34
0.0
100
AcDbRotatedDimension
1001
ACAD
1000
DSTYLE
1002
{
1070
   171
1070
     3
1070
   143
1040
0.03937007874016
1070
   274
1070
     3
1070
   141
1040
-0.5
1070
    43
1040
3.75
1070
    44
1040
1.25
1070
    42
1040
0.625
1070
   147
1040
0.625
1070
   371
1070
    -1
1070
   372
1070
    -1
1070
   175
1070
     0
1070
    77
1070
     1
1070
   146
1040
0.7
1070
    48
1040
0.000000001
1070
   172
1070
     1
1070
    74
1070
     0
1070
   283
1070
     0
1070
   340
1005
25
1070
   140
1040
3.0
1070
   284
1070
     8
1070
    90
1070
     1
1002
}
  0
CIRCLE
  5
26E58
330
2
100
AcDbEntity
  8
0
  6
Continuous
 62
     7
100
AcDbCircle
 10
179.6039969172553
 20
79.00260133765385
 30
0.0
 40
5.587999999999794
  0
CIRCLE
  5
26E59
330
2
100
AcDbEntity
  8
0
  6
Continuous
 62
     7
100
AcDbCircle
 10
179.6039969172563
 20
79.00260133765385
 30
0.0
 40
20.6374999999984
  0
CIRCLE
  5
26E5A
330
2
100
AcDbEntity
  8
0
  6
Continuous
 62
     7
100
AcDbCircle
 10
179.6039969172563
 20
79.00260133765385
 30
0.0
 40
21.65349999999898
  0
LINE
  5
26E5B
330
2
100
AcDbEntity
  8
0
  6
CENTER
 62
     3
100
AcDbLine
 10
179.6039969172563
 20
100.6800189824541
 30
0.0
 11
179.6039969172563
 21
83.39265633359401
 31
0.0
  0
LINE
  5
26E5C
330
2
100
AcDbEntity
  8
0
  6
Continuous
 62
     3
100
AcDbLine
 10
181.6039969172562
 20
91.96236631073418
 30
0.0
 11
181.6039969172562
 21
84.22043077143161
 31
0.0
  0
LINE
  5
26E5D
330
2
100
AcDbEntity
  8
0
  6
Continuous
 62
     7
100
AcDbLine
 10
181.3039969172579
 20
91.78916122997817
 30
0.0
 11
181.3039969172579
 21
84.32573424976419
 31
0.0
  0
LINE
  5
26E5E
330
2
100
AcDbEntity
  8
0
  6
Continuous
 62
     7
100
AcDbLine
 10
181.7039969172557
 20
99.39010133765414
 30
0.0
 11
181.7039969172557
 21
92.02010133765412
 31
0.0
  0
LINE
  5
26E5F
330
2
100
AcDbEntity
  8
0
  6
Continuous
 62
     7
100
AcDbLine
 10
181.7039969172566
 20
92.02010133765417
 30
0.0
 11
179.6039969172563
 21
92.02010133765412
 31
0.0
  0
LINE
  5
26E60
330
2
100
AcDbEntity
  8
0
  6
Continuous
 62
     7
100
AcDbLine
 10
181.7039969172566
 20
92.02010133765401
 30
0.0
 11
181.303996917257
 21
91.78916122997833
 31
0.0
  0
LINE
  5
26E61
330
2
100
AcDbEntity
  8
0
  6
Continuous
 62
     7
100
AcDbLine
 10
181.303996917257
 20
91.78916122997817
 30
0.0
 11
179.6039969172563
 21
91.78916122997817
 31
0.0
  0
LINE
  5
26E62
330
2
100
AcDbEntity
  8
0
  6
Continuous
 62
     7
100
AcDbLine
 10
181.7039969172566
 20
99.39010133765419
 30
0.0
 11
181.833242963262
 21
99.51934738365963
 31
0.0
  0
LINE
  5
26E63
330
2
100
AcDbEntity
  8
0
  6
Continuous
 62
     7
100
AcDbLine
 10
181.7039969172557
 20
99.39010133765306
 30
0.0
 11
179.6039969172563
 21
99.39010133765306
 31
0.0
  0
LINE
  5
26E64
330
2
100
AcDbEntity
  8
0
  6
Continuous
 62
     3
100
AcDbLine
 10
177.6039969172563
 20
91.96236631073418
 30
0.0
 11
177.6039969172563
 21
84.22043077143161
 31
0.0
  0
LINE
  5
26E65
330
2
100
AcDbEntity
  8
0
  6
Continuous
 62
     7
100
AcDbLine
 10
177.9039969172546
 20
91.78916122997817
 30
0.0
 11
177.9039969172546
 21
84.32573424976419
 31
0.0
  0
LINE
  5
26E66
330
2
100
AcDbEntity
  8
0
  6
Continuous
 62
     7
100
AcDbLine
 10
177.5039969172568
 20
99.39010133765414
 30
0.0
 11
177.5039969172568
 21
92.02010133765412
 31
0.0
  0
LINE
  5
26E67
330
2
100
AcDbEntity
  8
0
  6
Continuous
 62
     7
100
AcDbLine
 10
177.5039969172559
 20
92.02010133765417
 30
0.0
 11
179.6039969172563
 21
92.02010133765412
 31
0.0
  0
LINE
  5
26E68
330
2
100
AcDbEntity
  8
0
  6
Continuous
 62
     7
100
AcDbLine
 10
177.5039969172559
 20
92.02010133765401
 30
0.0
 11
177.9039969172555
 21
91.78916122997833
 31
0.0
  0
LINE
  5
26E69
330
2
100
AcDbEntity
  8
0
  6
Continuous
 62
     7
100
AcDbLine
 10
177.9039969172555
 20
91.78916122997817
 30
0.0
 11
179.6039969172563
 21
91.78916122997817
 31
0.0
  0
LINE
  5
26E6A
330
2
100
AcDbEntity
  8
0
  6
Continuous
 62
     7
100
AcDbLine
 10
177.5039969172559
 20
99.39010133765419
 30
0.0
 11
177.3747508712505
 21
99.51934738365963
 31
0.0
  0
LINE
  5
26E6B
330
2
100
AcDbEntity
  8
0
  6
Continuous
 62
     7
100
AcDbLine
 10
177.5039969172568
 20
99.39010133765306
 30
0.0
 11
179.6039969172563
 21
99.39010133765306
 31
0.0
  0
LINE
  5
26E6C
330
2
100
AcDbEntity
  8
0
  6
CENTER
 62
     3
100
AcDbLine
 10
179.6039969172563
 20
57.32518369285362
 30
0.0
 11
179.6039969172563
 21
74.61254634171371
 31
0.0
  0
LINE
  5
26E6D
330
2
100
AcDbEntity
  8
0
  6
Continuous
 62
     3
100
AcDbLine
 10
181.6039969172562
 20
66.04283636457353
 30
0.0
 11
181.6039969172562
 21
73.78477190387645
 31
0.0
  0
LINE
  5
26E6E
330
2
100
AcDbEntity
  8
0
  6
Continuous
 62
     7
100
AcDbLine
 10
181.3039969172579
 20
66.21604144532955
 30
0.0
 11
181.3039969172579
 21
73.6794684255438
 31
0.0
  0
LINE
  5
26E6F
330
2
100
AcDbEntity
  8
0
  6
Continuous
 62
     7
100
AcDbLine
 10
181.7039969172557
 20
58.61510133765358
 30
0.0
 11
181.7039969172557
 21
65.98510133765358
 31
0.0
  0
LINE
  5
26E70
330
2
100
AcDbEntity
  8
0
  6
Continuous
 62
     7
100
AcDbLine
 10
181.7039969172566
 20
65.98510133765353
 30
0.0
 11
179.6039969172563
 21
65.98510133765358
 31
0.0
  0
LINE
  5
26E71
330
2
100
AcDbEntity
  8
0
  6
Continuous
 62
     7
100
AcDbLine
 10
181.7039969172566
 20
65.9851013376537
 30
0.0
 11
181.303996917257
 21
66.21604144532938
 31
0.0
  0
LINE
  5
26E72
330
2
100
AcDbEntity
  8
0
  6
Continuous
 62
     7
100
AcDbLine
 10
181.303996917257
 20
66.21604144532955
 30
0.0
 11
179.6039969172563
 21
66.21604144532955
 31
0.0
  0
LINE
  5
26E73
330
2
100
AcDbEntity
  8
0
  6
Continuous
 62
     7
100
AcDbLine
 10
181.7039969172566
 20
58.61510133765353
 30
0.0
 11
181.833242963262
 21
58.48585529164807
 31
0.0
  0
LINE
  5
26E74
330
2
100
AcDbEntity
  8
0
  6
Continuous
 62
     7
100
AcDbLine
 10
181.7039969172557
 20
58.61510133765467
 30
0.0
 11
179.6039969172563
 21
58.61510133765467
 31
0.0
  0
LINE
  5
26E75
330
2
100
AcDbEntity
  8
0
  6
Continuous
 62
     3
100
AcDbLine
 10
177.6039969172563
 20
66.04283636457353
 30
0.0
 11
177.6039969172563
 21
73.7847719038757
 31
0.0
  0
LINE
  5
26E76
330
2
100
AcDbEntity
  8
0
  6
Continuous
 62
     7
100
AcDbLine
 10
177.9039969172546
 20
66.21604144532955
 30
0.0
 11
177.9039969172546
 21
73.67946842554323
 31
0.0
  0
LINE
  5
26E77
330
2
100
AcDbEntity
  8
0
  6
Continuous
 62
     7
100
AcDbLine
 10
177.5039969172568
 20
58.61510133765358
 30
0.0
 11
177.5039969172568
 21
65.98510133765358
 31
0.0
  0
LINE
  5
26E78
330
2
100
AcDbEntity
  8
0
  6
Continuous
 62
     7
100
AcDbLine
 10
177.5039969172559
 20
65.98510133765353
 30
0.0
 11
179.6039969172563
 21
65.98510133765358
 31
0.0
  0
LINE
  5
26E79
330
2
100
AcDbEntity
  8
0
  6
Continuous
 62
     7
100
AcDbLine
 10
177.5039969172559
 20
65.9851013376537
 30
0.0
 11
177.9039969172555
 21
66.21604144532938
 31
0.0
  0
LINE
  5
26E7A
330
2
100
AcDbEntity
  8
0
  6
Continuous
 62
     7
100
AcDbLine
 10
177.9039969172555
 20
66.21604144532955
 30
0.0
 11
179.6039969172563
 21
66.21604144532955
 31
0.0
  0
LINE
  5
26E7B
330
2
100
AcDbEntity
  8
0
  6
Continuous
 62
     7
100
AcDbLine
 10
177.5039969172559
 20
58.61510133765353
 30
0.0
 11
177.3747508712505
 21
58.48585529164807
 31
0.0
  0
LINE
  5
26E7C
330
2
100
AcDbEntity
  8
0
  6
Continuous
 62
     7
100
AcDbLine
 10
177.5039969172568
 20
58.61510133765467
 30
0.0
 11
179.6039969172563
 21
58.61510133765467
 31
0.0
  0
LINE
  5
26E7D
330
2
100
AcDbEntity
  8
0
  6
Continuous
 62
     7
100
AcDbLine
 10
159.2164969172564
 20
76.90260133765332
 30
0.0
 11
159.087250871251
 21
76.77335529164793
 31
0.0
  0
LINE
  5
26E7E
330
2
100
AcDbEntity
  8
0
  6
Continuous
 62
     7
100
AcDbLine
 10
159.2164969172564
 20
81.10260133765406
 30
0.0
 11
159.087250871251
 21
81.23184738365944
 31
0.0
  0
LINE
  5
26E7F
330
2
100
AcDbEntity
  8
0
  6
Continuous
 62
     7
100
AcDbLine
 10
159.2164969172573
 20
76.90260133765423
 30
0.0
 11
159.2164969172573
 21
79.00260133765368
 31
0.0
  0
LINE
  5
26E80
330
2
100
AcDbEntity
  8
0
  6
Continuous
 62
     7
100
AcDbLine
 10
159.2164969172573
 20
81.10260133765313
 30
0.0
 11
159.2164969172573
 21
79.00260133765368
 31
0.0
  0
LINE
  5
26E81
330
2
100
AcDbEntity
  8
0
  6
Continuous
 62
     7
100
AcDbLine
 10
166.8174370249318
 20
77.30260133765296
 30
0.0
 11
166.8174370249318
 21
79.00260133765368
 31
0.0
  0
LINE
  5
26E82
330
2
100
AcDbEntity
  8
0
  6
Continuous
 62
     7
100
AcDbLine
 10
166.5864969172563
 20
76.90260133765332
 30
0.0
 11
166.8174370249318
 21
77.30260133765296
 31
0.0
  0
LINE
  5
26E83
330
2
100
AcDbEntity
  8
0
  6
Continuous
 62
     7
100
AcDbLine
 10
166.5864969172563
 20
76.90260133765332
 30
0.0
 11
166.5864969172563
 21
79.00260133765368
 31
0.0
  0
LINE
  5
26E84
330
2
100
AcDbEntity
  8
0
  6
Continuous
 62
     7
100
AcDbLine
 10
166.8174370249318
 20
80.70260133765442
 30
0.0
 11
166.8174370249318
 21
79.00260133765368
 31
0.0
  0
LINE
  5
26E85
330
2
100
AcDbEntity
  8
0
  6
Continuous
 62
     7
100
AcDbLine
 10
166.5864969172563
 20
81.10260133765406
 30
0.0
 11
166.8174370249318
 21
80.70260133765442
 31
0.0
  0
LINE
  5
26E86
330
2
100
AcDbEntity
  8
0
  6
Continuous
 62
     7
100
AcDbLine
 10
166.5864969172563
 20
81.10260133765406
 30
0.0
 11
166.5864969172563
 21
79.00260133765368
 31
0.0
  0
LINE
  5
26E87
330
2
100
AcDbEntity
  8
0
  6
Continuous
 62
     7
100
AcDbLine
 10
159.2164969172564
 20
76.90260133765423
 30
0.0
 11
166.5864969172563
 21
76.90260133765423
 31
0.0
  0
LINE
  5
26E88
330
2
100
AcDbEntity
  8
0
  6
Continuous
 62
     7
100
AcDbLine
 10
159.2164969172564
 20
81.10260133765313
 30
0.0
 11
166.5864969172563
 21
81.10260133765313
 31
0.0
  0
LINE
  5
26E89
330
2
100
AcDbEntity
  8
0
  6
Continuous
 62
     7
100
AcDbLine
 10
199.991496917257
 20
76.90260133765332
 30
0.0
 11
200.1207429632624
 21
76.77335529164793
 31
0.0
  0
LINE
  5
26E8A
330
2
100
AcDbEntity
  8
0
  6
Continuous
 62
     7
100
AcDbLine
 10
199.991496917257
 20
81.10260133765406
 30
0.0
 11
200.1207429632624
 21
81.23184738365944
 31
0.0
  0
LINE
  5
26E8B
330
2
100
AcDbEntity
  8
0
  6
Continuous
 62
     7
100
AcDbLine
 10
199.9914969172561
 20
76.90260133765423
 30
0.0
 11
199.9914969172561
 21
79.00260133765368
 31
0.0
  0
LINE
  5
26E8C
330
2
100
AcDbEntity
  8
0
  6
Continuous
 62
     7
100
AcDbLine
 10
192.3905568095807
 20
77.30260133765296
 30
0.0
 11
192.3905568095807
 21
79.00260133765368
 31
0.0
  0
LINE
  5
26E8D
330
2
100
AcDbEntity
  8
0
  6
Continuous
 62
     7
100
AcDbLine
 10
192.6214969172562
 20
76.90260133765332
 30
0.0
 11
192.3905568095807
 21
77.30260133765296
 31
0.0
  0
LINE
  5
26E8E
330
2
100
AcDbEntity
  8
0
  6
Continuous
 62
     7
100
AcDbLine
 10
192.6214969172571
 20
76.90260133765332
 30
0.0
 11
192.6214969172571
 21
79.00260133765368
 31
0.0
  0
LINE
  5
26E8F
330
2
100
AcDbEntity
  8
0
  6
Continuous
 62
     7
100
AcDbLine
 10
199.991496917257
 20
76.90260133765423
 30
0.0
 11
192.6214969172571
 21
76.90260133765423
 31
0.0
  0
LINE
  5
26E90
330
2
100
AcDbEntity
  8
0
  6
Continuous
 62
     7
100
AcDbLine
 10
192.3905568095807
 20
77.30260133765205
 30
0.0
 11
184.9271298293653
 21
77.30260133765205
 31
0.0
  0
LINE
  5
26E91
330
2
100
AcDbEntity
  8
0
  6
Continuous
 62
     3
100
AcDbLine
 10
192.5637618903366
 20
77.00260133765368
 30
0.0
 11
184.8218263510326
 21
77.00260133765368
 31
0.0
  0
LINE
  5
26E92
330
2
100
AcDbEntity
  8
0
  6
Continuous
 62
     7
100
AcDbLine
 10
199.9914969172561
 20
81.10260133765313
 30
0.0
 11
199.9914969172561
 21
79.00260133765368
 31
0.0
  0
LINE
  5
26E93
330
2
100
AcDbEntity
  8
0
  6
Continuous
 62
     7
100
AcDbLine
 10
192.3905568095807
 20
80.70260133765442
 30
0.0
 11
192.3905568095807
 21
79.00260133765368
 31
0.0
  0
LINE
  5
26E94
330
2
100
AcDbEntity
  8
0
  6
Continuous
 62
     7
100
AcDbLine
 10
192.6214969172562
 20
81.10260133765406
 30
0.0
 11
192.3905568095807
 21
80.70260133765442
 31
0.0
  0
LINE
  5
26E95
330
2
100
AcDbEntity
  8
0
  6
Continuous
 62
     7
100
AcDbLine
 10
192.6214969172571
 20
81.10260133765406
 30
0.0
 11
192.6214969172571
 21
79.00260133765368
 31
0.0
  0
LINE
  5
26E96
330
2
100
AcDbEntity
  8
0
  6
Continuous
 62
     7
100
AcDbLine
 10
199.991496917257
 20
81.10260133765313
 30
0.0
 11
192.6214969172571
 21
81.10260133765313
 31
0.0
  0
LINE
  5
26E97
330
2
100
AcDbEntity
  8
0
  6
Continuous
 62
     7
100
AcDbLine
 10
192.3905568095807
 20
80.70260133765533
 30
0.0
 11
184.9271298293653
 21
80.70260133765533
 31
0.0
  0
LINE
  5
26E98
330
2
100
AcDbEntity
  8
0
  6
Continuous
 62
     3
100
AcDbLine
 10
192.5637618903366
 20
81.00260133765369
 30
0.0
 11
184.8218263510336
 21
81.00260133765369
 31
0.0
  0
LINE
  5
26E99
330
2
100
AcDbEntity
  8
0
  6
CENTER
 62
     3
100
AcDbLine
 10
201.2814145620569
 20
79.00260133765368
 30
0.0
 11
183.994051913197
 21
79.00260133765368
 31
0.0
  0
LINE
  5
26E9A
330
2
100
AcDbEntity
  8
0
  6
Continuous
 62
     7
100
AcDbLine
 10
166.8174370249318
 20
77.30260133765205
 30
0.0
 11
174.2808640051454
 21
77.30260133765205
 31
0.0
  0
LINE
  5
26E9B
330
2
100
AcDbEntity
  8
0
  6
Continuous
 62
     3
100
AcDbLine
 10
166.6442319441759
 20
77.00260133765368
 30
0.0
 11
174.386167483478
 21
77.00260133765368
 31
0.0
  0
LINE
  5
26E9C
330
2
100
AcDbEntity
  8
0
  6
Continuous
 62
     7
100
AcDbLine
 10
166.8174370249318
 20
80.70260133765533
 30
0.0
 11
174.2808640051463
 21
80.70260133765533
 31
0.0
  0
LINE
  5
26E9D
330
2
100
AcDbEntity
  8
0
  6
Continuous
 62
     3
100
AcDbLine
 10
166.6442319441759
 20
81.00260133765369
 30
0.0
 11
174.386167483478
 21
81.00260133765369
 31
0.0
  0
LINE
  5
26E9E
330
2
100
AcDbEntity
  8
0
  6
CENTER
 62
     3
100
AcDbLine
 10
157.9265792724565
 20
79.00260133765368
 30
0.0
 11
175.2139419213164
 21
79.00260133765368
 31
0.0
  0
ARC
  5
26EA0
330
2
100
AcDbEntity
  8
0
  6
HIDDEN
 62
     2
 48
0.02
100
AcDbCircle
 10
102.7393392594523
 20
79.00260133765385
 30
0.0
 40
2.1
100
AcDbArc
 50
0.0
 51
180.0
  0
ARC
  5
26EA1
330
2
100
AcDbEntity
  8
0
  6
HIDDEN
 62
     2
 48
0.02
100
AcDbCircle
 10
95.37333925945233
 20
79.00260133765385
 30
0.0
 40
2.1
100
AcDbArc
 50
0.0
 51
180.0
  0
ENDSEC
  0
SECTION
  2
OBJECTS
  0
DICTIONARY
  5
B
330
0
100
AcDbDictionary
281
     1
  3
ACAD_CIP_PREVIOUS_PRODUCT_INFO
350
BE4
  3
ACAD_COLOR
350
3F
  3
ACAD_DETAILVIEWSTYLE
350
BDC
  3
ACAD_GROUP
350
3A
  3
ACAD_LAYOUT
350
17
  3
ACAD_MATERIAL
350
D
  3
ACAD_MLEADERSTYLE
350
42
  3
ACAD_MLINESTYLE
350
3B
  3
ACAD_PLOTSETTINGS
350
3C
  3
ACAD_PLOTSTYLENAME
350
A
  3
ACAD_SCALELIST
350
40
  3
ACAD_SECTIONVIEWSTYLE
350
BDA
  3
ACAD_TABLESTYLE
350
41
  3
ACAD_VISUALSTYLE
350
2F
  3
ACDB_RECOMPOSE_DATA
350
2706A
  3
AcDbVariableDictionary
350
BB8
  3
AEC_PROPERTY_SET_DEFS
350
24C9
  3
ASE_INDEX_DICTIONARY
350
23A5C
  0
DICTIONARY
  5
31
330
2C
100
AcDbDictionary
280
     1
281
     1
  0
DICTIONARY
  5
22
330
21
100
AcDbDictionary
280
     1
281
     1
  3
ACAD_LAYERSTATES
360
23
  0
DICTIONARY
  5
7
330
6
100
AcDbDictionary
280
     1
281
     1
  3
ADSK_XREC_LAYER_RECONCILED
360
8
  0
DICTIONARY
  5
236C0
330
236BF
100
AcDbDictionary
280
     1
281
     1
  0
DICTIONARY
  5
3
330
2
100
AcDbDictionary
280
     1
281
     1
  3
ACAD_SORTENTS
360
BB0
  0
XRECORD
  5
BE4
102
{ACAD_REACTORS
330
B
102
}
330
B
100
AcDbXrecord
280
     1
300
ACD
300
2014
300
ACD_F_S
  0
DICTIONARY
  5
3F
102
{ACAD_REACTORS
330
B
102
}
330
B
100
AcDbDictionary
281
     1
  0
DICTIONARY
  5
BDC
102
{ACAD_REACTORS
330
B
102
}
330
B
100
AcDbDictionary
281
     1
  3
Metric50
350
BDD
  0
DICTIONARY
  5
3A
102
{ACAD_REACTORS
330
B
102
}
330
B
100
AcDbDictionary
281
     1
  0
DICTIONARY
  5
17
102
{ACAD_REACTORS
330
B
102
}
330
B
100
AcDbDictionary
281
     1
  3
Model
350
16
  3
배치1
350
1E
  0
DICTIONARY
  5
D
102
{ACAD_REACTORS
330
B
102
}
330
B
100
AcDbDictionary
281
     1
  3
ByBlock
350
3E
  3
ByLayer
350
3D
  3
Global
350
C
  0
DICTIONARY
  5
42
102
{ACAD_REACTORS
330
B
102
}
330
B
100
AcDbDictionary
281
     1
  3
Standard
350
BD9
  0
DICTIONARY
  5
3B
102
{ACAD_REACTORS
330
B
102
}
330
B
100
AcDbDictionary
281
     1
  3
Standard
350
43
  0
DICTIONARY
  5
3C
102
{ACAD_REACTORS
330
B
102
}
330
B
100
AcDbDictionary
281
     1
  0
ACDBDICTIONARYWDFLT
  5
A
102
{ACAD_REACTORS
330
B
102
}
330
B
100
AcDbDictionary
281
     1
  3
Normal
350
9
100
AcDbDictionaryWithDefault
340
9
  0
DICTIONARY
  5
40
102
{ACAD_REACTORS
330
B
102
}
330
B
100
AcDbDictionary
281
     1
  3
A0
350
48
  3
A1
350
49
  3
A2
350
4A
  3
A3
350
4B
  3
A4
350
4C
  3
A5
350
4D
  3
A6
350
4E
  3
A7
350
4F
  3
A8
350
50
  3
A9
350
51
  3
B0
350
52
  3
B1
350
53
  3
B2
350
54
  3
B3
350
55
  3
B4
350
56
  3
B5
350
57
  3
B6
350
58
  0
DICTIONARY
  5
BDA
102
{ACAD_REACTORS
330
B
102
}
330
B
100
AcDbDictionary
281
     1
  3
Metric50
350
BDB
  0
DICTIONARY
  5
41
102
{ACAD_REACTORS
330
B
102
}
330
B
100
AcDbDictionary
281
     1
  3
Standard
350
44
  0
DICTIONARY
  5
2F
102
{ACAD_REACTORS
330
B
102
}
330
B
100
AcDbDictionary
281
     1
  3
2dWireframe
350
2E
  3
3D Hidden
350
1A64
  3
3dWireframe
350
47
  3
Basic
350
BC7
  3
Brighten
350
BCC
  3
ColorChange
350
BD0
  3
Conceptual
350
BCA
  3
Dim
350
BCB
  3
EdgeColorOff
350
BD8
  3
Facepattern
350
BCF
  3
Flat
350
BC3
  3
FlatWithEdges
350
BC4
  3
Gouraud
350
BC5
  3
GouraudWithEdges
350
BC6
  3
Hidden
350
BC9
  3
JitterOff
350
BD6
  3
Linepattern
350
BCE
  3
OverhangOff
350
BD7
  3
Realistic
350
46
  3
Shaded
350
BD5
  3
Shaded with edges
350
BD4
  3
Shades of Gray
350
BD1
  3
Sketchy
350
BD2
  3
Thicken
350
BCD
  3
Wireframe
350
BC8
  3
X-Ray
350
BD3
  0
XRECORD
  5
2706A
102
{ACAD_REACTORS
330
B
102
}
330
B
100
AcDbXrecord
280
     1
 90
        1
330
44
330
BDB
330
BDD
  0
DICTIONARY
  5
BB8
102
{ACAD_REACTORS
330
B
102
}
330
B
100
AcDbDictionary
281
     1
  3
CANNOSCALE
350
BBE
  3
CMLEADERSTYLE
350
BBA
  3
CTABLESTYLE
350
BB9
  3
CVIEWDETAILSTYLE
350
BBB
  3
CVIEWSECTIONSTYLE
350
BBC
  3
DIMASSOC
350
C3B
  3
HIDETEXT
350
C39
  3
HPCOLOR
350
FF3
  3
INDEXCTL
350
C38
  3
LAYEREVAL
350
BC0
  3
LAYERNOTIFY
350
BC1
  3
LIGHTINGUNITS
350
BBF
  3
MSLTSCALE
350
BBD
  3
SOLIDHIST
350
C3C
  3
SORTENTS
350
C37
  0
DICTIONARY
  5
24C9
102
{ACAD_REACTORS
330
B
102
}
330
B
100
AcDbDictionary
281
     1
  0
DICTIONARY
  5
23A5C
102
{ACAD_REACTORS
330
B
102
}
330
B
100
AcDbDictionary
281
     1
  3
ASEBlockHierarchyIndexRecord
350
23A5D
1001
DCO15
1040
2083736454.057
  0
DICTIONARY
  5
23
102
{ACAD_REACTORS
330
22
102
}
330
22
100
AcDbDictionary
281
     1
  0
XRECORD
  5
8
102
{ACAD_REACTORS
330
7
102
}
330
7
100
AcDbXrecord
280
     1
290
     1
  0
SORTENTSTABLE
  5
BB0
102
{ACAD_REACTORS
330
3
102
}
330
3
100
AcDbSortentsTable
330
2
331
24567
  5
2456C
331
24566
  5
2456B
331
2454F
  5
24554
331
24575
  5
24A09
331
24565
  5
2456A
331
244BF
  5
244C4
331
2454E
  5
24553
331
24574
  5
24956
331
244AF
  5
244B4
331
24564
  5
24569
331
2454D
  5
24552
331
2449F
  5
244A4
331
244BE
  5
244C3
331
24573
  5
24955
331
244AE
  5
244B3
331
24563
  5
24568
331
244BD
  5
244C2
331
2449E
  5
244A3
331
2454C
  5
24551
331
24572
  5
24954
331
244AD
  5
244B2
331
24562
  5
24567
331
244BC
  5
244C1
331
2449D
  5
244A2
331
2454B
  5
24550
331
24571
  5
24953
331
244AC
  5
244B1
331
24561
  5
24566
331
244BB
  5
244C0
331
2449C
  5
244A1
331
2454A
  5
2454F
331
24570
  5
24575
331
244AB
  5
244B0
331
24560
  5
24565
331
24549
  5
2454E
331
2449B
  5
244A0
331
244BA
  5
244BF
331
2456F
  5
24574
331
244AA
  5
244AF
331
2455F
  5
24564
331
244B9
  5
244BE
331
2449A
  5
2449F
331
24548
  5
2454D
331
2456E
  5
24573
331
244C8
  5
2453B
331
244A9
  5
244AE
331
24557
  5
2455C
331
2455E
  5
24563
331
244B8
  5
244BD
331
24499
  5
2449E
331
24547
  5
2454C
331
2456D
  5
24572
331
244C7
  5
2453A
331
244A8
  5
244AD
331
24556
  5
2455B
331
2455D
  5
24562
331
244B7
  5
244BC
331
24498
  5
2449D
331
2456C
  5
24571
331
24555
  5
2455A
331
244A7
  5
244AC
331
244C6
  5
24539
331
2455C
  5
24561
331
244B6
  5
244BB
331
2456B
  5
24570
331
244C5
  5
24538
331
244A6
  5
244AB
331
24554
  5
24559
331
2455B
  5
24560
331
244B5
  5
244BA
331
2456A
  5
2456F
331
244C4
  5
244DD
331
244A5
  5
244AA
331
24553
  5
24558
331
2455A
  5
2455F
331
244B4
  5
244B9
331
24569
  5
2456E
331
244C3
  5
244C8
331
244A4
  5
244A9
331
24552
  5
24557
331
24559
  5
2455E
331
244B3
  5
244B8
331
24568
  5
2456D
331
24551
  5
24556
331
244A3
  5
244A8
331
244C2
  5
244C7
331
24558
  5
2455D
331
244B2
  5
244B7
331
244C1
  5
244C6
331
244A2
  5
244A7
331
24550
  5
24555
331
244B1
  5
244B6
331
244C0
  5
244C5
331
244A1
  5
244A6
331
244B0
  5
244B5
331
244A0
  5
244A5
  0
ACDBDETAILVIEWSTYLE
  5
BDD
102
{ACAD_XDICTIONARY
360
27068
102
}
102
{ACAD_REACTORS
330
BDC
102
}
330
BDC
100
AcDbModelDocViewStyle
 70
     0
  3
Metric50
290
     0
100
AcDbDetailViewStyle
 70
     0
 71
     0
 90
        3
 71
     1
340
25
 62
   256
 40
5.0
340
0
 62
   256
 40
5.0
300

 40
0.0
280
     1
 71
     2
340
14
 90
       25
 62
   256
 71
     3
340
25
 62
   256
 40
5.0
 90
        0
 40
15.0
 90
        1
300
%<\AcVar ViewDetailId>% (%<\AcVar ViewScale \f "%sn">%)
 71
     4
340
14
 90
       25
 62
   256
340
14
 90
       25
 62
   256
280
     0
  0
LAYOUT
  5
16
102
{ACAD_XDICTIONARY
360
18
102
}
102
{ACAD_REACTORS
330
17
102
}
330
17
100
AcDbPlotSettings
  1

  2
Samsung M267x 287x Series
  4
A4
  6

 40
5.027082920074462
 41
5.027099609375
 42
5.027069091796875
 43
5.027069091796875
 44
209.9733276367187
 45
296.9259948730469
 46
0.0
 47
0.3443247085572807
 48
5290.957610138349
 49
-1180.058350911508
140
5701.957610138348
141
-892.9458025305684
142
1.0
143
1.436143118755716
 70
 11956
 72
     1
 73
     1
 74
     4
  7
ksm0910.ctb
 75
     0
147
0.6963094324933345
 76
     0
 77
     2
 78
   300
148
-5290.957610138349
149
1180.058350911508
100
AcDbLayout
  1
Model
 70
     1
 71
     0
 10
0.0
 20
0.0
 11
12.0
 21
9.0
 12
0.0
 22
0.0
 32
0.0
 14
0.0
 24
0.0
 34
0.0
 15
0.0
 25
0.0
 35
0.0
146
0.0
 13
0.0
 23
0.0
 33
0.0
 16
1.0
 26
0.0
 36
0.0
 17
0.0
 27
1.0
 37
0.0
 76
     0
330
2
331
2D
1001
ACAD_PSEXT
1000
Samsung M267x 287x Series
1000
Samsung M267x 287x Series
1000
USB001
1000

1070
     0
  0
LAYOUT
  5
1E
102
{ACAD_XDICTIONARY
360
1F
102
}
102
{ACAD_REACTORS
330
17
102
}
330
17
100
AcDbPlotSettings
  1

  2
none_device
  4
ISO_A4_(210.00_x_297.00_MM)
  6

 40
7.5
 41
20.0
 42
7.5
 43
20.0
 44
210.0
 45
297.0
 46
0.0
 47
0.0
 48
0.0
 49
0.0
140
0.0
141
0.0
142
1.0
143
1.0
 70
   688
 72
     1
 73
     1
 74
     5
  7
ksm0910.ctb
 75
    16
147
1.0
 76
     0
 77
     2
 78
   300
148
0.0
149
0.0
100
AcDbLayout
  1
배치1
 70
     1
 71
     1
 10
-20.0
 20
-7.5
 11
277.0
 21
202.5
 12
0.0
 22
0.0
 32
0.0
 14
1.000000000000000E+20
 24
1.000000000000000E+20
 34
1.000000000000000E+20
 15
-1.000000000000000E+20
 25
-1.000000000000000E+20
 35
-1.000000000000000E+20
146
0.0
 13
0.0
 23
0.0
 33
0.0
 16
1.0
 26
0.0
 36
0.0
 17
0.0
 27
1.0
 37
0.0
 76
     0
330
1B
1001
ACAD_PSEXT
1000
없음
1000
없음
1000
해당 없음
1000
배치가 새로운 플로터 구성을 선택할 때까지 플롯되지 않습니다.
1070
     0
  0
MATERIAL
  5
3E
102
{ACAD_REACTORS
330
D
102
}
330
D
100
AcDbMaterial
  1
ByBlock
 94
       63
  0
MATERIAL
  5
3D
102
{ACAD_REACTORS
330
D
102
}
330
D
100
AcDbMaterial
  1
ByLayer
 94
       63
  0
MATERIAL
  5
C
102
{ACAD_XDICTIONARY
360
E
102
}
102
{ACAD_REACTORS
330
D
102
}
330
D
100
AcDbMaterial
  1
Global
 43
0.0007999999797903
 43
0.0
 43
0.0
 43
0.0
 43
0.0
 43
0.0007999999797903
 43
0.0
 43
0.0
 43
0.0
 43
0.0
 43
1.0
 43
0.0
 43
0.0
 43
0.0
 43
0.0
 43
1.0
 49
0.0007999999797903
 49
0.0
 49
0.0
 49
0.0
 49
0.0
 49
0.0007999999797903
 49
0.0
 49
0.0
 49
0.0
 49
0.0
 49
1.0
 49
0.0
 49
0.0
 49
0.0
 49
0.0
 49
1.0
142
0.0007999999797903
142
0.0
142
0.0
142
0.0
142
0.0
142
0.0007999999797903
142
0.0
142
0.0
142
0.0
142
0.0
142
1.0
142
0.0
142
0.0
142
0.0
142
0.0
142
1.0
144
0.0007999999797903
144
0.0
144
0.0
144
0.0
144
0.0
144
0.0007999999797903
144
0.0
144
0.0
144
0.0
144
0.0
144
1.0
144
0.0
144
0.0
144
0.0
144
0.0
144
1.0
 94
       63
1001
ACAD
1070
    -1
1070
     3
1070
     0
1000

1071
        0
1070
     0
  0
MLEADERSTYLE
  5
BD9
102
{ACAD_REACTORS
330
42
330
26E07
102
}
330
42
100
AcDbMLeaderStyle
179
     2
170
     2
171
     1
172
     0
 90
        2
 40
0.0
 41
0.0
173
     1
 91
-1056964608
340
28
 92
       -2
290
     1
 42
2.0
291
     1
 43
0.36
  3
Standard
 44
4.0
300

342
25
174
     1
178
     6
175
     1
176
     0
 93
-1056964608
 45
4.0
292
     0
297
     0
 46
4.0
 94
-1056964608
 47
1.0
 49
1.0
140
1.0
293
     1
141
0.0
294
     1
177
     0
142
1.0
295
     0
296
     0
143
0.125
271
     0
272
     9
273
     9
298
     1
  0
MLINESTYLE
  5
43
102
{ACAD_REACTORS
330
3B
102
}
330
3B
100
AcDbMlineStyle
  2
STANDARD
 70
     0
  3

 62
   256
 51
90.0
 52
90.0
 71
     2
 49
0.5
 62
   256
  6
BYLAYER
 49
-0.5
 62
   256
  6
BYLAYER
  0
ACDBPLACEHOLDER
  5
9
102
{ACAD_REACTORS
330
A
102
}
330
A
  0
SCALE
  5
48
102
{ACAD_REACTORS
330
40
102
}
330
40
100
AcDbScale
 70
     0
300
1:1
140
1.0
141
1.0
290
     1
  0
SCALE
  5
49
102
{ACAD_REACTORS
330
40
102
}
330
40
100
AcDbScale
 70
     0
300
1:2
140
1.0
141
2.0
290
     0
  0
SCALE
  5
4A
102
{ACAD_REACTORS
330
40
102
}
330
40
100
AcDbScale
 70
     0
300
1:4
140
1.0
141
4.0
290
     0
  0
SCALE
  5
4B
102
{ACAD_REACTORS
330
40
102
}
330
40
100
AcDbScale
 70
     0
300
1:5
140
1.0
141
5.0
290
     0
  0
SCALE
  5
4C
102
{ACAD_REACTORS
330
40
102
}
330
40
100
AcDbScale
 70
     0
300
1:8
140
1.0
141
8.0
290
     0
  0
SCALE
  5
4D
102
{ACAD_REACTORS
330
40
102
}
330
40
100
AcDbScale
 70
     0
300
1:10
140
1.0
141
10.0
290
     0
  0
SCALE
  5
4E
102
{ACAD_REACTORS
330
40
102
}
330
40
100
AcDbScale
 70
     0
300
1:16
140
1.0
141
16.0
290
     0
  0
SCALE
  5
4F
102
{ACAD_REACTORS
330
40
102
}
330
40
100
AcDbScale
 70
     0
300
1:20
140
1.0
141
20.0
290
     0
  0
SCALE
  5
50
102
{ACAD_REACTORS
330
40
102
}
330
40
100
AcDbScale
 70
     0
300
1:30
140
1.0
141
30.0
290
     0
  0
SCALE
  5
51
102
{ACAD_REACTORS
330
40
102
}
330
40
100
AcDbScale
 70
     0
300
1:40
140
1.0
141
40.0
290
     0
  0
SCALE
  5
52
102
{ACAD_REACTORS
330
40
102
}
330
40
100
AcDbScale
 70
     0
300
1:50
140
1.0
141
50.0
290
     0
  0
SCALE
  5
53
102
{ACAD_REACTORS
330
40
102
}
330
40
100
AcDbScale
 70
     0
300
1:100
140
1.0
141
100.0
290
     0
  0
SCALE
  5
54
102
{ACAD_REACTORS
330
40
102
}
330
40
100
AcDbScale
 70
     0
300
2:1
140
2.0
141
1.0
290
     0
  0
SCALE
  5
55
102
{ACAD_REACTORS
330
40
102
}
330
40
100
AcDbScale
 70
     0
300
4:1
140
4.0
141
1.0
290
     0
  0
SCALE
  5
56
102
{ACAD_REACTORS
330
40
102
}
330
40
100
AcDbScale
 70
     0
300
8:1
140
8.0
141
1.0
290
     0
  0
SCALE
  5
57
102
{ACAD_REACTORS
330
40
102
}
330
40
100
AcDbScale
 70
     0
300
10:1
140
10.0
141
1.0
290
     0
  0
SCALE
  5
58
102
{ACAD_REACTORS
330
40
102
}
330
40
100
AcDbScale
 70
     0
300
100:1
140
100.0
141
1.0
290
     0
  0
ACDBSECTIONVIEWSTYLE
  5
BDB
102
{ACAD_XDICTIONARY
360
27066
102
}
102
{ACAD_REACTORS
330
BDA
102
}
330
BDA
100
AcDbModelDocViewStyle
 70
     0
  3
Metric50
290
     0
100
AcDbSectionViewStyle
 70
     0
 71
     0
 90
      102
 71
     1
340
25
 62
   256
 40
5.0
340
0
340
0
 62
   256
 40
5.0
300
I, O, Q, S, X, Z
 40
10.0
 90
        0
 40
2.5
 90
        0
 71
     2
340
14
 90
       25
 62
   256
340
14
 90
       50
 62
   256
 40
5.0
 40
2.5
 40
5.0
 71
     3
340
25
 62
   256
 40
5.0
 90
        0
 40
15.0
 90
        1
300
%<\AcVar ViewSectionStartId>%-%<\AcVar ViewSectionEndId>% (%<\AcVar ViewScale \f "%sn">%)
 71
     4
 62
   256
 62
   257
300
ANSI31
 40
1.0
 90
        0
290
     0
290
     0
 90
        6
 40
0.0
 40
1.570796326794896
 40
0.2617993877991494
 40
1.308996938995747
 40
-0.2617993877991494
 40
1.832595714594046
  0
TABLESTYLE
  5
44
102
{ACAD_XDICTIONARY
360
45
102
}
102
{ACAD_REACTORS
330
41
102
}
330
41
100
AcDbTableStyle
280
     0
  3
Standard
 70
     0
 71
     0
 40
1.5
 41
1.5
280
     0
281
     0
  7
Standard
140
4.5
170
     2
 62
     0
 63
     7
283
     0
 90
      512
 91
        0
  1

274
    -2
284
     1
 64
     0
275
    -2
285
     1
 65
     0
276
    -2
286
     1
 66
     0
277
    -2
287
     1
 67
     0
278
    -2
288
     1
 68
     0
279
    -2
289
     1
 69
     0
  7
Standard
140
6.0
170
     5
 62
     0
 63
     7
283
     0
 90
      512
 91
        0
  1

274
    -2
284
     1
 64
     0
275
    -2
285
     1
 65
     0
276
    -2
286
     1
 66
     0
277
    -2
287
     1
 67
     0
278
    -2
288
     1
 68
     0
279
    -2
289
     1
 69
     0
  7
Standard
140
4.5
170
     5
 62
     0
 63
     7
283
     0
 90
      512
 91
        0
  1

274
    -2
284
     1
 64
     0
275
    -2
285
     1
 65
     0
276
    -2
286
     1
 66
     0
277
    -2
287
     1
 67
     0
278
    -2
288
     1
 68
     0
279
    -2
289
     1
 69
     0
  0
VISUALSTYLE
  5
2E
102
{ACAD_REACTORS
330
2F
102
}
330
2F
100
AcDbVisualStyle
  2
2dWireframe
 70
     4
177
     3
291
     0
 70
    58
 90
        0
176
     1
 90
        2
176
     1
 90
        1
176
     1
 90
        0
176
     1
 40
0.6
176
     1
 40
30.0
176
     1
 62
     7
176
     1
 90
        1
176
     1
 90
        4
176
     1
 62
     7
176
     1
 62
   257
176
     1
 90
        1
176
     1
 90
        1
176
     1
 40
1.0
176
     1
 90
        0
176
     1
 62
   257
176
     1
 40
1.0
176
     1
 90
        1
176
     1
 90
        6
176
     1
 90
        2
176
     1
 62
     7
176
     1
 90
        5
176
     1
 90
        0
176
     1
 90
        0
176
     1
290
     0
176
     1
 90
        1
176
     1
 40
0.0
176
     1
 90
        0
176
     1
290
     1
176
     1
290
     1
176
     1
290
     0
176
     1
290
     0
176
     1
290
     0
176
     1
290
     0
176
     1
290
     0
176
     1
290
     0
176
     1
290
     0
176
     1
 90
       50
176
     1
 40
0.0
176
     1
 40
1.0
176
     1
 90
        0
176
     1
 62
    18
420
        0
176
     1
 90
       50
176
     1
 90
        3
176
     1
 62
     5
420
      255
176
     1
290
     0
176
     1
 90
       50
176
     1
 90
       50
176
     1
 90
       50
176
     1
290
     0
176
     1
 90
       50
176
     1
 62
   256
176
     0
 40
1.0
176
     0
 90
        2
176
     1
  1
strokes_ogs.tif
176
     1
290
     0
176
     1
 40
1.0
176
     1
 40
1.0
176
     1
  0
VISUALSTYLE
  5
1A64
102
{ACAD_REACTORS
330
2F
102
}
330
2F
100
AcDbVisualStyle
  2
3D Hidden
 70
     6
177
     3
291
     0
 70
    58
 90
        1
176
     1
 90
        2
176
     1
 90
        2
176
     1
 90
        0
176
     1
 40
0.6
176
     1
 40
30.0
176
     1
 62
     7
176
     1
 90
        2
176
     1
 90
        2
176
     1
 62
     7
176
     1
 62
   257
176
     1
 90
        2
176
     1
 90
        1
176
     1
 40
40.0
176
     1
 90
        0
176
     1
 62
   257
176
     1
 40
1.0
176
     1
 90
        1
176
     1
 90
        6
176
     1
 90
        2
176
     1
 62
     7
176
     1
 90
        3
176
     1
 90
        0
176
     1
 90
        0
176
     1
290
     0
176
     1
 90
        1
176
     1
 40
0.0
176
     1
 90
        0
176
     1
290
     0
176
     1
290
     1
176
     1
290
     1
176
     1
290
     0
176
     1
290
     0
176
     1
290
     0
176
     1
290
     0
176
     1
290
     0
176
     1
290
     0
176
     1
 90
       50
176
     1
 40
0.0
176
     1
 40
1.0
176
     1
 90
        0
176
     1
 62
    18
420
        0
176
     1
 90
       50
176
     1
 90
        3
176
     1
 62
     5
420
      255
176
     1
290
     0
176
     1
 90
       50
176
     1
 90
       50
176
     1
 90
       50
176
     1
290
     0
176
     1
 90
       50
176
     1
 62
   256
176
     0
 40
1.0
176
     0
 90
        2
176
     1
  1
strokes_ogs.tif
176
     1
290
     0
176
     1
 40
1.0
176
     1
 40
1.0
176
     1
  0
VISUALSTYLE
  5
47
102
{ACAD_REACTORS
330
2F
102
}
330
2F
100
AcDbVisualStyle
  2
3dWireframe
 70
     5
177
     3
291
     0
 70
    58
 90
        0
176
     1
 90
        2
176
     1
 90
        1
176
     1
 90
        0
176
     1
 40
0.6
176
     1
 40
30.0
176
     1
 62
     7
176
     1
 90
        1
176
     1
 90
        4
176
     1
 62
     7
176
     1
 62
   257
176
     1
 90
        1
176
     1
 90
        1
176
     1
 40
1.0
176
     1
 90
        0
176
     1
 62
   257
176
     1
 40
1.0
176
     1
 90
        1
176
     1
 90
        6
176
     1
 90
        2
176
     1
 62
     7
176
     1
 90
        5
176
     1
 90
        0
176
     1
 90
        0
176
     1
290
     0
176
     1
 90
        1
176
     1
 40
0.0
176
     1
 90
        0
176
     1
290
     0
176
     1
290
     1
176
     1
290
     1
176
     1
290
     0
176
     1
290
     0
176
     1
290
     0
176
     1
290
     0
176
     1
290
     0
176
     1
290
     0
176
     1
 90
       50
176
     1
 40
0.0
176
     1
 40
1.0
176
     1
 90
        0
176
     1
 62
    18
420
        0
176
     1
 90
       50
176
     1
 90
        3
176
     1
 62
     5
420
      255
176
     1
290
     0
176
     1
 90
       50
176
     1
 90
       50
176
     1
 90
       50
176
     1
290
     0
176
     1
 90
       50
176
     1
 62
   256
176
     0
 40
1.0
176
     0
 90
        2
176
     1
  1
strokes_ogs.tif
176
     1
290
     0
176
     1
 40
1.0
176
     1
 40
1.0
176
     1
  0
VISUALSTYLE
  5
BC7
102
{ACAD_REACTORS
330
2F
102
}
330
2F
100
AcDbVisualStyle
  2
Basic
 70
     7
177
     3
291
     1
 70
    58
 90
        1
176
     1
 90
        0
176
     1
 90
        1
176
     1
 90
        0
176
     1
 40
0.6
176
     1
 40
30.0
176
     1
 62
     7
176
     1
 90
        0
176
     1
 90
        4
176
     1
 62
     7
176
     1
 62
   257
176
     1
 90
        1
176
     1
 90
        1
176
     1
 40
1.0
176
     1
 90
        8
176
     1
 62
     7
176
     1
 40
1.0
176
     1
 90
        1
176
     1
 90
        6
176
     1
 90
        2
176
     1
 62
     7
176
     1
 90
        5
176
     1
 90
        0
176
     1
 90
        0
176
     1
290
     0
176
     1
 90
        1
176
     1
 40
0.0
176
     1
 90
        0
176
     1
290
     0
176
     1
290
     1
176
     1
290
     1
176
     1
290
     0
176
     1
290
     0
176
     1
290
     0
176
     1
290
     0
176
     1
290
     0
176
     1
290
     0
176
     1
 90
       50
176
     1
 40
0.0
176
     1
 40
1.0
176
     1
 90
        0
176
     1
 62
    18
420
        0
176
     1
 90
       50
176
     1
 90
        3
176
     1
 62
     5
420
      255
176
     1
290
     0
176
     1
 90
       50
176
     1
 90
       50
176
     1
 90
       50
176
     1
290
     0
176
     1
 90
       50
176
     1
 62
   256
176
     0
 40
1.0
176
     0
 90
        2
176
     1
  1
strokes_ogs.tif
176
     1
290
     0
176
     1
 40
1.0
176
     1
 40
1.0
176
     1
  0
VISUALSTYLE
  5
BCC
102
{ACAD_REACTORS
330
2F
102
}
330
2F
100
AcDbVisualStyle
  2
Brighten
 70
    12
177
     3
291
     1
 70
    58
 90
        2
176
     1
 90
        2
176
     1
 90
        0
176
     1
 90
        0
176
     1
 40
0.6
176
     1
 40
30.0
176
     1
 62
     7
176
     1
 90
        1
176
     1
 90
        4
176
     1
 62
     7
176
     1
 62
   257
176
     1
 90
        1
176
     1
 90
        1
176
     1
 40
1.0
176
     1
 90
        8
176
     1
 62
     7
176
     1
 40
1.0
176
     1
 90
        1
176
     1
 90
        6
176
     1
 90
        2
176
     1
 62
     7
176
     1
 90
        5
176
     1
 90
        0
176
     1
 90
        0
176
     1
290
     0
176
     1
 90
        1
176
     1
 40
50.0
176
     1
 90
        0
176
     1
290
     0
176
     1
290
     1
176
     1
290
     1
176
     1
290
     0
176
     1
290
     0
176
     1
290
     0
176
     1
290
     0
176
     1
290
     0
176
     1
290
     0
176
     1
 90
       50
176
     1
 40
0.0
176
     1
 40
1.0
176
     1
 90
        0
176
     1
 62
    18
420
        0
176
     1
 90
       50
176
     1
 90
        3
176
     1
 62
     5
420
      255
176
     1
290
     0
176
     1
 90
       50
176
     1
 90
       50
176
     1
 90
       50
176
     1
290
     0
176
     1
 90
       50
176
     1
 62
   256
176
     0
 40
1.0
176
     0
 90
        2
176
     1
  1
strokes_ogs.tif
176
     1
290
     0
176
     1
 40
1.0
176
     1
 40
1.0
176
     1
  0
VISUALSTYLE
  5
BD0
102
{ACAD_REACTORS
330
2F
102
}
330
2F
100
AcDbVisualStyle
  2
ColorChange
 70
    16
177
     3
291
     1
 70
    58
 90
        2
176
     1
 90
        2
176
     1
 90
        3
176
     1
 90
        0
176
     1
 40
0.6
176
     1
 40
30.0
176
     1
 62
     8
176
     1
 90
        1
176
     1
 90
        4
176
     1
 62
     7
176
     1
 62
   257
176
     1
 90
        1
176
     1
 90
        1
176
     1
 40
1.0
176
     1
 90
        8
176
     1
 62
     8
176
     1
 40
1.0
176
     1
 90
        1
176
     1
 90
        6
176
     1
 90
        2
176
     1
 62
     7
176
     1
 90
        5
176
     1
 90
        0
176
     1
 90
        0
176
     1
290
     0
176
     1
 90
        1
176
     1
 40
0.0
176
     1
 90
        0
176
     1
290
     0
176
     1
290
     1
176
     1
290
     1
176
     1
290
     0
176
     1
290
     0
176
     1
290
     0
176
     1
290
     0
176
     1
290
     0
176
     1
290
     0
176
     1
 90
       50
176
     1
 40
0.0
176
     1
 40
1.0
176
     1
 90
        0
176
     1
 62
    18
420
        0
176
     1
 90
       50
176
     1
 90
        3
176
     1
 62
     5
420
      255
176
     1
290
     0
176
     1
 90
       50
176
     1
 90
       50
176
     1
 90
       50
176
     1
290
     0
176
     1
 90
       50
176
     1
 62
   256
176
     0
 40
1.0
176
     0
 90
        2
176
     1
  1
strokes_ogs.tif
176
     1
290
     0
176
     1
 40
1.0
176
     1
 40
1.0
176
     1
  0
VISUALSTYLE
  5
BCA
102
{ACAD_REACTORS
330
2F
102
}
330
2F
100
AcDbVisualStyle
  2
Conceptual
 70
     9
177
     3
291
     0
 70
    58
 90
        3
176
     1
 90
        2
176
     1
 90
        0
176
     1
 90
        0
176
     1
 40
0.6
176
     1
 40
30.0
176
     1
 62
     7
176
     1
 90
        2
176
     1
 90
        2
176
     1
 62
     7
176
     1
 62
   257
176
     1
 90
        1
176
     1
 90
        1
176
     1
 40
179.0
176
     1
 90
        8
176
     1
 62
     7
176
     1
 40
1.0
176
     1
 90
        1
176
     1
 90
        6
176
     1
 90
        2
176
     1
 62
     7
176
     1
 90
        3
176
     1
 90
        0
176
     1
 90
        0
176
     1
290
     0
176
     1
 90
        1
176
     1
 40
0.0
176
     1
 90
        0
176
     1
290
     0
176
     1
290
     1
176
     1
290
     1
176
     1
290
     0
176
     1
290
     0
176
     1
290
     0
176
     1
290
     0
176
     1
290
     0
176
     1
290
     0
176
     1
 90
       50
176
     1
 40
0.0
176
     1
 40
1.0
176
     1
 90
        0
176
     1
 62
    18
420
        0
176
     1
 90
       50
176
     1
 90
        3
176
     1
 62
     5
420
      255
176
     1
290
     0
176
     1
 90
       50
176
     1
 90
       50
176
     1
 90
       50
176
     1
290
     0
176
     1
 90
       50
176
     1
 62
   256
176
     0
 40
1.0
176
     0
 90
        2
176
     1
  1
strokes_ogs.tif
176
     1
290
     0
176
     1
 40
1.0
176
     1
 40
1.0
176
     1
  0
VISUALSTYLE
  5
BCB
102
{ACAD_REACTORS
330
2F
102
}
330
2F
100
AcDbVisualStyle
  2
Dim
 70
    11
177
     3
291
     1
 70
    58
 90
        2
176
     1
 90
        2
176
     1
 90
        0
176
     1
 90
        0
176
     1
 40
0.6
176
     1
 40
30.0
176
     1
 62
     7
176
     1
 90
        1
176
     1
 90
        4
176
     1
 62
     7
176
     1
 62
   257
176
     1
 90
        1
176
     1
 90
        1
176
     1
 40
1.0
176
     1
 90
        8
176
     1
 62
     7
176
     1
 40
1.0
176
     1
 90
        1
176
     1
 90
        6
176
     1
 90
        2
176
     1
 62
     7
176
     1
 90
        5
176
     1
 90
        0
176
     1
 90
        0
176
     1
290
     0
176
     1
 90
        1
176
     1
 40
-50.0
176
     1
 90
        0
176
     1
290
     0
176
     1
290
     1
176
     1
290
     1
176
     1
290
     0
176
     1
290
     0
176
     1
290
     0
176
     1
290
     0
176
     1
290
     0
176
     1
290
     0
176
     1
 90
       50
176
     1
 40
0.0
176
     1
 40
1.0
176
     1
 90
        0
176
     1
 62
    18
420
        0
176
     1
 90
       50
176
     1
 90
        3
176
     1
 62
     5
420
      255
176
     1
290
     0
176
     1
 90
       50
176
     1
 90
       50
176
     1
 90
       50
176
     1
290
     0
176
     1
 90
       50
176
     1
 62
   256
176
     0
 40
1.0
176
     0
 90
        2
176
     1
  1
strokes_ogs.tif
176
     1
290
     0
176
     1
 40
1.0
176
     1
 40
1.0
176
     1
  0
VISUALSTYLE
  5
BD8
102
{ACAD_REACTORS
330
2F
102
}
330
2F
100
AcDbVisualStyle
  2
EdgeColorOff
 70
    22
177
     3
291
     1
 70
    58
 90
        2
176
     0
 90
        2
176
     0
 90
        0
176
     0
 90
        0
176
     0
 40
0.6
176
     0
 40
30.0
176
     0
 62
     7
176
     0
 90
        1
176
     0
 90
        4
176
     0
 62
     7
176
     0
 62
   257
176
     0
 90
        1
176
     0
 90
        1
176
     0
 40
1.0
176
     0
 90
        8
176
     2
 62
     7
176
     0
 40
1.0
176
     0
 90
        1
176
     0
 90
        6
176
     0
 90
        2
176
     0
 62
     7
176
     0
 90
        5
176
     0
 90
        0
176
     0
 90
        0
176
     0
290
     0
176
     0
 90
        1
176
     0
 40
0.0
176
     0
 90
        0
176
     0
290
     0
176
     0
290
     1
176
     0
290
     1
176
     0
290
     0
176
     0
290
     0
176
     0
290
     0
176
     0
290
     0
176
     0
290
     0
176
     0
290
     0
176
     0
 90
       50
176
     0
 40
0.0
176
     0
 40
1.0
176
     0
 90
        0
176
     0
 62
    18
420
        0
176
     0
 90
       50
176
     0
 90
        3
176
     0
 62
     5
420
      255
176
     0
290
     0
176
     0
 90
       50
176
     0
 90
       50
176
     0
 90
       50
176
     0
290
     0
176
     0
 90
       50
176
     0
 62
   256
176
     0
 40
1.0
176
     0
 90
        2
176
     0
  1
strokes_ogs.tif
176
     0
290
     0
176
     0
 40
1.0
176
     0
 40
1.0
176
     0
  0
VISUALSTYLE
  5
BCF
102
{ACAD_REACTORS
330
2F
102
}
330
2F
100
AcDbVisualStyle
  2
Facepattern
 70
    15
177
     3
291
     1
 70
    58
 90
        2
176
     1
 90
        2
176
     1
 90
        0
176
     1
 90
        0
176
     1
 40
0.6
176
     1
 40
30.0
176
     1
 62
     7
176
     1
 90
        1
176
     1
 90
        4
176
     1
 62
     7
176
     1
 62
   257
176
     1
 90
        1
176
     1
 90
        1
176
     1
 40
1.0
176
     1
 90
        8
176
     1
 62
     7
176
     1
 40
1.0
176
     1
 90
        1
176
     1
 90
        6
176
     1
 90
        2
176
     1
 62
     7
176
     1
 90
        5
176
     1
 90
        0
176
     1
 90
        0
176
     1
290
     0
176
     1
 90
        1
176
     1
 40
0.0
176
     1
 90
        0
176
     1
290
     0
176
     1
290
     1
176
     1
290
     1
176
     1
290
     0
176
     1
290
     0
176
     1
290
     0
176
     1
290
     0
176
     1
290
     0
176
     1
290
     0
176
     1
 90
       50
176
     1
 40
0.0
176
     1
 40
1.0
176
     1
 90
        0
176
     1
 62
    18
420
        0
176
     1
 90
       50
176
     1
 90
        3
176
     1
 62
     5
420
      255
176
     1
290
     0
176
     1
 90
       50
176
     1
 90
       50
176
     1
 90
       50
176
     1
290
     0
176
     1
 90
       50
176
     1
 62
   256
176
     0
 40
1.0
176
     0
 90
        2
176
     1
  1
strokes_ogs.tif
176
     1
290
     0
176
     1
 40
1.0
176
     1
 40
1.0
176
     1
  0
VISUALSTYLE
  5
BC3
102
{ACAD_REACTORS
330
2F
102
}
330
2F
100
AcDbVisualStyle
  2
Flat
 70
     0
177
     3
291
     1
 70
    58
 90
        2
176
     1
 90
        1
176
     1
 90
        1
176
     1
 90
        2
176
     1
 40
0.6
176
     1
 40
30.0
176
     1
 62
     7
176
     1
 90
        0
176
     1
 90
        0
176
     1
 62
     7
176
     1
 62
   257
176
     1
 90
        1
176
     1
 90
        1
176
     1
 40
1.0
176
     1
 90
        8
176
     1
 62
     7
176
     1
 40
1.0
176
     1
 90
        1
176
     1
 90
        6
176
     1
 90
        2
176
     1
 62
     7
176
     1
 90
        5
176
     1
 90
        0
176
     1
 90
        0
176
     1
290
     0
176
     1
 90
       13
176
     1
 40
0.0
176
     1
 90
        0
176
     1
290
     0
176
     1
290
     1
176
     1
290
     1
176
     1
290
     0
176
     1
290
     0
176
     1
290
     0
176
     1
290
     0
176
     1
290
     0
176
     1
290
     0
176
     1
 90
       50
176
     1
 40
0.0
176
     1
 40
1.0
176
     1
 90
        0
176
     1
 62
    18
420
        0
176
     1
 90
       50
176
     1
 90
        3
176
     1
 62
     5
420
      255
176
     1
290
     0
176
     1
 90
       50
176
     1
 90
       50
176
     1
 90
       50
176
     1
290
     0
176
     1
 90
       50
176
     1
 62
   256
176
     0
 40
1.0
176
     0
 90
        2
176
     1
  1
strokes_ogs.tif
176
     1
290
     0
176
     1
 40
1.0
176
     1
 40
1.0
176
     1
  0
VISUALSTYLE
  5
BC4
102
{ACAD_REACTORS
330
2F
102
}
330
2F
100
AcDbVisualStyle
  2
FlatWithEdges
 70
     1
177
     3
291
     1
 70
    58
 90
        2
176
     1
 90
        1
176
     1
 90
        1
176
     1
 90
        2
176
     1
 40
0.6
176
     1
 40
30.0
176
     1
 62
     7
176
     1
 90
        1
176
     1
 90
        0
176
     1
 62
     7
176
     1
 62
   257
176
     1
 90
        1
176
     1
 90
        1
176
     1
 40
1.0
176
     1
 90
        0
176
     1
 62
   257
176
     1
 40
1.0
176
     1
 90
        1
176
     1
 90
        6
176
     1
 90
        2
176
     1
 62
     7
176
     1
 90
        5
176
     1
 90
        0
176
     1
 90
        0
176
     1
290
     0
176
     1
 90
       13
176
     1
 40
0.0
176
     1
 90
        0
176
     1
290
     0
176
     1
290
     1
176
     1
290
     1
176
     1
290
     0
176
     1
290
     0
176
     1
290
     0
176
     1
290
     0
176
     1
290
     0
176
     1
290
     0
176
     1
 90
       50
176
     1
 40
0.0
176
     1
 40
1.0
176
     1
 90
        0
176
     1
 62
    18
420
        0
176
     1
 90
       50
176
     1
 90
        3
176
     1
 62
     5
420
      255
176
     1
290
     0
176
     1
 90
       50
176
     1
 90
       50
176
     1
 90
       50
176
     1
290
     0
176
     1
 90
       50
176
     1
 62
   256
176
     0
 40
1.0
176
     0
 90
        2
176
     1
  1
strokes_ogs.tif
176
     1
290
     0
176
     1
 40
1.0
176
     1
 40
1.0
176
     1
  0
VISUALSTYLE
  5
BC5
102
{ACAD_REACTORS
330
2F
102
}
330
2F
100
AcDbVisualStyle
  2
Gouraud
 70
     2
177
     3
291
     1
 70
    58
 90
        2
176
     1
 90
        2
176
     1
 90
        1
176
     1
 90
        2
176
     1
 40
0.6
176
     1
 40
30.0
176
     1
 62
     7
176
     1
 90
        0
176
     1
 90
        0
176
     1
 62
     7
176
     1
 62
   257
176
     1
 90
        1
176
     1
 90
        1
176
     1
 40
1.0
176
     1
 90
        0
176
     1
 62
     7
176
     1
 40
1.0
176
     1
 90
        1
176
     1
 90
        6
176
     1
 90
        2
176
     1
 62
     7
176
     1
 90
        5
176
     1
 90
        0
176
     1
 90
        0
176
     1
290
     0
176
     1
 90
       13
176
     1
 40
0.0
176
     1
 90
        0
176
     1
290
     0
176
     1
290
     1
176
     1
290
     1
176
     1
290
     0
176
     1
290
     0
176
     1
290
     0
176
     1
290
     0
176
     1
290
     0
176
     1
290
     0
176
     1
 90
       50
176
     1
 40
0.0
176
     1
 40
1.0
176
     1
 90
        0
176
     1
 62
    18
420
        0
176
     1
 90
       50
176
     1
 90
        3
176
     1
 62
     5
420
      255
176
     1
290
     0
176
     1
 90
       50
176
     1
 90
       50
176
     1
 90
       50
176
     1
290
     0
176
     1
 90
       50
176
     1
 62
   256
176
     0
 40
1.0
176
     0
 90
        2
176
     1
  1
strokes_ogs.tif
176
     1
290
     0
176
     1
 40
1.0
176
     1
 40
1.0
176
     1
  0
VISUALSTYLE
  5
BC6
102
{ACAD_REACTORS
330
2F
102
}
330
2F
100
AcDbVisualStyle
  2
GouraudWithEdges
 70
     3
177
     3
291
     1
 70
    58
 90
        2
176
     1
 90
        2
176
     1
 90
        1
176
     1
 90
        2
176
     1
 40
0.6
176
     1
 40
30.0
176
     1
 62
     7
176
     1
 90
        1
176
     1
 90
        0
176
     1
 62
     7
176
     1
 62
   257
176
     1
 90
        1
176
     1
 90
        1
176
     1
 40
1.0
176
     1
 90
        0
176
     1
 62
   257
176
     1
 40
1.0
176
     1
 90
        1
176
     1
 90
        6
176
     1
 90
        2
176
     1
 62
     7
176
     1
 90
        5
176
     1
 90
        0
176
     1
 90
        0
176
     1
290
     0
176
     1
 90
       13
176
     1
 40
0.0
176
     1
 90
        0
176
     1
290
     0
176
     1
290
     1
176
     1
290
     1
176
     1
290
     0
176
     1
290
     0
176
     1
290
     0
176
     1
290
     0
176
     1
290
     0
176
     1
290
     0
176
     1
 90
       50
176
     1
 40
0.0
176
     1
 40
1.0
176
     1
 90
        0
176
     1
 62
    18
420
        0
176
     1
 90
       50
176
     1
 90
        3
176
     1
 62
     5
420
      255
176
     1
290
     0
176
     1
 90
       50
176
     1
 90
       50
176
     1
 90
       50
176
     1
290
     0
176
     1
 90
       50
176
     1
 62
   256
176
     0
 40
1.0
176
     0
 90
        2
176
     1
  1
strokes_ogs.tif
176
     1
290
     0
176
     1
 40
1.0
176
     1
 40
1.0
176
     1
  0
VISUALSTYLE
  5
BC9
102
{ACAD_REACTORS
330
2F
102
}
330
2F
100
AcDbVisualStyle
  2
Hidden
 70
     6
177
     3
291
     0
 70
    58
 90
        1
176
     1
 90
        2
176
     1
 90
        2
176
     1
 90
        0
176
     1
 40
0.6
176
     1
 40
30.0
176
     1
 62
     7
176
     1
 90
        2
176
     1
 90
        2
176
     1
 62
     7
176
     1
 62
   257
176
     1
 90
        2
176
     1
 90
        1
176
     1
 40
40.0
176
     1
 90
        0
176
     1
 62
   257
176
     1
 40
1.0
176
     1
 90
        1
176
     1
 90
        6
176
     1
 90
        2
176
     1
 62
     7
176
     1
 90
        3
176
     1
 90
        0
176
     1
 90
        0
176
     1
290
     0
176
     1
 90
        1
176
     1
 40
0.0
176
     1
 90
        0
176
     1
290
     0
176
     1
290
     1
176
     1
290
     1
176
     1
290
     0
176
     1
290
     0
176
     1
290
     0
176
     1
290
     0
176
     1
290
     0
176
     1
290
     0
176
     1
 90
       50
176
     1
 40
0.0
176
     1
 40
1.0
176
     1
 90
        0
176
     1
 62
    18
420
        0
176
     1
 90
       50
176
     1
 90
        3
176
     1
 62
     5
420
      255
176
     1
290
     0
176
     1
 90
       50
176
     1
 90
       50
176
     1
 90
       50
176
     1
290
     0
176
     1
 90
       50
176
     1
 62
   256
176
     0
 40
1.0
176
     0
 90
        2
176
     1
  1
strokes_ogs.tif
176
     1
290
     0
176
     1
 40
1.0
176
     1
 40
1.0
176
     1
  0
VISUALSTYLE
  5
BD6
102
{ACAD_REACTORS
330
2F
102
}
330
2F
100
AcDbVisualStyle
  2
JitterOff
 70
    20
177
     3
291
     1
 70
    58
 90
        2
176
     0
 90
        2
176
     0
 90
        0
176
     0
 90
        0
176
     0
 40
0.6
176
     0
 40
30.0
176
     0
 62
     7
176
     0
 90
        1
176
     0
 90
        4
176
     0
 62
     7
176
     0
 62
   257
176
     0
 90
        1
176
     0
 90
        1
176
     0
 40
1.0
176
     0
 90
       10
176
     2
 62
     7
176
     0
 40
1.0
176
     0
 90
        1
176
     0
 90
        6
176
     0
 90
        2
176
     0
 62
     7
176
     0
 90
        5
176
     0
 90
        0
176
     0
 90
        0
176
     0
290
     0
176
     0
 90
        1
176
     0
 40
0.0
176
     0
 90
        0
176
     0
290
     0
176
     0
290
     1
176
     0
290
     1
176
     0
290
     0
176
     0
290
     0
176
     0
290
     0
176
     0
290
     0
176
     0
290
     0
176
     0
290
     0
176
     0
 90
       50
176
     0
 40
0.0
176
     0
 40
1.0
176
     0
 90
        0
176
     0
 62
    18
420
        0
176
     0
 90
       50
176
     0
 90
        3
176
     0
 62
     5
420
      255
176
     0
290
     0
176
     0
 90
       50
176
     0
 90
       50
176
     0
 90
       50
176
     0
290
     0
176
     0
 90
       50
176
     0
 62
   256
176
     0
 40
1.0
176
     0
 90
        2
176
     0
  1
strokes_ogs.tif
176
     0
290
     0
176
     0
 40
1.0
176
     0
 40
1.0
176
     0
  0
VISUALSTYLE
  5
BCE
102
{ACAD_REACTORS
330
2F
102
}
330
2F
100
AcDbVisualStyle
  2
Linepattern
 70
    14
177
     3
291
     1
 70
    58
 90
        2
176
     1
 90
        2
176
     1
 90
        0
176
     1
 90
        0
176
     1
 40
0.6
176
     1
 40
30.0
176
     1
 62
     7
176
     1
 90
        1
176
     1
 90
        4
176
     1
 62
     7
176
     1
 62
   257
176
     1
 90
        7
176
     1
 90
        7
176
     1
 40
1.0
176
     1
 90
        8
176
     1
 62
     7
176
     1
 40
1.0
176
     1
 90
        1
176
     1
 90
        6
176
     1
 90
        2
176
     1
 62
     7
176
     1
 90
        5
176
     1
 90
        0
176
     1
 90
        0
176
     1
290
     0
176
     1
 90
        1
176
     1
 40
0.0
176
     1
 90
        0
176
     1
290
     0
176
     1
290
     1
176
     1
290
     1
176
     1
290
     0
176
     1
290
     0
176
     1
290
     0
176
     1
290
     0
176
     1
290
     0
176
     1
290
     0
176
     1
 90
       50
176
     1
 40
0.0
176
     1
 40
1.0
176
     1
 90
        0
176
     1
 62
    18
420
        0
176
     1
 90
       50
176
     1
 90
        3
176
     1
 62
     5
420
      255
176
     1
290
     0
176
     1
 90
       50
176
     1
 90
       50
176
     1
 90
       50
176
     1
290
     0
176
     1
 90
       50
176
     1
 62
   256
176
     0
 40
1.0
176
     0
 90
        2
176
     1
  1
strokes_ogs.tif
176
     1
290
     0
176
     1
 40
1.0
176
     1
 40
1.0
176
     1
  0
VISUALSTYLE
  5
BD7
102
{ACAD_REACTORS
330
2F
102
}
330
2F
100
AcDbVisualStyle
  2
OverhangOff
 70
    21
177
     3
291
     1
 70
    58
 90
        2
176
     0
 90
        2
176
     0
 90
        0
176
     0
 90
        0
176
     0
 40
0.6
176
     0
 40
30.0
176
     0
 62
     7
176
     0
 90
        1
176
     0
 90
        4
176
     0
 62
     7
176
     0
 62
   257
176
     0
 90
        1
176
     0
 90
        1
176
     0
 40
1.0
176
     0
 90
        9
176
     2
 62
     7
176
     0
 40
1.0
176
     0
 90
        1
176
     0
 90
        6
176
     0
 90
        2
176
     0
 62
     7
176
     0
 90
        5
176
     0
 90
        0
176
     0
 90
        0
176
     0
290
     0
176
     0
 90
        1
176
     0
 40
0.0
176
     0
 90
        0
176
     0
290
     0
176
     0
290
     1
176
     0
290
     1
176
     0
290
     0
176
     0
290
     0
176
     0
290
     0
176
     0
290
     0
176
     0
290
     0
176
     0
290
     0
176
     0
 90
       50
176
     0
 40
0.0
176
     0
 40
1.0
176
     0
 90
        0
176
     0
 62
    18
420
        0
176
     0
 90
       50
176
     0
 90
        3
176
     0
 62
     5
420
      255
176
     0
290
     0
176
     0
 90
       50
176
     0
 90
       50
176
     0
 90
       50
176
     0
290
     0
176
     0
 90
       50
176
     0
 62
   256
176
     0
 40
1.0
176
     0
 90
        2
176
     0
  1
strokes_ogs.tif
176
     0
290
     0
176
     0
 40
1.0
176
     0
 40
1.0
176
     0
  0
VISUALSTYLE
  5
46
102
{ACAD_REACTORS
330
2F
102
}
330
2F
100
AcDbVisualStyle
  2
Realistic
 70
     8
177
     3
291
     0
 70
    58
 90
        2
176
     1
 90
        2
176
     1
 90
        1
176
     1
 90
        0
176
     1
 40
0.6
176
     1
 40
30.0
176
     1
 62
     7
176
     1
 90
        1
176
     1
 90
        0
176
     1
 62
     7
176
     1
 62
   257
176
     1
 90
        1
176
     1
 90
        1
176
     1
 40
1.0
176
     1
 90
        8
176
     1
 62
     8
176
     1
 40
1.0
176
     1
 90
        1
176
     1
 90
        6
176
     1
 90
        2
176
     1
 62
     7
176
     1
 90
        5
176
     1
 90
        0
176
     1
 90
        0
176
     1
290
     0
176
     1
 90
       13
176
     1
 40
0.0
176
     1
 90
        0
176
     1
290
     0
176
     1
290
     1
176
     1
290
     1
176
     1
290
     0
176
     1
290
     0
176
     1
290
     0
176
     1
290
     0
176
     1
290
     0
176
     1
290
     0
176
     1
 90
       50
176
     1
 40
0.0
176
     1
 40
1.0
176
     1
 90
        0
176
     1
 62
    18
420
        0
176
     1
 90
       50
176
     1
 90
        3
176
     1
 62
     5
420
      255
176
     1
290
     0
176
     1
 90
       50
176
     1
 90
       50
176
     1
 90
       50
176
     1
290
     0
176
     1
 90
       50
176
     1
 62
   256
176
     0
 40
1.0
176
     0
 90
        2
176
     1
  1
strokes_ogs.tif
176
     1
290
     0
176
     1
 40
1.0
176
     1
 40
1.0
176
     1
  0
VISUALSTYLE
  5
BD5
102
{ACAD_REACTORS
330
2F
102
}
330
2F
100
AcDbVisualStyle
  2
Shaded
 70
    27
177
     3
291
     0
 70
    58
 90
        2
176
     1
 90
        2
176
     1
 90
        1
176
     1
 90
        2
176
     1
 40
0.6
176
     1
 40
30.0
176
     1
 62
     7
176
     1
 90
        0
176
     1
 90
        4
176
     1
 62
     7
176
     1
 62
   257
176
     1
 90
        1
176
     1
 90
        1
176
     1
 40
1.0
176
     1
 90
        8
176
     1
 62
   257
176
     1
 40
1.0
176
     1
 90
        1
176
     1
 90
        6
176
     1
 90
        2
176
     1
 62
     8
176
     1
 90
        3
176
     1
 90
        0
176
     1
 90
        0
176
     1
290
     0
176
     1
 90
        5
176
     1
 40
0.0
176
     1
 90
        0
176
     1
290
     0
176
     1
290
     1
176
     1
290
     1
176
     1
290
     0
176
     1
290
     0
176
     1
290
     0
176
     1
290
     0
176
     1
290
     0
176
     1
290
     0
176
     1
 90
       50
176
     1
 40
0.0
176
     1
 40
1.0
176
     1
 90
        0
176
     1
 62
    18
420
        0
176
     1
 90
       50
176
     1
 90
        3
176
     1
 62
     5
420
      255
176
     1
290
     0
176
     1
 90
       50
176
     1
 90
       50
176
     1
 90
       50
176
     1
290
     0
176
     1
 90
       50
176
     1
 62
   256
176
     0
 40
1.0
176
     0
 90
        2
176
     1
  1
strokes_ogs.tif
176
     1
290
     0
176
     1
 40
1.0
176
     1
 40
1.0
176
     1
  0
VISUALSTYLE
  5
BD4
102
{ACAD_REACTORS
330
2F
102
}
330
2F
100
AcDbVisualStyle
  2
Shaded with edges
 70
    26
177
     3
291
     0
 70
    58
 90
        2
176
     1
 90
        2
176
     1
 90
        1
176
     1
 90
        2
176
     1
 40
0.6
176
     1
 40
30.0
176
     1
 62
     7
176
     1
 90
        1
176
     1
 90
       10
176
     1
 62
     7
176
     1
 62
   257
176
     1
 90
        2
176
     1
 90
        1
176
     1
 40
1.0
176
     1
 90
        8
176
     1
 62
   257
176
     1
 40
1.0
176
     1
 90
        1
176
     1
 90
        6
176
     1
 90
        2
176
     1
 62
     7
176
     1
 90
        3
176
     1
 90
        0
176
     1
 90
        0
176
     1
290
     0
176
     1
 90
        5
176
     1
 40
0.0
176
     1
 90
        0
176
     1
290
     0
176
     1
290
     1
176
     1
290
     1
176
     1
290
     0
176
     1
290
     0
176
     1
290
     0
176
     1
290
     0
176
     1
290
     0
176
     1
290
     0
176
     1
 90
       50
176
     1
 40
0.0
176
     1
 40
1.0
176
     1
 90
        0
176
     1
 62
    18
420
        0
176
     1
 90
       50
176
     1
 90
        3
176
     1
 62
     5
420
      255
176
     1
290
     0
176
     1
 90
       50
176
     1
 90
       50
176
     1
 90
       50
176
     1
290
     0
176
     1
 90
       50
176
     1
 62
   256
176
     0
 40
1.0
176
     0
 90
        2
176
     1
  1
strokes_ogs.tif
176
     1
290
     0
176
     1
 40
1.0
176
     1
 40
1.0
176
     1
  0
VISUALSTYLE
  5
BD1
102
{ACAD_REACTORS
330
2F
102
}
330
2F
100
AcDbVisualStyle
  2
Shades of Gray
 70
    23
177
     3
291
     0
 70
    58
 90
        2
176
     1
 90
        2
176
     1
 90
        3
176
     1
 90
        0
176
     1
 40
0.6
176
     1
 40
30.0
176
     1
 62
     7
176
     1
 90
        2
176
     1
 90
        2
176
     1
 62
     7
176
     1
 62
     7
176
     1
 90
        1
176
     1
 90
        1
176
     1
 40
40.0
176
     1
 90
        8
176
     1
 62
     7
176
     1
 40
1.0
176
     1
 90
        1
176
     1
 90
        6
176
     1
 90
        2
176
     1
 62
     7
176
     1
 90
        3
176
     1
 90
        0
176
     1
 90
        0
176
     1
290
     0
176
     1
 90
        1
176
     1
 40
0.0
176
     1
 90
        0
176
     1
290
     0
176
     1
290
     1
176
     1
290
     1
176
     1
290
     0
176
     1
290
     0
176
     1
290
     0
176
     1
290
     0
176
     1
290
     0
176
     1
290
     0
176
     1
 90
       50
176
     1
 40
0.0
176
     1
 40
1.0
176
     1
 90
        0
176
     1
 62
    18
420
        0
176
     1
 90
       50
176
     1
 90
        3
176
     1
 62
     5
420
      255
176
     1
290
     0
176
     1
 90
       50
176
     1
 90
       50
176
     1
 90
       50
176
     1
290
     0
176
     1
 90
       50
176
     1
 62
   256
176
     0
 40
1.0
176
     0
 90
        2
176
     1
  1
strokes_ogs.tif
176
     1
290
     0
176
     1
 40
1.0
176
     1
 40
1.0
176
     1
  0
VISUALSTYLE
  5
BD2
102
{ACAD_REACTORS
330
2F
102
}
330
2F
100
AcDbVisualStyle
  2
Sketchy
 70
    24
177
     3
291
     0
 70
    58
 90
        1
176
     1
 90
        2
176
     1
 90
        2
176
     1
 90
        0
176
     1
 40
0.6
176
     1
 40
30.0
176
     1
 62
     7
176
     1
 90
        2
176
     1
 90
        2
176
     1
 62
     7
176
     1
 62
     7
176
     1
 90
        1
176
     1
 90
        1
176
     1
 40
40.0
176
     1
 90
       11
176
     1
 62
     7
176
     1
 40
1.0
176
     1
 90
        1
176
     1
 90
        6
176
     1
 90
        2
176
     1
 62
     7
176
     1
 90
        6
176
     1
 90
        0
176
     1
 90
        0
176
     1
290
     0
176
     1
 90
        1
176
     1
 40
0.0
176
     1
 90
        0
176
     1
290
     0
176
     1
290
     1
176
     1
290
     1
176
     1
290
     0
176
     1
290
     0
176
     1
290
     0
176
     1
290
     0
176
     1
290
     0
176
     1
290
     0
176
     1
 90
       50
176
     1
 40
0.0
176
     1
 40
1.0
176
     1
 90
        0
176
     1
 62
    18
420
        0
176
     1
 90
       50
176
     1
 90
        3
176
     1
 62
     5
420
      255
176
     1
290
     0
176
     1
 90
       50
176
     1
 90
       50
176
     1
 90
       50
176
     1
290
     0
176
     1
 90
       50
176
     1
 62
   256
176
     0
 40
1.0
176
     0
 90
        2
176
     1
  1
strokes_ogs.tif
176
     1
290
     0
176
     1
 40
1.0
176
     1
 40
1.0
176
     1
  0
VISUALSTYLE
  5
BCD
102
{ACAD_REACTORS
330
2F
102
}
330
2F
100
AcDbVisualStyle
  2
Thicken
 70
    13
177
     3
291
     1
 70
    58
 90
        2
176
     1
 90
        2
176
     1
 90
        0
176
     1
 90
        0
176
     1
 40
0.6
176
     1
 40
30.0
176
     1
 62
     7
176
     1
 90
        1
176
     1
 90
        4
176
     1
 62
     7
176
     1
 62
   257
176
     1
 90
        1
176
     1
 90
        1
176
     1
 40
1.0
176
     1
 90
       12
176
     1
 62
     7
176
     1
 40
1.0
176
     1
 90
        1
176
     1
 90
        6
176
     1
 90
        2
176
     1
 62
     7
176
     1
 90
        5
176
     1
 90
        0
176
     1
 90
        0
176
     1
290
     0
176
     1
 90
        1
176
     1
 40
0.0
176
     1
 90
        0
176
     1
290
     0
176
     1
290
     1
176
     1
290
     1
176
     1
290
     0
176
     1
290
     0
176
     1
290
     0
176
     1
290
     0
176
     1
290
     0
176
     1
290
     0
176
     1
 90
       50
176
     1
 40
0.0
176
     1
 40
1.0
176
     1
 90
        0
176
     1
 62
    18
420
        0
176
     1
 90
       50
176
     1
 90
        3
176
     1
 62
     5
420
      255
176
     1
290
     0
176
     1
 90
       50
176
     1
 90
       50
176
     1
 90
       50
176
     1
290
     0
176
     1
 90
       50
176
     1
 62
   256
176
     0
 40
1.0
176
     0
 90
        2
176
     1
  1
strokes_ogs.tif
176
     1
290
     0
176
     1
 40
1.0
176
     1
 40
1.0
176
     1
  0
VISUALSTYLE
  5
BC8
102
{ACAD_REACTORS
330
2F
102
}
330
2F
100
AcDbVisualStyle
  2
Wireframe
 70
     5
177
     3
291
     0
 70
    58
 90
        0
176
     1
 90
        2
176
     1
 90
        0
176
     1
 90
        0
176
     1
 40
0.6
176
     1
 40
30.0
176
     1
 62
     7
176
     1
 90
        1
176
     1
 90
        4
176
     1
 62
     7
176
     1
 62
   257
176
     1
 90
        1
176
     1
 90
        1
176
     1
 40
1.0
176
     1
 90
        0
176
     1
 62
   257
176
     1
 40
1.0
176
     1
 90
        1
176
     1
 90
        6
176
     1
 90
        2
176
     1
 62
     7
176
     1
 90
        3
176
     1
 90
        0
176
     1
 90
        0
176
     1
290
     0
176
     1
 90
        1
176
     1
 40
0.0
176
     1
 90
        0
176
     1
290
     0
176
     1
290
     1
176
     1
290
     1
176
     1
290
     0
176
     1
290
     0
176
     1
290
     0
176
     1
290
     0
176
     1
290
     0
176
     1
290
     0
176
     1
 90
       50
176
     1
 40
0.0
176
     1
 40
1.0
176
     1
 90
        0
176
     1
 62
    18
420
        0
176
     1
 90
       50
176
     1
 90
        3
176
     1
 62
     5
420
      255
176
     1
290
     0
176
     1
 90
       50
176
     1
 90
       50
176
     1
 90
       50
176
     1
290
     0
176
     1
 90
       50
176
     1
 62
   256
176
     0
 40
1.0
176
     0
 90
        2
176
     1
  1
strokes_ogs.tif
176
     1
290
     0
176
     1
 40
1.0
176
     1
 40
1.0
176
     1
  0
VISUALSTYLE
  5
BD3
102
{ACAD_REACTORS
330
2F
102
}
330
2F
100
AcDbVisualStyle
  2
X-Ray
 70
    25
177
     3
291
     0
 70
    58
 90
        2
176
     1
 90
        2
176
     1
 90
        1
176
     1
 90
        1
176
     1
 40
0.5
176
     1
 40
30.0
176
     1
 62
     7
176
     1
 90
        1
176
     1
 90
        0
176
     1
 62
     7
176
     1
 62
   257
176
     1
 90
        1
176
     1
 90
        1
176
     1
 40
1.0
176
     1
 90
        8
176
     1
 62
     7
176
     1
 40
1.0
176
     1
 90
        1
176
     1
 90
        6
176
     1
 90
        2
176
     1
 62
     7
176
     1
 90
        3
176
     1
 90
        0
176
     1
 90
        0
176
     1
290
     0
176
     1
 90
       13
176
     1
 40
0.0
176
     1
 90
        0
176
     1
290
     0
176
     1
290
     1
176
     1
290
     1
176
     1
290
     0
176
     1
290
     0
176
     1
290
     0
176
     1
290
     0
176
     1
290
     0
176
     1
290
     0
176
     1
 90
       50
176
     1
 40
0.0
176
     1
 40
1.0
176
     1
 90
        0
176
     1
 62
    18
420
        0
176
     1
 90
       50
176
     1
 90
        3
176
     1
 62
     5
420
      255
176
     1
290
     0
176
     1
 90
       50
176
     1
 90
       50
176
     1
 90
       50
176
     1
290
     0
176
     1
 90
       50
176
     1
 62
   256
176
     0
 40
1.0
176
     0
 90
        2
176
     1
  1
strokes_ogs.tif
176
     1
290
     0
176
     1
 40
1.0
176
     1
 40
1.0
176
     1
  0
DICTIONARYVAR
  5
BBE
102
{ACAD_REACTORS
330
BB8
102
}
330
BB8
100
DictionaryVariables
280
     0
  1
1:1
  0
DICTIONARYVAR
  5
BBA
102
{ACAD_REACTORS
330
BB8
102
}
330
BB8
100
DictionaryVariables
280
     0
  1
STANDARD
  0
DICTIONARYVAR
  5
BB9
102
{ACAD_REACTORS
330
BB8
102
}
330
BB8
100
DictionaryVariables
280
     0
  1
STANDARD
  0
DICTIONARYVAR
  5
BBB
102
{ACAD_REACTORS
330
BB8
102
}
330
BB8
100
DictionaryVariables
280
     0
  1
Metric50
  0
DICTIONARYVAR
  5
BBC
102
{ACAD_REACTORS
330
BB8
102
}
330
BB8
100
DictionaryVariables
280
     0
  1
Metric50
  0
DICTIONARYVAR
  5
C3B
102
{ACAD_REACTORS
330
BB8
102
}
330
BB8
100
DictionaryVariables
280
     0
  1
1
  0
DICTIONARYVAR
  5
C39
102
{ACAD_REACTORS
330
BB8
102
}
330
BB8
100
DictionaryVariables
280
     0
  1
1
  0
DICTIONARYVAR
  5
FF3
102
{ACAD_REACTORS
330
BB8
102
}
330
BB8
100
DictionaryVariables
280
     0
  1
4
  0
DICTIONARYVAR
  5
C38
102
{ACAD_REACTORS
330
BB8
102
}
330
BB8
100
DictionaryVariables
280
     0
  1
0
  0
DICTIONARYVAR
  5
BC0
102
{ACAD_REACTORS
330
BB8
102
}
330
BB8
100
DictionaryVariables
280
     0
  1
1
  0
DICTIONARYVAR
  5
BC1
102
{ACAD_REACTORS
330
BB8
102
}
330
BB8
100
DictionaryVariables
280
     0
  1
15
  0
DICTIONARYVAR
  5
BBF
102
{ACAD_REACTORS
330
BB8
102
}
330
BB8
100
DictionaryVariables
280
     0
  1
0
  0
DICTIONARYVAR
  5
BBD
102
{ACAD_REACTORS
330
BB8
102
}
330
BB8
100
DictionaryVariables
280
     0
  1
0
  0
DICTIONARYVAR
  5
C3C
102
{ACAD_REACTORS
330
BB8
102
}
330
BB8
100
DictionaryVariables
280
     0
  1
1
  0
DICTIONARYVAR
  5
C37
102
{ACAD_REACTORS
330
BB8
102
}
330
BB8
100
DictionaryVariables
280
     0
  1
127
  0
XRECORD
  5
23A5D
102
{ACAD_REACTORS
330
23A5C
102
}
330
23A5C
100
AcDbXrecord
280
     1
  0
DICTIONARY
  5
27068
330
BDD
100
AcDbDictionary
280
     1
281
     1
  3
ACAD_XREC_ROUNDTRIP
360
27069
  0
DICTIONARY
  5
18
330
16
100
AcDbDictionary
280
     1
281
     1
  0
DICTIONARY
  5
1F
330
1E
100
AcDbDictionary
280
     1
281
     1
  0
DICTIONARY
  5
E
330
C
100
AcDbDictionary
280
     1
281
     1
  3
BUMPTILE
360
F
  3
DIFFUSETILE
360
10
  3
OPACITYTILE
360
11
  3
REFLECTIONTILE
360
12
  0
DICTIONARY
  5
27066
330
BDB
100
AcDbDictionary
280
     1
281
     1
  3
ACAD_XREC_ROUNDTRIP
360
27067
  0
DICTIONARY
  5
45
330
44
100
AcDbDictionary
280
     1
281
     1
  3
ACAD_ROUNDTRIP_2008_TABLESTYLE_CELLSTYLEMAP
360
27065
  0
XRECORD
  5
27069
102
{ACAD_REACTORS
330
27068
102
}
330
27068
100
AcDbXrecord
280
     1
102
DISPLAYNAME
  1
Metric50
102
FLAGS
 90
        0
  0
XRECORD
  5
F
102
{ACAD_REACTORS
330
E
102
}
330
E
100
AcDbXrecord
280
     1
270
     1
271
     1
  0
XRECORD
  5
10
102
{ACAD_REACTORS
330
E
102
}
330
E
100
AcDbXrecord
280
     1
270
     1
271
     1
  0
XRECORD
  5
11
102
{ACAD_REACTORS
330
E
102
}
330
E
100
AcDbXrecord
280
     1
270
     1
271
     1
  0
XRECORD
  5
12
102
{ACAD_REACTORS
330
E
102
}
330
E
100
AcDbXrecord
280
     1
270
     1
271
     1
  0
XRECORD
  5
27067
102
{ACAD_REACTORS
330
27066
102
}
330
27066
100
AcDbXrecord
280
     1
102
DISPLAYNAME
  1
Metric50
102
FLAGS
 90
        0
  0
CELLSTYLEMAP
  5
27065
102
{ACAD_REACTORS
330
45
102
}
330
45
100
AcDbCellStyleMap
 90
        3
300
CELLSTYLE
  1
TABLEFORMAT_BEGIN
 90
        5
170
     1
 91
        0
 92
    32768
 62
   257
 93
        1
300
CONTENTFORMAT
  1
CONTENTFORMAT_BEGIN
 90
        0
 91
        0
 92
      512
 93
        0
300

 40
0.0
140
1.0
 94
        5
 62
     0
340
25
144
6.0
309
CONTENTFORMAT_END
171
     1
301
MARGIN
  1
CELLMARGIN_BEGIN
 40
1.5
 40
1.5
 40
1.5
 40
1.5
 40
0.18
 40
0.18
309
CELLMARGIN_END
 94
        6
 95
        1
302
GRIDFORMAT
  1
GRIDFORMAT_BEGIN
 90
        0
 91
        1
 62
     0
 92
       -2
340
28
 93
        0
 40
1.125
309
GRIDFORMAT_END
 95
        2
302
GRIDFORMAT
  1
GRIDFORMAT_BEGIN
 90
        0
 91
        1
 62
     0
 92
       -2
340
28
 93
        0
 40
1.125
309
GRIDFORMAT_END
 95
        4
302
GRIDFORMAT
  1
GRIDFORMAT_BEGIN
 90
        0
 91
        1
 62
     0
 92
       -2
340
28
 93
        0
 40
1.125
309
GRIDFORMAT_END
 95
        8
302
GRIDFORMAT
  1
GRIDFORMAT_BEGIN
 90
        0
 91
        1
 62
     0
 92
       -2
340
28
 93
        0
 40
1.125
309
GRIDFORMAT_END
 95
       16
302
GRIDFORMAT
  1
GRIDFORMAT_BEGIN
 90
        0
 91
        1
 62
     0
 92
       -2
340
28
 93
        0
 40
1.125
309
GRIDFORMAT_END
 95
       32
302
GRIDFORMAT
  1
GRIDFORMAT_BEGIN
 90
        0
 91
        1
 62
     0
 92
       -2
340
28
 93
        0
 40
1.125
309
GRIDFORMAT_END
309
TABLEFORMAT_END
  1
CELLSTYLE_BEGIN
 90
        1
 91
        1
300
_TITLE
309
CELLSTYLE_END
300
CELLSTYLE
  1
TABLEFORMAT_BEGIN
 90
        5
170
     1
 91
        0
 92
        0
 62
   257
 93
        1
300
CONTENTFORMAT
  1
CONTENTFORMAT_BEGIN
 90
        0
 91
        0
 92
      512
 93
        0
300

 40
0.0
140
1.0
 94
        5
 62
     0
340
25
144
4.5
309
CONTENTFORMAT_END
171
     1
301
MARGIN
  1
CELLMARGIN_BEGIN
 40
1.5
 40
1.5
 40
1.5
 40
1.5
 40
0.18
 40
0.18
309
CELLMARGIN_END
 94
        6
 95
        1
302
GRIDFORMAT
  1
GRIDFORMAT_BEGIN
 90
        0
 91
        1
 62
     0
 92
       -2
340
28
 93
        0
 40
1.125
309
GRIDFORMAT_END
 95
        2
302
GRIDFORMAT
  1
GRIDFORMAT_BEGIN
 90
        0
 91
        1
 62
     0
 92
       -2
340
28
 93
        0
 40
1.125
309
GRIDFORMAT_END
 95
        4
302
GRIDFORMAT
  1
GRIDFORMAT_BEGIN
 90
        0
 91
        1
 62
     0
 92
       -2
340
28
 93
        0
 40
1.125
309
GRIDFORMAT_END
 95
        8
302
GRIDFORMAT
  1
GRIDFORMAT_BEGIN
 90
        0
 91
        1
 62
     0
 92
       -2
340
28
 93
        0
 40
1.125
309
GRIDFORMAT_END
 95
       16
302
GRIDFORMAT
  1
GRIDFORMAT_BEGIN
 90
        0
 91
        1
 62
     0
 92
       -2
340
28
 93
        0
 40
1.125
309
GRIDFORMAT_END
 95
       32
302
GRIDFORMAT
  1
GRIDFORMAT_BEGIN
 90
        0
 91
        1
 62
     0
 92
       -2
340
28
 93
        0
 40
1.125
309
GRIDFORMAT_END
309
TABLEFORMAT_END
  1
CELLSTYLE_BEGIN
 90
        2
 91
        1
300
_HEADER
309
CELLSTYLE_END
300
CELLSTYLE
  1
TABLEFORMAT_BEGIN
 90
        5
170
     1
 91
        0
 92
        0
 62
   257
 93
        1
300
CONTENTFORMAT
  1
CONTENTFORMAT_BEGIN
 90
        0
 91
        0
 92
      512
 93
        0
300

 40
0.0
140
1.0
 94
        2
 62
     0
340
25
144
4.5
309
CONTENTFORMAT_END
171
     1
301
MARGIN
  1
CELLMARGIN_BEGIN
 40
1.5
 40
1.5
 40
1.5
 40
1.5
 40
0.18
 40
0.18
309
CELLMARGIN_END
 94
        6
 95
        1
302
GRIDFORMAT
  1
GRIDFORMAT_BEGIN
 90
        0
 91
        1
 62
     0
 92
       -2
340
28
 93
        0
 40
1.125
309
GRIDFORMAT_END
 95
        2
302
GRIDFORMAT
  1
GRIDFORMAT_BEGIN
 90
        0
 91
        1
 62
     0
 92
       -2
340
28
 93
        0
 40
1.125
309
GRIDFORMAT_END
 95
        4
302
GRIDFORMAT
  1
GRIDFORMAT_BEGIN
 90
        0
 91
        1
 62
     0
 92
       -2
340
28
 93
        0
 40
1.125
309
GRIDFORMAT_END
 95
        8
302
GRIDFORMAT
  1
GRIDFORMAT_BEGIN
 90
        0
 91
        1
 62
     0
 92
       -2
340
28
 93
        0
 40
1.125
309
GRIDFORMAT_END
 95
       16
302
GRIDFORMAT
  1
GRIDFORMAT_BEGIN
 90
        0
 91
        1
 62
     0
 92
       -2
340
28
 93
        0
 40
1.125
309
GRIDFORMAT_END
 95
       32
302
GRIDFORMAT
  1
GRIDFORMAT_BEGIN
 90
        0
 91
        1
 62
     0
 92
       -2
340
28
 93
        0
 40
1.125
309
GRIDFORMAT_END
309
TABLEFORMAT_END
  1
CELLSTYLE_BEGIN
 90
        3
 91
        2
300
_DATA
309
CELLSTYLE_END
  0
ENDSEC
  0
SECTION
  2
ACDSDATA
 70
     2
 71
     6
  0
ACDSSCHEMA
 90
        0
  1
AcDb_Thumbnail_Schema
  2
AcDbDs::ID
280
    10
 91
        8
  2
Thumbnail_Data
280
    15
 91
        0
101
ACDSRECORD
 95
        0
 90
        1
  2
AcDbDs::TreatedAsObjectData
280
     1
291
     1
101
ACDSRECORD
 95
        0
 90
        2
  2
AcDbDs::Legacy
280
     1
291
     1
101
ACDSRECORD
  1
AcDbDs::ID
 90
        3
  2
AcDs:Indexable
280
     1
291
     1
101
ACDSRECORD
  1
AcDbDs::ID
 90
        4
  2
AcDbDs::HandleAttribute
280
     7
282
     1
  0
ACDSSCHEMA
 90
        1
  1
AcDbDs::TreatedAsObjectDataSchema
  2
AcDbDs::TreatedAsObjectData
280
     1
 91
        0
  0
ACDSSCHEMA
 90
        2
  1
AcDbDs::LegacySchema
  2
AcDbDs::Legacy
280
     1
 91
        0
  0
ACDSSCHEMA
 90
        3
  1
AcDbDs::IndexedPropertySchema
  2
AcDs:Indexable
280
     1
 91
        0
  0
ACDSSCHEMA
 90
        4
  1
AcDbDs::HandleAttributeSchema
  2
AcDbDs::HandleAttribute
280
     7
 91
        1
284
     1
  0
ACDSRECORD
 90
        0
  2
AcDbDs::ID
280
    10
320
16
  2
Thumbnail_Data
280
    15
 94
     2185
310
89504E470D0A1A0A0000000D494844520000010000000076080300000010A0BD3C00000300504C5445000000000000C8C8C80000000000000000000000000000000000000000000000000000330000660000990000CC0000FF0033000033330033660033990033CC0033FF0066000066330066660066990066CC0066FF0099
310
000099330099660099990099CC0099FF00CC0000CC3300CC6600CC9900CCCC00CCFF00FF0000FF3300FF6600FF9900FFCC00FFFF3300003300333300663300993300CC3300FF3333003333333333663333993333CC3333FF3366003366333366663366993366CC3366FF3399003399333399663399993399CC3399FF33CC00
310
33CC3333CC6633CC9933CCCC33CCFF33FF0033FF3333FF6633FF9933FFCC33FFFF6600006600336600666600996600CC6600FF6633006633336633666633996633CC6633FF6666006666336666666666996666CC6666FF6699006699336699666699996699CC6699FF66CC0066CC3366CC6666CC9966CCCC66CCFF66FF0066
310
FF3366FF6666FF9966FFCC66FFFF9900009900339900669900999900CC9900FF9933009933339933669933999933CC9933FF9966009966339966669966999966CC9966FF9999009999339999669999999999CC9999FF99CC0099CC3399CC6699CC9999CCCC99CCFF99FF0099FF3399FF6699FF9999FFCC99FFFFCC0000CC00
310
33CC0066CC0099CC00CCCC00FFCC3300CC3333CC3366CC3399CC33CCCC33FFCC6600CC6633CC6666CC6699CC66CCCC66FFCC9900CC9933CC9966CC9999CC99CCCC99FFCCCC00CCCC33CCCC66CCCC99CCCCCCCCCCFFCCFF00CCFF33CCFF66CCFF99CCFFCCCCFFFFFF0000FF0033FF0066FF0099FF00CCFF00FFFF3300FF3333
310
FF3366FF3399FF33CCFF33FFFF6600FF6633FF6666FF6699FF66CCFF66FFFF9900FF9933FF9966FF9999FF99CCFF99FFFFCC00FFCC33FFCC66FFCC99FFCCCCFFCCFFFFFF00FFFF33FFFF66FFFF99FFFFCCFFFFFF0000000D0D0D1A1A1A2828283535354343435050505D5D5D6B6B6B787878868686939393A1A1A1AEAEAEBB
310
BBBBC9C9C9D6D6D6E4E4E4F1F1F1FFFFFF00000000000000000000000000000000000000000000000000000000000008F1915C000005444944415478DAED9D5BA29B20108659CEBCB0B32ED96DFCEF552EC3A080184F8028F4344D3CC6301FC3DCC054A9EF34FCF179F5270ED2AA01E0B70020D1960575ADF6C49B176C3EB0
310
CB52F9E6DA13EF5D104368F60F4CBE096002980026800960029800268009600298002680EA569DA7756C5FEDE3EB014C1B30014C007F304597370358B6F64A002408C447DE02E0D0F04E0D281D99005E03C0D801AA08DCB6DF1ABF516F3C7F43031840512CA22534A5FA03B8B3F0260018B168338B670058032E78CFEFAE0E
310
FE0D00E303D63FB65D321C8F9802641FE8EABC9900DE07E013020301A06F00A05100B00D4B36B3558378C38679F109007912345F54D30000A8EC8B6CE7617FF406EC1E805574ED2EBA5E8FF2BEAED914A804A0AD16E83B00EC252200797F3F0A00D7D6B15F7FD6BF1F02706AB4354D611F1405CC8302D8C48611DECA7F0300
310
BF711D77ADA1B50A2600230188F6AA69DB5F96FF2F0084A24249DCC600A2FD79415EBD7BF1B10D50A0A21B3CCE82D60092F21EE55761023BF77874A3E90FA458C568BF1912BD0178619157066303040BED0D7B9CFB663E6FAF6A7AB721140D01C894D4F58B073B1A95581F8C41902C8C665F0200A3ECAB232458DA2A47A0D9
310
DA60C20670D37C2C0C7B40B23D4D00C8291CD98FB16AB601B0CF343A0048DA809435821B3596DFBA04DBF7ED691500B02300AB19799D133A80BE46B00480E5671BB04D01ADAE0160F9790A1818691D180C80975F51700EA47C805C0600CEBB224BCBD32AE8C0B800587E67032E4D01162F58DAAD9216AC29C607C006515F9F
310
02417E0A1841100EC67FE8B800FC1218C41450955EC0CD12986048FB7892201D2CC489A36A80820FE8382AAE9B02706F8530206E0A089B104EEC9B0B9C01D0D885C214C5C209F70D2500481B2003EE6E00CCCA4674DC01A00C00DF53910C45D9D19207E0A3672B2F499BA8E559230030039B9E02A297D801A013009A5500BE
310
40C29E603400BE80530260D7F9A4C4250090A9A3531F51786D0C404CF445F4C42C746D8F708B5EB087C8BDE6DF9BD317C2B23E6C3F2500FEADE70D512EFDCDA5C1E06E220D909E80AC36A090A79B690259D7B5EBC4390D10C636A446E0E3070D68B2389A06606216203679A9250517E0FBECAD7A0A381BD06F0A540000D419
310
80B8D6672F75E20582DB17A9A18F847A0088021724EAF8C7AE7C0C00BEA6E20221F7C2CADF31101275BA9CAD28D5EE02006B4F8B91A0452092A11122C1789CD2C6B27057F74E030AB980D4F85D32C47E76500D60338D8206A88206F015B8ACE292212D22E15EC950E1E32E01C86A405C0F503A510F503DD3E19600B81EC035
310
F760027F1EC0794DD07A42570513F500F4AD093604B095D67CEE13EA01E85C156E004006D9E0B2B8AF0766D6057E17C01981A82C9E5F1B1B0C00802879B90A20BCCFD69D8C0D28FABDC6F70D1601F8AC1087A0685F1233496D9A38E298E3C012A77DFC2E8054A8C7219C8CD30E1A50B93F2096167436E08DEF1BA43C0C146D
310
40F526C8B2ADECB843A42805048EB40DA80780FCBBD0738FD01980132F70611B2C9053B9AA2E760700DC041021382DFE3D500322CF4AEA98000E0F40DD07C042D359D9731000B173348EFF2E00517454C303A08A43CFB86D6E02980026801701A88F677B02687BE3E49C02EF0690B9A377392CF51DEFFDFDDA7769B40590BE
310
F9397178491E599EA0012900CB39806768C0886D0298002680096002781C005C68CF042050081AFFFEFD5B1FCCBF6DBAD8ED2B3591D6854DFEFDB83FF33B457300D01840FF29801C004C23F81223F856373801EC12E9B84D0033129C46701AC1A703F05FAB996D13C09C024D00FC406B3E3AD5FFED61EAC4547F6F5DB043BB
310
07407506F01FA1A357B807D09C870000000049454E44AE426082
  0
ACDSRECORD
 90
        0
  2
AcDbDs::ID
280
    10
320
1E
  2
Thumbnail_Data
280
    15
 94
     1014
310
89504E470D0A1A0A0000000D49484452000000B80000007F08030000006B00F8F900000300504C5445FFFFFF000000FFFFFF0000000000000000000000000000000000000000000000000000330000660000990000CC0000FF0033000033330033660033990033CC0033FF0066000066330066660066990066CC0066FF0099
310
000099330099660099990099CC0099FF00CC0000CC3300CC6600CC9900CCCC00CCFF00FF0000FF3300FF6600FF9900FFCC00FFFF3300003300333300663300993300CC3300FF3333003333333333663333993333CC3333FF3366003366333366663366993366CC3366FF3399003399333399663399993399CC3399FF33CC00
310
33CC3333CC6633CC9933CCCC33CCFF33FF0033FF3333FF6633FF9933FFCC33FFFF6600006600336600666600996600CC6600FF6633006633336633666633996633CC6633FF6666006666336666666666996666CC6666FF6699006699336699666699996699CC6699FF66CC0066CC3366CC6666CC9966CCCC66CCFF66FF0066
310
FF3366FF6666FF9966FFCC66FFFF9900009900339900669900999900CC9900FF9933009933339933669933999933CC9933FF9966009966339966669966999966CC9966FF9999009999339999669999999999CC9999FF99CC0099CC3399CC6699CC9999CCCC99CCFF99FF0099FF3399FF6699FF9999FFCC99FFFFCC0000CC00
310
33CC0066CC0099CC00CCCC00FFCC3300CC3333CC3366CC3399CC33CCCC33FFCC6600CC6633CC6666CC6699CC66CCCC66FFCC9900CC9933CC9966CC9999CC99CCCC99FFCCCC00CCCC33CCCC66CCCC99CCCCCCCCCCFFCCFF00CCFF33CCFF66CCFF99CCFFCCCCFFFFFF0000FF0033FF0066FF0099FF00CCFF00FFFF3300FF3333
310
FF3366FF3399FF33CCFF33FFFF6600FF6633FF6666FF6699FF66CCFF66FFFF9900FF9933FF9966FF9999FF99CCFF99FFFFCC00FFCC33FFCC66FFCC99FFCCCCFFCCFFFFFF00FFFF33FFFF66FFFF99FFFFCCFFFFFF0000000D0D0D1A1A1A2828283535354343435050505D5D5D6B6B6B787878868686939393A1A1A1AEAEAEBB
310
BBBBC9C9C9D6D6D6E4E4E4F1F1F1FFFFFF000000000000000000000000000000000000000000000000000000000000790CAC0F000000B14944415478DAEDDC3B0A80301004D0DCFF987B81ADEC258D4D8A547E46DE968AF01061B25338BAE2A6C79CAE236C72E105FE3EFCFAFED72BBB1B373FB2837FF62D838383833F0A97
310
9CE0E0E0E0E1E771C9090E0E0E0E0E0E0E0EAE9EB04880838383AB27443E3838383838383838B87A021C1C1C1C5CAF22F2C1C1C1C1C1C1C1C1C1F52A362070707070F5043838383838383838B87AC222010E0E0EAE9E909CE0E0E099F0D47F7A4A4EF05FC2F366BA4F0386279D40CB09810000000049454E44AE426082
  0
ENDSEC
  0
EOF
