  0
SECTION
  2
HEADER
  9
$ACADVER
  1
AC1027
  9
$ACADMAINTVER
 70
    55
  9
$DWGCODEPAGE
  3
ANSI_949
  9
$LASTSAVEDBY
  1
DESKTOP
  9
$REQUIREDVERSIONS
160
                 0
  9
$INSBASE
 10
0.0
 20
0.0
 30
0.0
  9
$EXTMIN
 10
-1.949999999999999
 20
-1.949999999999999
 30
0.0
  9
$EXTMAX
 10
203.8499999999999
 20
143.1451487066611
 30
0.0
  9
$LIMMIN
 10
0.0
 20
0.0
  9
$LIMMAX
 10
420.0
 20
297.0
  9
$ORTHOMODE
 70
     0
  9
$REGENMODE
 70
     1
  9
$FILLMODE
 70
     1
  9
$QTEXTMODE
 70
     0
  9
$MIRRTEXT
 70
     0
  9
$LTSCALE
 40
5.0
  9
$ATTMODE
 70
     1
  9
$TEXTSIZE
 40
3.0
  9
$TRACEWID
 40
1.0
  9
$TEXTSTYLE
  7
Standard
  9
$CLAYER
  8
0
  9
$CELTYPE
  6
Continuous
  9
$CECOLOR
 62
     7
  9
$CELTSCALE
 40
1.0
  9
$DISPSILH
 70
     0
  9
$DIMSCALE
 40
1.0
  9
$DIMASZ
 40
2.5
  9
$DIMEXO
 40
0.625
  9
$DIMDLI
 40
3.75
  9
$DIMRND
 40
0.0
  9
$DIMDLE
 40
0.0
  9
$DIMEXE
 40
1.25
  9
$DIMTP
 40
0.0
  9
$DIMTM
 40
0.000000001
  9
$DIMTXT
 40
3.0
  9
$DIMCEN
 40
-0.5
  9
$DIMTSZ
 40
0.0
  9
$DIMTOL
 70
     0
  9
$DIMLIM
 70
     0
  9
$DIMTIH
 70
     0
  9
$DIMTOH
 70
     0
  9
$DIMSE1
 70
     0
  9
$DIMSE2
 70
     0
  9
$DIMTAD
 70
     1
  9
$DIMZIN
 70
     8
  9
$DIMBLK
  1

  9
$DIMASO
 70
     1
  9
$DIMSHO
 70
     1
  9
$DIMPOST
  1

  9
$DIMAPOST
  1

  9
$DIMALT
 70
     0
  9
$DIMALTD
 70
     3
  9
$DIMALTF
 40
0.03937007874016
  9
$DIMLFAC
 40
1.0
  9
$DIMTOFL
 70
     1
  9
$DIMTVP
 40
0.0
  9
$DIMTIX
 70
     0
  9
$DIMSOXD
 70
     0
  9
$DIMSAH
 70
     0
  9
$DIMBLK1
  1

  9
$DIMBLK2
  1

  9
$DIMSTYLE
  2
Standard
  9
$DIMCLRD
 70
     3
  9
$DIMCLRE
 70
     3
  9
$DIMCLRT
 70
     2
  9
$DIMTFAC
 40
0.7
  9
$DIMGAP
 40
0.625
  9
$DIMJUST
 70
     0
  9
$DIMSD1
 70
     0
  9
$DIMSD2
 70
     0
  9
$DIMTOLJ
 70
     0
  9
$DIMTZIN
 70
     8
  9
$DIMALTZ
 70
     0
  9
$DIMALTTZ
 70
     0
  9
$DIMUPT
 70
     0
  9
$DIMDEC
 70
     8
  9
$DIMTDEC
 70
     8
  9
$DIMALTU
 70
     2
  9
$DIMALTTD
 70
     3
  9
$DIMTXSTY
  7
Standard
  9
$DIMAUNIT
 70
     1
  9
$DIMADEC
 70
     0
  9
$DIMALTRND
 40
0.0
  9
$DIMAZIN
 70
     0
  9
$DIMDSEP
 70
    46
  9
$DIMATFIT
 70
     3
  9
$DIMFRAC
 70
     0
  9
$DIMLDRBLK
  1

  9
$DIMLUNIT
 70
     2
  9
$DIMLWD
 70
    -1
  9
$DIMLWE
 70
    -1
  9
$DIMTMOVE
 70
     0
  9
$DIMFXL
 40
1.0
  9
$DIMFXLON
 70
     0
  9
$DIMJOGANG
 40
0.7853981633974483
  9
$DIMTFILL
 70
     0
  9
$DIMTFILLCLR
 70
     0
  9
$DIMARCSYM
 70
     1
  9
$DIMLTYPE
  6

  9
$DIMLTEX1
  6

  9
$DIMLTEX2
  6

  9
$DIMTXTDIRECTION
 70
     0
  9
$LUNITS
 70
     2
  9
$LUPREC
 70
     4
  9
$SKETCHINC
 40
0.0
  9
$FILLETRAD
 40
0.0
  9
$AUNITS
 70
     0
  9
$AUPREC
 70
     0
  9
$MENU
  1
.
  9
$ELEVATION
 40
0.0
  9
$PELEVATION
 40
0.0
  9
$THICKNESS
 40
0.0
  9
$LIMCHECK
 70
     0
  9
$CHAMFERA
 40
0.5
  9
$CHAMFERB
 40
0.5
  9
$CHAMFERC
 40
0.0
  9
$CHAMFERD
 40
0.0087266462599716
  9
$SKPOLY
 70
     0
  9
$TDCREATE
 40
2455072.745932974
  9
$TDUCREATE
 40
2455072.370932974
  9
$TDUPDATE
 40
2460735.480188484
  9
$TDUUPDATE
 40
2460735.105188484
  9
$TDINDWG
 40
131.8988953588
  9
$TDUSRTIMER
 40
131.8988951736
  9
$USRTIMER
 70
     1
  9
$ANGBASE
 50
0.0
  9
$ANGDIR
 70
     0
  9
$PDMODE
 70
     0
  9
$PDSIZE
 40
0.0
  9
$PLINEWID
 40
0.0
  9
$SPLFRAME
 70
     0
  9
$SPLINETYPE
 70
     6
  9
$SPLINESEGS
 70
     8
  9
$HANDSEED
  5
2E750
  9
$SURFTAB1
 70
     6
  9
$SURFTAB2
 70
     6
  9
$SURFTYPE
 70
     6
  9
$SURFU
 70
     6
  9
$SURFV
 70
     6
  9
$UCSBASE
  2

  9
$UCSNAME
  2

  9
$UCSORG
 10
0.0
 20
0.0
 30
0.0
  9
$UCSXDIR
 10
1.0
 20
0.0
 30
0.0
  9
$UCSYDIR
 10
0.0
 20
1.0
 30
0.0
  9
$UCSORTHOREF
  2

  9
$UCSORTHOVIEW
 70
     0
  9
$UCSORGTOP
 10
0.0
 20
0.0
 30
0.0
  9
$UCSORGBOTTOM
 10
0.0
 20
0.0
 30
0.0
  9
$UCSORGLEFT
 10
0.0
 20
0.0
 30
0.0
  9
$UCSORGRIGHT
 10
0.0
 20
0.0
 30
0.0
  9
$UCSORGFRONT
 10
0.0
 20
0.0
 30
0.0
  9
$UCSORGBACK
 10
0.0
 20
0.0
 30
0.0
  9
$PUCSBASE
  2

  9
$PUCSNAME
  2

  9
$PUCSORG
 10
0.0
 20
0.0
 30
0.0
  9
$PUCSXDIR
 10
1.0
 20
0.0
 30
0.0
  9
$PUCSYDIR
 10
0.0
 20
1.0
 30
0.0
  9
$PUCSORTHOREF
  2

  9
$PUCSORTHOVIEW
 70
     0
  9
$PUCSORGTOP
 10
0.0
 20
0.0
 30
0.0
  9
$PUCSORGBOTTOM
 10
0.0
 20
0.0
 30
0.0
  9
$PUCSORGLEFT
 10
0.0
 20
0.0
 30
0.0
  9
$PUCSORGRIGHT
 10
0.0
 20
0.0
 30
0.0
  9
$PUCSORGFRONT
 10
0.0
 20
0.0
 30
0.0
  9
$PUCSORGBACK
 10
0.0
 20
0.0
 30
0.0
  9
$USERI1
 70
     0
  9
$USERI2
 70
     0
  9
$USERI3
 70
     0
  9
$USERI4
 70
     0
  9
$USERI5
 70
     0
  9
$USERR1
 40
0.0
  9
$USERR2
 40
0.0
  9
$USERR3
 40
0.0
  9
$USERR4
 40
0.0
  9
$USERR5
 40
0.0
  9
$WORLDVIEW
 70
     1
  9
$SHADEDGE
 70
     3
  9
$SHADEDIF
 70
    70
  9
$TILEMODE
 70
     1
  9
$MAXACTVP
 70
    64
  9
$PINSBASE
 10
0.0
 20
0.0
 30
0.0
  9
$PLIMCHECK
 70
     0
  9
$PEXTMIN
 10
1.000000000000000E+20
 20
1.000000000000000E+20
 30
1.000000000000000E+20
  9
$PEXTMAX
 10
-1.000000000000000E+20
 20
-1.000000000000000E+20
 30
-1.000000000000000E+20
  9
$PLIMMIN
 10
-20.0
 20
-7.5
  9
$PLIMMAX
 10
277.0
 20
202.5
  9
$UNITMODE
 70
     0
  9
$VISRETAIN
 70
     1
  9
$PLINEGEN
 70
     0
  9
$PSLTSCALE
 70
     1
  9
$TREEDEPTH
 70
  3020
  9
$CMLSTYLE
  2
Standard
  9
$CMLJUST
 70
     0
  9
$CMLSCALE
 40
20.0
  9
$PROXYGRAPHICS
 70
     1
  9
$MEASUREMENT
 70
     1
  9
$CELWEIGHT
370
    -1
  9
$ENDCAPS
280
     0
  9
$JOINSTYLE
280
     0
  9
$LWDISPLAY
290
     0
  9
$INSUNITS
 70
     4
  9
$HYPERLINKBASE
  1

  9
$STYLESHEET
  1
ksm0910.ctb
  9
$XEDIT
290
     1
  9
$CEPSNTYPE
380
     0
  9
$PSTYLEMODE
290
     1
  9
$FINGERPRINTGUID
  2
{D2C70C36-9B4F-4E20-9CCB-531AA1EE4AC8}
  9
$VERSIONGUID
  2
{8DBB05C3-EDA3-4E9C-BA12-C9D7BD98E527}
  9
$EXTNAMES
290
     1
  9
$PSVPSCALE
 40
0.0
  9
$OLESTARTUP
290
     0
  9
$SORTENTS
280
   127
  9
$INDEXCTL
280
     0
  9
$HIDETEXT
280
     1
  9
$XCLIPFRAME
280
     2
  9
$HALOGAP
280
     0
  9
$OBSCOLOR
 70
   257
  9
$OBSLTYPE
280
     0
  9
$INTERSECTIONDISPLAY
280
     0
  9
$INTERSECTIONCOLOR
 70
   257
  9
$DIMASSOC
280
     1
  9
$PROJECTNAME
  1

  9
$CAMERADISPLAY
290
     0
  9
$LENSLENGTH
 40
50.0
  9
$CAMERAHEIGHT
 40
0.0
  9
$STEPSPERSEC
 40
2.0
  9
$STEPSIZE
 40
6.0
  9
$3DDWFPREC
 40
2.0
  9
$PSOLWIDTH
 40
5.0
  9
$PSOLHEIGHT
 40
80.0
  9
$LOFTANG1
 40
1.570796326794896
  9
$LOFTANG2
 40
1.570796326794896
  9
$LOFTMAG1
 40
0.0
  9
$LOFTMAG2
 40
0.0
  9
$LOFTPARAM
 70
     7
  9
$LOFTNORMALS
280
     1
  9
$LATITUDE
 40
37.795
  9
$LONGITUDE
 40
-122.394
  9
$NORTHDIRECTION
 40
0.0
  9
$TIMEZONE
 70
 -8000
  9
$LIGHTGLYPHDISPLAY
280
     1
  9
$TILEMODELIGHTSYNCH
280
     1
  9
$CMATERIAL
347
3D
  9
$SOLIDHIST
280
     1
  9
$SHOWHIST
280
     1
  9
$DWFFRAME
280
     2
  9
$DGNFRAME
280
     0
  9
$REALWORLDSCALE
290
     1
  9
$INTERFERECOLOR
 62
     1
  9
$INTERFEREOBJVS
345
46
  9
$INTERFEREVPVS
346
47
  9
$CSHADOW
280
     0
  9
$SHADOWPLANELOCATION
 40
0.0
  0
ENDSEC
  0
SECTION
  2
CLASSES
  0
CLASS
  1
ACDBDICTIONARYWDFLT
  2
AcDbDictionaryWithDefault
  3
ObjectDBX Classes
 90
        0
 91
        1
280
     0
281
     0
  0
CLASS
  1
DICTIONARYVAR
  2
AcDbDictionaryVar
  3
ObjectDBX Classes
 90
        0
 91
       18
280
     0
281
     0
  0
CLASS
  1
TABLESTYLE
  2
AcDbTableStyle
  3
ObjectDBX Classes
 90
     4095
 91
        1
280
     0
281
     0
  0
CLASS
  1
MATERIAL
  2
AcDbMaterial
  3
ObjectDBX Classes
 90
     1153
 91
        3
280
     0
281
     0
  0
CLASS
  1
VISUALSTYLE
  2
AcDbVisualStyle
  3
ObjectDBX Classes
 90
     4095
 91
       26
280
     0
281
     0
  0
CLASS
  1
SCALE
  2
AcDbScale
  3
ObjectDBX Classes
 90
     1153
 91
       17
280
     0
281
     0
  0
CLASS
  1
MLEADERSTYLE
  2
AcDbMLeaderStyle
  3
ACDB_MLEADERSTYLE_CLASS
 90
     4095
 91
        1
280
     0
281
     0
  0
CLASS
  1
CELLSTYLEMAP
  2
AcDbCellStyleMap
  3
ObjectDBX Classes
 90
     1152
 91
        2
280
     0
281
     0
  0
CLASS
  1
SORTENTSTABLE
  2
AcDbSortentsTable
  3
ObjectDBX Classes
 90
        0
 91
        1
280
     0
281
     0
  0
CLASS
  1
DIMASSOC
  2
AcDbDimAssoc
  3
"AcDbDimAssoc|Product Desc:     AcDim ARX App For Dimension|Company:          Autodesk, Inc.|WEB Address:      www.autodesk.com"
 90
        0
 91
        0
280
     0
281
     0
  0
CLASS
  1
SOLID_BACKGROUND
  2
AcDbSolidBackground
  3
SCENEOE
 90
     4095
 91
        0
280
     0
281
     0
  0
CLASS
  1
NPOCOLLECTION
  2
AcDbImpNonPersistentObjectsCollection
  3
ObjectDBX Classes
 90
     1153
 91
        0
280
     0
281
     0
  0
CLASS
  1
ACAD_EVALUATION_GRAPH
  2
AcDbEvalGraph
  3
ObjectDBX Classes
 90
     1153
 91
        0
280
     0
281
     0
  0
CLASS
  1
ACAECUSTOBJ
  2
AcAeEditorObj
  3
AcAeEditorObj
 90
     1024
 91
        0
280
     1
281
     0
  0
CLASS
  1
ACDB_DYNAMICBLOCKPURGEPREVENTER_VERSION
  2
AcDbDynamicBlockPurgePreventer
  3
ObjectDBX Classes
 90
     1153
 91
        0
280
     0
281
     0
  0
CLASS
  1
HELIX
  2
AcDbHelix
  3
ObjectDBX Classes
 90
     4095
 91
        0
280
     0
281
     1
  0
CLASS
  1
MULTILEADER
  2
AcDbMLeader
  3
ACDB_MLEADER_CLASS
 90
     1025
 91
        4
280
     0
281
     1
  0
CLASS
  1
ACMDIMBREAKPERSREACTOR
  2
AcmDimBreakPersReactor
  3
amgDimApp().moduleName()
 90
     1023
 91
        0
280
     1
281
     0
  0
CLASS
  1
ACDB_MTEXTOBJECTCONTEXTDATA_CLASS
  2
AcDbMTextObjectContextData
  3
ObjectDBX Classes
 90
     1153
 91
        0
280
     0
281
     0
  0
CLASS
  1
BREAKDATA
  2
AcDbBreakData
  3
ObjectDBX Classes
 90
     1024
 91
        0
280
     0
281
     0
  0
CLASS
  1
EXACXREFPANELOBJECT
  2
ExAcXREFPanelObject
  3
EXAC_ESW
 90
     1025
 91
        0
280
     1
281
     0
  0
CLASS
  1
ACDBSECTIONVIEWSTYLE
  2
AcDbSectionViewStyle
  3
ObjectDBX Classes
 90
     1025
 91
        2
280
     0
281
     0
  0
CLASS
  1
ACDBDETAILVIEWSTYLE
  2
AcDbDetailViewStyle
  3
ObjectDBX Classes
 90
     1025
 91
        2
280
     0
281
     0
  0
CLASS
  1
ACDBASSOCACTION
  2
AcDbAssocAction
  3
ObjectDBX Classes
 90
     1025
 91
        0
280
     0
281
     0
  0
CLASS
  1
ACDBASSOCARRAYACTIONBODY
  2
AcDbAssocArrayActionBody
  3
ObjectDBX Classes
 90
     1025
 91
        0
280
     0
281
     0
  0
CLASS
  1
ACDBASSOCDEPENDENCY
  2
AcDbAssocDependency
  3
ObjectDBX Classes
 90
     1025
 91
        0
280
     0
281
     0
  0
CLASS
  1
ACDBASSOCVERTEXACTIONPARAM
  2
AcDbAssocVertexActionParam
  3
ObjectDBX Classes
 90
     1025
 91
        0
280
     0
281
     0
  0
CLASS
  1
ACDBASSOCARRAYPOLARPARAMETERS
  2
AcDbAssocArrayPolarParameters
  3
ObjectDBX Classes
 90
     1025
 91
        0
280
     0
281
     0
  0
CLASS
  1
ACDBASSOCNETWORK
  2
AcDbAssocNetwork
  3
ObjectDBX Classes
 90
     1025
 91
        0
280
     0
281
     0
  0
CLASS
  1
ACARRAYJIGENTITY
  2
AcArrayJigEntity
  3
ACAD_ARRAY
 90
      129
 91
        0
280
     0
281
     1
  0
ENDSEC
  0
SECTION
  2
TABLES
  0
TABLE
  2
VPORT
  5
2C
102
{ACAD_XDICTIONARY
360
31
102
}
330
0
100
AcDbSymbolTable
 70
     1
  0
VPORT
  5
2D
330
2C
100
AcDbSymbolTableRecord
100
AcDbViewportTableRecord
  2
*Active
 70
     0
 10
0.0
 20
0.0
 11
1.0
 21
1.0
 12
100.9646853473161
 22
70.59709790322485
 13
0.0
 23
0.0
 14
2.0
 24
2.0
 15
2.0
 25
2.0
 16
0.0
 26
0.0
 36
1.0
 17
0.0
 27
0.0
 37
0.0
 40
146.1431830000264
 41
2.15871121718377
 42
50.0
 43
0.0
 44
0.0
 50
0.0
 51
0.0
 71
     0
 72
  1000
 73
     1
 74
     3
 75
     0
 76
     0
 77
     0
 78
     1
281
     0
 65
     1
110
0.0
120
0.0
130
0.0
111
1.0
121
0.0
131
0.0
112
0.0
122
1.0
132
0.0
 79
     0
146
0.0
348
2E
 60
     3
 61
     5
292
     1
282
     1
141
0.0
142
0.0
 63
   250
421
  3355443
1001
ACAD_NAV_VCDISPLAY
1070
     3
  0
ENDTAB
  0
TABLE
  2
LTYPE
  5
27
330
0
100
AcDbSymbolTable
 70
     2
  0
LTYPE
  5
28
330
27
100
AcDbSymbolTableRecord
100
AcDbLinetypeTableRecord
  2
ByBlock
 70
     0
  3

 72
    65
 73
     0
 40
0.0
  0
LTYPE
  5
29
330
27
100
AcDbSymbolTableRecord
100
AcDbLinetypeTableRecord
  2
ByLayer
 70
     0
  3

 72
    65
 73
     0
 40
0.0
  0
LTYPE
  5
14
330
27
100
AcDbSymbolTableRecord
100
AcDbLinetypeTableRecord
  2
Continuous
 70
     0
  3
Solid line
 72
    65
 73
     0
 40
0.0
  0
LTYPE
  5
4DD
330
27
100
AcDbSymbolTableRecord
100
AcDbLinetypeTableRecord
  2
CENTER
 70
     0
  3
____ _ ____ _ ____ _ ____ _ ____ _ ____ _ ____ 
 72
    65
 73
     4
 40
2.0
 49
1.25
 74
     0
 49
-0.25
 74
     0
 49
0.25
 74
     0
 49
-0.25
 74
     0
  0
ENDTAB
  0
TABLE
  2
LAYER
  5
21
102
{ACAD_XDICTIONARY
360
22
102
}
330
0
100
AcDbSymbolTable
 70
     4
  0
LAYER
  5
6
102
{ACAD_XDICTIONARY
360
7
102
}
330
21
100
AcDbSymbolTableRecord
100
AcDbLayerTableRecord
  2
0
 70
     0
 62
     7
  6
Continuous
370
    -3
390
9
347
C
348
0
  0
LAYER
  5
1A4
330
21
100
AcDbSymbolTableRecord
100
AcDbLayerTableRecord
  2
DEFPOINTS
 70
     0
 62
     7
  6
Continuous
290
     0
370
    -3
390
9
347
C
348
0
  0
LAYER
  5
283CB
330
21
100
AcDbSymbolTableRecord
100
AcDbLayerTableRecord
  2
Layer 1
 70
     0
 62
     7
  6
Continuous
370
     0
390
9
347
C
348
0
  0
LAYER
  5
2DDD9
102
{ACAD_XDICTIONARY
360
2DDDA
102
}
330
21
100
AcDbSymbolTableRecord
100
AcDbLayerTableRecord
  2
CT
 70
     0
 62
     2
  6
CENTER
370
    -3
390
9
347
C
348
0
  0
ENDTAB
  0
TABLE
  2
STYLE
  5
24
330
0
100
AcDbSymbolTable
 70
     3
  0
STYLE
  5
25
330
24
100
AcDbSymbolTableRecord
100
AcDbTextStyleTableRecord
  2
Standard
 70
     0
 40
3.0
 41
1.0
 50
0.0
 71
     0
 42
3.0
  3
isocp.shx
  4
whgtxt.shx
  0
STYLE
  5
35
330
24
100
AcDbSymbolTableRecord
100
AcDbTextStyleTableRecord
  2
ROMANS
 70
     0
 40
2.5
 41
1.0
 50
0.0
 71
     0
 42
2.5
  3
romans.shx
  4

  0
STYLE
  5
5C
330
24
100
AcDbSymbolTableRecord
100
AcDbTextStyleTableRecord
  2
굴림
 70
     0
 40
3.0
 41
1.0
 50
0.0
 71
     0
 42
3.0
  3

  4

1001
ACAD
1000
Gulim
1071
    33074
  0
ENDTAB
  0
TABLE
  2
VIEW
  5
2A
330
0
100
AcDbSymbolTable
 70
     0
  0
ENDTAB
  0
TABLE
  2
UCS
  5
2B
330
0
100
AcDbSymbolTable
 70
     0
  0
ENDTAB
  0
TABLE
  2
APPID
  5
32
330
0
100
AcDbSymbolTable
 70
    44
  0
APPID
  5
13
330
32
100
AcDbSymbolTableRecord
100
AcDbRegAppTableRecord
  2
ACAD
 70
     0
  0
APPID
  5
1A
330
32
100
AcDbSymbolTableRecord
100
AcDbRegAppTableRecord
  2
ACAD_PSEXT
 70
     0
  0
APPID
  5
37
330
32
100
AcDbSymbolTableRecord
100
AcDbRegAppTableRecord
  2
ACAD_DSTYLE_DIMJAG
 70
     0
  0
APPID
  5
38
330
32
100
AcDbSymbolTableRecord
100
AcDbRegAppTableRecord
  2
ACAD_DSTYLE_DIMTALN
 70
     0
  0
APPID
  5
36
330
32
100
AcDbSymbolTableRecord
100
AcDbRegAppTableRecord
  2
ACAD_DSTYLE_DIMJOGGED_JOGANGLE_SYMBOL
 70
     0
  0
APPID
  5
183
330
32
100
AcDbSymbolTableRecord
100
AcDbRegAppTableRecord
  2
AcAecLayerStandard
 70
     0
  0
APPID
  5
3DE
330
32
100
AcDbSymbolTableRecord
100
AcDbRegAppTableRecord
  2
ACAD_DSTYLE_DIMRADIAL_EXTENSION
 70
     0
  0
APPID
  5
530
330
32
100
AcDbSymbolTableRecord
100
AcDbRegAppTableRecord
  2
GRADIENTCOLOR1ACI
 70
     0
  0
APPID
  5
531
330
32
100
AcDbSymbolTableRecord
100
AcDbRegAppTableRecord
  2
GRADIENTCOLOR2ACI
 70
     0
  0
APPID
  5
30
330
32
100
AcDbSymbolTableRecord
100
AcDbRegAppTableRecord
  2
ACAD_NAV_VCDISPLAY
 70
     0
  0
APPID
  5
C34
330
32
100
AcDbSymbolTableRecord
100
AcDbRegAppTableRecord
  2
ACAD_MLEADERVER
 70
     0
  0
APPID
  5
C97
330
32
100
AcDbSymbolTableRecord
100
AcDbRegAppTableRecord
  2
ACAD_EXEMPT_FROM_CAD_STANDARDS
 70
     0
  0
APPID
  5
D79
330
32
100
AcDbSymbolTableRecord
100
AcDbRegAppTableRecord
  2
AcadAnnoMonitorAlertIconDisabled
 70
     0
  0
APPID
  5
1A45
330
32
100
AcDbSymbolTableRecord
100
AcDbRegAppTableRecord
  2
GENIUS_GENODEF_13
 70
     0
  0
APPID
  5
1A46
330
32
100
AcDbSymbolTableRecord
100
AcDbRegAppTableRecord
  2
GENIUS_GENOBJ-N-FIL_13
 70
     0
  0
APPID
  5
1A47
330
32
100
AcDbSymbolTableRecord
100
AcDbRegAppTableRecord
  2
ACAD_DSTYLE_DIMBREAK
 70
     0
  0
APPID
  5
1A48
330
32
100
AcDbSymbolTableRecord
100
AcDbRegAppTableRecord
  2
GENIUS_GENOBJ-N-HTC_13
 70
     0
  0
APPID
  5
1A49
330
32
100
AcDbSymbolTableRecord
100
AcDbRegAppTableRecord
  2
GENIUS_GENHATCH_13
 70
     0
  0
APPID
  5
1A4A
330
32
100
AcDbSymbolTableRecord
100
AcDbRegAppTableRecord
  2
GENIUS_GENREC_14
 70
     0
  0
APPID
  5
1A4B
330
32
100
AcDbSymbolTableRecord
100
AcDbRegAppTableRecord
  2
GENIUS_GENOBJ-N-REC_13
 70
     0
  0
APPID
  5
1A4C
330
32
100
AcDbSymbolTableRecord
100
AcDbRegAppTableRecord
  2
ACAUTHENVIRON
 70
     0
  0
APPID
  5
1A4D
330
32
100
AcDbSymbolTableRecord
100
AcDbRegAppTableRecord
  2
AcDbDynamicBlockTrueName
 70
     0
  0
APPID
  5
1A4E
330
32
100
AcDbSymbolTableRecord
100
AcDbRegAppTableRecord
  2
AcDbDynamicBlockGUID
 70
     0
  0
APPID
  5
1A4F
330
32
100
AcDbSymbolTableRecord
100
AcDbRegAppTableRecord
  2
AcDbBlockRepETag
 70
     0
  0
APPID
  5
1A50
330
32
100
AcDbSymbolTableRecord
100
AcDbRegAppTableRecord
  2
DCO15
 70
     0
  0
APPID
  5
1A51
330
32
100
AcDbSymbolTableRecord
100
AcDbRegAppTableRecord
  2
ACAD_DSTYLE_DIMTEXT_FILL
 70
     0
  0
APPID
  5
1A52
330
32
100
AcDbSymbolTableRecord
100
AcDbRegAppTableRecord
  2
ACAD_DSTYLE_DIM_LINETYPE
 70
     0
  0
APPID
  5
1A53
330
32
100
AcDbSymbolTableRecord
100
AcDbRegAppTableRecord
  2
ACAD_DSTYLE_DIM_EXT1_LINETYPE
 70
     0
  0
APPID
  5
1A54
330
32
100
AcDbSymbolTableRecord
100
AcDbRegAppTableRecord
  2
ACAD_DSTYLE_DIM_EXT2_LINETYPE
 70
     0
  0
APPID
  5
1A55
330
32
100
AcDbSymbolTableRecord
100
AcDbRegAppTableRecord
  2
ACAD_DSTYLE_DIMINSPECT
 70
     0
  0
APPID
  5
1A56
330
32
100
AcDbSymbolTableRecord
100
AcDbRegAppTableRecord
  2
AcadAnnotative
 70
     0
  0
APPID
  5
1A57
330
32
100
AcDbSymbolTableRecord
100
AcDbRegAppTableRecord
  2
GENIUS_GENDTOL_13
 70
     0
  0
APPID
  5
1A58
330
32
100
AcDbSymbolTableRecord
100
AcDbRegAppTableRecord
  2
GENIUS_GENFIL_13
 70
     0
  0
APPID
  5
1A59
330
32
100
AcDbSymbolTableRecord
100
AcDbRegAppTableRecord
  2
GENIUS_GENOBJ-N-CHA_13
 70
     0
  0
APPID
  5
1A5A
330
32
100
AcDbSymbolTableRecord
100
AcDbRegAppTableRecord
  2
AcadAnnotativeDecomposition
 70
     0
  0
APPID
  5
1A5B
330
32
100
AcDbSymbolTableRecord
100
AcDbRegAppTableRecord
  2
MCAD_NO_VIS
 70
     0
  0
APPID
  5
1A5C
330
32
100
AcDbSymbolTableRecord
100
AcDbRegAppTableRecord
  2
ACAD_TEMP_GRAPHIC
 70
     0
  0
APPID
  5
1A5D
330
32
100
AcDbSymbolTableRecord
100
AcDbRegAppTableRecord
  2
ACATTRIBSERVICES
 70
     0
  0
APPID
  5
1A5E
330
32
100
AcDbSymbolTableRecord
100
AcDbRegAppTableRecord
  2
DESIGNERASSEMBLIES
 70
     0
  0
APPID
  5
1A5F
330
32
100
AcDbSymbolTableRecord
100
AcDbRegAppTableRecord
  2
GENIUS_GENDIMSH_14
 70
     0
  0
APPID
  5
1A60
330
32
100
AcDbSymbolTableRecord
100
AcDbRegAppTableRecord
  2
ACAD_DSTYLE_DIMARC_LENGTH_SYMBOL
 70
     0
  0
APPID
  5
1A61
330
32
100
AcDbSymbolTableRecord
100
AcDbRegAppTableRecord
  2
ACAD_SPLINE_DATA
 70
     0
  0
APPID
  5
1A62
330
32
100
AcDbSymbolTableRecord
100
AcDbRegAppTableRecord
  2
GENIUS_GENOREF_13
 70
     0
  0
APPID
  5
1A63
330
32
100
AcDbSymbolTableRecord
100
AcDbRegAppTableRecord
  2
ACAD_DSTYLE_DIMANGULAR_EXTENSION
 70
     0
  0
ENDTAB
  0
TABLE
  2
DIMSTYLE
  5
33
330
0
100
AcDbSymbolTable
 70
     2
100
AcDbDimStyleTable
 71
     1
340
34
  0
DIMSTYLE
105
34
330
33
100
AcDbSymbolTableRecord
100
AcDbDimStyleTableRecord
  2
Standard
 70
     0
 41
2.5
 73
     0
 77
     3
 78
     8
140
2.5
141
-1.0
147
1.0
175
     1
176
     3
177
     3
178
     2
179
     8
271
     8
272
     8
275
     1
340
35
1001
ACAD_DSTYLE_DIMJOGGED_JOGANGLE_SYMBOL
1070
   384
1040
0.7853981633974483
1001
ACAD_DSTYLE_DIMJAG
1070
   388
1040
1.5
1001
ACAD_DSTYLE_DIMTALN
1070
   392
1070
     0
  0
DIMSTYLE
105
1A8
102
{ACAD_REACTORS
330
2E4EA
330
2E4EB
330
2E5DD
330
2E62F
102
}
330
33
100
AcDbSymbolTableRecord
100
AcDbDimStyleTableRecord
  2
Standard$0
 70
     0
 41
2.5
 73
     0
 77
     3
 78
     8
140
2.5
141
-1.0
147
1.0
175
     1
176
     3
177
     3
178
     2
179
     8
271
     8
272
     8
275
     1
340
35
  0
ENDTAB
  0
TABLE
  2
BLOCK_RECORD
  5
1
330
0
100
AcDbSymbolTable
 70
     4
  0
BLOCK_RECORD
  5
2
102
{ACAD_XDICTIONARY
360
3
102
}
330
1
100
AcDbSymbolTableRecord
100
AcDbBlockTableRecord
  2
*Model_Space
340
16
 70
     0
280
     1
281
     0
  0
BLOCK_RECORD
  5
1B
330
1
100
AcDbSymbolTableRecord
100
AcDbBlockTableRecord
  2
*Paper_Space
340
1E
 70
     0
280
     1
281
     0
  0
BLOCK_RECORD
  5
2E565
330
1
100
AcDbSymbolTableRecord
100
AcDbBlockTableRecord
  2
*D0
340
0
 70
     0
280
     1
281
     0
  0
BLOCK_RECORD
  5
2E571
330
1
100
AcDbSymbolTableRecord
100
AcDbBlockTableRecord
  2
*D1
340
0
 70
     0
280
     1
281
     0
  0
BLOCK_RECORD
  5
2E5E0
330
1
100
AcDbSymbolTableRecord
100
AcDbBlockTableRecord
  2
*D2
340
0
 70
     0
280
     1
281
     0
  0
BLOCK_RECORD
  5
2E630
330
1
100
AcDbSymbolTableRecord
100
AcDbBlockTableRecord
  2
*D3
340
0
 70
     0
280
     1
281
     0
  0
ENDTAB
  0
ENDSEC
  0
SECTION
  2
BLOCKS
  0
BLOCK
  5
5
330
2
100
AcDbEntity
  8
0
100
AcDbBlockBegin
  2
*Model_Space
 70
     0
 10
0.0
 20
0.0
 30
0.0
  3
*Model_Space
  1

  0
ENDBLK
  5
15
330
2
100
AcDbEntity
  8
0
100
AcDbBlockEnd
  0
BLOCK
  5
1C
330
1B
100
AcDbEntity
 67
     1
  8
0
100
AcDbBlockBegin
  2
*Paper_Space
 70
     0
 10
0.0
 20
0.0
 30
0.0
  3
*Paper_Space
  1

  0
ENDBLK
  5
1D
330
1B
100
AcDbEntity
 67
     1
  8
0
100
AcDbBlockEnd
  0
BLOCK
  5
2E566
330
2E565
100
AcDbEntity
  8
0
 62
     7
100
AcDbBlockBegin
  2
*D0
 70
     1
 10
0.0
 20
0.0
 30
0.0
  3
*D0
  1

  0
LINE
  5
2E65B
330
2E565
100
AcDbEntity
  8
0
  6
Continuous
 62
     3
440
 16777216
100
AcDbLine
 10
156.8246232881358
 20
91.53883123584547
 30
0.0
 11
194.2682293233554
 21
91.53883123584545
 31
0.0
  0
LINE
  5
2E65C
330
2E565
100
AcDbEntity
  8
0
  6
Continuous
 62
     3
440
 16777216
100
AcDbLine
 10
185.4433732881359
 20
76.19733123584547
 30
0.0
 11
194.2682293233554
 21
76.19733123584547
 31
0.0
  0
LINE
  5
2E65D
330
2E565
100
AcDbEntity
  8
0
  6
Continuous
 62
     3
440
 16777216
100
AcDbLine
 10
193.0182293233554
 20
89.03883123584545
 30
0.0
 11
193.0182293233554
 21
78.69733123584547
 31
0.0
  0
SOLID
  5
2E65E
330
2E565
100
AcDbEntity
  8
0
  6
Continuous
 62
     3
440
 16777216
100
AcDbTrace
 10
192.6015626566887
 20
89.03883123584545
 30
0.0
 11
193.434895990022
 21
89.03883123584545
 31
0.0
 12
193.0182293233554
 22
91.53883123584545
 32
0.0
 13
193.0182293233554
 23
91.53883123584545
 33
0.0
  0
SOLID
  5
2E65F
330
2E565
100
AcDbEntity
  8
0
  6
Continuous
 62
     3
440
 16777216
100
AcDbTrace
 10
192.6015626566887
 20
78.69733123584547
 30
0.0
 11
193.434895990022
 21
78.69733123584547
 31
0.0
 12
193.0182293233554
 22
76.19733123584547
 32
0.0
 13
193.0182293233554
 23
76.19733123584547
 33
0.0
  0
MTEXT
  5
2E660
330
2E565
100
AcDbEntity
  8
0
  6
Continuous
 62
     2
440
 16777216
100
AcDbMText
 10
190.8932293233553
 20
83.86808123584549
 30
0.0
 40
3.0
 41
0.0
 46
0.0
 71
     5
 72
     1
  1
.604
 11
0.0000000000000001
 21
1.0
 31
0.0
 73
     1
 44
1.0
  0
POINT
  5
2E661
330
2E565
100
AcDbEntity
  8
DEFPOINTS
  6
Continuous
 62
     0
440
 16777216
100
AcDbPoint
 10
156.1996232881358
 20
91.53883123584547
 30
0.0
  0
POINT
  5
2E662
330
2E565
100
AcDbEntity
  8
DEFPOINTS
  6
Continuous
 62
     0
440
 16777216
100
AcDbPoint
 10
184.8183732881359
 20
76.19733123584547
 30
0.0
  0
POINT
  5
2E663
330
2E565
100
AcDbEntity
  8
DEFPOINTS
  6
Continuous
 62
     0
440
 16777216
100
AcDbPoint
 10
193.0182293233554
 20
76.19733123584547
 30
0.0
  0
ENDBLK
  5
2E567
330
2E565
100
AcDbEntity
  8
0
 62
     7
100
AcDbBlockEnd
  0
BLOCK
  5
2E572
330
2E571
100
AcDbEntity
  8
0
 62
     7
100
AcDbBlockBegin
  2
*D1
 70
     1
 10
0.0
 20
0.0
 30
0.0
  3
*D1
  1

  0
LINE
  5
2E664
330
2E571
100
AcDbEntity
  8
0
  6
Continuous
 62
     3
440
 16777216
100
AcDbLine
 10
156.8246232881349
 20
60.85583123584616
 30
0.0
 11
194.2682293233572
 21
60.85583123584615
 31
0.0
  0
LINE
  5
2E665
330
2E571
100
AcDbEntity
  8
0
  6
Continuous
 62
     3
440
 16777216
100
AcDbLine
 10
185.4433732881359
 20
76.19733123584507
 30
0.0
 11
194.2682293233572
 21
76.19733123584507
 31
0.0
  0
LINE
  5
2E666
330
2E571
100
AcDbEntity
  8
0
  6
Continuous
 62
     3
440
 16777216
100
AcDbLine
 10
193.0182293233572
 20
63.35583123584615
 30
0.0
 11
193.0182293233572
 21
73.69733123584507
 31
0.0
  0
SOLID
  5
2E667
330
2E571
100
AcDbEntity
  8
0
  6
Continuous
 62
     3
440
 16777216
100
AcDbTrace
 10
192.6015626566905
 20
63.35583123584615
 30
0.0
 11
193.4348959900238
 21
63.35583123584615
 31
0.0
 12
193.0182293233572
 22
60.85583123584615
 32
0.0
 13
193.0182293233572
 23
60.85583123584615
 33
0.0
  0
SOLID
  5
2E668
330
2E571
100
AcDbEntity
  8
0
  6
Continuous
 62
     3
440
 16777216
100
AcDbTrace
 10
192.6015626566906
 20
73.69733123584507
 30
0.0
 11
193.4348959900239
 21
73.69733123584507
 31
0.0
 12
193.0182293233572
 22
76.19733123584507
 32
0.0
 13
193.0182293233572
 23
76.19733123584507
 33
0.0
  0
MTEXT
  5
2E669
330
2E571
100
AcDbEntity
  8
0
  6
Continuous
 62
     2
440
 16777216
100
AcDbMText
 10
190.8932293233572
 20
68.52658123584564
 30
0.0
 40
3.0
 41
0.0
 46
0.0
 71
     5
 72
     1
  1
.604
 11
0.0000000000000001
 21
1.0
 31
0.0
 73
     1
 44
1.0
  0
POINT
  5
2E66A
330
2E571
100
AcDbEntity
  8
DEFPOINTS
  6
Continuous
 62
     0
440
 16777216
100
AcDbPoint
 10
156.1996232881349
 20
60.85583123584616
 30
0.0
  0
POINT
  5
2E66B
330
2E571
100
AcDbEntity
  8
DEFPOINTS
  6
Continuous
 62
     0
440
 16777216
100
AcDbPoint
 10
184.8183732881359
 20
76.19733123584507
 30
0.0
  0
POINT
  5
2E66C
330
2E571
100
AcDbEntity
  8
DEFPOINTS
  6
Continuous
 62
     0
440
 16777216
100
AcDbPoint
 10
193.0182293233572
 20
76.19733123584507
 30
0.0
  0
ENDBLK
  5
2E573
330
2E571
100
AcDbEntity
  8
0
 62
     7
100
AcDbBlockEnd
  0
BLOCK
  5
2E5E1
330
2E5E0
100
AcDbEntity
  8
0
 62
     7
100
AcDbBlockBegin
  2
*D2
 70
     1
 10
0.0
 20
0.0
 30
0.0
  3
*D2
  1

  0
LINE
  5
2E66D
330
2E5E0
100
AcDbEntity
  8
0
  6
Continuous
 62
     3
440
 16777216
100
AcDbLine
 10
89.27317109932891
 20
101.5973312358456
 30
0.0
 11
114.7626962641507
 21
101.5973312358456
 31
0.0
  0
LINE
  5
2E66E
330
2E5E0
100
AcDbEntity
  8
0
  6
Continuous
 62
     3
440
 16777216
100
AcDbLine
 10
89.27317109932891
 20
50.79733123584486
 30
0.0
 11
114.7626962641507
 21
50.79733123584485
 31
0.0
  0
LINE
  5
2E66F
330
2E5E0
100
AcDbEntity
  8
0
  6
Continuous
 62
     3
440
 16777216
100
AcDbLine
 10
113.5126962641507
 20
99.0973312358456
 30
0.0
 11
113.5126962641507
 21
53.29733123584485
 31
0.0
  0
SOLID
  5
2E670
330
2E5E0
100
AcDbEntity
  8
0
  6
Continuous
 62
     3
440
 16777216
100
AcDbTrace
 10
113.096029597484
 20
99.0973312358456
 30
0.0
 11
113.9293629308174
 21
99.0973312358456
 31
0.0
 12
113.5126962641507
 22
101.5973312358456
 32
0.0
 13
113.5126962641507
 23
101.5973312358456
 33
0.0
  0
SOLID
  5
2E671
330
2E5E0
100
AcDbEntity
  8
0
  6
Continuous
 62
     3
440
 16777216
100
AcDbTrace
 10
113.096029597484
 20
53.29733123584485
 30
0.0
 11
113.9293629308173
 21
53.29733123584485
 31
0.0
 12
113.5126962641507
 22
50.79733123584485
 32
0.0
 13
113.5126962641507
 23
50.79733123584485
 33
0.0
  0
MTEXT
  5
2E672
330
2E5E0
100
AcDbEntity
  8
0
  6
Continuous
 62
     2
440
 16777216
100
AcDbMText
 10
111.3874009885601
 20
76.1973312358449
 30
0.0
 40
3.0
 41
0.0
 46
0.0
 71
     5
 72
     1
  1
%%C2.00
 11
0.0000000000000001
 21
1.0
 31
0.0
 73
     1
 44
1.0
  0
POINT
  5
2E673
330
2E5E0
100
AcDbEntity
  8
DEFPOINTS
  6
Continuous
 62
     0
440
 16777216
100
AcDbPoint
 10
88.64817109932891
 20
101.5973312358456
 30
0.0
  0
POINT
  5
2E674
330
2E5E0
100
AcDbEntity
  8
DEFPOINTS
  6
Continuous
 62
     0
440
 16777216
100
AcDbPoint
 10
88.64817109932891
 20
50.79733123584486
 30
0.0
  0
POINT
  5
2E675
330
2E5E0
100
AcDbEntity
  8
DEFPOINTS
  6
Continuous
 62
     0
440
 16777216
100
AcDbPoint
 10
113.5126962641507
 20
50.79733123584485
 30
0.0
  0
ENDBLK
  5
2E5E2
330
2E5E0
100
AcDbEntity
  8
0
 62
     7
100
AcDbBlockEnd
  0
BLOCK
  5
2E631
330
2E630
100
AcDbEntity
  8
0
 62
     7
100
AcDbBlockBegin
  2
*D3
 70
     1
 10
0.0
 20
0.0
 30
0.0
  3
*D3
  1

  0
LINE
  5
2E676
330
2E630
100
AcDbEntity
  8
0
  6
Continuous
 62
     3
440
 16777216
100
AcDbLine
 10
81.02817109932903
 20
94.54508123584549
 30
0.0
 11
81.02817109932903
 21
110.8717498176925
 31
0.0
  0
LINE
  5
2E677
330
2E630
100
AcDbEntity
  8
0
  6
Continuous
 62
     3
440
 16777216
100
AcDbLine
 10
88.64817109932891
 20
102.2223312358456
 30
0.0
 11
88.64817109932891
 21
110.8717498176925
 31
0.0
  0
LINE
  5
2E678
330
2E630
100
AcDbEntity
  8
0
  6
Continuous
 62
     3
440
 16777216
100
AcDbLine
 10
83.52817109932903
 20
109.6217498176925
 30
0.0
 11
86.14817109932891
 21
109.6217498176925
 31
0.0
  0
LINE
  5
2E679
330
2E630
100
AcDbEntity
  8
0
  6
Continuous
 62
     3
440
 16777216
100
AcDbLine
 10
88.64817109932891
 20
109.6217498176925
 30
0.0
 11
101.0981710993289
 21
109.6217498176925
 31
0.0
  0
SOLID
  5
2E67A
330
2E630
100
AcDbEntity
  8
0
  6
Continuous
 62
     3
440
 16777216
100
AcDbTrace
 10
83.52817109932903
 20
110.0384164843591
 30
0.0
 11
83.52817109932903
 21
109.2050831510258
 31
0.0
 12
81.02817109932903
 22
109.6217498176925
 32
0.0
 13
81.02817109932903
 23
109.6217498176925
 33
0.0
  0
SOLID
  5
2E67B
330
2E630
100
AcDbEntity
  8
0
  6
Continuous
 62
     3
440
 16777216
100
AcDbTrace
 10
86.14817109932891
 20
110.0384164843591
 30
0.0
 11
86.14817109932891
 21
109.2050831510258
 31
0.0
 12
88.64817109932891
 22
109.6217498176925
 32
0.0
 13
88.64817109932891
 23
109.6217498176925
 33
0.0
  0
MTEXT
  5
2E67C
330
2E630
100
AcDbEntity
  8
0
  6
Continuous
 62
     2
440
 16777216
100
AcDbMText
 10
96.12317109932892
 20
111.7467498176925
 30
0.0
 40
3.0
 41
0.0
 46
0.0
 71
     5
 72
     1
  1
.3%%p.01
 73
     1
 44
1.0
  0
POINT
  5
2E67D
330
2E630
100
AcDbEntity
  8
DEFPOINTS
  6
Continuous
 62
     0
440
 16777216
100
AcDbPoint
 10
81.02817109932903
 20
93.92008123584549
 30
0.0
  0
POINT
  5
2E67E
330
2E630
100
AcDbEntity
  8
DEFPOINTS
  6
Continuous
 62
     0
440
 16777216
100
AcDbPoint
 10
88.64817109932891
 20
101.5973312358456
 30
0.0
  0
POINT
  5
2E67F
330
2E630
100
AcDbEntity
  8
DEFPOINTS
  6
Continuous
 62
     0
440
 16777216
100
AcDbPoint
 10
88.64817109932891
 20
109.6217498176925
 30
0.0
  0
ENDBLK
  5
2E632
330
2E630
100
AcDbEntity
  8
0
 62
     7
100
AcDbBlockEnd
  0
ENDSEC
  0
SECTION
  2
ENTITIES
  0
LWPOLYLINE
  5
1DEB1
330
2
100
AcDbEntity
  8
0
 62
     0
100
AcDbPolyline
 90
        4
 70
     1
 43
0.0
 10
0.5
 20
0.5
 10
0.5
 20
140.6951487066611
 10
201.3999999999999
 20
140.6951487066611
 10
201.3999999999999
 20
0.5
  0
LINE
  5
28352
330
2
100
AcDbEntity
  8
0
  6
Continuous
 62
     7
100
AcDbLine
 10
151.175
 20
-1.949999999999999
 30
0.0
 11
151.175
 21
0.5
 31
0.0
  0
LINE
  5
28355
330
2
100
AcDbEntity
  8
0
  6
Continuous
 62
     7
100
AcDbLine
 10
50.72499999999999
 20
-1.949999999999999
 30
0.0
 11
50.72499999999999
 21
0.5
 31
0.0
  0
LINE
  5
28356
330
2
100
AcDbEntity
  8
0
  6
Continuous
 62
     7
100
AcDbLine
 10
151.175
 20
143.1451487066611
 30
0.0
 11
151.175
 21
140.6951487066611
 31
0.0
  0
LINE
  5
28357
330
2
100
AcDbEntity
  8
0
  6
Continuous
 62
     7
100
AcDbLine
 10
50.72499999999999
 20
143.1451487066611
 30
0.0
 11
50.72499999999999
 21
140.6951487066611
 31
0.0
  0
LINE
  5
2835B
330
2
100
AcDbEntity
  8
0
  6
Continuous
 62
     7
100
AcDbLine
 10
-1.949999999999999
 20
35.54878717666527
 30
0.0
 11
0.5
 21
35.54878717666527
 31
0.0
  0
LINE
  5
2835C
330
2
100
AcDbEntity
  8
0
  6
Continuous
 62
     7
100
AcDbLine
 10
-1.949999999999999
 20
105.6463615299958
 30
0.0
 11
0.5
 21
105.6463615299958
 31
0.0
  0
LINE
  5
2835D
330
2
100
AcDbEntity
  8
0
  6
Continuous
 62
     7
100
AcDbLine
 10
203.8499999999999
 20
35.54878717666527
 30
0.0
 11
201.3999999999999
 21
35.54878717666527
 31
0.0
  0
LINE
  5
2835E
330
2
100
AcDbEntity
  8
0
  6
Continuous
 62
     7
100
AcDbLine
 10
203.8499999999999
 20
105.6463615299958
 30
0.0
 11
201.3999999999999
 21
105.6463615299958
 31
0.0
  0
LINE
  5
28361
330
2
100
AcDbEntity
  8
0
  6
Continuous
 62
     7
100
AcDbLine
 10
148.725
 20
0.4999999999999996
 30
0.0
 11
148.725
 21
20.21494278687422
 31
0.0
  0
LINE
  5
28365
330
2
100
AcDbEntity
  8
0
  6
Continuous
 62
     7
100
AcDbLine
 10
201.3999999999999
 20
20.21494278687422
 30
0.0
 11
148.7249999999999
 21
20.21494278687422
 31
0.0
  0
LINE
  5
28366
330
2
100
AcDbEntity
  8
0
  6
Continuous
 62
     7
100
AcDbLine
 10
148.725
 20
7.071647595624741
 30
0.0
 11
201.3999999999999
 21
7.071647595624741
 31
0.0
  0
LINE
  5
28368
330
2
100
AcDbEntity
  8
0
  6
Continuous
 62
     7
100
AcDbLine
 10
148.725
 20
13.64329519124948
 30
0.0
 11
201.3999999999999
 21
13.64329519124947
 31
0.0
  0
LINE
  5
28369
330
2
100
AcDbEntity
  8
0
  6
Continuous
 62
     7
100
AcDbLine
 10
148.725
 20
0.4999999999999992
 30
0.0
 11
201.3999999999999
 21
0.5000000000000027
 31
0.0
  0
LINE
  5
2836B
330
2
100
AcDbEntity
  8
0
  6
Continuous
 62
     7
100
AcDbLine
 10
201.3999999999999
 20
70.59757435333054
 30
0.0
 11
203.8499999999999
 21
70.59757435333054
 31
0.0
  0
LINE
  5
2836C
330
2
100
AcDbEntity
  8
0
  6
Continuous
 62
     7
100
AcDbLine
 10
202.625
 20
69.76457435333053
 30
0.0
 11
202.625
 21
71.43057435333054
 31
0.0
  0
LINE
  5
2836F
330
2
100
AcDbEntity
  8
0
  6
Continuous
 62
     7
100
AcDbLine
 10
202.625
 20
69.76457435333053
 30
0.0
 11
201.3999999999999
 21
70.59757435333054
 31
0.0
  0
LINE
  5
28370
330
2
100
AcDbEntity
  8
0
  6
Continuous
 62
     7
100
AcDbLine
 10
201.3999999999999
 20
70.59757435333054
 30
0.0
 11
202.625
 21
71.43057435333054
 31
0.0
  0
LINE
  5
28371
330
2
100
AcDbEntity
  8
0
  6
Continuous
 62
     7
100
AcDbLine
 10
0.5
 20
70.59757435333054
 30
0.0
 11
-1.949999999999999
 21
70.59757435333054
 31
0.0
  0
LINE
  5
28372
330
2
100
AcDbEntity
  8
0
  6
Continuous
 62
     7
100
AcDbLine
 10
-0.725
 20
69.76457435333053
 30
0.0
 11
-0.725
 21
71.43057435333054
 31
0.0
  0
LINE
  5
28373
330
2
100
AcDbEntity
  8
0
  6
Continuous
 62
     7
100
AcDbLine
 10
-0.725
 20
69.76457435333053
 30
0.0
 11
0.5
 21
70.59757435333054
 31
0.0
  0
LINE
  5
28374
330
2
100
AcDbEntity
  8
0
  6
Continuous
 62
     7
100
AcDbLine
 10
0.5
 20
70.59757435333054
 30
0.0
 11
-0.725
 21
71.43057435333054
 31
0.0
  0
LINE
  5
28375
330
2
100
AcDbEntity
  8
0
  6
Continuous
 62
     7
100
AcDbLine
 10
100.95
 20
140.6951487066611
 30
0.0
 11
100.95
 21
143.1451487066611
 31
0.0
  0
LINE
  5
28376
330
2
100
AcDbEntity
  8
0
  6
Continuous
 62
     7
100
AcDbLine
 10
100.1169999999999
 20
141.9201487066611
 30
0.0
 11
101.783
 21
141.9201487066611
 31
0.0
  0
LINE
  5
28377
330
2
100
AcDbEntity
  8
0
  6
Continuous
 62
     7
100
AcDbLine
 10
100.1169999999999
 20
141.9201487066611
 30
0.0
 11
100.95
 21
140.6951487066611
 31
0.0
  0
LINE
  5
28378
330
2
100
AcDbEntity
  8
0
  6
Continuous
 62
     7
100
AcDbLine
 10
100.95
 20
140.6951487066611
 30
0.0
 11
101.783
 21
141.9201487066611
 31
0.0
  0
LINE
  5
28379
330
2
100
AcDbEntity
  8
0
  6
Continuous
 62
     7
100
AcDbLine
 10
100.95
 20
0.5
 30
0.0
 11
100.95
 21
-1.949999999999999
 31
0.0
  0
LINE
  5
2837A
330
2
100
AcDbEntity
  8
0
  6
Continuous
 62
     7
100
AcDbLine
 10
100.1169999999999
 20
-0.725
 30
0.0
 11
101.783
 21
-0.725
 31
0.0
  0
LINE
  5
2837B
330
2
100
AcDbEntity
  8
0
  6
Continuous
 62
     7
100
AcDbLine
 10
100.1169999999999
 20
-0.725
 30
0.0
 11
100.95
 21
0.5
 31
0.0
  0
LINE
  5
2837C
330
2
100
AcDbEntity
  8
0
  6
Continuous
 62
     7
100
AcDbLine
 10
100.95
 20
0.5
 30
0.0
 11
101.783
 21
-0.725
 31
0.0
  0
TEXT
  5
2837D
330
2
100
AcDbEntity
  8
0
 62
     2
100
AcDbText
 10
25.09944858848509
 20
-1.485083632214031
 30
0.0
 40
1.371999999999999
  1
4
  7
굴림
100
AcDbText
  0
TEXT
  5
2837E
330
2
100
AcDbEntity
  8
0
 62
     2
100
AcDbText
 10
75.37101382107201
 20
-1.485083632214031
 30
0.0
 40
1.371999999999999
  1
3
  7
굴림
100
AcDbText
  0
TEXT
  5
2837F
330
2
100
AcDbEntity
  8
0
 62
     2
100
AcDbText
 10
125.5310458326137
 20
-1.485083632214031
 30
0.0
 40
1.371999999999999
  1
2
  7
굴림
100
AcDbText
  0
TEXT
  5
28380
330
2
100
AcDbEntity
  8
0
 62
     2
100
AcDbText
 10
175.9092265294841
 20
-1.485083632214031
 30
0.0
 40
1.371999999999999
  1
1
  7
굴림
100
AcDbText
  0
TEXT
  5
28392
330
2
100
AcDbEntity
  8
0
 62
     2
100
AcDbText
 10
25.09944858848509
 20
141.4762985957621
 30
0.0
 40
1.371999999999999
  1
4
  7
굴림
100
AcDbText
  0
TEXT
  5
28393
330
2
100
AcDbEntity
  8
0
 62
     2
100
AcDbText
 10
75.37101382107201
 20
141.4762985957621
 30
0.0
 40
1.371999999999999
  1
3
  7
굴림
100
AcDbText
  0
TEXT
  5
28394
330
2
100
AcDbEntity
  8
0
 62
     2
100
AcDbText
 10
125.5310458326137
 20
141.4762985957621
 30
0.0
 40
1.371999999999999
  1
2
  7
굴림
100
AcDbText
  0
TEXT
  5
28395
330
2
100
AcDbEntity
  8
0
 62
     2
100
AcDbText
 10
175.9092265294841
 20
141.4762985957621
 30
0.0
 40
1.371999999999999
  1
1
  7
굴림
100
AcDbText
  0
TEXT
  5
28396
330
2
100
AcDbEntity
  8
0
 62
     2
100
AcDbText
 10
-1.480671014140115
 20
17.56755302432748
 30
0.0
 40
1.371999999999999
  1
A
  7
굴림
100
AcDbText
  0
TEXT
  5
283A7
330
2
100
AcDbEntity
  8
0
 62
     2
100
AcDbText
 10
-1.480671014140115
 20
52.3255745895844
 30
0.0
 40
1.371999999999999
  1
B
  7
굴림
100
AcDbText
  0
TEXT
  5
283A9
330
2
100
AcDbEntity
  8
0
 62
     2
100
AcDbText
 10
-1.480671014140115
 20
87.4152680872015
 30
0.0
 40
1.371999999999999
  1
C
  7
굴림
100
AcDbText
  0
TEXT
  5
283AA
330
2
100
AcDbEntity
  8
0
 62
     2
100
AcDbText
 10
-1.480671014140115
 20
122.7210366742626
 30
0.0
 40
1.371999999999999
  1
D
  7
굴림
100
AcDbText
  0
TEXT
  5
283AB
330
2
100
AcDbEntity
  8
0
 62
     2
100
AcDbText
 10
202.1339332675224
 20
17.56755302432748
 30
0.0
 40
1.371999999999999
  1
A
  7
굴림
100
AcDbText
  0
TEXT
  5
283AC
330
2
100
AcDbEntity
  8
0
 62
     2
100
AcDbText
 10
202.1339332675224
 20
52.3255745895844
 30
0.0
 40
1.371999999999999
  1
B
  7
굴림
100
AcDbText
  0
TEXT
  5
283AD
330
2
100
AcDbEntity
  8
0
 62
     2
100
AcDbText
 10
202.1339332675224
 20
87.4152680872015
 30
0.0
 40
1.371999999999999
  1
C
  7
굴림
100
AcDbText
  0
TEXT
  5
283AE
330
2
100
AcDbEntity
  8
0
 62
     2
100
AcDbText
 10
202.1339332675224
 20
122.7210366742626
 30
0.0
 40
1.371999999999999
  1
D
  7
굴림
100
AcDbText
  0
SPLINE
  5
283D6
102
{ACAD_REACTORS
330
2929D
102
}
330
2
100
AcDbEntity
  8
Layer 1
100
AcDbSpline
210
0.0
220
0.0
230
1.0
 70
    11
 71
     3
 72
    41
 73
    37
 74
     0
 42
0.000000001
 43
0.0000000001
 40
0.0
 40
0.0
 40
0.0
 40
0.0
 40
1.0
 40
1.0
 40
1.0
 40
2.0
 40
2.0
 40
2.0
 40
3.0
 40
3.0
 40
3.0
 40
4.0
 40
4.0
 40
4.0
 40
5.0
 40
5.0
 40
5.0
 40
6.0
 40
6.0
 40
6.0
 40
7.0
 40
7.0
 40
7.0
 40
8.0
 40
8.0
 40
8.0
 40
9.0
 40
9.0
 40
9.0
 40
10.0
 40
10.0
 40
10.0
 40
11.0
 40
11.0
 40
11.0
 40
12.0
 40
12.0
 40
12.0
 40
12.0
 10
166.5031686041695
 20
14.24267657548975
 30
0.0
 10
166.5031686041695
 20
14.24267657548975
 30
0.0
 10
165.220781238931
 20
14.24267657548975
 30
0.0
 10
165.220781238931
 20
14.24267657548975
 30
0.0
 10
165.220781238931
 20
14.24267657548975
 30
0.0
 10
167.7856435461096
 20
18.20191640278259
 30
0.0
 10
167.7856435461096
 20
18.20191640278259
 30
0.0
 10
167.7856435461096
 20
18.20191640278259
 30
0.0
 10
169.1073743779392
 20
18.20191640278259
 30
0.0
 10
169.1073743779392
 20
18.20191640278259
 30
0.0
 10
169.1073743779392
 20
18.20191640278259
 30
0.0
 10
169.4042851528821
 20
14.24267657548975
 30
0.0
 10
169.4042851528821
 20
14.24267657548975
 30
0.0
 10
169.4042851528821
 20
14.24267657548975
 30
0.0
 10
168.2113383809568
 20
14.24267657548975
 30
0.0
 10
168.2113383809568
 20
14.24267657548975
 30
0.0
 10
168.2113383809568
 20
14.24267657548975
 30
0.0
 10
168.1720818465587
 20
14.88116553285582
 30
0.0
 10
168.1720818465587
 20
14.88116553285582
 30
0.0
 10
168.1720818465587
 20
14.88116553285582
 30
0.0
 10
167.3073301300579
 20
14.88116553285582
 30
0.0
 10
167.3073301300579
 20
14.88116553285582
 30
0.0
 10
167.3073301300579
 20
14.88116553285582
 30
0.0
 10
167.736631943141
 20
15.70420582376474
 30
0.0
 10
167.736631943141
 20
15.70420582376474
 30
0.0
 10
167.736631943141
 20
15.70420582376474
 30
0.0
 10
168.1329339356647
 20
15.70420582376474
 30
0.0
 10
168.1329339356647
 20
15.70420582376474
 30
0.0
 10
168.1329339356647
 20
15.70420582376474
 30
0.0
 10
168.082445730938
 20
16.86354448350753
 30
0.0
 10
168.082445730938
 20
16.86354448350753
 30
0.0
 10
168.082445730938
 20
16.86354448350753
 30
0.0
 10
166.5095345871734
 20
14.25158370282972
 30
0.0
 10
166.5095345871734
 20
14.25158370282972
 30
0.0
 10
166.5095345871734
 20
14.25158370282972
 30
0.0
 10
166.5031686041695
 20
14.24267657548975
 30
0.0
 10
166.5031686041695
 20
14.24267657548975
 30
0.0
  0
SPLINE
  5
283D7
102
{ACAD_REACTORS
330
2923A
102
}
330
2
100
AcDbEntity
  8
Layer 1
100
AcDbSpline
210
0.0
220
0.0
230
1.0
 70
    11
 71
     3
 72
    17
 73
    13
 74
     0
 42
0.000000001
 43
0.0000000001
 40
0.0
 40
0.0
 40
0.0
 40
0.0
 40
1.0
 40
1.0
 40
1.0
 40
2.0
 40
2.0
 40
2.0
 40
3.0
 40
3.0
 40
3.0
 40
4.0
 40
4.0
 40
4.0
 40
4.0
 10
174.8642029960616
 20
14.24267657548975
 30
0.0
 10
174.8642029960616
 20
14.24267657548975
 30
0.0
 10
173.6433608515541
 20
14.24267657548975
 30
0.0
 10
173.6433608515541
 20
14.24267657548975
 30
0.0
 10
173.6433608515541
 20
14.24267657548975
 30
0.0
 10
174.70189689945
 20
18.19640076343424
 30
0.0
 10
174.70189689945
 20
18.19640076343424
 30
0.0
 10
174.70189689945
 20
18.19640076343424
 30
0.0
 10
175.9226512884364
 20
18.19640076343424
 30
0.0
 10
175.9226512884364
 20
18.19640076343424
 30
0.0
 10
175.9226512884364
 20
18.19640076343424
 30
0.0
 10
174.8642029960616
 20
14.24267657548975
 30
0.0
 10
174.8642029960616
 20
14.24267657548975
 30
0.0
  0
LWPOLYLINE
  5
283DB
102
{ACAD_REACTORS
330
28498
102
}
330
2
100
AcDbEntity
  8
Layer 1
 62
   103
100
AcDbPolyline
 90
        8
 70
     1
 43
0.0
 10
189.9049511631299
 20
19.4847165373369
 10
171.1176471331676
 20
19.48545517716509
 10
170.8373984924728
 20
18.56365439628725
 10
177.3481175333351
 20
18.56333096970653
 10
176.1021190419852
 20
14.24267657548976
 10
177.3230906779801
 20
14.24267657548976
 10
178.5688501976208
 20
18.56333096970653
 10
189.6233133711463
 20
18.56278540825408
  0
SPLINE
  5
283DD
102
{ACAD_REACTORS
330
2924F
102
}
330
2
100
AcDbEntity
  8
Layer 1
100
AcDbSpline
210
0.0
220
0.0
230
1.0
 70
     9
 71
     3
 72
    17
 73
    13
 74
     0
 42
0.000000001
 43
0.0000000001
 40
0.0
 40
0.0
 40
0.0
 40
0.0
 40
1.0
 40
1.0
 40
1.0
 40
2.0
 40
2.0
 40
2.0
 40
3.0
 40
3.0
 40
3.0
 40
4.0
 40
4.0
 40
4.0
 40
4.0
 10
181.7910795492878
 20
16.45290418843664
 30
0.0
 10
181.7910795492878
 20
17.02658836322959
 30
0.0
 10
181.4457871543106
 20
17.29940715624096
 30
0.0
 10
181.0448143511087
 20
17.29940715624096
 30
0.0
 10
180.2819090256753
 20
17.29940715624096
 30
0.0
 10
179.8640768610493
 20
16.4362654577993
 30
0.0
 10
179.8640768610493
 20
15.83479300044823
 30
0.0
 10
179.8640768610493
 20
15.25561247634553
 30
0.0
 10
180.220600926355
 20
14.98268505982995
 30
0.0
 10
180.6326967763815
 20
14.98268505982995
 30
0.0
 10
181.4570405493402
 20
14.98268505982995
 30
0.0
 10
181.7910795492878
 20
15.87935036184862
 30
0.0
 10
181.7910795492878
 20
16.45290418843664
 30
0.0
  0
SPLINE
  5
283DE
102
{ACAD_REACTORS
330
2924F
102
}
330
2
100
AcDbEntity
  8
Layer 1
100
AcDbSpline
210
0.0
220
0.0
230
1.0
 70
     9
 71
     3
 72
    17
 73
    13
 74
     0
 42
0.000000001
 43
0.0000000001
 40
0.0
 40
0.0
 40
0.0
 40
0.0
 40
1.0
 40
1.0
 40
1.0
 40
2.0
 40
2.0
 40
2.0
 40
3.0
 40
3.0
 40
3.0
 40
4.0
 40
4.0
 40
4.0
 40
4.0
 10
180.5601580003133
 20
14.03592259769957
 30
0.0
 10
179.3462034426861
 20
14.03592259769957
 30
0.0
 10
178.6444956059075
 20
14.82122708326844
 30
0.0
 10
178.6444956059075
 20
15.84582914846934
 30
0.0
 10
178.6444956059075
 20
16.96515090928503
 30
0.0
 10
179.4798538021865
 20
18.2015905322701
 30
0.0
 10
181.0336695795833
 20
18.2015905322701
 30
0.0
 10
182.2978081961256
 20
18.2015905322701
 30
0.0
 10
182.9994074094001
 20
17.37737952148851
 30
0.0
 10
182.9994074094001
 20
16.38045231117175
 30
0.0
 10
182.9994074094001
 20
15.26664862436664
 30
0.0
 10
182.1696541859351
 20
14.03592259769957
 30
0.0
 10
180.5601580003133
 20
14.03592259769957
 30
0.0
  0
SPLINE
  5
283E0
102
{ACAD_REACTORS
330
29296
102
}
330
2
100
AcDbEntity
  8
Layer 1
100
AcDbSpline
210
0.0
220
0.0
230
1.0
 70
     9
 71
     3
 72
    17
 73
    13
 74
     0
 42
0.000000001
 43
0.0000000001
 40
0.0
 40
0.0
 40
0.0
 40
0.0
 40
1.0
 40
1.0
 40
1.0
 40
2.0
 40
2.0
 40
2.0
 40
3.0
 40
3.0
 40
3.0
 40
4.0
 40
4.0
 40
4.0
 40
4.0
 10
186.2818793564661
 20
16.45290418843664
 30
0.0
 10
186.2818793564661
 20
17.02658836322959
 30
0.0
 10
185.936586961489
 20
17.29940715624096
 30
0.0
 10
185.5353969112787
 20
17.29940715624096
 30
0.0
 10
184.7727078392728
 20
17.29940715624096
 30
0.0
 10
184.3550732870125
 20
16.4362654577993
 30
0.0
 10
184.3550732870125
 20
15.83479300044823
 30
0.0
 10
184.3550732870125
 20
15.25561247634553
 30
0.0
 10
184.7112921100291
 20
14.98268505982995
 30
0.0
 10
185.1233879600556
 20
14.98268505982995
 30
0.0
 10
185.9476231095101
 20
14.98268505982995
 30
0.0
 10
186.2818793564661
 20
15.87935036184862
 30
0.0
 10
186.2818793564661
 20
16.45290418843664
 30
0.0
  0
SPLINE
  5
283E1
102
{ACAD_REACTORS
330
29296
102
}
330
2
100
AcDbEntity
  8
Layer 1
100
AcDbSpline
210
0.0
220
0.0
230
1.0
 70
     9
 71
     3
 72
    17
 73
    13
 74
     0
 42
0.000000001
 43
0.0000000001
 40
0.0
 40
0.0
 40
0.0
 40
0.0
 40
1.0
 40
1.0
 40
1.0
 40
2.0
 40
2.0
 40
2.0
 40
3.0
 40
3.0
 40
3.0
 40
4.0
 40
4.0
 40
4.0
 40
4.0
 10
185.0510447062948
 20
14.03592259769957
 30
0.0
 10
183.8371987721718
 20
14.03592259769957
 30
0.0
 10
183.1354040365899
 20
14.82122708326844
 30
0.0
 10
183.1354040365899
 20
15.84582914846934
 30
0.0
 10
183.1354040365899
 20
16.96515090928503
 30
0.0
 10
183.9706536093648
 20
18.2015905322701
 30
0.0
 10
185.5245780102658
 20
18.2015905322701
 30
0.0
 10
186.7886080033038
 20
18.2015905322701
 30
0.0
 10
187.4903158400824
 20
17.37737952148851
 30
0.0
 10
187.4903158400824
 20
16.38045231117175
 30
0.0
 10
187.4903158400824
 20
15.26664862436664
 30
0.0
 10
186.6605626166174
 20
14.03592259769957
 30
0.0
 10
185.0510447062948
 20
14.03592259769957
 30
0.0
  0
TEXT
  5
2844E
330
2
100
AcDbEntity
  8
0
 62
     2
100
AcDbText
 10
163.835162709018
 20
9.530318431344863
 30
0.0
 40
1.920799999999999
  1
www.maritool.com
  7
굴림
100
AcDbText
  0
TEXT
  5
28454
330
2
100
AcDbEntity
  8
0
 62
     2
100
AcDbText
 10
150.7028602913993
 20
3.096349981285209
 30
0.0
 40
1.536639999999999
  1
ITEM#
  7
굴림
100
AcDbText
  0
TEXT
  5
28455
330
2
100
AcDbEntity
  8
0
 62
     2
100
AcDbText
 10
163.1678228719486
 20
2.731248603417343
 30
0.0
 40
2.304959999999999
  1
HSK63A-D2.0-1.75
  7
굴림
100
AcDbText
  0
HATCH
  5
28498
330
2
100
AcDbEntity
  8
0
  6
Continuous
 62
    93
100
AcDbHatch
 10
0.0
 20
0.0
 30
0.0
210
0.0
220
0.0
230
1.0
  2
SOLID
 70
     1
 71
     1
 91
        1
 92
        7
 72
     0
 73
     1
 93
        8
 10
171.1176471331676
 20
19.48545517716509
 10
170.8373984924728
 20
18.56365439628725
 10
177.3481175333351
 20
18.56333096970653
 10
176.1021190419852
 20
14.24267657548976
 10
177.3230906779801
 20
14.24267657548976
 10
178.5688501976208
 20
18.56333096970653
 10
189.6233133711463
 20
18.56278540825408
 10
189.9049511631299
 20
19.4847165373369
 97
        1
330
283DB
 75
     1
 76
     1
 47
0.0428322549537331
 98
        1
 10
179.3849069410317
 20
19.0299746131267
450
        0
451
        0
460
0.0
461
0.0
452
        0
462
1.0
453
        2
463
0.0
 63
     5
421
      255
463
1.0
 63
     2
421
 16776960
470
LINEAR
1001
GRADIENTCOLOR1ACI
1070
     5
1001
GRADIENTCOLOR2ACI
1070
     2
1001
ACAD
1010
0.0
1020
0.0
1030
0.0
  0
SPLINE
  5
2910D
102
{ACAD_REACTORS
330
29214
102
}
330
2
100
AcDbEntity
  8
Layer 1
100
AcDbSpline
210
0.0
220
0.0
230
1.0
 70
    24
 71
     3
 72
     8
 73
     4
 74
     0
 42
0.000000001
 43
0.0000000001
 40
0.0
 40
0.0
 40
0.0
 40
0.0
 40
1.0
 40
1.0
 40
1.0
 40
1.0
 10
190.0611952114926
 20
15.06615136041526
 30
0.0
 10
190.0611952114926
 20
15.06615136041526
 30
0.0
 10
189.7590927547581
 20
14.15293183636484
 30
0.0
 10
189.7590927547581
 20
14.15293183636484
 30
0.0
  0
SPLINE
  5
2910E
102
{ACAD_REACTORS
330
29214
102
}
330
2
100
AcDbEntity
  8
Layer 1
100
AcDbSpline
210
0.0
220
0.0
230
1.0
 70
    24
 71
     3
 72
     8
 73
     4
 74
     0
 42
0.000000001
 43
0.0000000001
 40
1.0
 40
1.0
 40
1.0
 40
1.0
 40
2.0
 40
2.0
 40
2.0
 40
2.0
 10
189.7590927547581
 20
14.15293183636484
 30
0.0
 10
189.7590927547581
 20
14.15293183636484
 30
0.0
 10
187.2138690220326
 20
14.15293183636484
 30
0.0
 10
187.2138690220326
 20
14.15293183636484
 30
0.0
  0
SPLINE
  5
2910F
102
{ACAD_REACTORS
330
29214
102
}
330
2
100
AcDbEntity
  8
Layer 1
100
AcDbSpline
210
0.0
220
0.0
230
1.0
 70
    24
 71
     3
 72
     8
 73
     4
 74
     0
 42
0.000000001
 43
0.0000000001
 40
2.0
 40
2.0
 40
2.0
 40
2.0
 40
3.0
 40
3.0
 40
3.0
 40
3.0
 10
187.2138690220326
 20
14.15293183636484
 30
0.0
 10
187.2138690220326
 20
14.15293183636484
 30
0.0
 10
188.266256979594
 20
18.08471164180978
 30
0.0
 10
188.266256979594
 20
18.08471164180978
 30
0.0
  0
SPLINE
  5
29110
102
{ACAD_REACTORS
330
29214
102
}
330
2
100
AcDbEntity
  8
Layer 1
100
AcDbSpline
210
0.0
220
0.0
230
1.0
 70
    24
 71
     3
 72
     8
 73
     4
 74
     0
 42
0.000000001
 43
0.0000000001
 40
3.0
 40
3.0
 40
3.0
 40
3.0
 40
4.0
 40
4.0
 40
4.0
 40
4.0
 10
188.266256979594
 20
18.08471164180978
 30
0.0
 10
188.266256979594
 20
18.08471164180978
 30
0.0
 10
189.5028052260832
 20
18.08471164180978
 30
0.0
 10
189.5028052260832
 20
18.08471164180978
 30
0.0
  0
SPLINE
  5
29111
102
{ACAD_REACTORS
330
29214
102
}
330
2
100
AcDbEntity
  8
Layer 1
100
AcDbSpline
210
0.0
220
0.0
230
1.0
 70
    24
 71
     3
 72
     8
 73
     4
 74
     0
 42
0.000000001
 43
0.0000000001
 40
4.0
 40
4.0
 40
4.0
 40
4.0
 40
5.0
 40
5.0
 40
5.0
 40
5.0
 10
189.5028052260832
 20
18.08471164180978
 30
0.0
 10
189.5028052260832
 20
18.08471164180978
 30
0.0
 10
188.6952341282835
 20
15.06615136041526
 30
0.0
 10
188.6952341282835
 20
15.06615136041526
 30
0.0
  0
SPLINE
  5
29112
102
{ACAD_REACTORS
330
29214
102
}
330
2
100
AcDbEntity
  8
Layer 1
100
AcDbSpline
210
0.0
220
0.0
230
1.0
 70
    24
 71
     3
 72
     8
 73
     4
 74
     0
 42
0.000000001
 43
0.0000000001
 40
5.0
 40
5.0
 40
5.0
 40
5.0
 40
6.0
 40
6.0
 40
6.0
 40
6.0
 10
188.6952341282835
 20
15.06615136041526
 30
0.0
 10
188.6952341282835
 20
15.06615136041526
 30
0.0
 10
190.0611952114926
 20
15.06615136041526
 30
0.0
 10
190.0611952114926
 20
15.06615136041526
 30
0.0
  0
HATCH
  5
29214
330
2
100
AcDbEntity
  8
0
  6
Continuous
 62
     0
100
AcDbHatch
 10
0.0
 20
0.0
 30
0.0
210
0.0
220
0.0
230
1.0
  2
SOLID
 70
     1
 71
     1
 91
        1
 92
        5
 93
        6
 72
     4
 94
        3
 73
     0
 74
     0
 95
        8
 96
        4
 40
4.0
 40
4.0
 40
4.0
 40
4.0
 40
5.0
 40
5.0
 40
5.0
 40
5.0
 10
188.6952341282835
 20
15.06615136041526
 10
188.6952341282835
 20
15.06615136041526
 10
189.5028052260832
 20
18.08471164180978
 10
189.5028052260832
 20
18.08471164180978
 97
        0
 72
     4
 94
        3
 73
     0
 74
     0
 95
        8
 96
        4
 40
3.0
 40
3.0
 40
3.0
 40
3.0
 40
4.0
 40
4.0
 40
4.0
 40
4.0
 10
189.5028052260832
 20
18.08471164180978
 10
189.5028052260832
 20
18.08471164180978
 10
188.266256979594
 20
18.08471164180978
 10
188.266256979594
 20
18.08471164180978
 97
        0
 72
     4
 94
        3
 73
     0
 74
     0
 95
        8
 96
        4
 40
2.0
 40
2.0
 40
2.0
 40
2.0
 40
3.0
 40
3.0
 40
3.0
 40
3.0
 10
188.266256979594
 20
18.08471164180978
 10
188.266256979594
 20
18.08471164180978
 10
187.2138690220326
 20
14.15293183636484
 10
187.2138690220326
 20
14.15293183636484
 97
        0
 72
     4
 94
        3
 73
     0
 74
     0
 95
        8
 96
        4
 40
1.0
 40
1.0
 40
1.0
 40
1.0
 40
2.0
 40
2.0
 40
2.0
 40
2.0
 10
187.2138690220326
 20
14.15293183636484
 10
187.2138690220326
 20
14.15293183636484
 10
189.7590927547581
 20
14.15293183636484
 10
189.7590927547581
 20
14.15293183636484
 97
        0
 72
     4
 94
        3
 73
     0
 74
     0
 95
        8
 96
        4
 40
0.0
 40
0.0
 40
0.0
 40
0.0
 40
1.0
 40
1.0
 40
1.0
 40
1.0
 10
189.7590927547581
 20
14.15293183636484
 10
189.7590927547581
 20
14.15293183636484
 10
190.0611952114926
 20
15.06615136041526
 10
190.0611952114926
 20
15.06615136041526
 97
        0
 72
     4
 94
        3
 73
     0
 74
     0
 95
        8
 96
        4
 40
5.0
 40
5.0
 40
5.0
 40
5.0
 40
6.0
 40
6.0
 40
6.0
 40
6.0
 10
190.0611952114926
 20
15.06615136041526
 10
190.0611952114926
 20
15.06615136041526
 10
188.6952341282835
 20
15.06615136041526
 10
188.6952341282835
 20
15.06615136041526
 97
        0
 97
        6
330
29111
330
29110
330
2910F
330
2910E
330
2910D
330
29112
 75
     1
 76
     1
 47
0.0168242271866721
 98
        1
 10
188.3165694657684
 20
15.32262975684921
450
        0
451
        0
460
0.0
461
0.0
452
        0
462
1.0
453
        2
463
0.0
 63
     5
421
      255
463
1.0
 63
     2
421
 16776960
470
LINEAR
1001
GRADIENTCOLOR1ACI
1070
     5
1001
GRADIENTCOLOR2ACI
1070
     2
1001
ACAD
1010
0.0
1020
0.0
1030
0.0
  0
SPLINE
  5
29215
102
{ACAD_REACTORS
330
29234
102
}
330
2
100
AcDbEntity
  8
Layer 1
100
AcDbSpline
210
0.0
220
0.0
230
1.0
 70
     8
 71
     3
 72
     8
 73
     4
 74
     0
 42
0.000000001
 43
0.0000000001
 40
0.0
 40
0.0
 40
0.0
 40
0.0
 40
1.0
 40
1.0
 40
1.0
 40
1.0
 10
173.7440331151959
 20
17.12893342883533
 30
0.0
 10
173.7440331151959
 20
17.92410092858055
 30
0.0
 10
173.0440198050819
 20
18.20415404696795
 30
0.0
 10
172.4336434059053
 20
18.20415404696795
 30
0.0
  0
SPLINE
  5
29216
102
{ACAD_REACTORS
330
29234
102
}
330
2
100
AcDbEntity
  8
Layer 1
100
AcDbSpline
210
0.0
220
0.0
230
1.0
 70
    24
 71
     3
 72
     8
 73
     4
 74
     0
 42
0.000000001
 43
0.0000000001
 40
1.0
 40
1.0
 40
1.0
 40
1.0
 40
2.0
 40
2.0
 40
2.0
 40
2.0
 10
172.4336434059053
 20
18.20415404696795
 30
0.0
 10
172.4336434059053
 20
18.20415404696795
 30
0.0
 10
170.6863256740829
 20
18.20415404696795
 30
0.0
 10
170.6863256740829
 20
18.20415404696795
 30
0.0
  0
SPLINE
  5
29217
102
{ACAD_REACTORS
330
29234
102
}
330
2
100
AcDbEntity
  8
Layer 1
100
AcDbSpline
210
0.0
220
0.0
230
1.0
 70
    24
 71
     3
 72
     8
 73
     4
 74
     0
 42
0.000000001
 43
0.0000000001
 40
2.0
 40
2.0
 40
2.0
 40
2.0
 40
3.0
 40
3.0
 40
3.0
 40
3.0
 10
170.6863256740829
 20
18.20415404696795
 30
0.0
 10
170.6863256740829
 20
18.20415404696795
 30
0.0
 10
169.622270801001
 20
14.25032600515746
 30
0.0
 10
169.622270801001
 20
14.25032600515746
 30
0.0
  0
SPLINE
  5
29218
102
{ACAD_REACTORS
330
29234
102
}
330
2
100
AcDbEntity
  8
Layer 1
100
AcDbSpline
210
0.0
220
0.0
230
1.0
 70
    24
 71
     3
 72
     8
 73
     4
 74
     0
 42
0.000000001
 43
0.0000000001
 40
3.0
 40
3.0
 40
3.0
 40
3.0
 40
4.0
 40
4.0
 40
4.0
 40
4.0
 10
169.622270801001
 20
14.25032600515746
 30
0.0
 10
169.622270801001
 20
14.25032600515746
 30
0.0
 10
170.8769591726825
 20
14.25032600515746
 30
0.0
 10
170.8769591726825
 20
14.25032600515746
 30
0.0
  0
SPLINE
  5
29219
102
{ACAD_REACTORS
330
29234
102
}
330
2
100
AcDbEntity
  8
Layer 1
100
AcDbSpline
210
0.0
220
0.0
230
1.0
 70
    24
 71
     3
 72
     8
 73
     4
 74
     0
 42
0.000000001
 43
0.0000000001
 40
4.0
 40
4.0
 40
4.0
 40
4.0
 40
5.0
 40
5.0
 40
5.0
 40
5.0
 10
170.8769591726825
 20
14.25032600515746
 30
0.0
 10
170.8769591726825
 20
14.25032600515746
 30
0.0
 10
171.699912564788
 20
17.31924180809787
 30
0.0
 10
171.699912564788
 20
17.31924180809787
 30
0.0
  0
SPLINE
  5
2921A
102
{ACAD_REACTORS
330
29234
102
}
330
2
100
AcDbEntity
  8
Layer 1
100
AcDbSpline
210
0.0
220
0.0
230
1.0
 70
    24
 71
     3
 72
     8
 73
     4
 74
     0
 42
0.000000001
 43
0.0000000001
 40
5.0
 40
5.0
 40
5.0
 40
5.0
 40
6.0
 40
6.0
 40
6.0
 40
6.0
 10
171.699912564788
 20
17.31924180809787
 30
0.0
 10
171.699912564788
 20
17.31924180809787
 30
0.0
 10
172.0695800740953
 20
17.31924180809787
 30
0.0
 10
172.0695800740953
 20
17.31924180809787
 30
0.0
  0
SPLINE
  5
2921B
102
{ACAD_REACTORS
330
29234
102
}
330
2
100
AcDbEntity
  8
Layer 1
100
AcDbSpline
210
0.0
220
0.0
230
1.0
 70
     8
 71
     3
 72
    11
 73
     7
 74
     0
 42
0.000000001
 43
0.0000000001
 40
6.0
 40
6.0
 40
6.0
 40
6.0
 40
7.0
 40
7.0
 40
7.0
 40
8.0
 40
8.0
 40
8.0
 40
8.0
 10
172.0695800740953
 20
17.31924180809787
 30
0.0
 10
172.2878915927265
 20
17.31924180809787
 30
0.0
 10
172.5120470558808
 20
17.26886222687526
 30
0.0
 10
172.5120470558808
 20
17.00017112702145
 30
0.0
 10
172.5120470558808
 20
16.85463735616762
 30
0.0
 10
172.4001213972094
 20
16.61925022268471
 30
0.0
 10
172.0304538879023
 20
16.63059051651746
 30
0.0
  0
SPLINE
  5
2921C
102
{ACAD_REACTORS
330
29234
102
}
330
2
100
AcDbEntity
  8
Layer 1
100
AcDbSpline
210
0.0
220
0.0
230
1.0
 70
    24
 71
     3
 72
     8
 73
     4
 74
     0
 42
0.000000001
 43
0.0000000001
 40
8.0
 40
8.0
 40
8.0
 40
8.0
 40
9.0
 40
9.0
 40
9.0
 40
9.0
 10
172.0304538879023
 20
16.63059051651746
 30
0.0
 10
172.0304538879023
 20
16.63059051651746
 30
0.0
 10
171.7936763735663
 20
15.76384012754053
 30
0.0
 10
171.7936763735663
 20
15.76384012754053
 30
0.0
  0
SPLINE
  5
2921D
102
{ACAD_REACTORS
330
29234
102
}
330
2
100
AcDbEntity
  8
Layer 1
100
AcDbSpline
210
0.0
220
0.0
230
1.0
 70
    24
 71
     3
 72
     8
 73
     4
 74
     0
 42
0.000000001
 43
0.0000000001
 40
9.0
 40
9.0
 40
9.0
 40
9.0
 40
10.0
 40
10.0
 40
10.0
 40
10.0
 10
171.7936763735663
 20
15.76384012754053
 30
0.0
 10
171.7936763735663
 20
15.76384012754053
 30
0.0
 10
172.2458977460239
 20
14.18942933375766
 30
0.0
 10
172.2458977460239
 20
14.18942933375766
 30
0.0
  0
SPLINE
  5
2921E
102
{ACAD_REACTORS
330
29234
102
}
330
2
100
AcDbEntity
  8
Layer 1
100
AcDbSpline
210
0.0
220
0.0
230
1.0
 70
    24
 71
     3
 72
     8
 73
     4
 74
     0
 42
0.000000001
 43
0.0000000001
 40
10.0
 40
10.0
 40
10.0
 40
10.0
 40
11.0
 40
11.0
 40
11.0
 40
11.0
 10
172.2458977460239
 20
14.18942933375766
 30
0.0
 10
172.2458977460239
 20
14.18942933375766
 30
0.0
 10
173.2804722656148
 20
14.18942933375766
 30
0.0
 10
173.2804722656148
 20
14.18942933375766
 30
0.0
  0
SPLINE
  5
2921F
102
{ACAD_REACTORS
330
29234
102
}
330
2
100
AcDbEntity
  8
Layer 1
100
AcDbSpline
210
0.0
220
0.0
230
1.0
 70
    24
 71
     3
 72
     8
 73
     4
 74
     0
 42
0.000000001
 43
0.0000000001
 40
11.0
 40
11.0
 40
11.0
 40
11.0
 40
12.0
 40
12.0
 40
12.0
 40
12.0
 10
173.2804722656148
 20
14.18942933375766
 30
0.0
 10
173.2804722656148
 20
14.18942933375766
 30
0.0
 10
172.7174106528179
 20
15.87044323450866
 30
0.0
 10
172.7174106528179
 20
15.87044323450866
 30
0.0
  0
SPLINE
  5
29220
102
{ACAD_REACTORS
330
29234
102
}
330
2
100
AcDbEntity
  8
Layer 1
100
AcDbSpline
210
0.0
220
0.0
230
1.0
 70
     8
 71
     3
 72
     8
 73
     4
 74
     0
 42
0.000000001
 43
0.0000000001
 40
12.0
 40
12.0
 40
12.0
 40
12.0
 40
13.0
 40
13.0
 40
13.0
 40
13.0
 10
172.7174106528179
 20
15.87044323450866
 30
0.0
 10
172.8935979765416
 20
15.92401634675318
 30
0.0
 10
173.068416644113
 20
16.00272493785687
 30
0.0
 10
173.2230747893151
 20
16.12088558566612
 30
0.0
  0
SPLINE
  5
29221
102
{ACAD_REACTORS
330
29234
102
}
330
2
100
AcDbEntity
  8
Layer 1
100
AcDbSpline
210
0.0
220
0.0
230
1.0
 70
     8
 71
     3
 72
     8
 73
     4
 74
     0
 42
0.000000001
 43
0.0000000001
 40
13.0
 40
13.0
 40
13.0
 40
13.0
 40
14.0
 40
14.0
 40
14.0
 40
14.0
 10
173.2230747893151
 20
16.12088558566612
 30
0.0
 10
173.5647608839545
 20
16.38416723501345
 30
0.0
 10
173.7440331151959
 20
16.75948316653634
 30
0.0
 10
173.7440331151959
 20
17.12893342883533
 30
0.0
  0
HATCH
  5
29234
330
2
100
AcDbEntity
  8
0
  6
Continuous
 62
     0
100
AcDbHatch
 10
0.0
 20
0.0
 30
0.0
210
0.0
220
0.0
230
1.0
  2
SOLID
 70
     1
 71
     1
 91
        1
 92
        5
 93
       14
 72
     4
 94
        3
 73
     0
 74
     0
 95
        8
 96
        4
 40
11.0
 40
11.0
 40
11.0
 40
11.0
 40
12.0
 40
12.0
 40
12.0
 40
12.0
 10
173.2804722656148
 20
14.18942933375766
 10
173.2804722656148
 20
14.18942933375766
 10
172.7174106528179
 20
15.87044323450866
 10
172.7174106528179
 20
15.87044323450866
 97
        0
 72
     4
 94
        3
 73
     0
 74
     0
 95
        8
 96
        4
 40
12.0
 40
12.0
 40
12.0
 40
12.0
 40
13.0
 40
13.0
 40
13.0
 40
13.0
 10
172.7174106528179
 20
15.87044323450866
 10
172.8935979765416
 20
15.92401634675318
 10
173.068416644113
 20
16.00272493785687
 10
173.2230747893151
 20
16.12088558566612
 97
        0
 72
     4
 94
        3
 73
     0
 74
     0
 95
        8
 96
        4
 40
13.0
 40
13.0
 40
13.0
 40
13.0
 40
14.0
 40
14.0
 40
14.0
 40
14.0
 10
173.2230747893151
 20
16.12088558566612
 10
173.5647608839545
 20
16.38416723501345
 10
173.7440331151959
 20
16.75948316653634
 10
173.7440331151959
 20
17.12893342883533
 97
        0
 72
     4
 94
        3
 73
     0
 74
     0
 95
        8
 96
        4
 40
0.0
 40
0.0
 40
0.0
 40
0.0
 40
1.0
 40
1.0
 40
1.0
 40
1.0
 10
173.7440331151959
 20
17.12893342883533
 10
173.7440331151959
 20
17.92410092858055
 10
173.0440198050819
 20
18.20415404696795
 10
172.4336434059053
 20
18.20415404696795
 97
        0
 72
     4
 94
        3
 73
     0
 74
     0
 95
        8
 96
        4
 40
1.0
 40
1.0
 40
1.0
 40
1.0
 40
2.0
 40
2.0
 40
2.0
 40
2.0
 10
172.4336434059053
 20
18.20415404696795
 10
172.4336434059053
 20
18.20415404696795
 10
170.6863256740829
 20
18.20415404696795
 10
170.6863256740829
 20
18.20415404696795
 97
        0
 72
     4
 94
        3
 73
     0
 74
     0
 95
        8
 96
        4
 40
2.0
 40
2.0
 40
2.0
 40
2.0
 40
3.0
 40
3.0
 40
3.0
 40
3.0
 10
170.6863256740829
 20
18.20415404696795
 10
170.6863256740829
 20
18.20415404696795
 10
169.622270801001
 20
14.25032600515746
 10
169.622270801001
 20
14.25032600515746
 97
        0
 72
     4
 94
        3
 73
     0
 74
     0
 95
        8
 96
        4
 40
3.0
 40
3.0
 40
3.0
 40
3.0
 40
4.0
 40
4.0
 40
4.0
 40
4.0
 10
169.622270801001
 20
14.25032600515746
 10
169.622270801001
 20
14.25032600515746
 10
170.8769591726825
 20
14.25032600515746
 10
170.8769591726825
 20
14.25032600515746
 97
        0
 72
     4
 94
        3
 73
     0
 74
     0
 95
        8
 96
        4
 40
4.0
 40
4.0
 40
4.0
 40
4.0
 40
5.0
 40
5.0
 40
5.0
 40
5.0
 10
170.8769591726825
 20
14.25032600515746
 10
170.8769591726825
 20
14.25032600515746
 10
171.699912564788
 20
17.31924180809787
 10
171.699912564788
 20
17.31924180809787
 97
        0
 72
     4
 94
        3
 73
     0
 74
     0
 95
        8
 96
        4
 40
5.0
 40
5.0
 40
5.0
 40
5.0
 40
6.0
 40
6.0
 40
6.0
 40
6.0
 10
171.699912564788
 20
17.31924180809787
 10
171.699912564788
 20
17.31924180809787
 10
172.0695800740953
 20
17.31924180809787
 10
172.0695800740953
 20
17.31924180809787
 97
        0
 72
     4
 94
        3
 73
     0
 74
     0
 95
        8
 96
        4
 40
6.0
 40
6.0
 40
6.0
 40
6.0
 40
7.0
 40
7.0
 40
7.0
 40
7.0
 10
172.5120470558808
 20
17.00017112702145
 10
172.5120470558808
 20
17.26886222687526
 10
172.2878915927265
 20
17.31924180809787
 10
172.0695800740953
 20
17.31924180809787
 97
        0
 72
     4
 94
        3
 73
     0
 74
     0
 95
        8
 96
        4
 40
7.0
 40
7.0
 40
7.0
 40
7.0
 40
8.0
 40
8.0
 40
8.0
 40
8.0
 10
172.5120470558808
 20
17.00017112702145
 10
172.5120470558808
 20
16.85463735616762
 10
172.4001213972094
 20
16.61925022268471
 10
172.0304538879023
 20
16.63059051651746
 97
        0
 72
     4
 94
        3
 73
     0
 74
     0
 95
        8
 96
        4
 40
8.0
 40
8.0
 40
8.0
 40
8.0
 40
9.0
 40
9.0
 40
9.0
 40
9.0
 10
172.0304538879023
 20
16.63059051651746
 10
172.0304538879023
 20
16.63059051651746
 10
171.7936763735663
 20
15.76384012754053
 10
171.7936763735663
 20
15.76384012754053
 97
        0
 72
     4
 94
        3
 73
     0
 74
     0
 95
        8
 96
        4
 40
9.0
 40
9.0
 40
9.0
 40
9.0
 40
10.0
 40
10.0
 40
10.0
 40
10.0
 10
171.7936763735663
 20
15.76384012754053
 10
171.7936763735663
 20
15.76384012754053
 10
172.2458977460239
 20
14.18942933375766
 10
172.2458977460239
 20
14.18942933375766
 97
        0
 72
     4
 94
        3
 73
     0
 74
     0
 95
        8
 96
        4
 40
10.0
 40
10.0
 40
10.0
 40
10.0
 40
11.0
 40
11.0
 40
11.0
 40
11.0
 10
172.2458977460239
 20
14.18942933375766
 10
172.2458977460239
 20
14.18942933375766
 10
173.2804722656148
 20
14.18942933375766
 10
173.2804722656148
 20
14.18942933375766
 97
        0
 97
       13
330
2921F
330
29220
330
29221
330
29215
330
29216
330
29217
330
29218
330
29219
330
2921A
330
2921B
330
2921C
330
2921D
330
2921E
 75
     1
 76
     1
 47
0.0269459378258844
 98
        1
 10
172.4408134720003
 20
15.66599422765198
450
        0
451
        0
460
0.0
461
0.0
452
        0
462
1.0
453
        2
463
0.0
 63
     5
421
      255
463
1.0
 63
     2
421
 16776960
470
LINEAR
1001
GRADIENTCOLOR1ACI
1070
     5
1001
GRADIENTCOLOR2ACI
1070
     2
1001
ACAD
1010
0.0
1020
0.0
1030
0.0
  0
HATCH
  5
2923A
330
2
100
AcDbEntity
  8
0
  6
Continuous
 62
     0
100
AcDbHatch
 10
0.0
 20
0.0
 30
0.0
210
0.0
220
0.0
230
1.0
  2
SOLID
 70
     1
 71
     1
 91
        1
 92
        5
 93
        1
 72
     4
 94
        3
 73
     0
 74
     0
 95
       17
 96
       13
 40
0.0
 40
0.0
 40
0.0
 40
0.0
 40
1.0
 40
1.0
 40
1.0
 40
2.0
 40
2.0
 40
2.0
 40
3.0
 40
3.0
 40
3.0
 40
4.0
 40
4.0
 40
4.0
 40
4.0
 10
174.8642029960616
 20
14.24267657548975
 10
174.8642029960616
 20
14.24267657548975
 10
173.6433608515541
 20
14.24267657548975
 10
173.6433608515541
 20
14.24267657548975
 10
173.6433608515541
 20
14.24267657548975
 10
174.70189689945
 20
18.19640076343424
 10
174.70189689945
 20
18.19640076343424
 10
174.70189689945
 20
18.19640076343424
 10
175.9226512884364
 20
18.19640076343424
 10
175.9226512884364
 20
18.19640076343424
 10
175.9226512884364
 20
18.19640076343424
 10
174.8642029960616
 20
14.24267657548975
 10
174.8642029960616
 20
14.24267657548975
 97
        0
 97
        1
330
283D7
 75
     1
 76
     1
 47
0.0269459378258844
 98
        1
 10
174.3566066968947
 20
15.32270299255676
450
        0
451
        0
460
0.0
461
0.0
452
        0
462
1.0
453
        2
463
0.0
 63
     5
421
      255
463
1.0
 63
     2
421
 16776960
470
LINEAR
1001
GRADIENTCOLOR1ACI
1070
     5
1001
GRADIENTCOLOR2ACI
1070
     2
1001
ACAD
1010
0.0
1020
0.0
1030
0.0
  0
HATCH
  5
2924F
330
2
100
AcDbEntity
  8
0
  6
Continuous
 62
     0
100
AcDbHatch
 10
0.0
 20
0.0
 30
0.0
210
0.0
220
0.0
230
1.0
  2
SOLID
 70
     1
 71
     1
 91
        2
 92
        5
 93
        4
 72
     4
 94
        3
 73
     0
 74
     0
 95
        8
 96
        4
 40
0.0
 40
0.0
 40
0.0
 40
0.0
 40
1.0
 40
1.0
 40
1.0
 40
1.0
 10
178.6444956059075
 20
15.84582914846934
 10
178.6444956059075
 20
14.82122708326844
 10
179.3462034426861
 20
14.03592259769957
 10
180.5601580003133
 20
14.03592259769957
 97
        0
 72
     4
 94
        3
 73
     0
 74
     0
 95
        8
 96
        4
 40
3.0
 40
3.0
 40
3.0
 40
3.0
 40
4.0
 40
4.0
 40
4.0
 40
4.0
 10
180.5601580003133
 20
14.03592259769957
 10
182.1696541859351
 20
14.03592259769957
 10
182.9994074094001
 20
15.26664862436664
 10
182.9994074094001
 20
16.38045231117175
 97
        0
 72
     4
 94
        3
 73
     0
 74
     0
 95
        8
 96
        4
 40
2.0
 40
2.0
 40
2.0
 40
2.0
 40
3.0
 40
3.0
 40
3.0
 40
3.0
 10
182.9994074094001
 20
16.38045231117175
 10
182.9994074094001
 20
17.37737952148851
 10
182.2978081961256
 20
18.2015905322701
 10
181.0336695795833
 20
18.2015905322701
 97
        0
 72
     4
 94
        3
 73
     0
 74
     0
 95
        8
 96
        4
 40
1.0
 40
1.0
 40
1.0
 40
1.0
 40
2.0
 40
2.0
 40
2.0
 40
2.0
 10
181.0336695795833
 20
18.2015905322701
 10
179.4798538021865
 20
18.2015905322701
 10
178.6444956059075
 20
16.96515090928503
 10
178.6444956059075
 20
15.84582914846934
 97
        0
 97
        1
330
283DE
 92
       20
 93
        4
 72
     4
 94
        3
 73
     0
 74
     0
 95
        8
 96
        4
 40
2.0
 40
2.0
 40
2.0
 40
2.0
 40
3.0
 40
3.0
 40
3.0
 40
3.0
 10
180.6326967763815
 20
14.98268505982995
 10
180.220600926355
 20
14.98268505982995
 10
179.8640768610493
 20
15.25561247634553
 10
179.8640768610493
 20
15.83479300044823
 97
        0
 72
     4
 94
        3
 73
     0
 74
     0
 95
        8
 96
        4
 40
1.0
 40
1.0
 40
1.0
 40
1.0
 40
2.0
 40
2.0
 40
2.0
 40
2.0
 10
179.8640768610493
 20
15.83479300044823
 10
179.8640768610493
 20
16.4362654577993
 10
180.2819090256753
 20
17.29940715624096
 10
181.0448143511087
 20
17.29940715624096
 97
        0
 72
     4
 94
        3
 73
     0
 74
     0
 95
        8
 96
        4
 40
0.0
 40
0.0
 40
0.0
 40
0.0
 40
1.0
 40
1.0
 40
1.0
 40
1.0
 10
181.0448143511087
 20
17.29940715624096
 10
181.4457871543106
 20
17.29940715624096
 10
181.7910795492878
 20
17.02658836322959
 10
181.7910795492878
 20
16.45290418843664
 97
        0
 72
     4
 94
        3
 73
     0
 74
     0
 95
        8
 96
        4
 40
3.0
 40
3.0
 40
3.0
 40
3.0
 40
4.0
 40
4.0
 40
4.0
 40
4.0
 10
181.7910795492878
 20
16.45290418843664
 10
181.7910795492878
 20
15.87935036184862
 10
181.4570405493402
 20
14.98268505982995
 10
180.6326967763815
 20
14.98268505982995
 97
        0
 97
        1
330
283DD
 75
     1
 76
     1
 47
0.0269459378258844
 98
        2
 10
179.4830058049958
 20
15.24348255446985
 10
179.4830058049958
 20
15.24348255446985
450
        0
451
        0
460
0.0
461
0.0
452
        0
462
1.0
453
        2
463
0.0
 63
     5
421
      255
463
1.0
 63
     2
421
 16776960
470
LINEAR
1001
GRADIENTCOLOR1ACI
1070
     5
1001
GRADIENTCOLOR2ACI
1070
     2
1001
ACAD
1010
0.0
1020
0.0
1030
0.0
  0
HATCH
  5
29296
330
2
100
AcDbEntity
  8
0
  6
Continuous
 62
     0
100
AcDbHatch
 10
0.0
 20
0.0
 30
0.0
210
0.0
220
0.0
230
1.0
  2
SOLID
 70
     1
 71
     1
 91
        2
 92
        5
 93
        4
 72
     4
 94
        3
 73
     0
 74
     0
 95
        8
 96
        4
 40
0.0
 40
0.0
 40
0.0
 40
0.0
 40
1.0
 40
1.0
 40
1.0
 40
1.0
 10
183.1354040365899
 20
15.84582914846934
 10
183.1354040365899
 20
14.82122708326844
 10
183.8371987721718
 20
14.03592259769957
 10
185.0510447062948
 20
14.03592259769957
 97
        0
 72
     4
 94
        3
 73
     0
 74
     0
 95
        8
 96
        4
 40
3.0
 40
3.0
 40
3.0
 40
3.0
 40
4.0
 40
4.0
 40
4.0
 40
4.0
 10
185.0510447062948
 20
14.03592259769957
 10
186.6605626166174
 20
14.03592259769957
 10
187.4903158400824
 20
15.26664862436664
 10
187.4903158400824
 20
16.38045231117175
 97
        0
 72
     4
 94
        3
 73
     0
 74
     0
 95
        8
 96
        4
 40
2.0
 40
2.0
 40
2.0
 40
2.0
 40
3.0
 40
3.0
 40
3.0
 40
3.0
 10
187.4903158400824
 20
16.38045231117175
 10
187.4903158400824
 20
17.37737952148851
 10
186.7886080033038
 20
18.2015905322701
 10
185.5245780102658
 20
18.2015905322701
 97
        0
 72
     4
 94
        3
 73
     0
 74
     0
 95
        8
 96
        4
 40
1.0
 40
1.0
 40
1.0
 40
1.0
 40
2.0
 40
2.0
 40
2.0
 40
2.0
 10
185.5245780102658
 20
18.2015905322701
 10
183.9706536093648
 20
18.2015905322701
 10
183.1354040365899
 20
16.96515090928503
 10
183.1354040365899
 20
15.84582914846934
 97
        0
 97
        1
330
283E1
 92
       20
 93
        4
 72
     4
 94
        3
 73
     0
 74
     0
 95
        8
 96
        4
 40
2.0
 40
2.0
 40
2.0
 40
2.0
 40
3.0
 40
3.0
 40
3.0
 40
3.0
 10
185.1233879600556
 20
14.98268505982995
 10
184.7112921100291
 20
14.98268505982995
 10
184.3550732870125
 20
15.25561247634553
 10
184.3550732870125
 20
15.83479300044823
 97
        0
 72
     4
 94
        3
 73
     0
 74
     0
 95
        8
 96
        4
 40
1.0
 40
1.0
 40
1.0
 40
1.0
 40
2.0
 40
2.0
 40
2.0
 40
2.0
 10
184.3550732870125
 20
15.83479300044823
 10
184.3550732870125
 20
16.4362654577993
 10
184.7727078392728
 20
17.29940715624096
 10
185.5353969112787
 20
17.29940715624096
 97
        0
 72
     4
 94
        3
 73
     0
 74
     0
 95
        8
 96
        4
 40
0.0
 40
0.0
 40
0.0
 40
0.0
 40
1.0
 40
1.0
 40
1.0
 40
1.0
 10
185.5353969112787
 20
17.29940715624096
 10
185.936586961489
 20
17.29940715624096
 10
186.2818793564661
 20
17.02658836322959
 10
186.2818793564661
 20
16.45290418843664
 97
        0
 72
     4
 94
        3
 73
     0
 74
     0
 95
        8
 96
        4
 40
3.0
 40
3.0
 40
3.0
 40
3.0
 40
4.0
 40
4.0
 40
4.0
 40
4.0
 10
186.2818793564661
 20
16.45290418843664
 10
186.2818793564661
 20
15.87935036184862
 10
185.9476231095101
 20
14.98268505982995
 10
185.1233879600556
 20
14.98268505982995
 97
        0
 97
        1
330
283E0
 75
     1
 76
     1
 47
0.0269459378258844
 98
        2
 10
184.2790955840298
 20
15.56036659543332
 10
184.2790955840298
 20
15.56036659543332
450
        0
451
        0
460
0.0
461
0.0
452
        0
462
1.0
453
        2
463
0.0
 63
     5
421
      255
463
1.0
 63
     2
421
 16776960
470
LINEAR
1001
GRADIENTCOLOR1ACI
1070
     5
1001
GRADIENTCOLOR2ACI
1070
     2
1001
ACAD
1010
0.0
1020
0.0
1030
0.0
  0
HATCH
  5
2929D
330
2
100
AcDbEntity
  8
0
  6
Continuous
 62
     0
100
AcDbHatch
 10
0.0
 20
0.0
 30
0.0
210
0.0
220
0.0
230
1.0
  2
SOLID
 70
     1
 71
     1
 91
        1
 92
        5
 93
        1
 72
     4
 94
        3
 73
     0
 74
     0
 95
       41
 96
       37
 40
0.0
 40
0.0
 40
0.0
 40
0.0
 40
1.0
 40
1.0
 40
1.0
 40
2.0
 40
2.0
 40
2.0
 40
3.0
 40
3.0
 40
3.0
 40
4.0
 40
4.0
 40
4.0
 40
5.0
 40
5.0
 40
5.0
 40
6.0
 40
6.0
 40
6.0
 40
7.0
 40
7.0
 40
7.0
 40
8.0
 40
8.0
 40
8.0
 40
9.0
 40
9.0
 40
9.0
 40
10.0
 40
10.0
 40
10.0
 40
11.0
 40
11.0
 40
11.0
 40
12.0
 40
12.0
 40
12.0
 40
12.0
 10
166.5031686041695
 20
14.24267657548975
 10
166.5031686041695
 20
14.24267657548975
 10
165.220781238931
 20
14.24267657548975
 10
165.220781238931
 20
14.24267657548975
 10
165.220781238931
 20
14.24267657548975
 10
167.7856435461096
 20
18.20191640278259
 10
167.7856435461096
 20
18.20191640278259
 10
167.7856435461096
 20
18.20191640278259
 10
169.1073743779392
 20
18.20191640278259
 10
169.1073743779392
 20
18.20191640278259
 10
169.1073743779392
 20
18.20191640278259
 10
169.4042851528821
 20
14.24267657548975
 10
169.4042851528821
 20
14.24267657548975
 10
169.4042851528821
 20
14.24267657548975
 10
168.2113383809568
 20
14.24267657548975
 10
168.2113383809568
 20
14.24267657548975
 10
168.2113383809568
 20
14.24267657548975
 10
168.1720818465587
 20
14.88116553285582
 10
168.1720818465587
 20
14.88116553285582
 10
168.1720818465587
 20
14.88116553285582
 10
167.3073301300579
 20
14.88116553285582
 10
167.3073301300579
 20
14.88116553285582
 10
167.3073301300579
 20
14.88116553285582
 10
167.736631943141
 20
15.70420582376474
 10
167.736631943141
 20
15.70420582376474
 10
167.736631943141
 20
15.70420582376474
 10
168.1329339356647
 20
15.70420582376474
 10
168.1329339356647
 20
15.70420582376474
 10
168.1329339356647
 20
15.70420582376474
 10
168.082445730938
 20
16.86354448350753
 10
168.082445730938
 20
16.86354448350753
 10
168.082445730938
 20
16.86354448350753
 10
166.5095345871734
 20
14.25158370282972
 10
166.5095345871734
 20
14.25158370282972
 10
166.5095345871734
 20
14.25158370282972
 10
166.5031686041695
 20
14.24267657548975
 10
166.5031686041695
 20
14.24267657548975
 97
        0
 97
        1
330
283D6
 75
     1
 76
     1
 47
0.0269459378258844
 98
        1
 10
168.9131094840873
 20
15.87725063639679
450
        0
451
        0
460
0.0
461
0.0
452
        0
462
1.0
453
        2
463
0.0
 63
     5
421
      255
463
1.0
 63
     2
421
 16776960
470
LINEAR
1001
GRADIENTCOLOR1ACI
1070
     5
1001
GRADIENTCOLOR2ACI
1070
     2
1001
ACAD
1010
0.0
1020
0.0
1030
0.0
  0
SPLINE
  5
2942D
102
{ACAD_REACTORS
330
2944B
102
}
330
2
100
AcDbEntity
  8
Layer 1
100
AcDbSpline
210
0.0
220
0.0
230
1.0
 70
    24
 71
     3
 72
     8
 73
     4
 74
     0
 42
0.000000001
 43
0.0000000001
 40
0.0
 40
0.0
 40
0.0
 40
0.0
 40
1.0
 40
1.0
 40
1.0
 40
1.0
 10
165.0977325334351
 20
14.24267657548975
 30
0.0
 10
165.0977325334351
 20
14.24267657548975
 30
0.0
 10
163.86574647412
 20
14.24267657548975
 30
0.0
 10
163.86574647412
 20
14.24267657548975
 30
0.0
  0
SPLINE
  5
2942E
102
{ACAD_REACTORS
330
2944B
102
}
330
2
100
AcDbEntity
  8
Layer 1
100
AcDbSpline
210
0.0
220
0.0
230
1.0
 70
    24
 71
     3
 72
     8
 73
     4
 74
     0
 42
0.000000001
 43
0.0000000001
 40
1.0
 40
1.0
 40
1.0
 40
1.0
 40
2.0
 40
2.0
 40
2.0
 40
2.0
 10
163.86574647412
 20
14.24267657548975
 30
0.0
 10
163.86574647412
 20
14.24267657548975
 30
0.0
 10
164.4258527108948
 20
16.80762510357349
 30
0.0
 10
164.4258527108948
 20
16.80762510357349
 30
0.0
  0
SPLINE
  5
2942F
102
{ACAD_REACTORS
330
2944B
102
}
330
2
100
AcDbEntity
  8
Layer 1
100
AcDbSpline
210
0.0
220
0.0
230
1.0
 70
    24
 71
     3
 72
     8
 73
     4
 74
     0
 42
0.000000001
 43
0.0000000001
 40
2.0
 40
2.0
 40
2.0
 40
2.0
 40
3.0
 40
3.0
 40
3.0
 40
3.0
 10
164.4258527108948
 20
16.80762510357349
 30
0.0
 10
164.4258527108948
 20
16.80762510357349
 30
0.0
 10
162.7681711388343
 20
14.24267657548975
 30
0.0
 10
162.7681711388343
 20
14.24267657548975
 30
0.0
  0
SPLINE
  5
29430
102
{ACAD_REACTORS
330
2944B
102
}
330
2
100
AcDbEntity
  8
Layer 1
100
AcDbSpline
210
0.0
220
0.0
230
1.0
 70
    24
 71
     3
 72
     8
 73
     4
 74
     0
 42
0.000000001
 43
0.0000000001
 40
3.0
 40
3.0
 40
3.0
 40
3.0
 40
4.0
 40
4.0
 40
4.0
 40
4.0
 10
162.7681711388343
 20
14.24267657548975
 30
0.0
 10
162.7681711388343
 20
14.24267657548975
 30
0.0
 10
162.376106004214
 20
14.24267657548975
 30
0.0
 10
162.376106004214
 20
14.24267657548975
 30
0.0
  0
SPLINE
  5
29431
102
{ACAD_REACTORS
330
2944B
102
}
330
2
100
AcDbEntity
  8
Layer 1
100
AcDbSpline
210
0.0
220
0.0
230
1.0
 70
    24
 71
     3
 72
     8
 73
     4
 74
     0
 42
0.000000001
 43
0.0000000001
 40
4.0
 40
4.0
 40
4.0
 40
4.0
 40
5.0
 40
5.0
 40
5.0
 40
5.0
 10
162.376106004214
 20
14.24267657548975
 30
0.0
 10
162.376106004214
 20
14.24267657548975
 30
0.0
 10
162.0793031339894
 20
16.86354448350753
 30
0.0
 10
162.0793031339894
 20
16.86354448350753
 30
0.0
  0
SPLINE
  5
29432
102
{ACAD_REACTORS
330
2944B
102
}
330
2
100
AcDbEntity
  8
Layer 1
100
AcDbSpline
210
0.0
220
0.0
230
1.0
 70
    24
 71
     3
 72
     8
 73
     4
 74
     0
 42
0.000000001
 43
0.0000000001
 40
5.0
 40
5.0
 40
5.0
 40
5.0
 40
6.0
 40
6.0
 40
6.0
 40
6.0
 10
162.0793031339894
 20
16.86354448350753
 30
0.0
 10
162.0793031339894
 20
16.86354448350753
 30
0.0
 10
161.2671686223805
 20
14.24267657548975
 30
0.0
 10
161.2671686223805
 20
14.24267657548975
 30
0.0
  0
SPLINE
  5
29433
102
{ACAD_REACTORS
330
2944B
102
}
330
2
100
AcDbEntity
  8
Layer 1
100
AcDbSpline
210
0.0
220
0.0
230
1.0
 70
    24
 71
     3
 72
     8
 73
     4
 74
     0
 42
0.000000001
 43
0.0000000001
 40
6.0
 40
6.0
 40
6.0
 40
6.0
 40
7.0
 40
7.0
 40
7.0
 40
7.0
 10
161.2671686223805
 20
14.24267657548975
 30
0.0
 10
161.2671686223805
 20
14.24267657548975
 30
0.0
 10
160.0631856720189
 20
14.24267657548975
 30
0.0
 10
160.0631856720189
 20
14.24267657548975
 30
0.0
  0
SPLINE
  5
29434
102
{ACAD_REACTORS
330
2944B
102
}
330
2
100
AcDbEntity
  8
Layer 1
100
AcDbSpline
210
0.0
220
0.0
230
1.0
 70
    24
 71
     3
 72
     8
 73
     4
 74
     0
 42
0.000000001
 43
0.0000000001
 40
7.0
 40
7.0
 40
7.0
 40
7.0
 40
8.0
 40
8.0
 40
8.0
 40
8.0
 10
160.0631856720189
 20
14.24267657548975
 30
0.0
 10
160.0631856720189
 20
14.24267657548975
 30
0.0
 10
161.502338514796
 20
18.19640076343424
 30
0.0
 10
161.502338514796
 20
18.19640076343424
 30
0.0
  0
SPLINE
  5
29435
102
{ACAD_REACTORS
330
2944B
102
}
330
2
100
AcDbEntity
  8
Layer 1
100
AcDbSpline
210
0.0
220
0.0
230
1.0
 70
    24
 71
     3
 72
     8
 73
     4
 74
     0
 42
0.000000001
 43
0.0000000001
 40
8.0
 40
8.0
 40
8.0
 40
8.0
 40
9.0
 40
9.0
 40
9.0
 40
9.0
 10
161.502338514796
 20
18.19640076343424
 30
0.0
 10
161.502338514796
 20
18.19640076343424
 30
0.0
 10
162.8074282253702
 20
18.19640076343424
 30
0.0
 10
162.8074282253702
 20
18.19640076343424
 30
0.0
  0
SPLINE
  5
29436
102
{ACAD_REACTORS
330
2944B
102
}
330
2
100
AcDbEntity
  8
Layer 1
100
AcDbSpline
210
0.0
220
0.0
230
1.0
 70
    24
 71
     3
 72
     8
 73
     4
 74
     0
 42
0.000000001
 43
0.0000000001
 40
9.0
 40
9.0
 40
9.0
 40
9.0
 40
10.0
 40
10.0
 40
10.0
 40
10.0
 10
162.8074282253702
 20
18.19640076343424
 30
0.0
 10
162.8074282253702
 20
18.19640076343424
 30
0.0
 10
163.0480070102133
 20
16.02362410005438
 30
0.0
 10
163.0480070102133
 20
16.02362410005438
 30
0.0
  0
SPLINE
  5
29437
102
{ACAD_REACTORS
330
2944B
102
}
330
2
100
AcDbEntity
  8
Layer 1
100
AcDbSpline
210
0.0
220
0.0
230
1.0
 70
    24
 71
     3
 72
     8
 73
     4
 74
     0
 42
0.000000001
 43
0.0000000001
 40
10.0
 40
10.0
 40
10.0
 40
10.0
 40
11.0
 40
11.0
 40
11.0
 40
11.0
 10
163.0480070102133
 20
16.02362410005438
 30
0.0
 10
163.0480070102133
 20
16.02362410005438
 30
0.0
 10
164.4144906923612
 20
18.19640076343424
 30
0.0
 10
164.4144906923612
 20
18.19640076343424
 30
0.0
  0
SPLINE
  5
29438
102
{ACAD_REACTORS
330
2944B
102
}
330
2
100
AcDbEntity
  8
Layer 1
100
AcDbSpline
210
0.0
220
0.0
230
1.0
 70
    24
 71
     3
 72
     8
 73
     4
 74
     0
 42
0.000000001
 43
0.0000000001
 40
11.0
 40
11.0
 40
11.0
 40
11.0
 40
12.0
 40
12.0
 40
12.0
 40
12.0
 10
164.4144906923612
 20
18.19640076343424
 30
0.0
 10
164.4144906923612
 20
18.19640076343424
 30
0.0
 10
165.7419568118201
 20
18.19640076343424
 30
0.0
 10
165.7419568118201
 20
18.19640076343424
 30
0.0
  0
SPLINE
  5
29439
102
{ACAD_REACTORS
330
2944B
102
}
330
2
100
AcDbEntity
  8
Layer 1
100
AcDbSpline
210
0.0
220
0.0
230
1.0
 70
    24
 71
     3
 72
     8
 73
     4
 74
     0
 42
0.000000001
 43
0.0000000001
 40
12.0
 40
12.0
 40
12.0
 40
12.0
 40
13.0
 40
13.0
 40
13.0
 40
13.0
 10
165.7419568118201
 20
18.19640076343424
 30
0.0
 10
165.7419568118201
 20
18.19640076343424
 30
0.0
 10
165.0977325334351
 20
14.24267657548975
 30
0.0
 10
165.0977325334351
 20
14.24267657548975
 30
0.0
  0
HATCH
  5
2944B
330
2
100
AcDbEntity
  8
0
  6
Continuous
 62
     0
100
AcDbHatch
 10
0.0
 20
0.0
 30
0.0
210
0.0
220
0.0
230
1.0
  2
SOLID
 70
     1
 71
     1
 91
        1
 92
        5
 93
       13
 72
     4
 94
        3
 73
     0
 74
     0
 95
        8
 96
        4
 40
1.0
 40
1.0
 40
1.0
 40
1.0
 40
2.0
 40
2.0
 40
2.0
 40
2.0
 10
164.4258527108948
 20
16.80762510357349
 10
164.4258527108948
 20
16.80762510357349
 10
163.86574647412
 20
14.24267657548975
 10
163.86574647412
 20
14.24267657548975
 97
        0
 72
     4
 94
        3
 73
     0
 74
     0
 95
        8
 96
        4
 40
0.0
 40
0.0
 40
0.0
 40
0.0
 40
1.0
 40
1.0
 40
1.0
 40
1.0
 10
163.86574647412
 20
14.24267657548975
 10
163.86574647412
 20
14.24267657548975
 10
165.0977325334351
 20
14.24267657548975
 10
165.0977325334351
 20
14.24267657548975
 97
        0
 72
     4
 94
        3
 73
     0
 74
     0
 95
        8
 96
        4
 40
12.0
 40
12.0
 40
12.0
 40
12.0
 40
13.0
 40
13.0
 40
13.0
 40
13.0
 10
165.0977325334351
 20
14.24267657548975
 10
165.0977325334351
 20
14.24267657548975
 10
165.7419568118201
 20
18.19640076343424
 10
165.7419568118201
 20
18.19640076343424
 97
        0
 72
     4
 94
        3
 73
     0
 74
     0
 95
        8
 96
        4
 40
11.0
 40
11.0
 40
11.0
 40
11.0
 40
12.0
 40
12.0
 40
12.0
 40
12.0
 10
165.7419568118201
 20
18.19640076343424
 10
165.7419568118201
 20
18.19640076343424
 10
164.4144906923612
 20
18.19640076343424
 10
164.4144906923612
 20
18.19640076343424
 97
        0
 72
     4
 94
        3
 73
     0
 74
     0
 95
        8
 96
        4
 40
10.0
 40
10.0
 40
10.0
 40
10.0
 40
11.0
 40
11.0
 40
11.0
 40
11.0
 10
164.4144906923612
 20
18.19640076343424
 10
164.4144906923612
 20
18.19640076343424
 10
163.0480070102133
 20
16.02362410005438
 10
163.0480070102133
 20
16.02362410005438
 97
        0
 72
     4
 94
        3
 73
     0
 74
     0
 95
        8
 96
        4
 40
9.0
 40
9.0
 40
9.0
 40
9.0
 40
10.0
 40
10.0
 40
10.0
 40
10.0
 10
163.0480070102133
 20
16.02362410005438
 10
163.0480070102133
 20
16.02362410005438
 10
162.8074282253702
 20
18.19640076343424
 10
162.8074282253702
 20
18.19640076343424
 97
        0
 72
     4
 94
        3
 73
     0
 74
     0
 95
        8
 96
        4
 40
8.0
 40
8.0
 40
8.0
 40
8.0
 40
9.0
 40
9.0
 40
9.0
 40
9.0
 10
162.8074282253702
 20
18.19640076343424
 10
162.8074282253702
 20
18.19640076343424
 10
161.502338514796
 20
18.19640076343424
 10
161.502338514796
 20
18.19640076343424
 97
        0
 72
     4
 94
        3
 73
     0
 74
     0
 95
        8
 96
        4
 40
7.0
 40
7.0
 40
7.0
 40
7.0
 40
8.0
 40
8.0
 40
8.0
 40
8.0
 10
161.502338514796
 20
18.19640076343424
 10
161.502338514796
 20
18.19640076343424
 10
160.0631856720189
 20
14.24267657548975
 10
160.0631856720189
 20
14.24267657548975
 97
        0
 72
     4
 94
        3
 73
     0
 74
     0
 95
        8
 96
        4
 40
6.0
 40
6.0
 40
6.0
 40
6.0
 40
7.0
 40
7.0
 40
7.0
 40
7.0
 10
160.0631856720189
 20
14.24267657548975
 10
160.0631856720189
 20
14.24267657548975
 10
161.2671686223805
 20
14.24267657548975
 10
161.2671686223805
 20
14.24267657548975
 97
        0
 72
     4
 94
        3
 73
     0
 74
     0
 95
        8
 96
        4
 40
5.0
 40
5.0
 40
5.0
 40
5.0
 40
6.0
 40
6.0
 40
6.0
 40
6.0
 10
161.2671686223805
 20
14.24267657548975
 10
161.2671686223805
 20
14.24267657548975
 10
162.0793031339894
 20
16.86354448350753
 10
162.0793031339894
 20
16.86354448350753
 97
        0
 72
     4
 94
        3
 73
     0
 74
     0
 95
        8
 96
        4
 40
4.0
 40
4.0
 40
4.0
 40
4.0
 40
5.0
 40
5.0
 40
5.0
 40
5.0
 10
162.0793031339894
 20
16.86354448350753
 10
162.0793031339894
 20
16.86354448350753
 10
162.376106004214
 20
14.24267657548975
 10
162.376106004214
 20
14.24267657548975
 97
        0
 72
     4
 94
        3
 73
     0
 74
     0
 95
        8
 96
        4
 40
3.0
 40
3.0
 40
3.0
 40
3.0
 40
4.0
 40
4.0
 40
4.0
 40
4.0
 10
162.376106004214
 20
14.24267657548975
 10
162.376106004214
 20
14.24267657548975
 10
162.7681711388343
 20
14.24267657548975
 10
162.7681711388343
 20
14.24267657548975
 97
        0
 72
     4
 94
        3
 73
     0
 74
     0
 95
        8
 96
        4
 40
2.0
 40
2.0
 40
2.0
 40
2.0
 40
3.0
 40
3.0
 40
3.0
 40
3.0
 10
162.7681711388343
 20
14.24267657548975
 10
162.7681711388343
 20
14.24267657548975
 10
164.4258527108948
 20
16.80762510357349
 10
164.4258527108948
 20
16.80762510357349
 97
        0
 97
       13
330
29439
330
29438
330
29437
330
29436
330
29435
330
29434
330
29433
330
29432
330
29431
330
29430
330
2942F
330
2942E
330
2942D
 75
     1
 76
     1
 47
0.0269459378258844
 98
        1
 10
164.4973107632059
 20
15.58688593174223
450
        0
451
        0
460
0.0
461
0.0
452
        0
462
1.0
453
        2
463
0.0
 63
     5
421
      255
463
1.0
 63
     2
421
 16776960
470
LINEAR
1001
GRADIENTCOLOR1ACI
1070
     5
1001
GRADIENTCOLOR2ACI
1070
     2
1001
ACAD
1010
0.0
1020
0.0
1030
0.0
  0
LINE
  5
2E3D4
330
2
100
AcDbEntity
  8
0
  6
Continuous
 62
     3
100
AcDbLine
 10
44.19817109932864
 20
44.49733123584519
 30
0.0
 11
44.19817109932864
 21
33.00929401922031
 31
0.0
  0
MTEXT
  5
2E3D5
330
2
100
AcDbEntity
  8
0
  6
Continuous
 62
     2
100
AcDbMText
 10
44.19870526847626
 20
30.56047891542403
 30
0.0
 40
3.0
 41
0.0
 46
0.0
 71
     5
 72
     1
  1
0.00
 73
     1
 44
1.0
  0
LINE
  5
2E3D6
330
2
100
AcDbEntity
  8
0
  6
Continuous
 62
     3
100
AcDbLine
 10
70.19817109932865
 20
44.49733123584519
 30
0.0
 11
70.19817109932865
 21
33.04205263980475
 31
0.0
  0
MTEXT
  5
2E3D9
330
2
100
AcDbEntity
  8
0
  6
Continuous
 62
     2
100
AcDbMText
 10
69.9043571661814
 20
30.56047891542403
 30
0.0
 40
3.0
 41
0.0
 46
0.0
 71
     5
 72
     1
  1
1.02
 73
     1
 44
1.0
  0
LINE
  5
2E3DC
330
2
100
AcDbEntity
  8
0
  6
Continuous
 62
     3
100
AcDbLine
 10
12.1981710993291
 20
53.92125839491246
 30
0.0
 11
12.1981710993291
 21
33.00929401922031
 31
0.0
  0
MTEXT
  5
2E3DD
330
2
100
AcDbEntity
  8
0
  6
Continuous
 62
     2
100
AcDbMText
 10
12.19870526847671
 20
30.56047891542403
 30
0.0
 40
3.0
 41
0.0
 46
0.0
 71
     5
 72
     1
  1
1.26
 73
     1
 44
1.0
  0
LINE
  5
2E446
330
2
100
AcDbEntity
  8
0
  6
CENTER
 62
     3
100
AcDbLine
 10
10.1981710993291
 20
76.19733123584547
 30
0.0
 11
90.64817109932892
 21
76.19733123584547
 31
0.0
  0
HATCH
  5
2E447
330
2
100
AcDbEntity
  8
0
  6
Continuous
 62
     4
100
AcDbHatch
 10
0.0
 20
0.0
 30
0.0
210
0.0
220
0.0
230
1.0
  2
ANSI31
 70
     0
 71
     0
 91
        3
 92
       23
 72
     1
 73
     1
 93
       42
 10
88.64817109932891
 20
101.5973312358455
 42
0.0
 10
71.21417109932872
 20
101.597331235845
 42
0.0
 10
70.19817109932865
 20
102.613331235845
 42
0.0
 10
70.1981710993291
 20
107.1973312358454
 42
0.4142135623731242
 10
69.6981710993291
 20
107.6973312358454
 42
0.0
 10
65.57567017408882
 20
107.6973312358454
 42
0.0
 10
64.0731710993291
 20
105.0949265000376
 42
0.0
 10
64.0731710993291
 20
104.1973312358454
 42
-0.4142135623730951
 10
63.5731710993291
 20
103.6973312358455
 42
0.0
 10
62.1981710993291
 20
103.6973312358455
 42
0.0
 10
60.8231710993291
 20
103.6973312358455
 42
-0.4142135623730951
 10
60.3231710993291
 20
104.1973312358454
 42
0.0
 10
60.3231710993291
 20
105.0949265000376
 42
0.0
 10
58.82067202457029
 20
107.6973312358454
 42
0.0
 10
56.1981710993291
 20
107.6973312358454
 42
0.0
 10
56.1981710993291
 20
102.9973312358457
 42
-0.4142135623730951
 10
55.89817109932892
 20
102.6973312358456
 42
0.0
 10
52.06419650311318
 20
102.6973312358455
 42
0.0
 10
51.1981710993291
 20
102.1973312358454
 42
0.0
 10
50.33214569554502
 20
102.6973312358455
 42
0.0
 10
49.56408503736611
 20
102.6973312358455
 42
0.0
 10
54.05841467605023
 20
92.5795791397474
 42
-0.1092053559285917
 10
54.1981710993291
 20
91.94733123584546
 42
0.0
 10
54.1981710993291
 20
85.19733123584547
 42
0.0
 10
61.1981710993291
 20
85.19733123584547
 42
0.0
 10
61.1981710993291
 20
85.69733123584546
 42
0.0
 10
66.1981710993291
 20
85.69733123584546
 42
0.0
 10
66.1981710993291
 20
81.04733123584578
 42
0.0
 10
66.74817109932928
 20
80.49733123584536
 42
0.0
 10
88.14817109932983
 20
80.497331235846
 42
0.0
 10
88.64817109932891
 20
80.78600637044024
 42
0.0
 10
88.64817109932891
 20
88.65758123584555
 42
0.0
 10
88.14817109932983
 20
89.15758123584538
 42
0.0
 10
81.02817109932903
 20
89.15758123584543
 42
0.0
 10
81.02817109932903
 20
89.23883123584545
 42
0.0
 10
79.02817109932903
 20
89.23883123584545
 42
0.0
 10
77.70026548019314
 20
91.53883123584547
 42
0.0
 10
79.02817109932903
 20
93.83883123584547
 42
0.0
 10
81.02817109932903
 20
93.83883123584547
 42
0.0
 10
81.02817109932903
 20
93.92008123584549
 42
0.0
 10
88.14817109932983
 20
93.92008123584554
 42
0.0
 10
88.64817109932891
 20
94.42008123584537
 42
0.0
 97
        0
 92
       22
 72
     0
 73
     1
 93
        4
 10
61.1981710993291
 20
85.19733123584547
 10
54.1981710993291
 20
85.19733123584547
 10
54.6981710993291
 20
84.69733123584546
 10
61.1981710993291
 20
84.69733123584546
 97
        0
 92
        7
 72
     1
 73
     1
 93
       61
 10
46.49817109932928
 20
102.6973312358456
 42
-0.4142135623730951
 10
46.1981710993291
 20
102.9973312358457
 42
0.0
 10
46.1981710993291
 20
107.6973312358454
 42
0.0
 10
44.6981710993291
 20
107.6973312358454
 42
0.4142135623730951
 10
44.19817109932909
 20
107.1973312358454
 42
0.0
 10
44.19817109932909
 20
101.6177563505411
 42
0.0
 10
44.29233194057405
 20
100.9012602111172
 42
-0.4557262555327198
 10
43.6981710993291
 20
100.2177563505409
 42
0.0
 10
43.0235727593963
 20
100.2177563505409
 42
-0.0655434628153162
 10
42.86828133233439
 20
100.2382008547675
 42
0.0
 10
42.1981710993291
 20
100.4177563505404
 42
0.0
 10
13.33812776671311
 20
98.97190096797544
 42
0.3996270516291147
 10
12.1981710993291
 20
97.77340407677877
 42
0.0
 10
12.1981710993291
 20
93.77468150503545
 42
0.0
 10
13.1981710993291
 20
93.19733123584546
 42
0.0
 10
25.20214569554492
 20
93.19733123584546
 42
0.0
 10
26.76099142235671
 20
95.89733123584579
 42
-0.2679491924312039
 10
27.28060666462762
 20
96.19733123584603
 42
0.0
 10
37.95317310093106
 20
96.19733123584547
 42
-0.2277350772923592
 10
44.19817109932864
 20
93.19733123584546
 42
0.0
 10
51.86901490174022
 20
93.19733123584546
 42
-0.5982346904416304
 10
54.1981710993291
 20
91.94733123584546
 42
0.0
 10
54.1981710993291
 20
85.19733123584547
 42
0.0
 10
61.1981710993291
 20
85.19733123584547
 42
0.0
 10
61.1981710993291
 20
85.69733123584546
 42
0.0
 10
66.1981710993291
 20
85.69733123584546
 42
0.0
 10
66.1981710993291
 20
81.04733123584578
 42
0.0
 10
66.74817109932928
 20
80.49733123584536
 42
0.0
 10
88.14817109932983
 20
80.497331235846
 42
0.0
 10
88.64817109932891
 20
80.78600637044024
 42
0.0
 10
88.64817109932891
 20
88.65758123584555
 42
0.0
 10
88.14817109932983
 20
89.15758123584538
 42
0.0
 10
81.02817109932903
 20
89.15758123584543
 42
0.0
 10
81.02817109932903
 20
89.23883123584545
 42
0.0
 10
79.02817109932903
 20
89.23883123584545
 42
0.0
 10
77.70026548019314
 20
91.53883123584547
 42
0.0
 10
79.02817109932903
 20
93.83883123584547
 42
0.0
 10
81.02817109932903
 20
93.83883123584547
 42
0.0
 10
81.02817109932903
 20
93.92008123584549
 42
0.0
 10
88.14817109932983
 20
93.92008123584554
 42
0.0
 10
88.64817109932891
 20
94.42008123584537
 42
0.0
 10
88.64817109932891
 20
101.5973312358455
 42
0.0
 10
71.21417109932872
 20
101.597331235845
 42
0.0
 10
70.19817109932865
 20
102.613331235845
 42
0.0
 10
70.1981710993291
 20
107.1973312358454
 42
0.4142135623731242
 10
69.6981710993291
 20
107.6973312358454
 42
0.0
 10
65.57567017408882
 20
107.6973312358454
 42
0.0
 10
64.0731710993291
 20
105.0949265000376
 42
0.0
 10
64.0731710993291
 20
104.1973312358454
 42
-0.4142135623730951
 10
63.5731710993291
 20
103.6973312358455
 42
0.0
 10
62.1981710993291
 20
103.6973312358455
 42
0.0
 10
60.8231710993291
 20
103.6973312358455
 42
-0.4142135623730951
 10
60.3231710993291
 20
104.1973312358454
 42
0.0
 10
60.3231710993291
 20
105.0949265000376
 42
0.0
 10
58.82067202457029
 20
107.6973312358454
 42
0.0
 10
56.1981710993291
 20
107.6973312358454
 42
0.0
 10
56.1981710993291
 20
102.9973312358457
 42
-0.4142135623730951
 10
55.89817109932892
 20
102.6973312358456
 42
0.0
 10
52.06419650311318
 20
102.6973312358455
 42
0.0
 10
51.1981710993291
 20
102.1973312358454
 42
0.0
 10
50.33214569554502
 20
102.6973312358455
 42
0.0
 97
        0
 75
     1
 76
     1
 52
0.0
 41
1.0
 77
     0
 78
     1
 53
45.0
 43
-2821.319001363313
 44
537.6901534570763
 45
-2.245064030267288
 46
2.245064030267288
 79
     0
 47
0.0876597775011672
 98
        3
 10
67.22491818521439
 20
97.44438051304252
 10
58.7386568081215
 20
84.88264030156944
 10
50.84446654474004
 20
95.31415199071245
1001
GRADIENTCOLOR1ACI
1070
     5
1001
GRADIENTCOLOR2ACI
1070
     2
1001
ACAD
1010
0.0
1020
0.0
1030
0.0
  0
HATCH
  5
2E448
330
2
100
AcDbEntity
  8
0
  6
Continuous
 62
     4
100
AcDbHatch
 10
0.0
 20
0.0
 30
0.0
210
0.0
220
0.0
230
1.0
  2
ANSI31
 70
     0
 71
     0
 91
        1
 92
        7
 72
     1
 73
     1
 93
       61
 10
77.70026548019314
 20
91.53883123584547
 42
0.0
 10
79.02817109932903
 20
93.83883123584547
 42
0.0
 10
81.02817109932903
 20
93.83883123584547
 42
0.0
 10
81.02817109932903
 20
93.92008123584549
 42
0.0
 10
88.14817109932983
 20
93.92008123584554
 42
0.0
 10
88.64817109932891
 20
94.42008123584537
 42
0.0
 10
88.64817109932891
 20
101.5973312358455
 42
0.0
 10
71.21417109932872
 20
101.597331235845
 42
0.0
 10
70.19817109932865
 20
102.613331235845
 42
0.0
 10
70.1981710993291
 20
107.1973312358454
 42
0.4142135623731242
 10
69.6981710993291
 20
107.6973312358454
 42
0.0
 10
65.57567017408882
 20
107.6973312358454
 42
0.0
 10
64.0731710993291
 20
105.0949265000376
 42
0.0
 10
64.0731710993291
 20
104.1973312358454
 42
-0.4142135623730951
 10
63.5731710993291
 20
103.6973312358455
 42
0.0
 10
62.1981710993291
 20
103.6973312358455
 42
0.0
 10
60.8231710993291
 20
103.6973312358455
 42
-0.4142135623730951
 10
60.3231710993291
 20
104.1973312358454
 42
0.0
 10
60.3231710993291
 20
105.0949265000376
 42
0.0
 10
58.82067202457029
 20
107.6973312358454
 42
0.0
 10
56.1981710993291
 20
107.6973312358454
 42
0.0
 10
56.1981710993291
 20
102.9973312358457
 42
-0.4142135623730951
 10
55.89817109932892
 20
102.6973312358456
 42
0.0
 10
52.06419650311318
 20
102.6973312358455
 42
0.0
 10
51.1981710993291
 20
102.1973312358454
 42
0.0
 10
50.33214569554502
 20
102.6973312358455
 42
0.0
 10
46.49817109932928
 20
102.6973312358456
 42
-0.4142135623730951
 10
46.1981710993291
 20
102.9973312358457
 42
0.0
 10
46.1981710993291
 20
107.6973312358454
 42
0.0
 10
44.6981710993291
 20
107.6973312358454
 42
0.4142135623730951
 10
44.19817109932909
 20
107.1973312358454
 42
0.0
 10
44.19817109932909
 20
101.6177563505411
 42
0.0
 10
44.29233194057405
 20
100.9012602111172
 42
-0.4557262555327191
 10
43.6981710993291
 20
100.2177563505409
 42
0.0
 10
43.0235727593963
 20
100.2177563505409
 42
-0.0655434628153161
 10
42.86828133233439
 20
100.2382008547675
 42
0.0
 10
42.1981710993291
 20
100.4177563505404
 42
0.0
 10
13.33812776671311
 20
98.97190096797544
 42
0.3996270516291147
 10
12.1981710993291
 20
97.77340407677877
 42
0.0
 10
12.1981710993291
 20
93.77468150503545
 42
0.0
 10
13.1981710993291
 20
93.19733123584546
 42
0.0
 10
25.20214569554492
 20
93.19733123584546
 42
0.0
 10
26.76099142235671
 20
95.89733123584579
 42
-0.2679491924312039
 10
27.28060666462762
 20
96.19733123584603
 42
0.0
 10
37.95317310093106
 20
96.19733123584547
 42
-0.2277350772923592
 10
44.19817109932864
 20
93.19733123584546
 42
0.0
 10
51.86901490174022
 20
93.19733123584546
 42
-0.5982346904416304
 10
54.1981710993291
 20
91.94733123584546
 42
0.0
 10
54.1981710993291
 20
85.19733123584547
 42
0.0
 10
61.1981710993291
 20
85.19733123584547
 42
0.0
 10
61.1981710993291
 20
85.69733123584546
 42
0.0
 10
66.1981710993291
 20
85.69733123584546
 42
0.0
 10
66.1981710993291
 20
81.04733123584578
 42
0.0
 10
66.74817109932928
 20
80.49733123584536
 42
0.0
 10
88.14817109932983
 20
80.497331235846
 42
0.0
 10
88.64817109932891
 20
80.78600637044024
 42
0.0
 10
88.64817109932891
 20
88.65758123584555
 42
0.0
 10
88.14817109932983
 20
89.15758123584538
 42
0.0
 10
81.02817109932903
 20
89.15758123584543
 42
0.0
 10
81.02817109932903
 20
89.23883123584545
 42
0.0
 10
79.02817109932903
 20
89.23883123584545
 42
0.0
 97
        0
 75
     1
 76
     1
 52
0.0
 41
1.0
 77
     0
 78
     1
 53
45.0
 43
-2821.319001363313
 44
537.6901534570763
 45
-2.245064030267288
 46
2.245064030267288
 79
     0
 47
0.0876597775011672
 98
        2
 10
64.43999616438077
 20
90.66817623119579
 10
59.61577892040577
 20
84.79497161301997
1001
GRADIENTCOLOR1ACI
1070
     5
1001
GRADIENTCOLOR2ACI
1070
     2
1001
ACAD
1010
0.0
1020
0.0
1030
0.0
  0
LINE
  5
2E449
330
2
100
AcDbEntity
  8
0
  6
Continuous
100
AcDbLine
 10
44.19817109932909
 20
107.1973312358454
 30
0.0
 11
44.19817109932909
 21
100.4860938715051
 31
0.0
  0
LINE
  5
2E44A
330
2
100
AcDbEntity
  8
0
  6
Continuous
100
AcDbLine
 10
44.6981710993291
 20
107.6973312358454
 30
0.0
 11
58.82067202457029
 21
107.6973312358454
 31
0.0
  0
ARC
  5
2E44B
330
2
100
AcDbEntity
  8
0
  6
Continuous
100
AcDbCircle
 10
44.6981710993291
 20
107.1973312358454
 30
0.0
 40
0.5
100
AcDbArc
 50
90.0
 51
180.0
  0
LINE
  5
2E44C
330
2
100
AcDbEntity
  8
0
  6
Continuous
100
AcDbLine
 10
44.6981710993291
 20
44.69733123584546
 30
0.0
 11
58.82067202457029
 21
44.69733123584546
 31
0.0
  0
CIRCLE
  5
2E44D
330
2
100
AcDbEntity
  8
0
  6
Continuous
100
AcDbCircle
 10
35.1981710993291
 20
76.19733123584547
 30
0.0
 40
3.75
  0
LINE
  5
2E44E
330
2
100
AcDbEntity
  8
0
  6
Continuous
100
AcDbLine
 10
13.33812776671357
 20
98.97190096797613
 30
0.0
 11
42.1981710993291
 21
100.4177563505404
 31
0.0
  0
LINE
  5
2E44F
330
2
100
AcDbEntity
  8
0
  6
Continuous
100
AcDbLine
 10
12.1981710993291
 20
97.77340407677867
 30
0.0
 11
12.1981710993291
 21
83.4673312358459
 31
0.0
  0
ARC
  5
2E450
330
2
100
AcDbEntity
  8
0
  6
Continuous
100
AcDbCircle
 10
13.39817109932892
 20
97.77340407677867
 30
0.0
 40
1.199999999999999
100
AcDbArc
 50
92.86805555551792
 51
180.0
  0
LINE
  5
2E451
330
2
100
AcDbEntity
  8
0
  6
Continuous
100
AcDbLine
 10
13.1981710993291
 20
82.4673312358459
 30
0.0
 11
20.6981710993291
 21
82.4673312358459
 31
0.0
  0
LINE
  5
2E452
330
2
100
AcDbEntity
  8
0
  6
Continuous
100
AcDbLine
 10
22.1981710993291
 20
80.9673312358459
 30
0.0
 11
22.1981710993291
 21
76.19733123584547
 31
0.0
  0
LINE
  5
2E453
330
2
100
AcDbEntity
  8
0
  6
Continuous
100
AcDbLine
 10
13.1981710993291
 20
69.92733123584594
 30
0.0
 11
16.6981710993291
 21
69.92733123584594
 31
0.0
  0
LINE
  5
2E454
330
2
100
AcDbEntity
  8
0
  6
Continuous
100
AcDbLine
 10
12.1981710993291
 20
54.62125839491318
 30
0.0
 11
12.1981710993291
 21
68.92733123584594
 31
0.0
  0
LINE
  5
2E455
330
2
100
AcDbEntity
  8
0
  6
Continuous
100
AcDbLine
 10
18.1981710993291
 20
66.24867739989304
 30
0.0
 11
18.1981710993291
 21
76.19733123584547
 31
0.0
  0
LINE
  5
2E456
330
2
100
AcDbEntity
  8
0
  6
Continuous
100
AcDbLine
 10
13.33812776671357
 20
53.42276150371572
 30
0.0
 11
42.1981710993291
 21
51.97690612115048
 31
0.0
  0
ARC
  5
2E457
330
2
100
AcDbEntity
  8
0
  6
Continuous
100
AcDbCircle
 10
13.39817109932892
 20
54.62125839491318
 30
0.0
 40
1.199999999999999
100
AcDbArc
 50
180.0
 51
267.1319444444364
  0
LINE
  5
2E458
330
2
100
AcDbEntity
  8
0
  6
Continuous
100
AcDbLine
 10
12.1981710993291
 20
83.4673312358459
 30
0.0
 11
13.1981710993291
 21
82.4673312358459
 31
0.0
  0
LINE
  5
2E459
330
2
100
AcDbEntity
  8
0
  6
Continuous
100
AcDbLine
 10
12.1981710993291
 20
68.92733123584594
 30
0.0
 11
13.1981710993291
 21
69.92733123584594
 31
0.0
  0
ARC
  5
2E45A
330
2
100
AcDbEntity
  8
0
  6
Continuous
100
AcDbCircle
 10
20.6981710993291
 20
80.9673312358459
 30
0.0
 40
1.5
100
AcDbArc
 50
0.0
 51
90.0
  0
ARC
  5
2E45B
330
2
100
AcDbEntity
  8
0
  6
Continuous
100
AcDbCircle
 10
16.6981710993291
 20
71.42733123584594
 30
0.0
 40
1.5
100
AcDbArc
 50
270.0
 51
0.0
  0
ARC
  5
2E45C
330
2
100
AcDbEntity
  8
0
  6
Continuous
100
AcDbCircle
 10
35.1981710993291
 20
76.19733123584547
 30
0.0
 40
4.25
100
AcDbArc
 50
180.0
 51
0.0
  0
LINE
  5
2E45D
330
2
100
AcDbEntity
  8
0
  6
Continuous
100
AcDbLine
 10
42.1981710993291
 20
100.4177563505404
 30
0.0
 11
42.86828133233439
 21
100.238200854767
 31
0.0
  0
LINE
  5
2E45E
330
2
100
AcDbEntity
  8
0
  6
Continuous
100
AcDbLine
 10
43.6981710993291
 20
100.2177563505406
 30
0.0
 11
43.02357275939584
 21
100.2177563505406
 31
0.0
  0
LINE
  5
2E45F
330
2
100
AcDbEntity
  8
0
  6
Continuous
100
AcDbLine
 10
44.29817109932947
 20
100.9062193783024
 30
0.0
 11
44.29817109932947
 21
100.817756350541
 31
0.0
  0
ARC
  5
2E460
330
2
100
AcDbEntity
  8
0
  6
Continuous
100
AcDbCircle
 10
43.6981710993291
 20
100.817756350541
 30
0.0
 40
0.6
100
AcDbArc
 50
270.0
 51
0.0
  0
LINE
  5
2E461
330
2
100
AcDbEntity
  8
0
  6
Continuous
100
AcDbLine
 10
44.19817109932909
 20
101.6177563505411
 30
0.0
 11
44.29817109932947
 21
100.9062193783024
 31
0.0
  0
LINE
  5
2E462
330
2
100
AcDbEntity
  8
0
  6
Continuous
100
AcDbLine
 10
42.1981710993291
 20
76.19733123584547
 30
0.0
 11
42.1981710993291
 21
51.97690612115048
 31
0.0
  0
LINE
  5
2E463
330
2
100
AcDbEntity
  8
0
  6
Continuous
100
AcDbLine
 10
42.94458126084328
 20
52.17168367886142
 30
0.0
 11
42.94458126084328
 21
76.19733123584547
 31
0.0
  0
LINE
  5
2E464
330
2
100
AcDbEntity
  8
0
  6
Continuous
100
AcDbLine
 10
13.1981710993291
 20
93.19733123584546
 30
0.0
 11
25.20214569554492
 21
93.19733123584546
 31
0.0
  0
LINE
  5
2E465
330
2
100
AcDbEntity
  8
0
  6
Continuous
100
AcDbLine
 10
13.1981710993291
 20
82.4673312358459
 30
0.0
 11
13.1981710993291
 21
93.19733123584546
 31
0.0
  0
LINE
  5
2E466
330
2
100
AcDbEntity
  8
0
  6
Continuous
100
AcDbLine
 10
13.1981710993291
 20
93.19733123584546
 30
0.0
 11
12.1981710993291
 21
93.77468150503545
 31
0.0
  0
LINE
  5
2E467
330
2
100
AcDbEntity
  8
0
  6
Continuous
100
AcDbLine
 10
13.1981710993291
 20
69.92733123584594
 30
0.0
 11
13.1981710993291
 21
66.49917171930565
 31
0.0
  0
LINE
  5
2E468
330
2
100
AcDbEntity
  8
0
  6
Continuous
100
AcDbLine
 10
13.1981710993291
 20
66.49917171930565
 30
0.0
 11
18.1981710993291
 21
66.24867739989304
 31
0.0
  0
LINE
  5
2E469
330
2
100
AcDbEntity
  8
0
  6
Continuous
100
AcDbLine
 10
12.1981710993291
 20
65.49917171930565
 30
0.0
 11
13.1981710993291
 21
66.49917171930565
 31
0.0
  0
LINE
  5
2E46A
330
2
100
AcDbEntity
  8
0
  6
Continuous
100
AcDbLine
 10
44.19817109932909
 20
45.19733123584546
 30
0.0
 11
44.19817109932909
 21
76.19733123584547
 31
0.0
  0
ARC
  5
2E46B
330
2
100
AcDbEntity
  8
0
  6
Continuous
100
AcDbCircle
 10
44.6981710993291
 20
45.19733123584546
 30
0.0
 40
0.5
100
AcDbArc
 50
180.0
 51
270.0
  0
LINE
  5
2E46C
330
2
100
AcDbEntity
  8
0
  6
Continuous
100
AcDbLine
 10
25.20214569554492
 20
93.19733123584546
 30
0.0
 11
26.76099142235626
 21
95.8973312358462
 31
0.0
  0
LINE
  5
2E46D
330
2
100
AcDbEntity
  8
0
  6
Continuous
100
AcDbLine
 10
27.28060666462762
 20
96.19733123584547
 30
0.0
 11
37.9531731009306
 21
96.19733123584547
 31
0.0
  0
LINE
  5
2E46E
330
2
100
AcDbEntity
  8
0
  6
Continuous
100
AcDbLine
 10
25.20214569554492
 20
93.19733123584546
 30
0.0
 11
25.20214569554492
 21
76.19733123584547
 31
0.0
  0
LINE
  5
2E46F
330
2
100
AcDbEntity
  8
0
  6
Continuous
100
AcDbLine
 10
26.93419650311398
 20
96.08722918440207
 30
0.0
 11
26.93419650311398
 21
76.19733123584547
 31
0.0
  0
ARC
  5
2E470
330
2
100
AcDbEntity
  8
0
  6
Continuous
100
AcDbCircle
 10
27.28060666462762
 20
95.59733123584601
 30
0.0
 40
0.6
100
AcDbArc
 50
90.0
 51
150.0000000000134
  0
LINE
  5
2E471
330
2
100
AcDbEntity
  8
0
  6
Continuous
100
AcDbLine
 10
44.19817109932909
 20
93.19733123584546
 30
0.0
 11
51.86901490174069
 21
93.19733123584546
 31
0.0
  0
ARC
  5
2E472
330
2
100
AcDbEntity
  8
0
  6
Continuous
100
AcDbCircle
 10
37.9531731009306
 20
88.19733123584546
 30
0.0
 40
8.0
100
AcDbArc
 50
38.68218745347728
 51
90.0
  0
LINE
  5
2E473
330
2
100
AcDbEntity
  8
0
  6
Continuous
100
AcDbLine
 10
54.1981710993291
 20
91.94733123584546
 30
0.0
 11
54.1981710993291
 21
76.19733123584547
 31
0.0
  0
LINE
  5
2E474
330
2
100
AcDbEntity
  8
0
  6
Continuous
100
AcDbLine
 10
44.19817109932909
 20
93.19733123584546
 30
0.0
 11
44.19817109932909
 21
76.19733123584547
 31
0.0
  0
ARC
  5
2E475
330
2
100
AcDbEntity
  8
0
  6
Continuous
100
AcDbCircle
 10
52.6981710993291
 20
91.94733123584546
 30
0.0
 40
1.5
100
AcDbArc
 50
0.0
 51
123.5573097618805
  0
LINE
  5
2E476
330
2
100
AcDbEntity
  8
0
  6
Continuous
100
AcDbLine
 10
51.86901490174069
 20
93.19733123584546
 30
0.0
 11
51.86901490174069
 21
76.19733123584547
 31
0.0
  0
LINE
  5
2E477
330
2
100
AcDbEntity
  8
0
  6
Continuous
100
AcDbLine
 10
51.1981710993291
 20
102.1973312358454
 30
0.0
 11
50.33214569554502
 21
102.6973312358455
 31
0.0
  0
LINE
  5
2E478
330
2
100
AcDbEntity
  8
0
  6
Continuous
100
AcDbLine
 10
51.1981710993291
 20
102.6973312358455
 30
0.0
 11
46.49817109932928
 21
102.6973312358455
 31
0.0
  0
LINE
  5
2E479
330
2
100
AcDbEntity
  8
0
  6
Continuous
100
AcDbLine
 10
46.1981710993291
 20
102.9973312358456
 30
0.0
 11
46.1981710993291
 21
107.6973312358454
 31
0.0
  0
ARC
  5
2E47A
330
2
100
AcDbEntity
  8
0
  6
Continuous
100
AcDbCircle
 10
46.49817109932928
 20
102.9973312358456
 30
0.0
 40
0.3
100
AcDbArc
 50
180.0
 51
270.0
  0
LINE
  5
2E47B
330
2
100
AcDbEntity
  8
CT
  6
CENTER
 62
     3
100
AcDbLine
 10
51.1981710993291
 20
100.6468771412287
 30
0.0
 11
51.1981710993291
 21
108.8221135662311
 31
0.0
  0
LINE
  5
2E47C
330
2
100
AcDbEntity
  8
0
  6
Continuous
100
AcDbLine
 10
56.1981710993291
 20
107.6973312358454
 30
0.0
 11
56.1981710993291
 21
102.9973312358456
 31
0.0
  0
LINE
  5
2E47D
330
2
100
AcDbEntity
  8
0
  6
Continuous
100
AcDbLine
 10
51.1981710993291
 20
102.6973312358455
 30
0.0
 11
55.89817109932892
 21
102.6973312358455
 31
0.0
  0
LINE
  5
2E47E
330
2
100
AcDbEntity
  8
0
  6
Continuous
100
AcDbLine
 10
51.1981710993291
 20
102.1973312358454
 30
0.0
 11
52.06419650311318
 21
102.6973312358455
 31
0.0
  0
ARC
  5
2E47F
330
2
100
AcDbEntity
  8
0
  6
Continuous
100
AcDbCircle
 10
55.89817109932892
 20
102.9973312358456
 30
0.0
 40
0.3
100
AcDbArc
 50
270.0
 51
0.0
  0
LINE
  5
2E480
330
2
100
AcDbEntity
  8
0
  6
Continuous
100
AcDbLine
 10
54.6981710993291
 20
84.69733123584546
 30
0.0
 11
61.1981710993291
 21
84.69733123584546
 31
0.0
  0
LINE
  5
2E481
330
2
100
AcDbEntity
  8
0
  6
Continuous
 62
     3
100
AcDbLine
 10
54.1981710993291
 20
85.19733123584547
 30
0.0
 11
61.1981710993291
 21
85.19733123584547
 31
0.0
  0
LINE
  5
2E482
330
2
100
AcDbEntity
  8
0
  6
Continuous
100
AcDbLine
 10
54.6981710993291
 20
84.69733123584546
 30
0.0
 11
54.6981710993291
 21
76.19733123584547
 31
0.0
  0
LINE
  5
2E483
330
2
100
AcDbEntity
  8
0
  6
Continuous
100
AcDbLine
 10
54.6981710993291
 20
84.69733123584546
 30
0.0
 11
54.1981710993291
 21
85.19733123584547
 31
0.0
  0
LINE
  5
2E484
330
2
100
AcDbEntity
  8
0
  6
Continuous
100
AcDbLine
 10
66.1981710993291
 20
85.69733123584546
 30
0.0
 11
66.1981710993291
 21
76.19733123584547
 31
0.0
  0
LINE
  5
2E485
330
2
100
AcDbEntity
  8
0
  6
Continuous
100
AcDbLine
 10
61.1981710993291
 20
85.69733123584546
 30
0.0
 11
61.1981710993291
 21
76.19733123584547
 31
0.0
  0
LINE
  5
2E486
330
2
100
AcDbEntity
  8
0
  6
Continuous
100
AcDbLine
 10
61.1981710993291
 20
85.69733123584546
 30
0.0
 11
66.1981710993291
 21
85.69733123584546
 31
0.0
  0
LINE
  5
2E487
330
2
100
AcDbEntity
  8
0
  6
Continuous
100
AcDbLine
 10
70.1981710993291
 20
45.19733123584546
 30
0.0
 11
70.1981710993291
 21
76.19733123584547
 31
0.0
  0
LINE
  5
2E488
330
2
100
AcDbEntity
  8
0
  6
Continuous
100
AcDbLine
 10
88.64817109932891
 20
51.30533123584524
 30
0.0
 11
88.64817109932891
 21
76.19733123584547
 31
0.0
  0
LINE
  5
2E489
330
2
100
AcDbEntity
  8
0
  6
Continuous
 62
     7
100
AcDbLine
 10
88.1401710993291
 20
50.79733123584526
 30
0.0
 11
88.64817109932891
 21
51.30533123584524
 31
0.0
  0
LINE
  5
2E48A
330
2
100
AcDbEntity
  8
0
  6
Continuous
100
AcDbLine
 10
70.1981710993291
 20
107.1973312358454
 30
0.0
 11
70.19817109932865
 21
102.613331235845
 31
0.0
  0
LINE
  5
2E48B
330
2
100
AcDbEntity
  8
0
  6
Continuous
 62
     7
100
AcDbLine
 10
71.21417109932872
 20
101.597331235845
 30
0.0
 11
70.19817109932865
 21
102.613331235845
 31
0.0
  0
LINE
  5
2E48C
330
2
100
AcDbEntity
  8
0
  6
Continuous
100
AcDbLine
 10
57.1981710993291
 20
68.19733123584547
 30
0.0
 11
70.1981710993291
 21
68.19733123584547
 31
0.0
  0
ARC
  5
2E48D
330
2
100
AcDbEntity
  8
0
  6
Continuous
100
AcDbCircle
 10
57.1981710993291
 20
76.19733123584547
 30
0.0
 40
8.0
100
AcDbArc
 50
180.0
 51
270.0
  0
LINE
  5
2E48E
330
2
100
AcDbEntity
  8
0
  6
Continuous
100
AcDbLine
 10
70.1981710993291
 20
56.19733123584547
 30
0.0
 11
64.0731710993291
 21
56.19733123584547
 31
0.0
  0
LINE
  5
2E48F
330
2
100
AcDbEntity
  8
0
  6
Continuous
100
AcDbLine
 10
70.1981710993291
 20
51.86114418857005
 30
0.0
 11
65.57567017408882
 21
51.86114418857005
 31
0.0
  0
SPLINE
  5
2E490
330
2
100
AcDbEntity
  8
0
  6
Continuous
100
AcDbSpline
210
0.0
220
0.0
230
1.0
 70
     8
 71
     3
 72
    12
 73
     8
 74
     0
 42
0.000000001
 43
0.0000000001
 40
0.0
 40
0.0
 40
0.0
 40
0.0
 40
1.548202861183926
 40
3.326995733343188
 40
5.025827162034554
 40
6.955362372576299
 40
9.569926835470848
 40
9.569926835470848
 40
9.569926835470848
 40
9.569926835470848
 10
49.1981710993291
 20
51.86114418857005
 30
0.0
 10
49.4637632819472
 20
52.30699964857257
 30
0.0
 10
50.03450506297259
 20
53.2651164757055
 30
0.0
 10
51.31043746546584
 20
54.38049581062734
 30
0.0
 10
52.79919705857583
 20
55.40980516224448
 30
0.0
 10
54.80863995723666
 20
56.06798791859415
 30
0.0
 10
56.32544078427144
 20
56.1500910756203
 30
0.0
 10
57.1981710993291
 20
56.19733123584547
 30
0.0
  0
LINE
  5
2E491
330
2
100
AcDbEntity
  8
0
  6
Continuous
100
AcDbLine
 10
60.3231710993291
 20
105.0949265000376
 30
0.0
 11
58.82067202457029
 21
107.6973312358454
 31
0.0
  0
LINE
  5
2E492
330
2
100
AcDbEntity
  8
0
  6
Continuous
100
AcDbLine
 10
60.3231710993291
 20
104.1973312358454
 30
0.0
 11
60.3231710993291
 21
105.0949265000376
 31
0.0
  0
LINE
  5
2E493
330
2
100
AcDbEntity
  8
0
  6
Continuous
100
AcDbLine
 10
64.0731710993291
 20
104.1973312358454
 30
0.0
 11
64.0731710993291
 21
105.0949265000376
 31
0.0
  0
LINE
  5
2E494
330
2
100
AcDbEntity
  8
0
  6
Continuous
100
AcDbLine
 10
63.5731710993291
 20
103.6973312358455
 30
0.0
 11
62.1981710993291
 21
103.6973312358455
 31
0.0
  0
LINE
  5
2E495
330
2
100
AcDbEntity
  8
0
  6
Continuous
100
AcDbLine
 10
60.8231710993291
 20
103.6973312358455
 30
0.0
 11
62.1981710993291
 21
103.6973312358455
 31
0.0
  0
ARC
  5
2E496
330
2
100
AcDbEntity
  8
0
  6
Continuous
100
AcDbCircle
 10
60.8231710993291
 20
104.1973312358454
 30
0.0
 40
0.5
100
AcDbArc
 50
180.0
 51
270.0
  0
ARC
  5
2E497
330
2
100
AcDbEntity
  8
0
  6
Continuous
100
AcDbCircle
 10
63.5731710993291
 20
104.1973312358454
 30
0.0
 40
0.5
100
AcDbArc
 50
270.0
 51
0.0
  0
LINE
  5
2E498
330
2
100
AcDbEntity
  8
0
  6
Continuous
100
AcDbLine
 10
64.0731710993291
 20
105.0949265000376
 30
0.0
 11
65.57567017408882
 21
107.6973312358454
 31
0.0
  0
LINE
  5
2E499
330
2
100
AcDbEntity
  8
0
  6
Continuous
100
AcDbLine
 10
65.57567017408882
 20
107.6973312358454
 30
0.0
 11
69.6981710993291
 21
107.6973312358454
 31
0.0
  0
LINE
  5
2E49A
330
2
100
AcDbEntity
  8
0
  6
Continuous
100
AcDbLine
 10
60.3231710993291
 20
47.29973597165417
 30
0.0
 11
58.82067202457029
 21
44.69733123584546
 31
0.0
  0
LINE
  5
2E49B
330
2
100
AcDbEntity
  8
0
  6
Continuous
100
AcDbLine
 10
60.3231710993291
 20
68.19733123584547
 30
0.0
 11
60.3231710993291
 21
47.29973597165417
 31
0.0
  0
LINE
  5
2E49C
330
2
100
AcDbEntity
  8
0
  6
Continuous
100
AcDbLine
 10
64.0731710993291
 20
68.19733123584547
 30
0.0
 11
64.0731710993291
 21
47.29973597165417
 31
0.0
  0
LINE
  5
2E49D
330
2
100
AcDbEntity
  8
0
  6
Continuous
100
AcDbLine
 10
63.5731710993291
 20
48.69733123584547
 30
0.0
 11
62.1981710993291
 21
48.69733123584547
 31
0.0
  0
LINE
  5
2E49E
330
2
100
AcDbEntity
  8
0
  6
Continuous
100
AcDbLine
 10
60.8231710993291
 20
48.69733123584547
 30
0.0
 11
62.1981710993291
 21
48.69733123584547
 31
0.0
  0
ARC
  5
2E49F
330
2
100
AcDbEntity
  8
0
  6
Continuous
100
AcDbCircle
 10
60.8231710993291
 20
48.19733123584547
 30
0.0
 40
0.5
100
AcDbArc
 50
90.0
 51
180.0
  0
ARC
  5
2E4A0
330
2
100
AcDbEntity
  8
0
  6
Continuous
100
AcDbCircle
 10
63.5731710993291
 20
48.19733123584547
 30
0.0
 40
0.5
100
AcDbArc
 50
0.0
 51
90.0
  0
LINE
  5
2E4A1
330
2
100
AcDbEntity
  8
0
  6
Continuous
100
AcDbLine
 10
64.0731710993291
 20
47.29973597165417
 30
0.0
 11
65.57567017408882
 21
44.69733123584546
 31
0.0
  0
LINE
  5
2E4A2
330
2
100
AcDbEntity
  8
0
  6
Continuous
100
AcDbLine
 10
58.82067202457029
 20
44.69733123584546
 30
0.0
 11
58.82067202457029
 21
51.86114418857005
 31
0.0
  0
LINE
  5
2E4A3
330
2
100
AcDbEntity
  8
0
  6
Continuous
100
AcDbLine
 10
65.57567017408882
 20
44.69733123584546
 30
0.0
 11
65.57567017408882
 21
51.86114418857005
 31
0.0
  0
LINE
  5
2E4A4
330
2
100
AcDbEntity
  8
0
  6
Continuous
100
AcDbLine
 10
65.57567017408882
 20
44.69733123584546
 30
0.0
 11
69.6981710993291
 21
44.69733123584546
 31
0.0
  0
LINE
  5
2E4A5
330
2
100
AcDbEntity
  8
0
  6
Continuous
100
AcDbLine
 10
65.57567017408882
 20
56.19733123584547
 30
0.0
 11
65.57567017408882
 21
68.19733123584547
 31
0.0
  0
LINE
  5
2E4A6
330
2
100
AcDbEntity
  8
0
  6
Continuous
100
AcDbLine
 10
58.82067202457029
 20
56.19733123584547
 30
0.0
 11
58.82067202457029
 21
68.19733123584547
 31
0.0
  0
LINE
  5
2E4A7
330
2
100
AcDbEntity
  8
0
  6
Continuous
100
AcDbLine
 10
58.82067202457029
 20
51.86114418857005
 30
0.0
 11
49.1981710993291
 21
51.86114418857005
 31
0.0
  0
LINE
  5
2E4A8
330
2
100
AcDbEntity
  8
0
  6
Continuous
100
AcDbLine
 10
60.3231710993291
 20
56.19733123584547
 30
0.0
 11
57.1981710993291
 21
56.19733123584547
 31
0.0
  0
LINE
  5
2E4A9
330
2
100
AcDbEntity
  8
0
  6
Continuous
100
AcDbLine
 10
64.0731710993291
 20
55.3389753070328
 30
0.0
 11
65.57567017408882
 21
51.86114418857005
 31
0.0
  0
LINE
  5
2E4AA
330
2
100
AcDbEntity
  8
0
  6
Continuous
100
AcDbLine
 10
60.3231710993291
 20
55.3389753070328
 30
0.0
 11
58.82067202457029
 21
51.86114418857005
 31
0.0
  0
ARC
  5
2E4AB
330
2
100
AcDbEntity
  8
0
  6
Continuous
100
AcDbCircle
 10
69.6981710993291
 20
45.19733123584546
 30
0.0
 40
0.5
100
AcDbArc
 50
270.0
 51
0.0
  0
ARC
  5
2E4AC
330
2
100
AcDbEntity
  8
0
  6
Continuous
100
AcDbCircle
 10
69.6981710993291
 20
107.1973312358454
 30
0.0
 40
0.5
100
AcDbArc
 50
0.0
 51
90.0
  0
LINE
  5
2E4AD
330
2
100
AcDbEntity
  8
0
  6
Continuous
 62
     3
100
AcDbLine
 10
35.1981710993291
 20
75.69733123584547
 30
0.0
 11
35.1981710993291
 21
76.69733123584546
 31
0.0
  0
LINE
  5
2E4AE
330
2
100
AcDbEntity
  8
0
  6
Continuous
 62
     3
100
AcDbLine
 10
35.1981710993291
 20
75.19733123584547
 30
0.0
 11
35.1981710993291
 21
71.44733123584547
 31
0.0
  0
LINE
  5
2E4AF
330
2
100
AcDbEntity
  8
0
  6
Continuous
 62
     3
100
AcDbLine
 10
35.1981710993291
 20
77.19733123584546
 30
0.0
 11
35.1981710993291
 21
80.94733123584546
 31
0.0
  0
ARC
  5
2E4B0
330
2
100
AcDbEntity
  8
0
  6
Continuous
100
AcDbCircle
 10
43.6981710993291
 20
51.57690612115084
 30
0.0
 40
0.6
100
AcDbArc
 50
33.55730976191572
 51
90.0
  0
LINE
  5
2E4B1
330
2
100
AcDbEntity
  8
0
  6
Continuous
100
AcDbLine
 10
43.6981710993291
 20
52.1769061211512
 30
0.0
 11
43.02357275939584
 21
52.1769061211512
 31
0.0
  0
LINE
  5
2E4B2
330
2
100
AcDbEntity
  8
0
  6
Continuous
100
AcDbLine
 10
42.1981710993291
 20
51.97690612115048
 30
0.0
 11
42.86828133233439
 21
52.15646161692394
 31
0.0
  0
ARC
  5
2E4B3
330
2
100
AcDbEntity
  8
0
  6
Continuous
100
AcDbCircle
 10
43.02357275939584
 20
51.57690612115084
 30
0.0
 40
0.6
100
AcDbArc
 50
90.0
 51
104.9999999999944
  0
ARC
  5
2E4B4
330
2
100
AcDbEntity
  8
0
  6
Continuous
100
AcDbCircle
 10
43.02357275939584
 20
100.817756350541
 30
0.0
 40
0.6
100
AcDbArc
 50
255.0000000000056
 51
270.0
  0
LINE
  5
2E4B5
330
2
100
AcDbEntity
  8
0
100
AcDbLine
 10
66.74817109932928
 20
80.49733123584536
 30
0.0
 11
66.1981710993291
 21
81.04733123584578
 31
0.0
  0
LINE
  5
2E4B6
330
2
100
AcDbEntity
  8
0
  6
Continuous
 62
     7
100
AcDbLine
 10
88.1401710993291
 20
50.79733123584526
 30
0.0
 11
71.21417109932963
 21
50.79733123584617
 31
0.0
  0
LINE
  5
2E4B7
330
2
100
AcDbEntity
  8
0
  6
Continuous
 62
     7
100
AcDbLine
 10
66.74817109932928
 20
80.49733123584548
 30
0.0
 11
66.74817109932928
 21
76.19733123584547
 31
0.0
  0
LINE
  5
2E4BA
330
2
100
AcDbEntity
  8
0
  6
Continuous
 62
     7
100
AcDbLine
 10
71.21417109932872
 20
50.79733123584595
 30
0.0
 11
71.21417109932872
 21
76.1973312358453
 31
0.0
  0
LINE
  5
2E4BB
330
2
100
AcDbEntity
  8
0
  6
Continuous
100
AcDbLine
 10
88.64817109932891
 20
101.0893312358455
 30
0.0
 11
88.64817109932891
 21
76.19733123584547
 31
0.0
  0
LINE
  5
2E4BC
330
2
100
AcDbEntity
  8
0
  6
Continuous
 62
     7
100
AcDbLine
 10
88.1401710993291
 20
101.5973312358455
 30
0.0
 11
71.21417109932872
 21
101.597331235845
 31
0.0
  0
LINE
  5
2E4BD
330
2
100
AcDbEntity
  8
0
  6
Continuous
 62
     7
100
AcDbLine
 10
88.64817109932891
 20
101.0893312358455
 30
0.0
 11
88.1401710993291
 21
101.5973312358455
 31
0.0
  0
LINE
  5
2E4BE
330
2
100
AcDbEntity
  8
0
  6
Continuous
 62
     7
100
AcDbLine
 10
66.74817109932928
 20
80.49733123584536
 30
0.0
 11
88.14817109932937
 21
80.497331235846
 31
0.0
  0
LINE
  5
2E4C1
330
2
100
AcDbEntity
  8
0
100
AcDbLine
 10
88.14817109932892
 20
80.49733123584543
 30
0.0
 11
88.64817109932891
 21
80.78600637044024
 31
0.0
  0
LINE
  5
2E4C2
330
2
100
AcDbEntity
  8
0
  6
Continuous
 62
     7
100
AcDbLine
 10
88.14817109932892
 20
80.49733123584548
 30
0.0
 11
88.14817109932892
 21
76.19733123584547
 31
0.0
  0
ARC
  5
2E4C3
330
2
100
AcDbEntity
  8
0
  6
Continuous
 62
     7
100
AcDbCircle
 10
152.8183732881359
 20
76.19733123584547
 30
0.0
 40
25.4
100
AcDbArc
 50
102.0650500817272
 51
77.19322004184123
  0
ARC
  5
2E4C4
330
2
100
AcDbEntity
  8
0
  6
Continuous
 62
     7
100
AcDbCircle
 10
152.8183732881359
 20
76.19733123584547
 30
0.0
 40
26.41599999999949
100
AcDbArc
 50
103.6825166306395
 51
76.07541409723143
  0
CIRCLE
  5
2E4C5
330
2
100
AcDbEntity
  8
0
  6
Continuous
 62
     7
100
AcDbCircle
 10
152.8183732881359
 20
76.19733123584547
 30
0.0
 40
31.5
  0
LINE
  5
2E4C6
330
2
100
AcDbEntity
  8
0
  6
Continuous
 62
     3
100
AcDbLine
 10
152.3183732881359
 20
76.19733123584547
 30
0.0
 11
153.3183732881359
 21
76.19733123584547
 31
0.0
  0
LINE
  5
2E4C7
330
2
100
AcDbEntity
  8
0
  6
Continuous
 62
     3
100
AcDbLine
 10
152.8183732881359
 20
75.69733123584547
 30
0.0
 11
152.8183732881359
 21
76.69733123584546
 31
0.0
  0
LINE
  5
2E4C8
330
2
100
AcDbEntity
  8
0
  6
Continuous
 62
     3
100
AcDbLine
 10
151.8183732881359
 20
76.19733123584547
 30
0.0
 11
120.8183732881359
 21
76.19733123584547
 31
0.0
  0
LINE
  5
2E4C9
330
2
100
AcDbEntity
  8
0
  6
Continuous
 62
     3
100
AcDbLine
 10
153.8183732881359
 20
76.19733123584547
 30
0.0
 11
184.8183732881359
 21
76.19733123584547
 31
0.0
  0
LINE
  5
2E4CA
330
2
100
AcDbEntity
  8
0
  6
Continuous
 62
     3
100
AcDbLine
 10
152.8183732881359
 20
75.19733123584547
 30
0.0
 11
152.8183732881359
 21
44.19733123584546
 31
0.0
  0
LINE
  5
2E4CB
330
2
100
AcDbEntity
  8
0
  6
Continuous
 62
     3
100
AcDbLine
 10
152.8183732881359
 20
77.19733123584546
 30
0.0
 11
152.8183732881359
 21
108.1973312358454
 31
0.0
  0
CIRCLE
  5
2E4CC
330
2
100
AcDbEntity
  8
0
  6
Continuous
 62
     7
100
AcDbCircle
 10
152.8183732881359
 20
76.19733123584547
 30
0.0
 40
4.300000000000238
  0
CIRCLE
  5
2E4CD
330
2
100
AcDbEntity
  8
0
  6
Continuous
 62
     7
100
AcDbCircle
 10
152.8183732881359
 20
91.53883123584547
 30
0.0
 40
2.38125
  0
CIRCLE
  5
2E4CE
330
2
100
AcDbEntity
  8
0
  6
Continuous
 62
     7
100
AcDbCircle
 10
152.8183732881359
 20
91.53883123584547
 30
0.0
 40
2.88125
  0
CIRCLE
  5
2E4CF
330
2
100
AcDbEntity
  8
0
  6
Continuous
 62
     7
100
AcDbCircle
 10
152.8183732881368
 20
60.85583123584502
 30
0.0
 40
2.38125
  0
CIRCLE
  5
2E4D0
330
2
100
AcDbEntity
  8
0
  6
Continuous
 62
     7
100
AcDbCircle
 10
152.8183732881368
 20
60.85583123584502
 30
0.0
 40
2.88125
  0
LINE
  5
2E4D1
330
2
100
AcDbEntity
  8
0
  6
Continuous
 62
     3
100
AcDbLine
 10
152.3183732881368
 20
60.85583123584502
 30
0.0
 11
153.3183732881368
 21
60.85583123584502
 31
0.0
  0
LINE
  5
2E4D2
330
2
100
AcDbEntity
  8
0
  6
Continuous
 62
     3
100
AcDbLine
 10
152.8183732881368
 20
60.35583123584501
 30
0.0
 11
152.8183732881368
 21
61.35583123584502
 31
0.0
  0
LINE
  5
2E4D3
330
2
100
AcDbEntity
  8
0
  6
Continuous
 62
     3
100
AcDbLine
 10
151.8183732881368
 20
60.85583123584502
 30
0.0
 11
149.4371232881369
 21
60.85583123584502
 31
0.0
  0
LINE
  5
2E4D4
330
2
100
AcDbEntity
  8
0
  6
Continuous
 62
     3
100
AcDbLine
 10
153.8183732881368
 20
60.85583123584502
 30
0.0
 11
156.1996232881367
 21
60.85583123584502
 31
0.0
  0
LINE
  5
2E4D5
330
2
100
AcDbEntity
  8
0
  6
Continuous
 62
     3
100
AcDbLine
 10
152.8183732881368
 20
59.85583123584501
 30
0.0
 11
152.8183732881368
 21
57.47458123584499
 31
0.0
  0
LINE
  5
2E4D6
330
2
100
AcDbEntity
  8
0
  6
Continuous
 62
     3
100
AcDbLine
 10
152.8183732881368
 20
61.85583123584502
 30
0.0
 11
152.8183732881368
 21
64.23708123584503
 31
0.0
  0
LINE
  5
2E4D7
330
2
100
AcDbEntity
  8
0
  6
Continuous
 62
     3
100
AcDbLine
 10
152.3183732881359
 20
91.53883123584547
 30
0.0
 11
153.3183732881359
 21
91.53883123584547
 31
0.0
  0
LINE
  5
2E4D8
330
2
100
AcDbEntity
  8
0
  6
Continuous
 62
     3
100
AcDbLine
 10
152.8183732881359
 20
91.03883123584546
 30
0.0
 11
152.8183732881359
 21
92.03883123584546
 31
0.0
  0
LINE
  5
2E4D9
330
2
100
AcDbEntity
  8
0
  6
Continuous
 62
     3
100
AcDbLine
 10
151.8183732881359
 20
91.53883123584547
 30
0.0
 11
149.437123288136
 21
91.53883123584547
 31
0.0
  0
LINE
  5
2E4DA
330
2
100
AcDbEntity
  8
0
  6
Continuous
 62
     3
100
AcDbLine
 10
153.8183732881359
 20
91.53883123584547
 30
0.0
 11
156.1996232881358
 21
91.53883123584547
 31
0.0
  0
LINE
  5
2E4DB
330
2
100
AcDbEntity
  8
0
  6
Continuous
 62
     3
100
AcDbLine
 10
152.8183732881359
 20
90.53883123584546
 30
0.0
 11
152.8183732881359
 21
88.15758123584544
 31
0.0
  0
LINE
  5
2E4DC
330
2
100
AcDbEntity
  8
0
  6
Continuous
 62
     3
100
AcDbLine
 10
152.8183732881359
 20
92.53883123584547
 30
0.0
 11
152.8183732881359
 21
94.92008123584549
 31
0.0
  0
LINE
  5
2E4DD
330
2
100
AcDbEntity
  8
0
  6
CENTER
 62
     3
100
AcDbLine
 10
76.73280051613028
 20
91.53883123584547
 30
0.0
 11
89.8805581784568
 21
91.53883123584547
 31
0.0
  0
LINE
  5
2E4DE
330
2
100
AcDbEntity
  8
0
  6
Continuous
 62
     7
100
AcDbLine
 10
88.14817109932983
 20
93.92008123584554
 30
0.0
 11
81.02817109932903
 21
93.92008123584549
 31
0.0
  0
LINE
  5
2E4DF
330
2
100
AcDbEntity
  8
0
  6
Continuous
 62
     7
100
AcDbLine
 10
81.02817109932903
 20
93.92008123584549
 30
0.0
 11
81.02817109932903
 21
91.53883123584547
 31
0.0
  0
LINE
  5
2E4E0
330
2
100
AcDbEntity
  8
0
  6
Continuous
 62
     7
100
AcDbLine
 10
88.64817109932891
 20
94.42008123584537
 30
0.0
 11
88.14817109932983
 21
93.92008123584554
 31
0.0
  0
LINE
  5
2E4E1
330
2
100
AcDbEntity
  8
0
  6
Continuous
 62
     7
100
AcDbLine
 10
88.14817109932892
 20
93.92008123584549
 30
0.0
 11
88.14817109932892
 21
91.53883123584547
 31
0.0
  0
LINE
  5
2E4E5
330
2
100
AcDbEntity
  8
0
  6
Continuous
 62
     7
100
AcDbLine
 10
81.02817109932903
 20
93.83883123584547
 30
0.0
 11
79.02817109932903
 21
93.83883123584547
 31
0.0
  0
LINE
  5
2E4E6
330
2
100
AcDbEntity
  8
0
  6
Continuous
 62
     7
100
AcDbLine
 10
79.02817109932903
 20
93.83883123584547
 30
0.0
 11
79.02817109932903
 21
91.53883123584547
 31
0.0
  0
LINE
  5
2E4E7
330
2
100
AcDbEntity
  8
0
  6
Continuous
 62
     7
100
AcDbLine
 10
79.02817109932903
 20
93.83883123584542
 30
0.0
 11
77.70026548019314
 21
91.53883123584547
 31
0.0
  0
DIMENSION
  5
2E4EA
330
2
100
AcDbEntity
  8
0
  6
Continuous
 62
     7
100
AcDbDimension
280
     0
  2
*D0
 10
193.0182293233554
 20
76.19733123584547
 30
0.0
 11
190.8932293233553
 21
83.86808123584549
 31
0.0
 70
    32
  1
.604
 71
     5
 42
15.34149999999998
 73
     0
 74
     0
 75
     0
  3
Standard$0
100
AcDbAlignedDimension
 13
156.1996232881358
 23
91.53883123584547
 33
0.0
 14
184.8183732881359
 24
76.19733123584547
 34
0.0
 50
90.0
100
AcDbRotatedDimension
1001
ACAD
1000
DSTYLE
1002
{
1070
    42
1040
0.625
1070
    43
1040
3.75
1070
    44
1040
1.25
1070
    48
1040
0.000000001
1070
    74
1070
     0
1070
    77
1070
     1
1070
    90
1070
     1
1070
   140
1040
3.0
1070
   141
1040
-0.5
1070
   143
1040
0.03937007874016
1070
   146
1040
0.7
1070
   147
1040
0.625
1070
   171
1070
     3
1070
   172
1070
     1
1070
   175
1070
     0
1070
   274
1070
     3
1070
   283
1070
     0
1070
   284
1070
     8
1070
   340
1005
25
1070
   371
1070
    -1
1070
   372
1070
    -1
1002
}
  0
DIMENSION
  5
2E4EB
330
2
100
AcDbEntity
  8
0
  6
Continuous
 62
     7
100
AcDbDimension
280
     0
  2
*D1
 10
193.0182293233572
 20
76.19733123584507
 30
0.0
 11
190.8932293233572
 21
68.52658123584564
 31
0.0
 70
    32
  1
.604
 71
     5
 42
15.34149999999892
 73
     0
 74
     0
 75
     0
  3
Standard$0
100
AcDbAlignedDimension
 13
156.1996232881349
 23
60.85583123584616
 33
0.0
 14
184.8183732881359
 24
76.19733123584507
 34
0.0
 50
269.9999999999935
100
AcDbRotatedDimension
1001
ACAD
1000
DSTYLE
1002
{
1070
    42
1040
0.625
1070
    43
1040
3.75
1070
    44
1040
1.25
1070
    48
1040
0.000000001
1070
    74
1070
     0
1070
    77
1070
     1
1070
    90
1070
     1
1070
   140
1040
3.0
1070
   141
1040
-0.5
1070
   143
1040
0.03937007874016
1070
   146
1040
0.7
1070
   147
1040
0.625
1070
   171
1070
     3
1070
   172
1070
     1
1070
   175
1070
     0
1070
   274
1070
     3
1070
   283
1070
     0
1070
   284
1070
     8
1070
   340
1005
25
1070
   371
1070
    -1
1070
   372
1070
    -1
1002
}
  0
HATCH
  5
2E4EC
330
2
100
AcDbEntity
  8
0
  6
Continuous
 62
     4
100
AcDbHatch
 10
0.0
 20
0.0
 30
0.0
210
0.0
220
0.0
230
1.0
  2
ANSI31
 70
     0
 71
     0
 91
        2
 92
        7
 72
     1
 73
     1
 93
       11
 10
154.318373288135
 20
102.6973312358452
 42
0.0
 10
152.8183732881359
 20
101.8313058320605
 42
0.0
 10
152.8183732881359
 20
99.67090602536291
 42
0.0
 10
154.4540832857008
 20
99.61816115178908
 42
0.0
 10
158.0185519616959
 20
100.4495538306323
 42
0.0
 10
159.2067078403113
 20
101.8747995117919
 42
0.0
 10
160.5928891786177
 20
104.6461089494044
 42
0.0
 10
161.0542194895649
 20
106.601621021111
 42
0.0262874048598193
 10
157.8183732881359
 20
107.2979743160133
 42
0.0
 10
157.8183732881359
 20
102.9973312358456
 42
-0.4142135623728731
 10
157.5183732881357
 20
102.6973312358455
 42
0.0
 97
        0
 92
        7
 72
     1
 73
     1
 93
       12
 10
151.3183732881359
 20
102.6973312358457
 42
0.0
 10
148.1183732881352
 20
102.6973312358455
 42
-0.4142135623728731
 10
147.8183732881359
 20
102.9973312358456
 42
0.0
 10
147.818373288135
 20
107.2979743160133
 42
0.031014729528923
 10
144.0095800382285
 20
106.4405976183045
 42
0.0
 10
144.6319940650653
 20
104.7648795498705
 42
0.0
 10
145.4240979841404
 20
103.2604542305973
 42
0.0
 10
147.0479117463553
 20
101.2809472716753
 42
0.0
 10
148.9885666601356
 20
100.2516035920607
 42
0.0
 10
151.9985617606587
 20
99.69734155209835
 42
0.0
 10
152.8183732881359
 20
99.67090602536337
 42
0.0
 10
152.8183732881359
 20
101.8313058320611
 42
0.0
 97
        0
 75
     0
 76
     1
 52
0.0
 41
0.5
 77
     0
 78
     1
 53
45.0
 43
2787.252729447535
 44
1607.314239794747
 45
-1.122532015133643
 46
1.122532015133644
 79
     0
 47
0.0371735490245486
 98
        2
 10
156.2315562457286
 20
101.8567951408899
 10
152.1029334282054
 20
101.4850795134721
1001
ACAD
1010
0.0
1020
0.0
1030
0.0
  0
LINE
  5
2E4ED
330
2
100
AcDbEntity
  8
0
  6
Continuous
100
AcDbLine
 10
132.8183732881359
 20
56.19733123584547
 30
0.0
 11
132.8183732881359
 21
51.86114418856959
 31
0.0
  0
LINE
  5
2E4EE
330
2
100
AcDbEntity
  8
0
  6
Continuous
100
AcDbLine
 10
126.318373288135
 20
68.19733123584547
 30
0.0
 11
126.318373288135
 21
84.19733123584547
 31
0.0
  0
LINE
  5
2E4EF
330
2
100
AcDbEntity
  8
0
  6
Continuous
100
AcDbLine
 10
132.8183732881359
 20
56.19733123584547
 30
0.0
 11
128.4821862408596
 21
56.19733123584547
 31
0.0
  0
LINE
  5
2E4F0
330
2
100
AcDbEntity
  8
0
  6
Continuous
100
AcDbLine
 10
122.3511778149711
 20
68.19733123584547
 30
0.0
 11
126.318373288135
 21
68.19733123584547
 31
0.0
  0
LINE
  5
2E4F1
330
2
100
AcDbEntity
  8
0
  6
Continuous
100
AcDbLine
 10
122.3511778149711
 20
84.19733123584547
 30
0.0
 11
126.318373288135
 21
84.19733123584547
 31
0.0
  0
LINE
  5
2E4F2
330
2
100
AcDbEntity
  8
0
  6
Continuous
100
AcDbLine
 10
179.3183732881359
 20
67.19733123584546
 30
0.0
 11
179.3183732881359
 21
85.19733123584547
 31
0.0
  0
LINE
  5
2E4F3
330
2
100
AcDbEntity
  8
0
  6
Continuous
100
AcDbLine
 10
179.3183732881359
 20
67.19733123584546
 30
0.0
 11
183.0052909843823
 21
67.19733123584546
 31
0.0
  0
LINE
  5
2E4F4
330
2
100
AcDbEntity
  8
0
  6
Continuous
100
AcDbLine
 10
179.3183732881359
 20
85.19733123584547
 30
0.0
 11
183.0052909843823
 21
85.19733123584547
 31
0.0
  0
LINE
  5
2E4F5
330
2
100
AcDbEntity
  8
0
  6
Continuous
 62
     3
100
AcDbLine
 10
144.6319940650644
 20
104.7648795498676
 30
0.0
 11
145.4240979841404
 21
103.2604542305985
 31
0.0
  0
LINE
  5
2E4F6
330
2
100
AcDbEntity
  8
0
  6
Continuous
 62
     3
100
AcDbLine
 10
144.0095800382285
 20
106.4405976183047
 30
0.0
 11
144.6319940650644
 21
104.7648795498676
 31
0.0
  0
LINE
  5
2E4F7
330
2
100
AcDbEntity
  8
0
  6
Continuous
100
AcDbLine
 10
152.8183732881359
 20
102.6973312358455
 30
0.0
 11
157.5183732881357
 21
102.6973312358455
 31
0.0
  0
LINE
  5
2E4F8
330
2
100
AcDbEntity
  8
0
  6
Continuous
 62
     3
100
AcDbLine
 10
151.9985617606569
 20
99.6973415520979
 30
0.0
 11
154.4540832857008
 21
99.61816115178908
 31
0.0
  0
LINE
  5
2E4F9
330
2
100
AcDbEntity
  8
0
  6
Continuous
100
AcDbLine
 10
147.818373288135
 20
107.2979743160135
 30
0.0
 11
147.8183732881359
 21
102.9973312358456
 31
0.0
  0
LINE
  5
2E4FA
330
2
100
AcDbEntity
  8
0
  6
Continuous
 62
     3
100
AcDbLine
 10
148.9885666601365
 20
100.2516035920603
 30
0.0
 11
151.9985617606569
 21
99.6973415520979
 31
0.0
  0
LINE
  5
2E4FB
330
2
100
AcDbEntity
  8
0
  6
Continuous
100
AcDbLine
 10
152.8183732881359
 20
102.6973312358455
 30
0.0
 11
148.1183732881352
 21
102.6973312358455
 31
0.0
  0
ARC
  5
2E4FC
330
2
100
AcDbEntity
  8
0
  6
Continuous
100
AcDbCircle
 10
148.1183732881352
 20
102.9973312358456
 30
0.0
 40
0.3
100
AcDbArc
 50
180.0
 51
270.0
  0
LINE
  5
2E4FD
330
2
100
AcDbEntity
  8
0
  6
Continuous
 62
     3
100
AcDbLine
 10
147.0479117463544
 20
101.2809472716758
 30
0.0
 11
148.9885666601365
 21
100.2516035920603
 31
0.0
  0
LINE
  5
2E4FE
330
2
100
AcDbEntity
  8
0
  6
Continuous
 62
     3
100
AcDbLine
 10
145.4240979841404
 20
103.2604542305985
 30
0.0
 11
147.0479117463544
 21
101.2809472716758
 31
0.0
  0
LINE
  5
2E4FF
330
2
100
AcDbEntity
  8
0
  6
Continuous
 62
     3
100
AcDbLine
 10
160.5928891786177
 20
104.6461089494041
 30
0.0
 11
161.0542194895649
 21
106.601621021111
 31
0.0
  0
LINE
  5
2E500
330
2
100
AcDbEntity
  8
0
  6
Continuous
100
AcDbLine
 10
157.8183732881359
 20
107.2979743160135
 30
0.0
 11
157.8183732881359
 21
102.9973312358456
 31
0.0
  0
LINE
  5
2E501
330
2
100
AcDbEntity
  8
0
  6
Continuous
 62
     3
100
AcDbLine
 10
154.4540832857008
 20
99.61816115178908
 30
0.0
 11
158.0185519616968
 21
100.4495538306323
 31
0.0
  0
LINE
  5
2E502
330
2
100
AcDbEntity
  8
0
  6
Continuous
 62
     3
100
AcDbLine
 10
159.2067078403113
 20
101.8747995117928
 30
0.0
 11
160.5928891786177
 21
104.6461089494041
 31
0.0
  0
ARC
  5
2E503
330
2
100
AcDbEntity
  8
0
  6
Continuous
100
AcDbCircle
 10
157.5183732881357
 20
102.9973312358456
 30
0.0
 40
0.3
100
AcDbArc
 50
270.0
 51
0.0
  0
LINE
  5
2E504
330
2
100
AcDbEntity
  8
0
  6
Continuous
 62
     3
100
AcDbLine
 10
158.0185519616968
 20
100.4495538306323
 30
0.0
 11
159.2067078403113
 21
101.8747995117928
 31
0.0
  0
LINE
  5
2E505
330
2
100
AcDbEntity
  8
0
  6
Continuous
100
AcDbLine
 10
152.8183732881359
 20
101.8313058320607
 30
0.0
 11
154.3183732881359
 21
102.6973312358455
 31
0.0
  0
LINE
  5
2E506
330
2
100
AcDbEntity
  8
0
  6
Continuous
100
AcDbLine
 10
152.8183732881359
 20
101.8313058320611
 30
0.0
 11
151.3183732881359
 21
102.6973312358455
 31
0.0
  0
LINE
  5
2E507
330
2
100
AcDbEntity
  8
0
  6
Continuous
 62
     7
100
AcDbLine
 10
88.14817109932983
 20
89.15758123584538
 30
0.0
 11
81.02817109932903
 21
89.15758123584543
 31
0.0
  0
LINE
  5
2E508
330
2
100
AcDbEntity
  8
0
  6
Continuous
 62
     7
100
AcDbLine
 10
81.02817109932903
 20
89.15758123584543
 30
0.0
 11
81.02817109932903
 21
91.53883123584547
 31
0.0
  0
LINE
  5
2E509
330
2
100
AcDbEntity
  8
0
  6
Continuous
 62
     7
100
AcDbLine
 10
88.64817109932891
 20
88.65758123584555
 30
0.0
 11
88.14817109932983
 21
89.15758123584538
 31
0.0
  0
LINE
  5
2E50A
330
2
100
AcDbEntity
  8
0
  6
Continuous
 62
     7
100
AcDbLine
 10
88.14817109932892
 20
89.15758123584543
 30
0.0
 11
88.14817109932892
 21
91.53883123584547
 31
0.0
  0
LINE
  5
2E50B
330
2
100
AcDbEntity
  8
0
  6
Continuous
 62
     7
100
AcDbLine
 10
81.02817109932903
 20
89.23883123584545
 30
0.0
 11
79.02817109932903
 21
89.23883123584545
 31
0.0
  0
LINE
  5
2E50C
330
2
100
AcDbEntity
  8
0
  6
Continuous
 62
     7
100
AcDbLine
 10
79.02817109932903
 20
89.23883123584545
 30
0.0
 11
79.02817109932903
 21
91.53883123584547
 31
0.0
  0
LINE
  5
2E50D
330
2
100
AcDbEntity
  8
0
  6
Continuous
 62
     7
100
AcDbLine
 10
79.02817109932903
 20
89.2388312358455
 30
0.0
 11
77.70026548019314
 21
91.53883123584547
 31
0.0
  0
LINE
  5
2E513
330
2
100
AcDbEntity
  8
0
  6
CENTER
 62
     3
100
AcDbLine
 10
76.73280051613028
 20
60.85583123584536
 30
0.0
 11
89.8805581784568
 21
60.85583123584536
 31
0.0
  0
LINE
  5
2E515
330
2
100
AcDbEntity
  8
0
  6
Continuous
 62
     7
100
AcDbLine
 10
71.21417109932872
 20
50.79733123584595
 30
0.0
 11
70.19817109932865
 21
49.78133123584592
 31
0.0
  0
LINE
  5
2E516
330
2
100
AcDbEntity
  8
0
  6
Continuous
 62
     7
100
AcDbLine
 10
88.1401710993291
 20
50.79733123584526
 30
0.0
 11
88.14017109932866
 21
76.19733123584547
 31
0.0
  0
LINE
  5
2E5DA
330
2
100
AcDbEntity
  8
0
  6
Continuous
 62
     3
100
AcDbLine
 10
88.64817109932891
 20
50.71529132851651
 30
0.0
 11
88.64817109933074
 21
33.51241311650074
 31
0.0
  0
MTEXT
  5
2E5DB
330
2
100
AcDbEntity
  8
0
  6
Continuous
 62
     2
100
AcDbMText
 10
88.90229345487933
 20
30.96878864688779
 30
0.0
 40
3.0
 41
0.0
 46
0.0
 71
     5
 72
     1
  1
1.75
 73
     1
 44
1.0
  0
DIMENSION
  5
2E5DD
330
2
100
AcDbEntity
  8
0
  6
Continuous
 62
     7
100
AcDbDimension
280
     0
  2
*D2
 10
113.5126962641507
 20
50.79733123584485
 30
0.0
 11
113.5126962641507
 21
76.1973312358449
 31
0.0
 70
   160
  1
%%C2.00
 71
     5
 42
50.80000000000074
 73
     0
 74
     0
 75
     0
  3
Standard$0
100
AcDbAlignedDimension
 13
88.64817109932891
 23
101.5973312358456
 33
0.0
 14
88.64817109932891
 24
50.79733123584486
 34
0.0
 50
90.0
100
AcDbRotatedDimension
1001
ACAD
1000
DSTYLE
1002
{
1070
    72
1070
     0
1070
    71
1070
     1
1070
    42
1040
0.625
1070
    43
1040
3.75
1070
    44
1040
1.25
1070
    48
1040
0.003
1070
    74
1070
     0
1070
    77
1070
     1
1070
    90
1070
     1
1070
   140
1040
3.0
1070
   141
1040
-0.5
1070
   143
1040
0.03937007874016
1070
   146
1040
0.7
1070
   147
1040
0.625
1070
   171
1070
     3
1070
   172
1070
     1
1070
   175
1070
     0
1070
   274
1070
     3
1070
   283
1070
     0
1070
   284
1070
     8
1070
   340
1005
25
1070
   371
1070
    -1
1070
   372
1070
    -1
1002
}
  0
LINE
  5
2E5DE
330
2
100
AcDbEntity
  8
0
  6
Continuous
 62
     3
100
AcDbLine
 10
105.5126962641561
 20
77.99733123584577
 30
0.0
 11
105.5126962641561
 21
58.15741100211863
 31
0.0
  0
MTEXT
  5
2E5DF
330
2
100
AcDbEntity
  8
0
  6
Continuous
 62
     2
100
AcDbMText
 10
103.3876962641557
 20
68.05329566074295
 30
0.0
 40
3.0
 41
0.0
 46
0.0
 71
     5
 72
     1
  1
%%c.338%%p.005
 11
0.0000000000000001
 21
1.0
 31
0.0
 73
     1
 44
1.0
  0
LINE
  5
2E5F5
330
2
100
AcDbEntity
  8
0
  6
Continuous
 62
     3
100
AcDbLine
 10
88.77317109932983
 20
80.49733123584577
 30
0.0
 11
106.7626962641561
 21
80.49733123584577
 31
0.0
  0
SOLID
  5
2E5F6
330
2
100
AcDbEntity
  8
0
  6
Continuous
 62
     3
100
AcDbTrace
 10
105.0960295974896
 20
77.99733123584577
 30
0.0
 11
105.9293629308226
 21
77.99733123584577
 31
0.0
 12
105.5126962641561
 22
80.49733123584577
 32
0.0
 13
105.5126962641561
 23
80.49733123584577
 33
0.0
  0
MULTILEADER
  5
2E62D
330
2
100
AcDbEntity
  8
0
  6
Continuous
 62
     7
160
               692
310
B4020000180000000C00000016000000020000C30C00000033000000000000000C00000013000000993A00000C00000016000000020000C3D80000002600000021A6904383FE64406035AE5B161A5D40000000000000000000000000000000000000000000000000000000000000F03F000000000000F03F00000000000000
310
00000000000000000005222E0031003800370035007E0005222E00310038003800300000000D000000010000000000000000000440000000000000F03F0000000000000000000000000000F03F0000000000000000000000000000000000000000000000000000000001000000000000000000000072006F006D0061006E00
310
73002E0073006800780000006B00000000000C00000033000000000000000C00000010000000000000000C00000016000000030000C30C00000012000000000000000C00000013000000010000000C00000014000000010000005400000007000000030000005FA7E1469F7063405F74676600E95740000000000000000058
310
43F4024341634098A8B1D9526557400000000000000000BB3B6B7FB558634082E888A69A00584000000000000000000C00000013000000891300005400000006000000030000008D712663AA646340702E7886CDF457400000000000000000D886CCD972BD64406035AE5B166A5D400000000000000000D8136CFAF0E96440
310
6035AE5B166A5D4000000000000000000C00000013000000112700003C0000000600000002000000D8136CFAF0E964406035AE5B166A5D400000000000000000D8136CFAF0F964406035AE5B166A5D4000000000000000000C00000016000000030000C30C00000012000000000000000C00000017000000000000000C0000
310
00130000009A3A00000C00000016000000070000C30C00000012000000000000000C00000017000000FFFFFFFF0C0000003300000000000000
100
AcDbMLeader
270
     2
300
CONTEXT_DATA{
 40
1.0
 10
167.8106662855996
 20
117.6576146317725
 30
0.0
 41
2.5
140
2.5
145
0.5
174
     2
175
     2
176
     0
177
     1
290
     1
304
%%C.1875~%%C.1880
 11
0.0
 21
0.0
 31
1.0
340
35
 12
168.3106662855996
 22
118.9076146317725
 32
0.0
 13
1.0
 23
0.0
 33
0.0
 42
0.0
 43
25.95238095238094
 44
0.0
 45
1.0
170
     1
 90
-1023410174
171
     1
172
     5
 91
-1073741824
141
0.0
 92
        0
291
     0
292
     0
173
     0
293
     0
142
0.0
143
0.0
294
     0
295
     0
296
     0
110
154.0394301195872
120
93.5831817851016
130
0.0
111
1.0
121
0.0
131
0.0
112
0.0
122
1.0
132
0.0
297
     0
302
LEADER{
290
     1
291
     1
 10
167.3106662855996
 20
117.6576146317725
 30
0.0
 11
1.0
 21
0.0
 31
0.0
 90
        0
 40
0.5
304
LEADER_LINE{
 10
154.0394301195872
 20
93.5831817851016
 30
0.0
 10
165.920269870249
 20
117.6576146317725
 30
0.0
 91
        0
305
}
271
     0
303
}
272
     9
273
     9
301
}
340
BD9
 90
   279552
170
     1
 91
-1023410173
341
28
171
    -1
290
     1
291
     1
 41
0.5
 42
2.5
172
     2
343
35
173
     2
 95
        2
174
     1
175
     0
 92
-1023410174
292
     0
 93
-1023410174
 10
1.0
 20
1.0
 30
1.0
 43
0.0
176
     1
293
     0
294
     0
178
     0
179
     1
 45
1.0
271
     0
272
     9
273
     9
295
     0
  0
MULTILEADER
  5
2E62E
330
2
100
AcDbEntity
  8
0
  6
Continuous
 62
     7
160
               692
310
B4020000180000000C00000016000000020000C30C00000033000000000000000C00000013000000993A00000C00000016000000020000C3D800000026000000D75662B803E75740148687134E445540000000000000000000000000000000000000000000000000000000000000F03F000000000000F03F6DD8D1DFF2F01E
310
3D000000000000000043002E00300032000000730004000000010000000000000000000840000000000000F03F0000000000000000000000000000F03F00000000000000000000000000000000000000000000000000000000010000000000000000000000690073006F00630070002E007300680078000000770068006700
310
7400780074002E00730068007800000000000C00000033000000000000000C00000010000000000000000C00000016000000030000C30C00000012000000000000000C00000013000000010000000C0000001400000001000000540000000700000003000000B3FC9DF6FF655640B71D541BDCFB5640000000000000000040
310
ADD79E7B195640682EFF9BE28A57400000000000000000D8509A1B409056403946C03E681C574000000000000000000C0000001300000089130000540000000600000003000000C6261C09207B5640F8310A2D220C57400000000000000000404E04474D905740644601EA52A455400000000000000000405EBE15DEBA5740
310
604601EA52A4554000000000000000000C00000013000000112700003C0000000600000002000000405EBE15DEBA5740604601EA52A455400000000000000000405EBE15DEDA5740614601EA52A4554000000000000000000C00000016000000030000C30C00000012000000000000000C00000017000000000000000C0000
310
00130000009A3A00000C00000016000000070000C30C00000012000000000000000C00000017000000FFFFFFFF0C0000003300000000000000
100
AcDbMLeader
270
     2
300
CONTEXT_DATA{
 40
1.0
 10
95.41980498877183
 20
86.56756067394736
 30
0.0
 41
3.0
140
2.5
145
0.5
174
     2
175
     2
176
     0
177
     1
290
     1
304
C.02
 11
0.0
 21
0.0
 31
1.0
340
25
 12
95.91980498877182
 22
88.06785594953794
 32
0.0
 13
1.0
 23
0.0000000000000275
 33
0.0
 42
0.0000000000000275
 43
0.0
 44
0.0
 45
1.0
170
     1
 90
-1023410174
171
     1
172
     5
 91
-1073741824
141
0.0
 92
     2047
291
     0
292
     0
173
     0
293
     0
142
0.0
143
0.0
294
     0
295
     0
296
     0
110
85.68606266946245
120
102.1847851300359
130
0.0
111
1.0
121
0.0000000000000275
131
0.0
112
-0.0000000000000275
122
1.0
132
0.0
297
     0
302
LEADER{
290
     1
291
     1
 10
94.91980498877182
 20
86.56756067394736
 30
0.0
 11
1.0
 21
0.0000000000000275
 31
0.0
 90
        0
 40
0.5
304
LEADER_LINE{
 10
88.39817019521888
 20
94.17008113784834
 30
0.0
 10
94.25471663876033
 20
86.56756067394741
 30
0.0
 91
        0
305
}
271
     0
303
}
272
     9
273
     9
301
}
340
BD9
 90
   347136
170
     1
 91
-1023410173
341
28
171
    -1
290
     1
291
     1
 41
0.5
 42
2.5
172
     2
343
25
173
     2
 95
        2
174
     1
175
     0
 92
-1023410174
292
     0
 93
-1023410174
 10
1.0
 20
1.0
 30
1.0
 43
0.0
176
     1
293
     0
294
     0
178
     0
179
     1
 45
1.0
271
     0
272
     9
273
     9
295
     0
  0
DIMENSION
  5
2E62F
330
2
100
AcDbEntity
  8
0
  6
Continuous
 62
     7
100
AcDbDimension
280
     0
  2
*D3
 10
88.64817109932891
 20
109.6217498176925
 30
0.0
 11
96.12317109932892
 21
111.7467498176925
 31
0.0
 70
    32
  1
.3%%p.01
 71
     5
 42
7.61999999999989
 73
     0
 74
     0
 75
     0
  3
Standard$0
100
AcDbAlignedDimension
 13
81.02817109932903
 23
93.92008123584549
 33
0.0
 14
88.64817109932891
 24
101.5973312358456
 34
0.0
100
AcDbRotatedDimension
1001
ACAD
1000
DSTYLE
1002
{
1070
    42
1040
0.625
1070
    43
1040
3.75
1070
    44
1040
1.25
1070
    48
1040
0.000000001
1070
    74
1070
     0
1070
    77
1070
     1
1070
    90
1070
     1
1070
   140
1040
3.0
1070
   141
1040
-0.5
1070
   143
1040
0.03937007874016
1070
   146
1040
0.7
1070
   147
1040
0.625
1070
   171
1070
     3
1070
   172
1070
     1
1070
   175
1070
     0
1070
   274
1070
     3
1070
   283
1070
     0
1070
   284
1070
     8
1070
   340
1005
25
1070
   371
1070
    -1
1070
   372
1070
    -1
1002
}
  0
MULTILEADER
  5
2E647
330
2
100
AcDbEntity
  8
0
  6
Continuous
 62
     7
160
               692
310
B4020000180000000C00000016000000020000C30C00000033000000000000000C00000013000000993A00000C00000016000000020000C3D8000000260000007747DDC0C99653403FB763C084BE4340000000000000000000000000000000000000000000000000000000000000F03F000000000000F03F6DD8D1DFF2F01E
310
3D000000000000000043002E00300034000000610004000000010000000000000000000840000000000000F03F0000000000000000000000000000F03F00000000000000000000000000000000000000000000000000000000010000000000000000000000690073006F00630070002E007300680078000000770068006700
310
7400780074002E00730068007800000000000C00000033000000000000000C00000010000000000000000C00000016000000030000C30C00000012000000000000000C00000013000000010000000C0000001400000001000000540000000700000003000000C8D3A8B6CAF05140A07B8AF321FE4740000000000000000040
310
7879E431AD514038637FCD0825494000000000000000000ABDE2B9F51C5240BB5BBD80EB39484000000000000000000C000000130000008913000054000000060000000300000069C84538E0065240ADEB23BA061C48400000000000000000E03E7F4F1340534040B763C0847E44400000000000000000E04E391EA46A5340
310
38B763C0847E444000000000000000000C00000013000000112700003C0000000600000002000000E04E391EA46A534038B763C0847E44400000000000000000E04E391EA48A53403AB763C0847E444000000000000000000C00000016000000030000C30C00000012000000000000000C00000017000000000000000C0000
310
00130000009A3A00000C00000016000000070000C30C00000012000000000000000C00000017000000FFFFFFFF0C0000003300000000000000
100
AcDbMLeader
270
     2
300
CONTEXT_DATA{
 40
1.0
 10
78.1662669715547
 20
40.98842625492984
 30
0.0
 41
3.0
140
2.5
145
0.5
174
     2
175
     2
176
     0
177
     1
290
     1
304
C.04
 11
0.0
 21
0.0
 31
1.0
340
25
 12
78.66626697155471
 22
42.48842625492989
 32
0.0
 13
1.0
 23
0.0000000000000275
 33
0.0
 42
0.0000000000000275
 43
0.0
 44
0.0
 45
1.0
170
     1
 90
-1023410174
171
     1
172
     5
 91
-1073741824
141
0.0
 92
     2047
291
     0
292
     0
173
     0
293
     0
142
0.0
143
0.0
294
     0
295
     0
296
     0
110
70.89667019521903
120
53.27383113784851
130
0.0
111
1.0
121
0.0000000000000275
131
0.0
112
-0.0000000000000275
122
1.0
132
0.0
297
     0
302
LEADER{
290
     1
291
     1
 10
77.6662669715547
 20
40.98842625492983
 30
0.0
 11
1.0
 21
0.0000000000000275
 31
0.0
 90
        0
 40
0.5
304
LEADER_LINE{
 10
70.70617019521979
 20
50.28933113784882
 30
0.0
 10
77.0011786215432
 20
40.98842625492989
 30
0.0
 91
        0
305
}
271
     0
303
}
272
     9
273
     9
301
}
340
BD9
 90
   347136
170
     1
 91
-1023410173
341
28
171
    -1
290
     1
291
     1
 41
0.5
 42
2.5
172
     2
343
25
173
     2
 95
        2
174
     1
175
     0
 92
-1023410174
292
     0
 93
-1023410174
 10
1.0
 20
1.0
 30
1.0
 43
0.0
176
     1
293
     0
294
     0
178
     0
179
     1
 45
1.0
271
     0
272
     9
273
     9
295
     0
  0
MULTILEADER
  5
2E648
330
2
100
AcDbEntity
  8
0
  6
Continuous
 62
     7
160
               692
310
B4020000180000000C00000016000000020000C30C00000033000000000000000C00000013000000993A00000C00000016000000020000C3D800000026000000F70A2B2FC2E65740D1D8DBF368F94440000000000000000000000000000000000000000000000000000000000000F03F000000000000F03F6DD8D1DFF2F01E
310
3D000000000000000043002E00300032000000730004000000010000000000000000000840000000000000F03F0000000000000000000000000000F03F00000000000000000000000000000000000000000000000000000000010000000000000000000000690073006F00630070002E007300680078000000770068006700
310
7400780074002E00730068007800000000000C00000033000000000000000C00000010000000000000000C00000016000000030000C30C00000012000000000000000C00000013000000010000000C0000001400000001000000540000000700000003000000D3B0666DBE6556401608750385684840000000000000000060
310
61A0153A1956407829CB04928649400000000000000000F8046392FE8F56401A594D4A9DA9484000000000000000000C0000001300000089130000540000000600000003000000E6DAE47FDE7A56409830E1261189484000000000000000006002CDBD0B9057407059CFA072B9454000000000000000006012878C9CBA5740
310
6859CFA072B9454000000000000000000C00000013000000112700003C00000006000000020000006012878C9CBA57406859CFA072B9454000000000000000006012878C9CDA57406A59CFA072B9454000000000000000000C00000016000000030000C30C00000012000000000000000C00000017000000000000000C0000
310
00130000009A3A00000C00000016000000070000C30C00000012000000000000000C00000017000000FFFFFFFF0C0000003300000000000000
100
AcDbMLeader
270
     2
300
CONTEXT_DATA{
 40
1.0
 10
95.41580498877147
 20
43.44881067394711
 30
0.0
 41
3.0
140
2.5
145
0.5
174
     2
175
     2
176
     0
177
     1
290
     1
304
C.02
 11
0.0
 21
0.0
 31
1.0
340
25
 12
95.91580498877148
 22
44.94910594953767
 32
0.0
 13
1.0
 23
0.0000000000000275
 33
0.0
 42
0.0000000000000275
 43
0.0
 44
0.0
 45
1.0
170
     1
 90
-1023410174
171
     1
172
     5
 91
-1073741824
141
0.0
 92
     2047
291
     0
292
     0
173
     0
293
     0
142
0.0
143
0.0
294
     0
295
     0
296
     0
110
85.68206266946209
120
59.06603513003569
130
0.0
111
1.0
121
0.0000000000000275
131
0.0
112
-0.0000000000000275
122
1.0
132
0.0
297
     0
302
LEADER{
290
     1
291
     1
 10
94.91580498877146
 20
43.44881067394709
 30
0.0
 11
1.0
 21
0.0000000000000275
 31
0.0
 90
        0
 40
0.5
304
LEADER_LINE{
 10
88.39417019521851
 20
51.05133113784808
 30
0.0
 10
94.25071663875996
 20
43.44881067394715
 30
0.0
 91
        0
305
}
271
     0
303
}
272
     9
273
     9
301
}
340
BD9
 90
   347136
170
     1
 91
-1023410173
341
28
171
    -1
290
     1
291
     1
 41
0.5
 42
2.5
172
     2
343
25
173
     2
 95
        2
174
     1
175
     0
 92
-1023410174
292
     0
 93
-1023410174
 10
1.0
 20
1.0
 30
1.0
 43
0.0
176
     1
293
     0
294
     0
178
     0
179
     1
 45
1.0
271
     0
272
     9
273
     9
295
     0
  0
VIEWPORT
  5
2C7EC
102
{ACAD_XDICTIONARY
360
2C7ED
102
}
330
1B
100
AcDbEntity
 67
     1
  8
0
  6
Continuous
 62
     7
100
AcDbViewport
 10
212.4908200734394
 20
97.5
 30
0.0
 40
464.9816401468789
 41
210.0
 68
     1
 69
     1
 12
212.4908200734394
 22
97.5
 13
0.0
 23
0.0
 14
2.0
 24
2.0
 15
2.0
 25
2.0
 16
0.0
 26
0.0
 36
1.0
 17
0.0
 27
0.0
 37
0.0
 42
50.0
 43
0.0
 44
0.0
 45
210.0
 50
0.0
 51
0.0
 72
  1000
 90
   823328
  1

281
     0
 71
     1
 74
     0
110
0.0
120
0.0
130
0.0
111
1.0
121
0.0
131
0.0
112
0.0
122
1.0
132
0.0
 79
     0
146
0.0
170
     0
 61
     5
348
2E
292
     1
282
     1
141
0.0
142
0.0
 63
   250
421
  3355443
  0
ENDSEC
  0
SECTION
  2
OBJECTS
  0
DICTIONARY
  5
B
330
0
100
AcDbDictionary
281
     1
  3
ACAD_CIP_PREVIOUS_PRODUCT_INFO
350
BE4
  3
ACAD_COLOR
350
3F
  3
ACAD_DETAILVIEWSTYLE
350
BDC
  3
ACAD_GROUP
350
3A
  3
ACAD_LAYOUT
350
17
  3
ACAD_MATERIAL
350
D
  3
ACAD_MLEADERSTYLE
350
42
  3
ACAD_MLINESTYLE
350
3B
  3
ACAD_PLOTSETTINGS
350
3C
  3
ACAD_PLOTSTYLENAME
350
A
  3
ACAD_SCALELIST
350
40
  3
ACAD_SECTIONVIEWSTYLE
350
BDA
  3
ACAD_TABLESTYLE
350
41
  3
ACAD_VISUALSTYLE
350
2F
  3
ACDB_RECOMPOSE_DATA
350
2E74F
  3
AcDbVariableDictionary
350
BB8
  3
AEC_PROPERTY_SET_DEFS
350
24C9
  0
DICTIONARY
  5
31
330
2C
100
AcDbDictionary
280
     1
281
     1
  0
DICTIONARY
  5
22
330
21
100
AcDbDictionary
280
     1
281
     1
  3
ACAD_LAYERSTATES
360
23
  0
DICTIONARY
  5
7
330
6
100
AcDbDictionary
280
     1
281
     1
  3
ADSK_XREC_LAYER_RECONCILED
360
8
  0
DICTIONARY
  5
2DDDA
330
2DDD9
100
AcDbDictionary
280
     1
281
     1
  0
DICTIONARY
  5
3
330
2
100
AcDbDictionary
280
     1
281
     1
  3
ACAD_SORTENTS
360
BB0
  0
DICTIONARY
  5
2C7ED
330
2C7EC
100
AcDbDictionary
280
     1
281
     1
  3
ASDK_XREC_ANNOTATION_SCALE_INFO
360
2C7EE
  0
XRECORD
  5
BE4
102
{ACAD_REACTORS
330
B
102
}
330
B
100
AcDbXrecord
280
     1
300
ACD
300
2014
300
ACD_F_S
  0
DICTIONARY
  5
3F
102
{ACAD_REACTORS
330
B
102
}
330
B
100
AcDbDictionary
281
     1
  0
DICTIONARY
  5
BDC
102
{ACAD_REACTORS
330
B
102
}
330
B
100
AcDbDictionary
281
     1
  3
Imperial24
350
283CD
  3
Metric50
350
BDD
  0
DICTIONARY
  5
3A
102
{ACAD_REACTORS
330
B
102
}
330
B
100
AcDbDictionary
281
     1
  0
DICTIONARY
  5
17
102
{ACAD_REACTORS
330
B
102
}
330
B
100
AcDbDictionary
281
     1
  3
Model
350
16
  3
배치1
350
1E
  0
DICTIONARY
  5
D
102
{ACAD_REACTORS
330
B
102
}
330
B
100
AcDbDictionary
281
     1
  3
ByBlock
350
3E
  3
ByLayer
350
3D
  3
Global
350
C
  0
DICTIONARY
  5
42
102
{ACAD_REACTORS
330
B
102
}
330
B
100
AcDbDictionary
281
     1
  3
Standard
350
BD9
  0
DICTIONARY
  5
3B
102
{ACAD_REACTORS
330
B
102
}
330
B
100
AcDbDictionary
281
     1
  3
Standard
350
43
  0
DICTIONARY
  5
3C
102
{ACAD_REACTORS
330
B
102
}
330
B
100
AcDbDictionary
281
     1
  0
ACDBDICTIONARYWDFLT
  5
A
102
{ACAD_REACTORS
330
B
102
}
330
B
100
AcDbDictionary
281
     1
  3
Normal
350
9
100
AcDbDictionaryWithDefault
340
9
  0
DICTIONARY
  5
40
102
{ACAD_REACTORS
330
B
102
}
330
B
100
AcDbDictionary
281
     1
  3
A0
350
48
  3
A1
350
49
  3
A2
350
4A
  3
A3
350
4B
  3
A4
350
4C
  3
A5
350
4D
  3
A6
350
4E
  3
A7
350
4F
  3
A8
350
50
  3
A9
350
51
  3
B0
350
52
  3
B1
350
53
  3
B2
350
54
  3
B3
350
55
  3
B4
350
56
  3
B5
350
57
  3
B6
350
58
  0
DICTIONARY
  5
BDA
102
{ACAD_REACTORS
330
B
102
}
330
B
100
AcDbDictionary
281
     1
  3
Imperial24
350
283CC
  3
Metric50
350
BDB
  0
DICTIONARY
  5
41
102
{ACAD_REACTORS
330
B
102
}
330
B
100
AcDbDictionary
281
     1
  3
Standard
350
44
  0
DICTIONARY
  5
2F
102
{ACAD_REACTORS
330
B
102
}
330
B
100
AcDbDictionary
281
     1
  3
2dWireframe
350
2E
  3
3D Hidden
350
1A64
  3
3dWireframe
350
47
  3
Basic
350
BC7
  3
Brighten
350
BCC
  3
ColorChange
350
BD0
  3
Conceptual
350
BCA
  3
Dim
350
BCB
  3
EdgeColorOff
350
BD8
  3
Facepattern
350
BCF
  3
Flat
350
BC3
  3
FlatWithEdges
350
BC4
  3
Gouraud
350
BC5
  3
GouraudWithEdges
350
BC6
  3
Hidden
350
BC9
  3
JitterOff
350
BD6
  3
Linepattern
350
BCE
  3
OverhangOff
350
BD7
  3
Realistic
350
46
  3
Shaded
350
BD5
  3
Shaded with edges
350
BD4
  3
Shades of Gray
350
BD1
  3
Sketchy
350
BD2
  3
Thicken
350
BCD
  3
Wireframe
350
BC8
  3
X-Ray
350
BD3
  0
XRECORD
  5
2E74F
102
{ACAD_REACTORS
330
B
102
}
330
B
100
AcDbXrecord
280
     1
 90
        1
330
44
330
BDB
330
BDD
330
283CC
330
283CD
  0
DICTIONARY
  5
BB8
102
{ACAD_REACTORS
330
B
102
}
330
B
100
AcDbDictionary
281
     1
  3
CANNOSCALE
350
BBE
  3
CMLEADERSTYLE
350
BBA
  3
CTABLESTYLE
350
BB9
  3
CVIEWDETAILSTYLE
350
BBB
  3
CVIEWSECTIONSTYLE
350
BBC
  3
DIMASSOC
350
C3B
  3
HIDETEXT
350
C39
  3
HPCOLOR
350
FF3
  3
INDEXCTL
350
C38
  3
LAYEREVAL
350
BC0
  3
LAYERNOTIFY
350
BC1
  3
LIGHTINGUNITS
350
BBF
  3
MSLTSCALE
350
BBD
  3
SOLIDHIST
350
C3C
  3
SORTENTS
350
C37
  0
DICTIONARY
  5
24C9
102
{ACAD_REACTORS
330
B
102
}
330
B
100
AcDbDictionary
281
     1
  0
DICTIONARY
  5
23
102
{ACAD_REACTORS
330
22
102
}
330
22
100
AcDbDictionary
281
     1
  0
XRECORD
  5
8
102
{ACAD_REACTORS
330
7
102
}
330
7
100
AcDbXrecord
280
     1
290
     1
  0
SORTENTSTABLE
  5
BB0
102
{ACAD_REACTORS
330
3
102
}
330
3
100
AcDbSortentsTable
330
2
331
28498
  5
2910F
331
1DEB1
  5
1E0FF
331
283E0
  5
2943B
331
28379
  5
283AE
331
29112
  5
295E3
331
29439
  5
29236
331
28393
  5
2848D
331
2837C
  5
283D7
331
2835E
  5
2837B
331
283AD
  5
29115
331
2921C
  5
29430
331
29433
  5
2921F
331
2921F
  5
29433
331
29436
  5
29221
331
28396
  5
2910D
331
2835B
  5
28378
331
283AA
  5
29111
331
29219
  5
2929A
331
29430
  5
2921B
331
28370
  5
28394
331
283D7
  5
2923D
331
28361
  5
28374
331
28352
  5
28373
331
2942D
  5
29216
331
28355
  5
28375
331
29216
  5
29253
331
29296
  5
29438
331
283A7
  5
2910E
331
2910F
  5
29513
331
28376
  5
283AB
331
283DD
  5
29437
331
28455
  5
2A92C
331
28373
  5
283A7
331
2837F
  5
2845A
331
28368
  5
2837E
331
29431
  5
2921C
331
29110
  5
2951B
331
2921A
  5
2929F
331
2837A
  5
283D4
331
283E1
  5
2943C
331
2835C
  5
28379
331
283AB
  5
29112
331
28394
  5
28498
331
29234
  5
2923E
331
2836B
  5
28380
331
2929D
  5
29237
331
2837D
  5
283D9
331
29437
  5
29223
331
28380
  5
2845E
331
283DB
  5
28482
331
2944B
  5
29215
331
2923A
  5
2923C
331
28371
  5
28395
331
28374
  5
283A9
331
29214
  5
2943D
331
29220
  5
29224
331
28365
  5
2837C
331
2942E
  5
29217
331
28356
  5
28376
331
2910D
  5
2948D
331
283AE
  5
29116
331
29217
  5
29298
331
28377
  5
283AC
331
283DE
  5
29436
331
2921D
  5
29431
331
29434
  5
29220
331
28378
  5
283AD
331
29438
  5
29225
331
29218
  5
29299
331
28369
  5
2837F
331
283A9
  5
29110
331
2921B
  5
292A0
331
29432
  5
2921D
331
28392
  5
28481
331
29111
  5
2951C
331
2836C
  5
28392
331
2835D
  5
2837A
331
283AC
  5
29114
331
2844E
  5
2A377
331
2921E
  5
29432
331
28395
  5
29004
331
2837E
  5
283DB
331
2924F
  5
29435
331
2836F
  5
28393
331
283D6
  5
29238
331
28454
  5
2A8F1
331
28372
  5
28396
331
2910E
  5
29511
331
28375
  5
283AA
331
28366
  5
2837D
331
2942F
  5
29218
331
28357
  5
28377
331
29215
  5
29251
331
29221
  5
29434
331
2837B
  5
283D6
  0
XRECORD
  5
2C7EE
102
{ACAD_REACTORS
330
2C7ED
102
}
330
2C7ED
100
AcDbXrecord
280
     1
 90
        1
340
48
  0
ACDBDETAILVIEWSTYLE
  5
283CD
102
{ACAD_XDICTIONARY
360
2E74D
102
}
102
{ACAD_REACTORS
330
BDC
102
}
330
BDC
100
AcDbModelDocViewStyle
 70
     0
  3
Imperial24
290
     0
100
AcDbDetailViewStyle
 70
     0
 71
     0
 90
        3
 71
     1
340
25
 62
   256
 40
0.24
340
0
 62
   256
 40
0.24
300

 40
0.36
280
     3
 71
     2
340
14
 90
       25
 62
   256
 71
     3
340
25
 62
   256
 40
0.24
 90
        1
 40
0.75
 90
        1
300
%<\AcVar ViewType \f "%tc1">% %<\AcVar ViewDetailId>%\PSCALE %<\AcVar ViewScale \f "%sn">%
 71
     4
340
14
 90
       25
 62
   256
340
14
 90
       25
 62
   256
280
     0
  0
ACDBDETAILVIEWSTYLE
  5
BDD
102
{ACAD_XDICTIONARY
360
2E749
102
}
102
{ACAD_REACTORS
330
BDC
102
}
330
BDC
100
AcDbModelDocViewStyle
 70
     0
  3
Metric50
290
     0
100
AcDbDetailViewStyle
 70
     0
 71
     0
 90
        3
 71
     1
340
25
 62
   256
 40
5.0
340
0
 62
   256
 40
5.0
300

 40
0.0
280
     1
 71
     2
340
14
 90
       25
 62
   256
 71
     3
340
25
 62
   256
 40
5.0
 90
        0
 40
15.0
 90
        1
300
%<\AcVar ViewDetailId>% (%<\AcVar ViewScale \f "%sn">%)
 71
     4
340
14
 90
       25
 62
   256
340
14
 90
       25
 62
   256
280
     0
  0
LAYOUT
  5
16
102
{ACAD_XDICTIONARY
360
18
102
}
102
{ACAD_REACTORS
330
17
102
}
330
17
100
AcDbPlotSettings
  1

  2
DWG To PDF.pc3
  4
ISO_expand_A4_(297.00_x_210.00_MM)
  6

 40
5.793749809265136
 41
10.79374980926513
 42
5.79376220703125
 43
10.79374694824219
 44
297.0
 45
210.0
 46
10.74179700476176
 47
0.0
 48
214.2303289092835
 49
-5.650030662565313
140
426.8811481846322
141
146.1562857013982
142
1.0
143
0.8057125389846563
 70
 11956
 72
     1
 73
     0
 74
     4
  7
ksm0910.ctb
 75
     0
147
1.241137442468229
 76
     0
 77
     2
 78
   300
148
-214.2303289092835
149
5.650030662565313
100
AcDbLayout
  1
Model
 70
     1
 71
     0
 10
0.0
 20
0.0
 11
12.0
 21
9.0
 12
0.0
 22
0.0
 32
0.0
 14
0.0
 24
0.0
 34
0.0
 15
0.0
 25
0.0
 35
0.0
146
0.0
 13
0.0
 23
0.0
 33
0.0
 16
1.0
 26
0.0
 36
0.0
 17
0.0
 27
1.0
 37
0.0
 76
     0
330
2
331
2D
1001
ACAD_PSEXT
1000
DWG To PDF.pc3
1000
DWG To PDF
1000
파일
1000

1070
     0
  0
LAYOUT
  5
1E
102
{ACAD_XDICTIONARY
360
1F
102
}
102
{ACAD_REACTORS
330
17
102
}
330
17
100
AcDbPlotSettings
  1

  2
none_device
  4
ISO_A4_(210.00_x_297.00_MM)
  6

 40
7.5
 41
20.0
 42
7.5
 43
20.0
 44
210.0
 45
297.0
 46
0.0
 47
0.0
 48
0.0
 49
0.0
140
0.0
141
0.0
142
1.0
143
1.0
 70
   688
 72
     1
 73
     1
 74
     5
  7
ksm0910.ctb
 75
    16
147
1.0
 76
     0
 77
     2
 78
   300
148
0.0
149
0.0
100
AcDbLayout
  1
배치1
 70
     1
 71
     1
 10
-20.0
 20
-7.5
 11
277.0
 21
202.5
 12
0.0
 22
0.0
 32
0.0
 14
1.000000000000000E+20
 24
1.000000000000000E+20
 34
1.000000000000000E+20
 15
-1.000000000000000E+20
 25
-1.000000000000000E+20
 35
-1.000000000000000E+20
146
0.0
 13
0.0
 23
0.0
 33
0.0
 16
1.0
 26
0.0
 36
0.0
 17
0.0
 27
1.0
 37
0.0
 76
     0
330
1B
331
2C7EC
1001
ACAD_PSEXT
1000
없음
1000
없음
1000
해당 없음
1000
배치가 새로운 플로터 구성을 선택할 때까지 플롯되지 않습니다.
1070
     0
  0
MATERIAL
  5
3E
102
{ACAD_REACTORS
330
D
102
}
330
D
100
AcDbMaterial
  1
ByBlock
 94
       63
  0
MATERIAL
  5
3D
102
{ACAD_REACTORS
330
D
102
}
330
D
100
AcDbMaterial
  1
ByLayer
 94
       63
  0
MATERIAL
  5
C
102
{ACAD_XDICTIONARY
360
E
102
}
102
{ACAD_REACTORS
330
D
102
}
330
D
100
AcDbMaterial
  1
Global
 43
0.0007999999797903
 43
0.0
 43
0.0
 43
0.0
 43
0.0
 43
0.0007999999797903
 43
0.0
 43
0.0
 43
0.0
 43
0.0
 43
1.0
 43
0.0
 43
0.0
 43
0.0
 43
0.0
 43
1.0
 49
0.0007999999797903
 49
0.0
 49
0.0
 49
0.0
 49
0.0
 49
0.0007999999797903
 49
0.0
 49
0.0
 49
0.0
 49
0.0
 49
1.0
 49
0.0
 49
0.0
 49
0.0
 49
0.0
 49
1.0
142
0.0007999999797903
142
0.0
142
0.0
142
0.0
142
0.0
142
0.0007999999797903
142
0.0
142
0.0
142
0.0
142
0.0
142
1.0
142
0.0
142
0.0
142
0.0
142
0.0
142
1.0
144
0.0007999999797903
144
0.0
144
0.0
144
0.0
144
0.0
144
0.0007999999797903
144
0.0
144
0.0
144
0.0
144
0.0
144
1.0
144
0.0
144
0.0
144
0.0
144
0.0
144
1.0
 94
       63
1001
ACAD
1070
    -1
1070
     3
1070
     0
1000

1071
        0
1070
     0
  0
MLEADERSTYLE
  5
BD9
102
{ACAD_REACTORS
330
42
330
2E62D
330
2E62E
330
2E647
330
2E648
102
}
330
42
100
AcDbMLeaderStyle
179
     2
170
     2
171
     1
172
     0
 90
        2
 40
0.0
 41
0.0
173
     1
 91
-1023410173
340
28
 92
       -2
290
     1
 42
2.0
291
     1
 43
0.36
  3
Standard
 44
4.0
300

342
25
174
     1
178
     6
175
     1
176
     0
 93
-1023410174
 45
3.0
292
     0
297
     0
 46
4.0
 94
-1056964608
 47
1.0
 49
1.0
140
1.0
293
     1
141
0.0
294
     1
177
     0
142
1.0
295
     0
296
     0
143
0.125
271
     0
272
     9
273
     9
298
     1
  0
MLINESTYLE
  5
43
102
{ACAD_REACTORS
330
3B
102
}
330
3B
100
AcDbMlineStyle
  2
STANDARD
 70
     0
  3

 62
   256
 51
90.0
 52
90.0
 71
     2
 49
0.5
 62
   256
  6
BYLAYER
 49
-0.5
 62
   256
  6
BYLAYER
  0
ACDBPLACEHOLDER
  5
9
102
{ACAD_REACTORS
330
A
102
}
330
A
  0
SCALE
  5
48
102
{ACAD_REACTORS
330
40
102
}
330
40
100
AcDbScale
 70
     0
300
1:1
140
1.0
141
1.0
290
     1
  0
SCALE
  5
49
102
{ACAD_REACTORS
330
40
102
}
330
40
100
AcDbScale
 70
     0
300
1:2
140
1.0
141
2.0
290
     0
  0
SCALE
  5
4A
102
{ACAD_REACTORS
330
40
102
}
330
40
100
AcDbScale
 70
     0
300
1:4
140
1.0
141
4.0
290
     0
  0
SCALE
  5
4B
102
{ACAD_REACTORS
330
40
102
}
330
40
100
AcDbScale
 70
     0
300
1:5
140
1.0
141
5.0
290
     0
  0
SCALE
  5
4C
102
{ACAD_REACTORS
330
40
102
}
330
40
100
AcDbScale
 70
     0
300
1:8
140
1.0
141
8.0
290
     0
  0
SCALE
  5
4D
102
{ACAD_REACTORS
330
40
102
}
330
40
100
AcDbScale
 70
     0
300
1:10
140
1.0
141
10.0
290
     0
  0
SCALE
  5
4E
102
{ACAD_REACTORS
330
40
102
}
330
40
100
AcDbScale
 70
     0
300
1:16
140
1.0
141
16.0
290
     0
  0
SCALE
  5
4F
102
{ACAD_REACTORS
330
40
102
}
330
40
100
AcDbScale
 70
     0
300
1:20
140
1.0
141
20.0
290
     0
  0
SCALE
  5
50
102
{ACAD_REACTORS
330
40
102
}
330
40
100
AcDbScale
 70
     0
300
1:30
140
1.0
141
30.0
290
     0
  0
SCALE
  5
51
102
{ACAD_REACTORS
330
40
102
}
330
40
100
AcDbScale
 70
     0
300
1:40
140
1.0
141
40.0
290
     0
  0
SCALE
  5
52
102
{ACAD_REACTORS
330
40
102
}
330
40
100
AcDbScale
 70
     0
300
1:50
140
1.0
141
50.0
290
     0
  0
SCALE
  5
53
102
{ACAD_REACTORS
330
40
102
}
330
40
100
AcDbScale
 70
     0
300
1:100
140
1.0
141
100.0
290
     0
  0
SCALE
  5
54
102
{ACAD_REACTORS
330
40
102
}
330
40
100
AcDbScale
 70
     0
300
2:1
140
2.0
141
1.0
290
     0
  0
SCALE
  5
55
102
{ACAD_REACTORS
330
40
102
}
330
40
100
AcDbScale
 70
     0
300
4:1
140
4.0
141
1.0
290
     0
  0
SCALE
  5
56
102
{ACAD_REACTORS
330
40
102
}
330
40
100
AcDbScale
 70
     0
300
8:1
140
8.0
141
1.0
290
     0
  0
SCALE
  5
57
102
{ACAD_REACTORS
330
40
102
}
330
40
100
AcDbScale
 70
     0
300
10:1
140
10.0
141
1.0
290
     0
  0
SCALE
  5
58
102
{ACAD_REACTORS
330
40
102
}
330
40
100
AcDbScale
 70
     0
300
100:1
140
100.0
141
1.0
290
     0
  0
ACDBSECTIONVIEWSTYLE
  5
283CC
102
{ACAD_XDICTIONARY
360
2E74B
102
}
102
{ACAD_REACTORS
330
BDA
102
}
330
BDA
100
AcDbModelDocViewStyle
 70
     0
  3
Imperial24
290
     0
100
AcDbSectionViewStyle
 70
     0
 71
     0
 90
       78
 71
     1
340
25
 62
   256
 40
0.24
340
0
340
0
 62
   256
 40
0.24
300
I, O, Q, S, X, Z
 40
0.48
 90
        3
 40
0.18
 90
        1
 71
     2
340
14
 90
       25
 62
   256
340
14
 90
       50
 62
   256
 40
0.24
 40
0.0
 40
0.24
 71
     3
340
25
 62
   256
 40
0.24
 90
        1
 40
0.75
 90
        1
300
%<\AcVar ViewType \f "%tc1">% %<\AcVar ViewSectionStartId>%-%<\AcVar ViewSectionEndId>%\PSCALE %<\AcVar ViewScale \f "%sn">%
 71
     4
 62
   256
 62
   257
300
ANSI31
 40
1.0
 90
        0
290
     0
290
     0
 90
        6
 40
0.0
 40
1.570796326794896
 40
0.2617993877991494
 40
1.308996938995747
 40
-0.2617993877991494
 40
1.832595714594046
  0
ACDBSECTIONVIEWSTYLE
  5
BDB
102
{ACAD_XDICTIONARY
360
2E747
102
}
102
{ACAD_REACTORS
330
BDA
102
}
330
BDA
100
AcDbModelDocViewStyle
 70
     0
  3
Metric50
290
     0
100
AcDbSectionViewStyle
 70
     0
 71
     0
 90
      102
 71
     1
340
25
 62
   256
 40
5.0
340
0
340
0
 62
   256
 40
5.0
300
I, O, Q, S, X, Z
 40
10.0
 90
        0
 40
2.5
 90
        0
 71
     2
340
14
 90
       25
 62
   256
340
14
 90
       50
 62
   256
 40
5.0
 40
2.5
 40
5.0
 71
     3
340
25
 62
   256
 40
5.0
 90
        0
 40
15.0
 90
        1
300
%<\AcVar ViewSectionStartId>%-%<\AcVar ViewSectionEndId>% (%<\AcVar ViewScale \f "%sn">%)
 71
     4
 62
   256
 62
   257
300
ANSI31
 40
1.0
 90
        0
290
     0
290
     0
 90
        6
 40
0.0
 40
1.570796326794896
 40
0.2617993877991494
 40
1.308996938995747
 40
-0.2617993877991494
 40
1.832595714594046
  0
TABLESTYLE
  5
44
102
{ACAD_XDICTIONARY
360
45
102
}
102
{ACAD_REACTORS
330
41
102
}
330
41
100
AcDbTableStyle
280
     0
  3
Standard
 70
     0
 71
     0
 40
1.5
 41
1.5
280
     0
281
     0
  7
Standard
140
4.5
170
     2
 62
     0
 63
     7
283
     0
 90
      512
 91
        0
  1

274
    -2
284
     1
 64
     0
275
    -2
285
     1
 65
     0
276
    -2
286
     1
 66
     0
277
    -2
287
     1
 67
     0
278
    -2
288
     1
 68
     0
279
    -2
289
     1
 69
     0
  7
Standard
140
6.0
170
     5
 62
     0
 63
     7
283
     0
 90
      512
 91
        0
  1

274
    -2
284
     1
 64
     0
275
    -2
285
     1
 65
     0
276
    -2
286
     1
 66
     0
277
    -2
287
     1
 67
     0
278
    -2
288
     1
 68
     0
279
    -2
289
     1
 69
     0
  7
Standard
140
4.5
170
     5
 62
     0
 63
     7
283
     0
 90
      512
 91
        0
  1

274
    -2
284
     1
 64
     0
275
    -2
285
     1
 65
     0
276
    -2
286
     1
 66
     0
277
    -2
287
     1
 67
     0
278
    -2
288
     1
 68
     0
279
    -2
289
     1
 69
     0
  0
VISUALSTYLE
  5
2E
102
{ACAD_REACTORS
330
2F
102
}
330
2F
100
AcDbVisualStyle
  2
2dWireframe
 70
     4
177
     3
291
     0
 70
    58
 90
        0
176
     1
 90
        2
176
     1
 90
        1
176
     1
 90
        0
176
     1
 40
0.6
176
     1
 40
30.0
176
     1
 62
     7
176
     1
 90
        1
176
     1
 90
        4
176
     1
 62
     7
176
     1
 62
   257
176
     1
 90
        1
176
     1
 90
        1
176
     1
 40
1.0
176
     1
 90
        0
176
     1
 62
   257
176
     1
 40
1.0
176
     1
 90
        1
176
     1
 90
        6
176
     1
 90
        2
176
     1
 62
     7
176
     1
 90
        5
176
     1
 90
        0
176
     1
 90
        0
176
     1
290
     0
176
     1
 90
        1
176
     1
 40
0.0
176
     1
 90
        0
176
     1
290
     1
176
     1
290
     1
176
     1
290
     0
176
     1
290
     0
176
     1
290
     0
176
     1
290
     0
176
     1
290
     0
176
     1
290
     0
176
     1
290
     0
176
     1
 90
       50
176
     1
 40
0.0
176
     1
 40
1.0
176
     1
 90
        0
176
     1
 62
    18
420
        0
176
     1
 90
       50
176
     1
 90
        3
176
     1
 62
     5
420
      255
176
     1
290
     0
176
     1
 90
       50
176
     1
 90
       50
176
     1
 90
       50
176
     1
290
     0
176
     1
 90
       50
176
     1
 62
   256
176
     0
 40
1.0
176
     0
 90
        2
176
     1
  1
strokes_ogs.tif
176
     1
290
     0
176
     1
 40
1.0
176
     1
 40
1.0
176
     1
  0
VISUALSTYLE
  5
1A64
102
{ACAD_REACTORS
330
2F
102
}
330
2F
100
AcDbVisualStyle
  2
3D Hidden
 70
     6
177
     3
291
     0
 70
    58
 90
        1
176
     1
 90
        2
176
     1
 90
        2
176
     1
 90
        0
176
     1
 40
0.6
176
     1
 40
30.0
176
     1
 62
     7
176
     1
 90
        2
176
     1
 90
        2
176
     1
 62
     7
176
     1
 62
   257
176
     1
 90
        2
176
     1
 90
        1
176
     1
 40
40.0
176
     1
 90
        0
176
     1
 62
   257
176
     1
 40
1.0
176
     1
 90
        1
176
     1
 90
        6
176
     1
 90
        2
176
     1
 62
     7
176
     1
 90
        3
176
     1
 90
        0
176
     1
 90
        0
176
     1
290
     0
176
     1
 90
        1
176
     1
 40
0.0
176
     1
 90
        0
176
     1
290
     0
176
     1
290
     1
176
     1
290
     1
176
     1
290
     0
176
     1
290
     0
176
     1
290
     0
176
     1
290
     0
176
     1
290
     0
176
     1
290
     0
176
     1
 90
       50
176
     1
 40
0.0
176
     1
 40
1.0
176
     1
 90
        0
176
     1
 62
    18
420
        0
176
     1
 90
       50
176
     1
 90
        3
176
     1
 62
     5
420
      255
176
     1
290
     0
176
     1
 90
       50
176
     1
 90
       50
176
     1
 90
       50
176
     1
290
     0
176
     1
 90
       50
176
     1
 62
   256
176
     0
 40
1.0
176
     0
 90
        2
176
     1
  1
strokes_ogs.tif
176
     1
290
     0
176
     1
 40
1.0
176
     1
 40
1.0
176
     1
  0
VISUALSTYLE
  5
47
102
{ACAD_REACTORS
330
2F
102
}
330
2F
100
AcDbVisualStyle
  2
3dWireframe
 70
     5
177
     3
291
     0
 70
    58
 90
        0
176
     1
 90
        2
176
     1
 90
        1
176
     1
 90
        0
176
     1
 40
0.6
176
     1
 40
30.0
176
     1
 62
     7
176
     1
 90
        1
176
     1
 90
        4
176
     1
 62
     7
176
     1
 62
   257
176
     1
 90
        1
176
     1
 90
        1
176
     1
 40
1.0
176
     1
 90
        0
176
     1
 62
   257
176
     1
 40
1.0
176
     1
 90
        1
176
     1
 90
        6
176
     1
 90
        2
176
     1
 62
     7
176
     1
 90
        5
176
     1
 90
        0
176
     1
 90
        0
176
     1
290
     0
176
     1
 90
        1
176
     1
 40
0.0
176
     1
 90
        0
176
     1
290
     0
176
     1
290
     1
176
     1
290
     1
176
     1
290
     0
176
     1
290
     0
176
     1
290
     0
176
     1
290
     0
176
     1
290
     0
176
     1
290
     0
176
     1
 90
       50
176
     1
 40
0.0
176
     1
 40
1.0
176
     1
 90
        0
176
     1
 62
    18
420
        0
176
     1
 90
       50
176
     1
 90
        3
176
     1
 62
     5
420
      255
176
     1
290
     0
176
     1
 90
       50
176
     1
 90
       50
176
     1
 90
       50
176
     1
290
     0
176
     1
 90
       50
176
     1
 62
   256
176
     0
 40
1.0
176
     0
 90
        2
176
     1
  1
strokes_ogs.tif
176
     1
290
     0
176
     1
 40
1.0
176
     1
 40
1.0
176
     1
  0
VISUALSTYLE
  5
BC7
102
{ACAD_REACTORS
330
2F
102
}
330
2F
100
AcDbVisualStyle
  2
Basic
 70
     7
177
     3
291
     1
 70
    58
 90
        1
176
     1
 90
        0
176
     1
 90
        1
176
     1
 90
        0
176
     1
 40
0.6
176
     1
 40
30.0
176
     1
 62
     7
176
     1
 90
        0
176
     1
 90
        4
176
     1
 62
     7
176
     1
 62
   257
176
     1
 90
        1
176
     1
 90
        1
176
     1
 40
1.0
176
     1
 90
        8
176
     1
 62
     7
176
     1
 40
1.0
176
     1
 90
        1
176
     1
 90
        6
176
     1
 90
        2
176
     1
 62
     7
176
     1
 90
        5
176
     1
 90
        0
176
     1
 90
        0
176
     1
290
     0
176
     1
 90
        1
176
     1
 40
0.0
176
     1
 90
        0
176
     1
290
     0
176
     1
290
     1
176
     1
290
     1
176
     1
290
     0
176
     1
290
     0
176
     1
290
     0
176
     1
290
     0
176
     1
290
     0
176
     1
290
     0
176
     1
 90
       50
176
     1
 40
0.0
176
     1
 40
1.0
176
     1
 90
        0
176
     1
 62
    18
420
        0
176
     1
 90
       50
176
     1
 90
        3
176
     1
 62
     5
420
      255
176
     1
290
     0
176
     1
 90
       50
176
     1
 90
       50
176
     1
 90
       50
176
     1
290
     0
176
     1
 90
       50
176
     1
 62
   256
176
     0
 40
1.0
176
     0
 90
        2
176
     1
  1
strokes_ogs.tif
176
     1
290
     0
176
     1
 40
1.0
176
     1
 40
1.0
176
     1
  0
VISUALSTYLE
  5
BCC
102
{ACAD_REACTORS
330
2F
102
}
330
2F
100
AcDbVisualStyle
  2
Brighten
 70
    12
177
     3
291
     1
 70
    58
 90
        2
176
     1
 90
        2
176
     1
 90
        0
176
     1
 90
        0
176
     1
 40
0.6
176
     1
 40
30.0
176
     1
 62
     7
176
     1
 90
        1
176
     1
 90
        4
176
     1
 62
     7
176
     1
 62
   257
176
     1
 90
        1
176
     1
 90
        1
176
     1
 40
1.0
176
     1
 90
        8
176
     1
 62
     7
176
     1
 40
1.0
176
     1
 90
        1
176
     1
 90
        6
176
     1
 90
        2
176
     1
 62
     7
176
     1
 90
        5
176
     1
 90
        0
176
     1
 90
        0
176
     1
290
     0
176
     1
 90
        1
176
     1
 40
50.0
176
     1
 90
        0
176
     1
290
     0
176
     1
290
     1
176
     1
290
     1
176
     1
290
     0
176
     1
290
     0
176
     1
290
     0
176
     1
290
     0
176
     1
290
     0
176
     1
290
     0
176
     1
 90
       50
176
     1
 40
0.0
176
     1
 40
1.0
176
     1
 90
        0
176
     1
 62
    18
420
        0
176
     1
 90
       50
176
     1
 90
        3
176
     1
 62
     5
420
      255
176
     1
290
     0
176
     1
 90
       50
176
     1
 90
       50
176
     1
 90
       50
176
     1
290
     0
176
     1
 90
       50
176
     1
 62
   256
176
     0
 40
1.0
176
     0
 90
        2
176
     1
  1
strokes_ogs.tif
176
     1
290
     0
176
     1
 40
1.0
176
     1
 40
1.0
176
     1
  0
VISUALSTYLE
  5
BD0
102
{ACAD_REACTORS
330
2F
102
}
330
2F
100
AcDbVisualStyle
  2
ColorChange
 70
    16
177
     3
291
     1
 70
    58
 90
        2
176
     1
 90
        2
176
     1
 90
        3
176
     1
 90
        0
176
     1
 40
0.6
176
     1
 40
30.0
176
     1
 62
     8
176
     1
 90
        1
176
     1
 90
        4
176
     1
 62
     7
176
     1
 62
   257
176
     1
 90
        1
176
     1
 90
        1
176
     1
 40
1.0
176
     1
 90
        8
176
     1
 62
     8
176
     1
 40
1.0
176
     1
 90
        1
176
     1
 90
        6
176
     1
 90
        2
176
     1
 62
     7
176
     1
 90
        5
176
     1
 90
        0
176
     1
 90
        0
176
     1
290
     0
176
     1
 90
        1
176
     1
 40
0.0
176
     1
 90
        0
176
     1
290
     0
176
     1
290
     1
176
     1
290
     1
176
     1
290
     0
176
     1
290
     0
176
     1
290
     0
176
     1
290
     0
176
     1
290
     0
176
     1
290
     0
176
     1
 90
       50
176
     1
 40
0.0
176
     1
 40
1.0
176
     1
 90
        0
176
     1
 62
    18
420
        0
176
     1
 90
       50
176
     1
 90
        3
176
     1
 62
     5
420
      255
176
     1
290
     0
176
     1
 90
       50
176
     1
 90
       50
176
     1
 90
       50
176
     1
290
     0
176
     1
 90
       50
176
     1
 62
   256
176
     0
 40
1.0
176
     0
 90
        2
176
     1
  1
strokes_ogs.tif
176
     1
290
     0
176
     1
 40
1.0
176
     1
 40
1.0
176
     1
  0
VISUALSTYLE
  5
BCA
102
{ACAD_REACTORS
330
2F
102
}
330
2F
100
AcDbVisualStyle
  2
Conceptual
 70
     9
177
     3
291
     0
 70
    58
 90
        3
176
     1
 90
        2
176
     1
 90
        0
176
     1
 90
        0
176
     1
 40
0.6
176
     1
 40
30.0
176
     1
 62
     7
176
     1
 90
        2
176
     1
 90
        2
176
     1
 62
     7
176
     1
 62
   257
176
     1
 90
        1
176
     1
 90
        1
176
     1
 40
179.0
176
     1
 90
        8
176
     1
 62
     7
176
     1
 40
1.0
176
     1
 90
        1
176
     1
 90
        6
176
     1
 90
        2
176
     1
 62
     7
176
     1
 90
        3
176
     1
 90
        0
176
     1
 90
        0
176
     1
290
     0
176
     1
 90
        1
176
     1
 40
0.0
176
     1
 90
        0
176
     1
290
     0
176
     1
290
     1
176
     1
290
     1
176
     1
290
     0
176
     1
290
     0
176
     1
290
     0
176
     1
290
     0
176
     1
290
     0
176
     1
290
     0
176
     1
 90
       50
176
     1
 40
0.0
176
     1
 40
1.0
176
     1
 90
        0
176
     1
 62
    18
420
        0
176
     1
 90
       50
176
     1
 90
        3
176
     1
 62
     5
420
      255
176
     1
290
     0
176
     1
 90
       50
176
     1
 90
       50
176
     1
 90
       50
176
     1
290
     0
176
     1
 90
       50
176
     1
 62
   256
176
     0
 40
1.0
176
     0
 90
        2
176
     1
  1
strokes_ogs.tif
176
     1
290
     0
176
     1
 40
1.0
176
     1
 40
1.0
176
     1
  0
VISUALSTYLE
  5
BCB
102
{ACAD_REACTORS
330
2F
102
}
330
2F
100
AcDbVisualStyle
  2
Dim
 70
    11
177
     3
291
     1
 70
    58
 90
        2
176
     1
 90
        2
176
     1
 90
        0
176
     1
 90
        0
176
     1
 40
0.6
176
     1
 40
30.0
176
     1
 62
     7
176
     1
 90
        1
176
     1
 90
        4
176
     1
 62
     7
176
     1
 62
   257
176
     1
 90
        1
176
     1
 90
        1
176
     1
 40
1.0
176
     1
 90
        8
176
     1
 62
     7
176
     1
 40
1.0
176
     1
 90
        1
176
     1
 90
        6
176
     1
 90
        2
176
     1
 62
     7
176
     1
 90
        5
176
     1
 90
        0
176
     1
 90
        0
176
     1
290
     0
176
     1
 90
        1
176
     1
 40
-50.0
176
     1
 90
        0
176
     1
290
     0
176
     1
290
     1
176
     1
290
     1
176
     1
290
     0
176
     1
290
     0
176
     1
290
     0
176
     1
290
     0
176
     1
290
     0
176
     1
290
     0
176
     1
 90
       50
176
     1
 40
0.0
176
     1
 40
1.0
176
     1
 90
        0
176
     1
 62
    18
420
        0
176
     1
 90
       50
176
     1
 90
        3
176
     1
 62
     5
420
      255
176
     1
290
     0
176
     1
 90
       50
176
     1
 90
       50
176
     1
 90
       50
176
     1
290
     0
176
     1
 90
       50
176
     1
 62
   256
176
     0
 40
1.0
176
     0
 90
        2
176
     1
  1
strokes_ogs.tif
176
     1
290
     0
176
     1
 40
1.0
176
     1
 40
1.0
176
     1
  0
VISUALSTYLE
  5
BD8
102
{ACAD_REACTORS
330
2F
102
}
330
2F
100
AcDbVisualStyle
  2
EdgeColorOff
 70
    22
177
     3
291
     1
 70
    58
 90
        2
176
     0
 90
        2
176
     0
 90
        0
176
     0
 90
        0
176
     0
 40
0.6
176
     0
 40
30.0
176
     0
 62
     7
176
     0
 90
        1
176
     0
 90
        4
176
     0
 62
     7
176
     0
 62
   257
176
     0
 90
        1
176
     0
 90
        1
176
     0
 40
1.0
176
     0
 90
        8
176
     2
 62
     7
176
     0
 40
1.0
176
     0
 90
        1
176
     0
 90
        6
176
     0
 90
        2
176
     0
 62
     7
176
     0
 90
        5
176
     0
 90
        0
176
     0
 90
        0
176
     0
290
     0
176
     0
 90
        1
176
     0
 40
0.0
176
     0
 90
        0
176
     0
290
     0
176
     0
290
     1
176
     0
290
     1
176
     0
290
     0
176
     0
290
     0
176
     0
290
     0
176
     0
290
     0
176
     0
290
     0
176
     0
290
     0
176
     0
 90
       50
176
     0
 40
0.0
176
     0
 40
1.0
176
     0
 90
        0
176
     0
 62
    18
420
        0
176
     0
 90
       50
176
     0
 90
        3
176
     0
 62
     5
420
      255
176
     0
290
     0
176
     0
 90
       50
176
     0
 90
       50
176
     0
 90
       50
176
     0
290
     0
176
     0
 90
       50
176
     0
 62
   256
176
     0
 40
1.0
176
     0
 90
        2
176
     0
  1
strokes_ogs.tif
176
     0
290
     0
176
     0
 40
1.0
176
     0
 40
1.0
176
     0
  0
VISUALSTYLE
  5
BCF
102
{ACAD_REACTORS
330
2F
102
}
330
2F
100
AcDbVisualStyle
  2
Facepattern
 70
    15
177
     3
291
     1
 70
    58
 90
        2
176
     1
 90
        2
176
     1
 90
        0
176
     1
 90
        0
176
     1
 40
0.6
176
     1
 40
30.0
176
     1
 62
     7
176
     1
 90
        1
176
     1
 90
        4
176
     1
 62
     7
176
     1
 62
   257
176
     1
 90
        1
176
     1
 90
        1
176
     1
 40
1.0
176
     1
 90
        8
176
     1
 62
     7
176
     1
 40
1.0
176
     1
 90
        1
176
     1
 90
        6
176
     1
 90
        2
176
     1
 62
     7
176
     1
 90
        5
176
     1
 90
        0
176
     1
 90
        0
176
     1
290
     0
176
     1
 90
        1
176
     1
 40
0.0
176
     1
 90
        0
176
     1
290
     0
176
     1
290
     1
176
     1
290
     1
176
     1
290
     0
176
     1
290
     0
176
     1
290
     0
176
     1
290
     0
176
     1
290
     0
176
     1
290
     0
176
     1
 90
       50
176
     1
 40
0.0
176
     1
 40
1.0
176
     1
 90
        0
176
     1
 62
    18
420
        0
176
     1
 90
       50
176
     1
 90
        3
176
     1
 62
     5
420
      255
176
     1
290
     0
176
     1
 90
       50
176
     1
 90
       50
176
     1
 90
       50
176
     1
290
     0
176
     1
 90
       50
176
     1
 62
   256
176
     0
 40
1.0
176
     0
 90
        2
176
     1
  1
strokes_ogs.tif
176
     1
290
     0
176
     1
 40
1.0
176
     1
 40
1.0
176
     1
  0
VISUALSTYLE
  5
BC3
102
{ACAD_REACTORS
330
2F
102
}
330
2F
100
AcDbVisualStyle
  2
Flat
 70
     0
177
     3
291
     1
 70
    58
 90
        2
176
     1
 90
        1
176
     1
 90
        1
176
     1
 90
        2
176
     1
 40
0.6
176
     1
 40
30.0
176
     1
 62
     7
176
     1
 90
        0
176
     1
 90
        0
176
     1
 62
     7
176
     1
 62
   257
176
     1
 90
        1
176
     1
 90
        1
176
     1
 40
1.0
176
     1
 90
        8
176
     1
 62
     7
176
     1
 40
1.0
176
     1
 90
        1
176
     1
 90
        6
176
     1
 90
        2
176
     1
 62
     7
176
     1
 90
        5
176
     1
 90
        0
176
     1
 90
        0
176
     1
290
     0
176
     1
 90
       13
176
     1
 40
0.0
176
     1
 90
        0
176
     1
290
     0
176
     1
290
     1
176
     1
290
     1
176
     1
290
     0
176
     1
290
     0
176
     1
290
     0
176
     1
290
     0
176
     1
290
     0
176
     1
290
     0
176
     1
 90
       50
176
     1
 40
0.0
176
     1
 40
1.0
176
     1
 90
        0
176
     1
 62
    18
420
        0
176
     1
 90
       50
176
     1
 90
        3
176
     1
 62
     5
420
      255
176
     1
290
     0
176
     1
 90
       50
176
     1
 90
       50
176
     1
 90
       50
176
     1
290
     0
176
     1
 90
       50
176
     1
 62
   256
176
     0
 40
1.0
176
     0
 90
        2
176
     1
  1
strokes_ogs.tif
176
     1
290
     0
176
     1
 40
1.0
176
     1
 40
1.0
176
     1
  0
VISUALSTYLE
  5
BC4
102
{ACAD_REACTORS
330
2F
102
}
330
2F
100
AcDbVisualStyle
  2
FlatWithEdges
 70
     1
177
     3
291
     1
 70
    58
 90
        2
176
     1
 90
        1
176
     1
 90
        1
176
     1
 90
        2
176
     1
 40
0.6
176
     1
 40
30.0
176
     1
 62
     7
176
     1
 90
        1
176
     1
 90
        0
176
     1
 62
     7
176
     1
 62
   257
176
     1
 90
        1
176
     1
 90
        1
176
     1
 40
1.0
176
     1
 90
        0
176
     1
 62
   257
176
     1
 40
1.0
176
     1
 90
        1
176
     1
 90
        6
176
     1
 90
        2
176
     1
 62
     7
176
     1
 90
        5
176
     1
 90
        0
176
     1
 90
        0
176
     1
290
     0
176
     1
 90
       13
176
     1
 40
0.0
176
     1
 90
        0
176
     1
290
     0
176
     1
290
     1
176
     1
290
     1
176
     1
290
     0
176
     1
290
     0
176
     1
290
     0
176
     1
290
     0
176
     1
290
     0
176
     1
290
     0
176
     1
 90
       50
176
     1
 40
0.0
176
     1
 40
1.0
176
     1
 90
        0
176
     1
 62
    18
420
        0
176
     1
 90
       50
176
     1
 90
        3
176
     1
 62
     5
420
      255
176
     1
290
     0
176
     1
 90
       50
176
     1
 90
       50
176
     1
 90
       50
176
     1
290
     0
176
     1
 90
       50
176
     1
 62
   256
176
     0
 40
1.0
176
     0
 90
        2
176
     1
  1
strokes_ogs.tif
176
     1
290
     0
176
     1
 40
1.0
176
     1
 40
1.0
176
     1
  0
VISUALSTYLE
  5
BC5
102
{ACAD_REACTORS
330
2F
102
}
330
2F
100
AcDbVisualStyle
  2
Gouraud
 70
     2
177
     3
291
     1
 70
    58
 90
        2
176
     1
 90
        2
176
     1
 90
        1
176
     1
 90
        2
176
     1
 40
0.6
176
     1
 40
30.0
176
     1
 62
     7
176
     1
 90
        0
176
     1
 90
        0
176
     1
 62
     7
176
     1
 62
   257
176
     1
 90
        1
176
     1
 90
        1
176
     1
 40
1.0
176
     1
 90
        0
176
     1
 62
     7
176
     1
 40
1.0
176
     1
 90
        1
176
     1
 90
        6
176
     1
 90
        2
176
     1
 62
     7
176
     1
 90
        5
176
     1
 90
        0
176
     1
 90
        0
176
     1
290
     0
176
     1
 90
       13
176
     1
 40
0.0
176
     1
 90
        0
176
     1
290
     0
176
     1
290
     1
176
     1
290
     1
176
     1
290
     0
176
     1
290
     0
176
     1
290
     0
176
     1
290
     0
176
     1
290
     0
176
     1
290
     0
176
     1
 90
       50
176
     1
 40
0.0
176
     1
 40
1.0
176
     1
 90
        0
176
     1
 62
    18
420
        0
176
     1
 90
       50
176
     1
 90
        3
176
     1
 62
     5
420
      255
176
     1
290
     0
176
     1
 90
       50
176
     1
 90
       50
176
     1
 90
       50
176
     1
290
     0
176
     1
 90
       50
176
     1
 62
   256
176
     0
 40
1.0
176
     0
 90
        2
176
     1
  1
strokes_ogs.tif
176
     1
290
     0
176
     1
 40
1.0
176
     1
 40
1.0
176
     1
  0
VISUALSTYLE
  5
BC6
102
{ACAD_REACTORS
330
2F
102
}
330
2F
100
AcDbVisualStyle
  2
GouraudWithEdges
 70
     3
177
     3
291
     1
 70
    58
 90
        2
176
     1
 90
        2
176
     1
 90
        1
176
     1
 90
        2
176
     1
 40
0.6
176
     1
 40
30.0
176
     1
 62
     7
176
     1
 90
        1
176
     1
 90
        0
176
     1
 62
     7
176
     1
 62
   257
176
     1
 90
        1
176
     1
 90
        1
176
     1
 40
1.0
176
     1
 90
        0
176
     1
 62
   257
176
     1
 40
1.0
176
     1
 90
        1
176
     1
 90
        6
176
     1
 90
        2
176
     1
 62
     7
176
     1
 90
        5
176
     1
 90
        0
176
     1
 90
        0
176
     1
290
     0
176
     1
 90
       13
176
     1
 40
0.0
176
     1
 90
        0
176
     1
290
     0
176
     1
290
     1
176
     1
290
     1
176
     1
290
     0
176
     1
290
     0
176
     1
290
     0
176
     1
290
     0
176
     1
290
     0
176
     1
290
     0
176
     1
 90
       50
176
     1
 40
0.0
176
     1
 40
1.0
176
     1
 90
        0
176
     1
 62
    18
420
        0
176
     1
 90
       50
176
     1
 90
        3
176
     1
 62
     5
420
      255
176
     1
290
     0
176
     1
 90
       50
176
     1
 90
       50
176
     1
 90
       50
176
     1
290
     0
176
     1
 90
       50
176
     1
 62
   256
176
     0
 40
1.0
176
     0
 90
        2
176
     1
  1
strokes_ogs.tif
176
     1
290
     0
176
     1
 40
1.0
176
     1
 40
1.0
176
     1
  0
VISUALSTYLE
  5
BC9
102
{ACAD_REACTORS
330
2F
102
}
330
2F
100
AcDbVisualStyle
  2
Hidden
 70
     6
177
     3
291
     0
 70
    58
 90
        1
176
     1
 90
        2
176
     1
 90
        2
176
     1
 90
        0
176
     1
 40
0.6
176
     1
 40
30.0
176
     1
 62
     7
176
     1
 90
        2
176
     1
 90
        2
176
     1
 62
     7
176
     1
 62
   257
176
     1
 90
        2
176
     1
 90
        1
176
     1
 40
40.0
176
     1
 90
        0
176
     1
 62
   257
176
     1
 40
1.0
176
     1
 90
        1
176
     1
 90
        6
176
     1
 90
        2
176
     1
 62
     7
176
     1
 90
        3
176
     1
 90
        0
176
     1
 90
        0
176
     1
290
     0
176
     1
 90
        1
176
     1
 40
0.0
176
     1
 90
        0
176
     1
290
     0
176
     1
290
     1
176
     1
290
     1
176
     1
290
     0
176
     1
290
     0
176
     1
290
     0
176
     1
290
     0
176
     1
290
     0
176
     1
290
     0
176
     1
 90
       50
176
     1
 40
0.0
176
     1
 40
1.0
176
     1
 90
        0
176
     1
 62
    18
420
        0
176
     1
 90
       50
176
     1
 90
        3
176
     1
 62
     5
420
      255
176
     1
290
     0
176
     1
 90
       50
176
     1
 90
       50
176
     1
 90
       50
176
     1
290
     0
176
     1
 90
       50
176
     1
 62
   256
176
     0
 40
1.0
176
     0
 90
        2
176
     1
  1
strokes_ogs.tif
176
     1
290
     0
176
     1
 40
1.0
176
     1
 40
1.0
176
     1
  0
VISUALSTYLE
  5
BD6
102
{ACAD_REACTORS
330
2F
102
}
330
2F
100
AcDbVisualStyle
  2
JitterOff
 70
    20
177
     3
291
     1
 70
    58
 90
        2
176
     0
 90
        2
176
     0
 90
        0
176
     0
 90
        0
176
     0
 40
0.6
176
     0
 40
30.0
176
     0
 62
     7
176
     0
 90
        1
176
     0
 90
        4
176
     0
 62
     7
176
     0
 62
   257
176
     0
 90
        1
176
     0
 90
        1
176
     0
 40
1.0
176
     0
 90
       10
176
     2
 62
     7
176
     0
 40
1.0
176
     0
 90
        1
176
     0
 90
        6
176
     0
 90
        2
176
     0
 62
     7
176
     0
 90
        5
176
     0
 90
        0
176
     0
 90
        0
176
     0
290
     0
176
     0
 90
        1
176
     0
 40
0.0
176
     0
 90
        0
176
     0
290
     0
176
     0
290
     1
176
     0
290
     1
176
     0
290
     0
176
     0
290
     0
176
     0
290
     0
176
     0
290
     0
176
     0
290
     0
176
     0
290
     0
176
     0
 90
       50
176
     0
 40
0.0
176
     0
 40
1.0
176
     0
 90
        0
176
     0
 62
    18
420
        0
176
     0
 90
       50
176
     0
 90
        3
176
     0
 62
     5
420
      255
176
     0
290
     0
176
     0
 90
       50
176
     0
 90
       50
176
     0
 90
       50
176
     0
290
     0
176
     0
 90
       50
176
     0
 62
   256
176
     0
 40
1.0
176
     0
 90
        2
176
     0
  1
strokes_ogs.tif
176
     0
290
     0
176
     0
 40
1.0
176
     0
 40
1.0
176
     0
  0
VISUALSTYLE
  5
BCE
102
{ACAD_REACTORS
330
2F
102
}
330
2F
100
AcDbVisualStyle
  2
Linepattern
 70
    14
177
     3
291
     1
 70
    58
 90
        2
176
     1
 90
        2
176
     1
 90
        0
176
     1
 90
        0
176
     1
 40
0.6
176
     1
 40
30.0
176
     1
 62
     7
176
     1
 90
        1
176
     1
 90
        4
176
     1
 62
     7
176
     1
 62
   257
176
     1
 90
        7
176
     1
 90
        7
176
     1
 40
1.0
176
     1
 90
        8
176
     1
 62
     7
176
     1
 40
1.0
176
     1
 90
        1
176
     1
 90
        6
176
     1
 90
        2
176
     1
 62
     7
176
     1
 90
        5
176
     1
 90
        0
176
     1
 90
        0
176
     1
290
     0
176
     1
 90
        1
176
     1
 40
0.0
176
     1
 90
        0
176
     1
290
     0
176
     1
290
     1
176
     1
290
     1
176
     1
290
     0
176
     1
290
     0
176
     1
290
     0
176
     1
290
     0
176
     1
290
     0
176
     1
290
     0
176
     1
 90
       50
176
     1
 40
0.0
176
     1
 40
1.0
176
     1
 90
        0
176
     1
 62
    18
420
        0
176
     1
 90
       50
176
     1
 90
        3
176
     1
 62
     5
420
      255
176
     1
290
     0
176
     1
 90
       50
176
     1
 90
       50
176
     1
 90
       50
176
     1
290
     0
176
     1
 90
       50
176
     1
 62
   256
176
     0
 40
1.0
176
     0
 90
        2
176
     1
  1
strokes_ogs.tif
176
     1
290
     0
176
     1
 40
1.0
176
     1
 40
1.0
176
     1
  0
VISUALSTYLE
  5
BD7
102
{ACAD_REACTORS
330
2F
102
}
330
2F
100
AcDbVisualStyle
  2
OverhangOff
 70
    21
177
     3
291
     1
 70
    58
 90
        2
176
     0
 90
        2
176
     0
 90
        0
176
     0
 90
        0
176
     0
 40
0.6
176
     0
 40
30.0
176
     0
 62
     7
176
     0
 90
        1
176
     0
 90
        4
176
     0
 62
     7
176
     0
 62
   257
176
     0
 90
        1
176
     0
 90
        1
176
     0
 40
1.0
176
     0
 90
        9
176
     2
 62
     7
176
     0
 40
1.0
176
     0
 90
        1
176
     0
 90
        6
176
     0
 90
        2
176
     0
 62
     7
176
     0
 90
        5
176
     0
 90
        0
176
     0
 90
        0
176
     0
290
     0
176
     0
 90
        1
176
     0
 40
0.0
176
     0
 90
        0
176
     0
290
     0
176
     0
290
     1
176
     0
290
     1
176
     0
290
     0
176
     0
290
     0
176
     0
290
     0
176
     0
290
     0
176
     0
290
     0
176
     0
290
     0
176
     0
 90
       50
176
     0
 40
0.0
176
     0
 40
1.0
176
     0
 90
        0
176
     0
 62
    18
420
        0
176
     0
 90
       50
176
     0
 90
        3
176
     0
 62
     5
420
      255
176
     0
290
     0
176
     0
 90
       50
176
     0
 90
       50
176
     0
 90
       50
176
     0
290
     0
176
     0
 90
       50
176
     0
 62
   256
176
     0
 40
1.0
176
     0
 90
        2
176
     0
  1
strokes_ogs.tif
176
     0
290
     0
176
     0
 40
1.0
176
     0
 40
1.0
176
     0
  0
VISUALSTYLE
  5
46
102
{ACAD_REACTORS
330
2F
102
}
330
2F
100
AcDbVisualStyle
  2
Realistic
 70
     8
177
     3
291
     0
 70
    58
 90
        2
176
     1
 90
        2
176
     1
 90
        1
176
     1
 90
        0
176
     1
 40
0.6
176
     1
 40
30.0
176
     1
 62
     7
176
     1
 90
        1
176
     1
 90
        0
176
     1
 62
     7
176
     1
 62
   257
176
     1
 90
        1
176
     1
 90
        1
176
     1
 40
1.0
176
     1
 90
        8
176
     1
 62
     8
176
     1
 40
1.0
176
     1
 90
        1
176
     1
 90
        6
176
     1
 90
        2
176
     1
 62
     7
176
     1
 90
        5
176
     1
 90
        0
176
     1
 90
        0
176
     1
290
     0
176
     1
 90
       13
176
     1
 40
0.0
176
     1
 90
        0
176
     1
290
     0
176
     1
290
     1
176
     1
290
     1
176
     1
290
     0
176
     1
290
     0
176
     1
290
     0
176
     1
290
     0
176
     1
290
     0
176
     1
290
     0
176
     1
 90
       50
176
     1
 40
0.0
176
     1
 40
1.0
176
     1
 90
        0
176
     1
 62
    18
420
        0
176
     1
 90
       50
176
     1
 90
        3
176
     1
 62
     5
420
      255
176
     1
290
     0
176
     1
 90
       50
176
     1
 90
       50
176
     1
 90
       50
176
     1
290
     0
176
     1
 90
       50
176
     1
 62
   256
176
     0
 40
1.0
176
     0
 90
        2
176
     1
  1
strokes_ogs.tif
176
     1
290
     0
176
     1
 40
1.0
176
     1
 40
1.0
176
     1
  0
VISUALSTYLE
  5
BD5
102
{ACAD_REACTORS
330
2F
102
}
330
2F
100
AcDbVisualStyle
  2
Shaded
 70
    27
177
     3
291
     0
 70
    58
 90
        2
176
     1
 90
        2
176
     1
 90
        1
176
     1
 90
        2
176
     1
 40
0.6
176
     1
 40
30.0
176
     1
 62
     7
176
     1
 90
        0
176
     1
 90
        4
176
     1
 62
     7
176
     1
 62
   257
176
     1
 90
        1
176
     1
 90
        1
176
     1
 40
1.0
176
     1
 90
        8
176
     1
 62
   257
176
     1
 40
1.0
176
     1
 90
        1
176
     1
 90
        6
176
     1
 90
        2
176
     1
 62
     8
176
     1
 90
        3
176
     1
 90
        0
176
     1
 90
        0
176
     1
290
     0
176
     1
 90
        5
176
     1
 40
0.0
176
     1
 90
        0
176
     1
290
     0
176
     1
290
     1
176
     1
290
     1
176
     1
290
     0
176
     1
290
     0
176
     1
290
     0
176
     1
290
     0
176
     1
290
     0
176
     1
290
     0
176
     1
 90
       50
176
     1
 40
0.0
176
     1
 40
1.0
176
     1
 90
        0
176
     1
 62
    18
420
        0
176
     1
 90
       50
176
     1
 90
        3
176
     1
 62
     5
420
      255
176
     1
290
     0
176
     1
 90
       50
176
     1
 90
       50
176
     1
 90
       50
176
     1
290
     0
176
     1
 90
       50
176
     1
 62
   256
176
     0
 40
1.0
176
     0
 90
        2
176
     1
  1
strokes_ogs.tif
176
     1
290
     0
176
     1
 40
1.0
176
     1
 40
1.0
176
     1
  0
VISUALSTYLE
  5
BD4
102
{ACAD_REACTORS
330
2F
102
}
330
2F
100
AcDbVisualStyle
  2
Shaded with edges
 70
    26
177
     3
291
     0
 70
    58
 90
        2
176
     1
 90
        2
176
     1
 90
        1
176
     1
 90
        2
176
     1
 40
0.6
176
     1
 40
30.0
176
     1
 62
     7
176
     1
 90
        1
176
     1
 90
       10
176
     1
 62
     7
176
     1
 62
   257
176
     1
 90
        2
176
     1
 90
        1
176
     1
 40
1.0
176
     1
 90
        8
176
     1
 62
   257
176
     1
 40
1.0
176
     1
 90
        1
176
     1
 90
        6
176
     1
 90
        2
176
     1
 62
     7
176
     1
 90
        3
176
     1
 90
        0
176
     1
 90
        0
176
     1
290
     0
176
     1
 90
        5
176
     1
 40
0.0
176
     1
 90
        0
176
     1
290
     0
176
     1
290
     1
176
     1
290
     1
176
     1
290
     0
176
     1
290
     0
176
     1
290
     0
176
     1
290
     0
176
     1
290
     0
176
     1
290
     0
176
     1
 90
       50
176
     1
 40
0.0
176
     1
 40
1.0
176
     1
 90
        0
176
     1
 62
    18
420
        0
176
     1
 90
       50
176
     1
 90
        3
176
     1
 62
     5
420
      255
176
     1
290
     0
176
     1
 90
       50
176
     1
 90
       50
176
     1
 90
       50
176
     1
290
     0
176
     1
 90
       50
176
     1
 62
   256
176
     0
 40
1.0
176
     0
 90
        2
176
     1
  1
strokes_ogs.tif
176
     1
290
     0
176
     1
 40
1.0
176
     1
 40
1.0
176
     1
  0
VISUALSTYLE
  5
BD1
102
{ACAD_REACTORS
330
2F
102
}
330
2F
100
AcDbVisualStyle
  2
Shades of Gray
 70
    23
177
     3
291
     0
 70
    58
 90
        2
176
     1
 90
        2
176
     1
 90
        3
176
     1
 90
        0
176
     1
 40
0.6
176
     1
 40
30.0
176
     1
 62
     7
176
     1
 90
        2
176
     1
 90
        2
176
     1
 62
     7
176
     1
 62
     7
176
     1
 90
        1
176
     1
 90
        1
176
     1
 40
40.0
176
     1
 90
        8
176
     1
 62
     7
176
     1
 40
1.0
176
     1
 90
        1
176
     1
 90
        6
176
     1
 90
        2
176
     1
 62
     7
176
     1
 90
        3
176
     1
 90
        0
176
     1
 90
        0
176
     1
290
     0
176
     1
 90
        1
176
     1
 40
0.0
176
     1
 90
        0
176
     1
290
     0
176
     1
290
     1
176
     1
290
     1
176
     1
290
     0
176
     1
290
     0
176
     1
290
     0
176
     1
290
     0
176
     1
290
     0
176
     1
290
     0
176
     1
 90
       50
176
     1
 40
0.0
176
     1
 40
1.0
176
     1
 90
        0
176
     1
 62
    18
420
        0
176
     1
 90
       50
176
     1
 90
        3
176
     1
 62
     5
420
      255
176
     1
290
     0
176
     1
 90
       50
176
     1
 90
       50
176
     1
 90
       50
176
     1
290
     0
176
     1
 90
       50
176
     1
 62
   256
176
     0
 40
1.0
176
     0
 90
        2
176
     1
  1
strokes_ogs.tif
176
     1
290
     0
176
     1
 40
1.0
176
     1
 40
1.0
176
     1
  0
VISUALSTYLE
  5
BD2
102
{ACAD_REACTORS
330
2F
102
}
330
2F
100
AcDbVisualStyle
  2
Sketchy
 70
    24
177
     3
291
     0
 70
    58
 90
        1
176
     1
 90
        2
176
     1
 90
        2
176
     1
 90
        0
176
     1
 40
0.6
176
     1
 40
30.0
176
     1
 62
     7
176
     1
 90
        2
176
     1
 90
        2
176
     1
 62
     7
176
     1
 62
     7
176
     1
 90
        1
176
     1
 90
        1
176
     1
 40
40.0
176
     1
 90
       11
176
     1
 62
     7
176
     1
 40
1.0
176
     1
 90
        1
176
     1
 90
        6
176
     1
 90
        2
176
     1
 62
     7
176
     1
 90
        6
176
     1
 90
        0
176
     1
 90
        0
176
     1
290
     0
176
     1
 90
        1
176
     1
 40
0.0
176
     1
 90
        0
176
     1
290
     0
176
     1
290
     1
176
     1
290
     1
176
     1
290
     0
176
     1
290
     0
176
     1
290
     0
176
     1
290
     0
176
     1
290
     0
176
     1
290
     0
176
     1
 90
       50
176
     1
 40
0.0
176
     1
 40
1.0
176
     1
 90
        0
176
     1
 62
    18
420
        0
176
     1
 90
       50
176
     1
 90
        3
176
     1
 62
     5
420
      255
176
     1
290
     0
176
     1
 90
       50
176
     1
 90
       50
176
     1
 90
       50
176
     1
290
     0
176
     1
 90
       50
176
     1
 62
   256
176
     0
 40
1.0
176
     0
 90
        2
176
     1
  1
strokes_ogs.tif
176
     1
290
     0
176
     1
 40
1.0
176
     1
 40
1.0
176
     1
  0
VISUALSTYLE
  5
BCD
102
{ACAD_REACTORS
330
2F
102
}
330
2F
100
AcDbVisualStyle
  2
Thicken
 70
    13
177
     3
291
     1
 70
    58
 90
        2
176
     1
 90
        2
176
     1
 90
        0
176
     1
 90
        0
176
     1
 40
0.6
176
     1
 40
30.0
176
     1
 62
     7
176
     1
 90
        1
176
     1
 90
        4
176
     1
 62
     7
176
     1
 62
   257
176
     1
 90
        1
176
     1
 90
        1
176
     1
 40
1.0
176
     1
 90
       12
176
     1
 62
     7
176
     1
 40
1.0
176
     1
 90
        1
176
     1
 90
        6
176
     1
 90
        2
176
     1
 62
     7
176
     1
 90
        5
176
     1
 90
        0
176
     1
 90
        0
176
     1
290
     0
176
     1
 90
        1
176
     1
 40
0.0
176
     1
 90
        0
176
     1
290
     0
176
     1
290
     1
176
     1
290
     1
176
     1
290
     0
176
     1
290
     0
176
     1
290
     0
176
     1
290
     0
176
     1
290
     0
176
     1
290
     0
176
     1
 90
       50
176
     1
 40
0.0
176
     1
 40
1.0
176
     1
 90
        0
176
     1
 62
    18
420
        0
176
     1
 90
       50
176
     1
 90
        3
176
     1
 62
     5
420
      255
176
     1
290
     0
176
     1
 90
       50
176
     1
 90
       50
176
     1
 90
       50
176
     1
290
     0
176
     1
 90
       50
176
     1
 62
   256
176
     0
 40
1.0
176
     0
 90
        2
176
     1
  1
strokes_ogs.tif
176
     1
290
     0
176
     1
 40
1.0
176
     1
 40
1.0
176
     1
  0
VISUALSTYLE
  5
BC8
102
{ACAD_REACTORS
330
2F
102
}
330
2F
100
AcDbVisualStyle
  2
Wireframe
 70
     5
177
     3
291
     0
 70
    58
 90
        0
176
     1
 90
        2
176
     1
 90
        0
176
     1
 90
        0
176
     1
 40
0.6
176
     1
 40
30.0
176
     1
 62
     7
176
     1
 90
        1
176
     1
 90
        4
176
     1
 62
     7
176
     1
 62
   257
176
     1
 90
        1
176
     1
 90
        1
176
     1
 40
1.0
176
     1
 90
        0
176
     1
 62
   257
176
     1
 40
1.0
176
     1
 90
        1
176
     1
 90
        6
176
     1
 90
        2
176
     1
 62
     7
176
     1
 90
        3
176
     1
 90
        0
176
     1
 90
        0
176
     1
290
     0
176
     1
 90
        1
176
     1
 40
0.0
176
     1
 90
        0
176
     1
290
     0
176
     1
290
     1
176
     1
290
     1
176
     1
290
     0
176
     1
290
     0
176
     1
290
     0
176
     1
290
     0
176
     1
290
     0
176
     1
290
     0
176
     1
 90
       50
176
     1
 40
0.0
176
     1
 40
1.0
176
     1
 90
        0
176
     1
 62
    18
420
        0
176
     1
 90
       50
176
     1
 90
        3
176
     1
 62
     5
420
      255
176
     1
290
     0
176
     1
 90
       50
176
     1
 90
       50
176
     1
 90
       50
176
     1
290
     0
176
     1
 90
       50
176
     1
 62
   256
176
     0
 40
1.0
176
     0
 90
        2
176
     1
  1
strokes_ogs.tif
176
     1
290
     0
176
     1
 40
1.0
176
     1
 40
1.0
176
     1
  0
VISUALSTYLE
  5
BD3
102
{ACAD_REACTORS
330
2F
102
}
330
2F
100
AcDbVisualStyle
  2
X-Ray
 70
    25
177
     3
291
     0
 70
    58
 90
        2
176
     1
 90
        2
176
     1
 90
        1
176
     1
 90
        1
176
     1
 40
0.5
176
     1
 40
30.0
176
     1
 62
     7
176
     1
 90
        1
176
     1
 90
        0
176
     1
 62
     7
176
     1
 62
   257
176
     1
 90
        1
176
     1
 90
        1
176
     1
 40
1.0
176
     1
 90
        8
176
     1
 62
     7
176
     1
 40
1.0
176
     1
 90
        1
176
     1
 90
        6
176
     1
 90
        2
176
     1
 62
     7
176
     1
 90
        3
176
     1
 90
        0
176
     1
 90
        0
176
     1
290
     0
176
     1
 90
       13
176
     1
 40
0.0
176
     1
 90
        0
176
     1
290
     0
176
     1
290
     1
176
     1
290
     1
176
     1
290
     0
176
     1
290
     0
176
     1
290
     0
176
     1
290
     0
176
     1
290
     0
176
     1
290
     0
176
     1
 90
       50
176
     1
 40
0.0
176
     1
 40
1.0
176
     1
 90
        0
176
     1
 62
    18
420
        0
176
     1
 90
       50
176
     1
 90
        3
176
     1
 62
     5
420
      255
176
     1
290
     0
176
     1
 90
       50
176
     1
 90
       50
176
     1
 90
       50
176
     1
290
     0
176
     1
 90
       50
176
     1
 62
   256
176
     0
 40
1.0
176
     0
 90
        2
176
     1
  1
strokes_ogs.tif
176
     1
290
     0
176
     1
 40
1.0
176
     1
 40
1.0
176
     1
  0
DICTIONARYVAR
  5
BBE
102
{ACAD_REACTORS
330
BB8
102
}
330
BB8
100
DictionaryVariables
280
     0
  1
1:1
  0
DICTIONARYVAR
  5
BBA
102
{ACAD_REACTORS
330
BB8
102
}
330
BB8
100
DictionaryVariables
280
     0
  1
STANDARD
  0
DICTIONARYVAR
  5
BB9
102
{ACAD_REACTORS
330
BB8
102
}
330
BB8
100
DictionaryVariables
280
     0
  1
STANDARD
  0
DICTIONARYVAR
  5
BBB
102
{ACAD_REACTORS
330
BB8
102
}
330
BB8
100
DictionaryVariables
280
     0
  1
Metric50
  0
DICTIONARYVAR
  5
BBC
102
{ACAD_REACTORS
330
BB8
102
}
330
BB8
100
DictionaryVariables
280
     0
  1
Metric50
  0
DICTIONARYVAR
  5
C3B
102
{ACAD_REACTORS
330
BB8
102
}
330
BB8
100
DictionaryVariables
280
     0
  1
1
  0
DICTIONARYVAR
  5
C39
102
{ACAD_REACTORS
330
BB8
102
}
330
BB8
100
DictionaryVariables
280
     0
  1
1
  0
DICTIONARYVAR
  5
FF3
102
{ACAD_REACTORS
330
BB8
102
}
330
BB8
100
DictionaryVariables
280
     0
  1
4
  0
DICTIONARYVAR
  5
C38
102
{ACAD_REACTORS
330
BB8
102
}
330
BB8
100
DictionaryVariables
280
     0
  1
0
  0
DICTIONARYVAR
  5
BC0
102
{ACAD_REACTORS
330
BB8
102
}
330
BB8
100
DictionaryVariables
280
     0
  1
1
  0
DICTIONARYVAR
  5
BC1
102
{ACAD_REACTORS
330
BB8
102
}
330
BB8
100
DictionaryVariables
280
     0
  1
15
  0
DICTIONARYVAR
  5
BBF
102
{ACAD_REACTORS
330
BB8
102
}
330
BB8
100
DictionaryVariables
280
     0
  1
0
  0
DICTIONARYVAR
  5
BBD
102
{ACAD_REACTORS
330
BB8
102
}
330
BB8
100
DictionaryVariables
280
     0
  1
0
  0
DICTIONARYVAR
  5
C3C
102
{ACAD_REACTORS
330
BB8
102
}
330
BB8
100
DictionaryVariables
280
     0
  1
1
  0
DICTIONARYVAR
  5
C37
102
{ACAD_REACTORS
330
BB8
102
}
330
BB8
100
DictionaryVariables
280
     0
  1
127
  0
DICTIONARY
  5
2E74D
330
283CD
100
AcDbDictionary
280
     1
281
     1
  3
ACAD_XREC_ROUNDTRIP
360
2E74E
  0
DICTIONARY
  5
2E749
330
BDD
100
AcDbDictionary
280
     1
281
     1
  3
ACAD_XREC_ROUNDTRIP
360
2E74A
  0
DICTIONARY
  5
18
330
16
100
AcDbDictionary
280
     1
281
     1
  0
DICTIONARY
  5
1F
330
1E
100
AcDbDictionary
280
     1
281
     1
  0
DICTIONARY
  5
E
330
C
100
AcDbDictionary
280
     1
281
     1
  3
BUMPTILE
360
F
  3
DIFFUSETILE
360
10
  3
OPACITYTILE
360
11
  3
REFLECTIONTILE
360
12
  0
DICTIONARY
  5
2E74B
330
283CC
100
AcDbDictionary
280
     1
281
     1
  3
ACAD_XREC_ROUNDTRIP
360
2E74C
  0
DICTIONARY
  5
2E747
330
BDB
100
AcDbDictionary
280
     1
281
     1
  3
ACAD_XREC_ROUNDTRIP
360
2E748
  0
DICTIONARY
  5
45
330
44
100
AcDbDictionary
280
     1
281
     1
  3
ACAD_ROUNDTRIP_2008_TABLESTYLE_CELLSTYLEMAP
360
2E746
  0
XRECORD
  5
2E74E
102
{ACAD_REACTORS
330
2E74D
102
}
330
2E74D
100
AcDbXrecord
280
     1
102
DISPLAYNAME
  1
Imperial24
102
FLAGS
 90
        0
  0
XRECORD
  5
2E74A
102
{ACAD_REACTORS
330
2E749
102
}
330
2E749
100
AcDbXrecord
280
     1
102
DISPLAYNAME
  1
Metric50
102
FLAGS
 90
        0
  0
XRECORD
  5
F
102
{ACAD_REACTORS
330
E
102
}
330
E
100
AcDbXrecord
280
     1
270
     1
271
     1
  0
XRECORD
  5
10
102
{ACAD_REACTORS
330
E
102
}
330
E
100
AcDbXrecord
280
     1
270
     1
271
     1
  0
XRECORD
  5
11
102
{ACAD_REACTORS
330
E
102
}
330
E
100
AcDbXrecord
280
     1
270
     1
271
     1
  0
XRECORD
  5
12
102
{ACAD_REACTORS
330
E
102
}
330
E
100
AcDbXrecord
280
     1
270
     1
271
     1
  0
XRECORD
  5
2E74C
102
{ACAD_REACTORS
330
2E74B
102
}
330
2E74B
100
AcDbXrecord
280
     1
102
DISPLAYNAME
  1
Imperial24
102
FLAGS
 90
        0
  0
XRECORD
  5
2E748
102
{ACAD_REACTORS
330
2E747
102
}
330
2E747
100
AcDbXrecord
280
     1
102
DISPLAYNAME
  1
Metric50
102
FLAGS
 90
        0
  0
CELLSTYLEMAP
  5
2E746
102
{ACAD_REACTORS
330
45
102
}
330
45
100
AcDbCellStyleMap
 90
        3
300
CELLSTYLE
  1
TABLEFORMAT_BEGIN
 90
        5
170
     1
 91
        0
 92
    32768
 62
   257
 93
        1
300
CONTENTFORMAT
  1
CONTENTFORMAT_BEGIN
 90
        0
 91
        0
 92
      512
 93
        0
300

 40
0.0
140
1.0
 94
        5
 62
     0
340
25
144
6.0
309
CONTENTFORMAT_END
171
     1
301
MARGIN
  1
CELLMARGIN_BEGIN
 40
1.5
 40
1.5
 40
1.5
 40
1.5
 40
0.18
 40
0.18
309
CELLMARGIN_END
 94
        6
 95
        1
302
GRIDFORMAT
  1
GRIDFORMAT_BEGIN
 90
        0
 91
        1
 62
     0
 92
       -2
340
28
 93
        0
 40
1.125
309
GRIDFORMAT_END
 95
        2
302
GRIDFORMAT
  1
GRIDFORMAT_BEGIN
 90
        0
 91
        1
 62
     0
 92
       -2
340
28
 93
        0
 40
1.125
309
GRIDFORMAT_END
 95
        4
302
GRIDFORMAT
  1
GRIDFORMAT_BEGIN
 90
        0
 91
        1
 62
     0
 92
       -2
340
28
 93
        0
 40
1.125
309
GRIDFORMAT_END
 95
        8
302
GRIDFORMAT
  1
GRIDFORMAT_BEGIN
 90
        0
 91
        1
 62
     0
 92
       -2
340
28
 93
        0
 40
1.125
309
GRIDFORMAT_END
 95
       16
302
GRIDFORMAT
  1
GRIDFORMAT_BEGIN
 90
        0
 91
        1
 62
     0
 92
       -2
340
28
 93
        0
 40
1.125
309
GRIDFORMAT_END
 95
       32
302
GRIDFORMAT
  1
GRIDFORMAT_BEGIN
 90
        0
 91
        1
 62
     0
 92
       -2
340
28
 93
        0
 40
1.125
309
GRIDFORMAT_END
309
TABLEFORMAT_END
  1
CELLSTYLE_BEGIN
 90
        1
 91
        1
300
_TITLE
309
CELLSTYLE_END
300
CELLSTYLE
  1
TABLEFORMAT_BEGIN
 90
        5
170
     1
 91
        0
 92
        0
 62
   257
 93
        1
300
CONTENTFORMAT
  1
CONTENTFORMAT_BEGIN
 90
        0
 91
        0
 92
      512
 93
        0
300

 40
0.0
140
1.0
 94
        5
 62
     0
340
25
144
4.5
309
CONTENTFORMAT_END
171
     1
301
MARGIN
  1
CELLMARGIN_BEGIN
 40
1.5
 40
1.5
 40
1.5
 40
1.5
 40
0.18
 40
0.18
309
CELLMARGIN_END
 94
        6
 95
        1
302
GRIDFORMAT
  1
GRIDFORMAT_BEGIN
 90
        0
 91
        1
 62
     0
 92
       -2
340
28
 93
        0
 40
1.125
309
GRIDFORMAT_END
 95
        2
302
GRIDFORMAT
  1
GRIDFORMAT_BEGIN
 90
        0
 91
        1
 62
     0
 92
       -2
340
28
 93
        0
 40
1.125
309
GRIDFORMAT_END
 95
        4
302
GRIDFORMAT
  1
GRIDFORMAT_BEGIN
 90
        0
 91
        1
 62
     0
 92
       -2
340
28
 93
        0
 40
1.125
309
GRIDFORMAT_END
 95
        8
302
GRIDFORMAT
  1
GRIDFORMAT_BEGIN
 90
        0
 91
        1
 62
     0
 92
       -2
340
28
 93
        0
 40
1.125
309
GRIDFORMAT_END
 95
       16
302
GRIDFORMAT
  1
GRIDFORMAT_BEGIN
 90
        0
 91
        1
 62
     0
 92
       -2
340
28
 93
        0
 40
1.125
309
GRIDFORMAT_END
 95
       32
302
GRIDFORMAT
  1
GRIDFORMAT_BEGIN
 90
        0
 91
        1
 62
     0
 92
       -2
340
28
 93
        0
 40
1.125
309
GRIDFORMAT_END
309
TABLEFORMAT_END
  1
CELLSTYLE_BEGIN
 90
        2
 91
        1
300
_HEADER
309
CELLSTYLE_END
300
CELLSTYLE
  1
TABLEFORMAT_BEGIN
 90
        5
170
     1
 91
        0
 92
        0
 62
   257
 93
        1
300
CONTENTFORMAT
  1
CONTENTFORMAT_BEGIN
 90
        0
 91
        0
 92
      512
 93
        0
300

 40
0.0
140
1.0
 94
        2
 62
     0
340
25
144
4.5
309
CONTENTFORMAT_END
171
     1
301
MARGIN
  1
CELLMARGIN_BEGIN
 40
1.5
 40
1.5
 40
1.5
 40
1.5
 40
0.18
 40
0.18
309
CELLMARGIN_END
 94
        6
 95
        1
302
GRIDFORMAT
  1
GRIDFORMAT_BEGIN
 90
        0
 91
        1
 62
     0
 92
       -2
340
28
 93
        0
 40
1.125
309
GRIDFORMAT_END
 95
        2
302
GRIDFORMAT
  1
GRIDFORMAT_BEGIN
 90
        0
 91
        1
 62
     0
 92
       -2
340
28
 93
        0
 40
1.125
309
GRIDFORMAT_END
 95
        4
302
GRIDFORMAT
  1
GRIDFORMAT_BEGIN
 90
        0
 91
        1
 62
     0
 92
       -2
340
28
 93
        0
 40
1.125
309
GRIDFORMAT_END
 95
        8
302
GRIDFORMAT
  1
GRIDFORMAT_BEGIN
 90
        0
 91
        1
 62
     0
 92
       -2
340
28
 93
        0
 40
1.125
309
GRIDFORMAT_END
 95
       16
302
GRIDFORMAT
  1
GRIDFORMAT_BEGIN
 90
        0
 91
        1
 62
     0
 92
       -2
340
28
 93
        0
 40
1.125
309
GRIDFORMAT_END
 95
       32
302
GRIDFORMAT
  1
GRIDFORMAT_BEGIN
 90
        0
 91
        1
 62
     0
 92
       -2
340
28
 93
        0
 40
1.125
309
GRIDFORMAT_END
309
TABLEFORMAT_END
  1
CELLSTYLE_BEGIN
 90
        3
 91
        2
300
_DATA
309
CELLSTYLE_END
  0
ENDSEC
  0
SECTION
  2
ACDSDATA
 70
     2
 71
     6
  0
ACDSSCHEMA
 90
        0
  1
AcDb_Thumbnail_Schema
  2
AcDbDs::ID
280
    10
 91
        8
  2
Thumbnail_Data
280
    15
 91
        0
101
ACDSRECORD
 95
        0
 90
        1
  2
AcDbDs::TreatedAsObjectData
280
     1
291
     1
101
ACDSRECORD
 95
        0
 90
        2
  2
AcDbDs::Legacy
280
     1
291
     1
101
ACDSRECORD
  1
AcDbDs::ID
 90
        3
  2
AcDs:Indexable
280
     1
291
     1
101
ACDSRECORD
  1
AcDbDs::ID
 90
        4
  2
AcDbDs::HandleAttribute
280
     7
282
     1
  0
ACDSSCHEMA
 90
        1
  1
AcDbDs::TreatedAsObjectDataSchema
  2
AcDbDs::TreatedAsObjectData
280
     1
 91
        0
  0
ACDSSCHEMA
 90
        2
  1
AcDbDs::LegacySchema
  2
AcDbDs::Legacy
280
     1
 91
        0
  0
ACDSSCHEMA
 90
        3
  1
AcDbDs::IndexedPropertySchema
  2
AcDs:Indexable
280
     1
 91
        0
  0
ACDSSCHEMA
 90
        4
  1
AcDbDs::HandleAttributeSchema
  2
AcDbDs::HandleAttribute
280
     7
 91
        1
284
     1
  0
ACDSRECORD
 90
        0
  2
AcDbDs::ID
280
    10
320
16
  2
Thumbnail_Data
280
    15
 94
     2195
310
89504E470D0A1A0A0000000D494844520000010000000076080300000010A0BD3C00000300504C5445000000000000C8C8C80000000000000000000000000000000000000000000000000000330000660000990000CC0000FF0033000033330033660033990033CC0033FF0066000066330066660066990066CC0066FF0099
310
000099330099660099990099CC0099FF00CC0000CC3300CC6600CC9900CCCC00CCFF00FF0000FF3300FF6600FF9900FFCC00FFFF3300003300333300663300993300CC3300FF3333003333333333663333993333CC3333FF3366003366333366663366993366CC3366FF3399003399333399663399993399CC3399FF33CC00
310
33CC3333CC6633CC9933CCCC33CCFF33FF0033FF3333FF6633FF9933FFCC33FFFF6600006600336600666600996600CC6600FF6633006633336633666633996633CC6633FF6666006666336666666666996666CC6666FF6699006699336699666699996699CC6699FF66CC0066CC3366CC6666CC9966CCCC66CCFF66FF0066
310
FF3366FF6666FF9966FFCC66FFFF9900009900339900669900999900CC9900FF9933009933339933669933999933CC9933FF9966009966339966669966999966CC9966FF9999009999339999669999999999CC9999FF99CC0099CC3399CC6699CC9999CCCC99CCFF99FF0099FF3399FF6699FF9999FFCC99FFFFCC0000CC00
310
33CC0066CC0099CC00CCCC00FFCC3300CC3333CC3366CC3399CC33CCCC33FFCC6600CC6633CC6666CC6699CC66CCCC66FFCC9900CC9933CC9966CC9999CC99CCCC99FFCCCC00CCCC33CCCC66CCCC99CCCCCCCCCCFFCCFF00CCFF33CCFF66CCFF99CCFFCCCCFFFFFF0000FF0033FF0066FF0099FF00CCFF00FFFF3300FF3333
310
FF3366FF3399FF33CCFF33FFFF6600FF6633FF6666FF6699FF66CCFF66FFFF9900FF9933FF9966FF9999FF99CCFF99FFFFCC00FFCC33FFCC66FFCC99FFCCCCFFCCFFFFFF00FFFF33FFFF66FFFF99FFFFCCFFFFFF0000000D0D0D1A1A1A2828283535354343435050505D5D5D6B6B6B787878868686939393A1A1A1AEAEAEBB
310
BBBBC9C9C9D6D6D6E4E4E4F1F1F1FFFFFF00000000000000000000000000000000000000000000000000000000000008F1915C0000054E4944415478DAED9D5B82AB200C40B39CFCB0B35932DBC8FF58519E01A36D2156B8B7D3A9554A0E4908813A00DF29F4E1F3E4272A296200742F00C4146B4956A427BE5961F78EB556
310
78B1F4C4F72A24159A7D03E39B00268009600298002680096002980026800960021017F13C6D60F96A1B1F0F60FA00D2D3CDCBBFB5642F1E0100119DCC9BD84F0380004EEAF5115E3C09C02FF800BB3EECA7E5BF11804D891F0600C3D3450078EF61105D21DCFCB7C51F0580D5E3B8FD784377940358D7A7305AA68A17ACA4
310
6224151A5FA3314301C816DED693D03585F6265D06B0480EC6D76816EBA14F34F2BB1A1000980D82B908C0D515002C3EE448440D26E09B6BC069BFB9A6019BA008BEC6DD7B907A1FB016F3EA7BF7B802C07F18FA1A1153363A01BC0446E3657F3D8C97C04BC214F6B3D6B3973ACC52D00417404A00AC12A63B1476A123F9FD
310
AFE89EE878E44C4610CF281E5CC602C83665EC929AFC294381A945242112277F64071E11418B403700B968D1CB5D7E285501DDAF871A40C5901600405307FA0108A265FA1FD1284C011DA02300547A3A8C75A441A01B8058FE640868C9BF3BC703008CFCCB5080E508492A7C40FA99F16EADC42A4CD015C4260046FED73504
310
1202FD008463C4BB6F48CCC1C4CDE60860ABFF5F432131041403002AE4C73D00206408A400B248C75FD62ADA0014FD6FBC06101C00C8233D1742319132E5D76B0250C81F3B08AC01E0559BCA696066043D0044192C9909001B11AC91E096DC0E5562DD002AD3874405F6DC52AFB54191096C417221BF9BDEA15BDB781380BB
310
2024D77AAD0D0A00AC7E6B3F900648B4B5B5A201DC5C0FD9E6EC3383004095130CD9A07C72588F036A5BBEB196FD190400BC379300C823C21680CA645F1D80A8FFA9F4E2298022222EEBB151AE470C003401F0E35409A02C4504E305A800A8D845340E8C06F00A6DE28139015049F645998003002E72AA54444302A10CC0D6
310
C2F3005E920B00F83CB312007E856BF94FEEC925ACB6707F3BEA8E13E5613C85A9AD8F0436007CCC4F88F537FC9BFD3580B22E22DAB235D4BE30D5000BF7D3002E2C703EE04B0094FA00CAA66B3E5F574E5CDE032018057A00C8DB9039F3F81C31807D8FC0E7E2806FAE0D1209FA844BE83400F8D94B1C099E0E852102D071
310
2ED00000ADEF73321A70BBB9C021001F0C3067963EE0E26C9046CE06DB2620051074370600D7F3011D57868E1DE5550D782723747B0015023A72825F0100F66A56188666852F008823F8EA28709B7581CF990072008A2B8A95212018BA32F421008C06700428F70104A397C63E058073F39C0EA04C7E3D0042D2B41D09B2E3
310
DC7E656D18A4DAD2A81E00214148705A03BC8513B10AA262874825D04FA7C32437817C8FD0C62DDF647B247FB7B5412C63F20847BC77E28A0940B24B8CB2B95253D25E6B8328499A444E30CD8A73233AF1FB0421DB614807B3DE5E6B832701A020BB51CF3E0400C78ADECB074801EC36812D839708834229B501D84D201519
310
C5DBA509AA4EF00E00A2F5C10CC0891DF394258CE45A3308403E3E327B6290D92102ED1A5178ABB4F100B07610B39768C1CABF3786A79BA811C0DEE5E893211F1FB5140388FA1C7B34511F80D0E78F0570D6A0278009401580CAF45C19804E5F9C7CB809D8EABD0FD877AC459BBCB4DF9BB47601508F60D89B0264A75FBD73
310
82320D3801C0DD2DE29734001A1A607900DD6E42356FA636014C0013C0043001FC1A80F21B077F5919F80716FA762B112414961FEB739F260EBBA566655196EBF7DFBCA7A81600E34D806A00A84F13F53841E70254FC95196563DB04F0F3006C592680074682F5327DC004F0930082AD5BBE4C00D304BA00B841E9DE3BE23F
310
7BC89DC8B5F7AD0A0794F700C06000FF9054F700440C28A40000000049454E44AE426082
  0
ACDSRECORD
 90
        0
  2
AcDbDs::ID
280
    10
320
1E
  2
Thumbnail_Data
280
    15
 94
      882
310
89504E470D0A1A0A0000000D49484452000000B80000007F08030000006B00F8F900000300504C5445FFFFFF000000C8C8C80000000000000000000000000000000000000000000000000000330000660000990000CC0000FF0033000033330033660033990033CC0033FF0066000066330066660066990066CC0066FF0099
310
000099330099660099990099CC0099FF00CC0000CC3300CC6600CC9900CCCC00CCFF00FF0000FF3300FF6600FF9900FFCC00FFFF3300003300333300663300993300CC3300FF3333003333333333663333993333CC3333FF3366003366333366663366993366CC3366FF3399003399333399663399993399CC3399FF33CC00
310
33CC3333CC6633CC9933CCCC33CCFF33FF0033FF3333FF6633FF9933FFCC33FFFF6600006600336600666600996600CC6600FF6633006633336633666633996633CC6633FF6666006666336666666666996666CC6666FF6699006699336699666699996699CC6699FF66CC0066CC3366CC6666CC9966CCCC66CCFF66FF0066
310
FF3366FF6666FF9966FFCC66FFFF9900009900339900669900999900CC9900FF9933009933339933669933999933CC9933FF9966009966339966669966999966CC9966FF9999009999339999669999999999CC9999FF99CC0099CC3399CC6699CC9999CCCC99CCFF99FF0099FF3399FF6699FF9999FFCC99FFFFCC0000CC00
310
33CC0066CC0099CC00CCCC00FFCC3300CC3333CC3366CC3399CC33CCCC33FFCC6600CC6633CC6666CC6699CC66CCCC66FFCC9900CC9933CC9966CC9999CC99CCCC99FFCCCC00CCCC33CCCC66CCCC99CCCCCCCCCCFFCCFF00CCFF33CCFF66CCFF99CCFFCCCCFFFFFF0000FF0033FF0066FF0099FF00CCFF00FFFF3300FF3333
310
FF3366FF3399FF33CCFF33FFFF6600FF6633FF6666FF6699FF66CCFF66FFFF9900FF9933FF9966FF9999FF99CCFF99FFFFCC00FFCC33FFCC66FFCC99FFCCCCFFCCFFFFFF00FFFF33FFFF66FFFF99FFFFCCFFFFFF0000000D0D0D1A1A1A2828283535354343435050505D5D5D6B6B6B787878868686939393A1A1A1AEAEAEBB
310
BBBBC9C9C9D6D6D6E4E4E4F1F1F1FFFFFF000000000000000000000000000000000000000000000000000000000000B0E2D2350000002D4944415478DAEDC13101000000C2A0F54FED6F06A00000000000000000000000000000000000000000000080335BC70001E79522D80000000049454E44AE426082
  0
ENDSEC
  0
EOF
