  0
SECTION
  2
HEADER
  9
$ACADVER
  1
AC1027
  9
$ACADMAINTVER
 70
    55
  9
$DWGCODEPAGE
  3
ANSI_949
  9
$LASTSAVEDBY
  1
DESKTOP
  9
$REQUIREDVERSIONS
160
                 0
  9
$INSBASE
 10
680.865673388078
 20
-0.779353689636082
 30
0.0
  9
$EXTMIN
 10
683.8218140784606
 20
2.438141563486055
 30
-0.0000000349181948
  9
$EXTMAX
 10
889.7096342601711
 20
147.5483098436942
 30
0.0000000814935746
  9
$LIMMIN
 10
0.0
 20
0.0
  9
$LIMMAX
 10
420.0
 20
297.0
  9
$ORTHOMODE
 70
     0
  9
$REGENMODE
 70
     1
  9
$FILLMODE
 70
     1
  9
$QTEXTMODE
 70
     0
  9
$MIRRTEXT
 70
     0
  9
$LTSCALE
 40
5.0
  9
$ATTMODE
 70
     1
  9
$TEXTSIZE
 40
3.0
  9
$TRACEWID
 40
1.0
  9
$TEXTSTYLE
  7
Standard
  9
$CLAYER
  8
0
  9
$CELTYPE
  6
Continuous
  9
$CECOLOR
 62
     7
  9
$CELTSCALE
 40
1.0
  9
$DISPSILH
 70
     0
  9
$DIMSCALE
 40
1.0
  9
$DIMASZ
 40
2.5
  9
$DIMEXO
 40
0.625
  9
$DIMDLI
 40
3.75
  9
$DIMRND
 40
0.0
  9
$DIMDLE
 40
0.0
  9
$DIMEXE
 40
1.25
  9
$DIMTP
 40
0.0
  9
$DIMTM
 40
0.000000001
  9
$DIMTXT
 40
3.0
  9
$DIMCEN
 40
-0.5
  9
$DIMTSZ
 40
0.0
  9
$DIMTOL
 70
     0
  9
$DIMLIM
 70
     0
  9
$DIMTIH
 70
     0
  9
$DIMTOH
 70
     0
  9
$DIMSE1
 70
     0
  9
$DIMSE2
 70
     0
  9
$DIMTAD
 70
     1
  9
$DIMZIN
 70
     8
  9
$DIMBLK
  1

  9
$DIMASO
 70
     1
  9
$DIMSHO
 70
     1
  9
$DIMPOST
  1

  9
$DIMAPOST
  1

  9
$DIMALT
 70
     0
  9
$DIMALTD
 70
     3
  9
$DIMALTF
 40
0.03937007874016
  9
$DIMLFAC
 40
1.0
  9
$DIMTOFL
 70
     1
  9
$DIMTVP
 40
0.0
  9
$DIMTIX
 70
     0
  9
$DIMSOXD
 70
     0
  9
$DIMSAH
 70
     0
  9
$DIMBLK1
  1

  9
$DIMBLK2
  1

  9
$DIMSTYLE
  2
Standard
  9
$DIMCLRD
 70
     3
  9
$DIMCLRE
 70
     3
  9
$DIMCLRT
 70
     2
  9
$DIMTFAC
 40
0.7
  9
$DIMGAP
 40
0.625
  9
$DIMJUST
 70
     0
  9
$DIMSD1
 70
     0
  9
$DIMSD2
 70
     0
  9
$DIMTOLJ
 70
     0
  9
$DIMTZIN
 70
     8
  9
$DIMALTZ
 70
     0
  9
$DIMALTTZ
 70
     0
  9
$DIMUPT
 70
     0
  9
$DIMDEC
 70
     8
  9
$DIMTDEC
 70
     8
  9
$DIMALTU
 70
     2
  9
$DIMALTTD
 70
     3
  9
$DIMTXSTY
  7
Standard
  9
$DIMAUNIT
 70
     1
  9
$DIMADEC
 70
     8
  9
$DIMALTRND
 40
0.0
  9
$DIMAZIN
 70
     0
  9
$DIMDSEP
 70
    46
  9
$DIMATFIT
 70
     3
  9
$DIMFRAC
 70
     0
  9
$DIMLDRBLK
  1

  9
$DIMLUNIT
 70
     2
  9
$DIMLWD
 70
    -1
  9
$DIMLWE
 70
    -1
  9
$DIMTMOVE
 70
     0
  9
$DIMFXL
 40
1.0
  9
$DIMFXLON
 70
     0
  9
$DIMJOGANG
 40
0.7853981633974483
  9
$DIMTFILL
 70
     0
  9
$DIMTFILLCLR
 70
     0
  9
$DIMARCSYM
 70
     1
  9
$DIMLTYPE
  6

  9
$DIMLTEX1
  6

  9
$DIMLTEX2
  6

  9
$DIMTXTDIRECTION
 70
     0
  9
$LUNITS
 70
     2
  9
$LUPREC
 70
     4
  9
$SKETCHINC
 40
0.0
  9
$FILLETRAD
 40
1.778
  9
$AUNITS
 70
     0
  9
$AUPREC
 70
     0
  9
$MENU
  1
.
  9
$ELEVATION
 40
0.0
  9
$PELEVATION
 40
0.0
  9
$THICKNESS
 40
0.0
  9
$LIMCHECK
 70
     0
  9
$CHAMFERA
 40
0.5
  9
$CHAMFERB
 40
0.5
  9
$CHAMFERC
 40
0.0
  9
$CHAMFERD
 40
0.0
  9
$SKPOLY
 70
     0
  9
$TDCREATE
 40
2455072.745932974
  9
$TDUCREATE
 40
2455072.370932974
  9
$TDUPDATE
 40
2459402.760371053
  9
$TDUUPDATE
 40
2459402.385371053
  9
$TDINDWG
 40
122.9586648611
  9
$TDUSRTIMER
 40
122.9586646759
  9
$USRTIMER
 70
     1
  9
$ANGBASE
 50
0.0
  9
$ANGDIR
 70
     0
  9
$PDMODE
 70
     0
  9
$PDSIZE
 40
0.0
  9
$PLINEWID
 40
0.0
  9
$SPLFRAME
 70
     0
  9
$SPLINETYPE
 70
     6
  9
$SPLINESEGS
 70
     8
  9
$HANDSEED
  5
2478
  9
$SURFTAB1
 70
     6
  9
$SURFTAB2
 70
     6
  9
$SURFTYPE
 70
     6
  9
$SURFU
 70
     6
  9
$SURFV
 70
     6
  9
$UCSBASE
  2

  9
$UCSNAME
  2

  9
$UCSORG
 10
0.0
 20
0.0
 30
0.0
  9
$UCSXDIR
 10
1.0
 20
0.0
 30
0.0
  9
$UCSYDIR
 10
0.0
 20
1.0
 30
0.0
  9
$UCSORTHOREF
  2

  9
$UCSORTHOVIEW
 70
     0
  9
$UCSORGTOP
 10
0.0
 20
0.0
 30
0.0
  9
$UCSORGBOTTOM
 10
0.0
 20
0.0
 30
0.0
  9
$UCSORGLEFT
 10
0.0
 20
0.0
 30
0.0
  9
$UCSORGRIGHT
 10
0.0
 20
0.0
 30
0.0
  9
$UCSORGFRONT
 10
0.0
 20
0.0
 30
0.0
  9
$UCSORGBACK
 10
0.0
 20
0.0
 30
0.0
  9
$PUCSBASE
  2

  9
$PUCSNAME
  2

  9
$PUCSORG
 10
0.0
 20
0.0
 30
0.0
  9
$PUCSXDIR
 10
1.0
 20
0.0
 30
0.0
  9
$PUCSYDIR
 10
0.0
 20
1.0
 30
0.0
  9
$PUCSORTHOREF
  2

  9
$PUCSORTHOVIEW
 70
     0
  9
$PUCSORGTOP
 10
0.0
 20
0.0
 30
0.0
  9
$PUCSORGBOTTOM
 10
0.0
 20
0.0
 30
0.0
  9
$PUCSORGLEFT
 10
0.0
 20
0.0
 30
0.0
  9
$PUCSORGRIGHT
 10
0.0
 20
0.0
 30
0.0
  9
$PUCSORGFRONT
 10
0.0
 20
0.0
 30
0.0
  9
$PUCSORGBACK
 10
0.0
 20
0.0
 30
0.0
  9
$USERI1
 70
     0
  9
$USERI2
 70
     0
  9
$USERI3
 70
     0
  9
$USERI4
 70
     0
  9
$USERI5
 70
     0
  9
$USERR1
 40
0.0
  9
$USERR2
 40
0.0
  9
$USERR3
 40
0.0
  9
$USERR4
 40
0.0
  9
$USERR5
 40
0.0
  9
$WORLDVIEW
 70
     1
  9
$SHADEDGE
 70
     3
  9
$SHADEDIF
 70
    70
  9
$TILEMODE
 70
     1
  9
$MAXACTVP
 70
    64
  9
$PINSBASE
 10
0.0
 20
0.0
 30
0.0
  9
$PLIMCHECK
 70
     0
  9
$PEXTMIN
 10
1.000000000000000E+20
 20
1.000000000000000E+20
 30
1.000000000000000E+20
  9
$PEXTMAX
 10
-1.000000000000000E+20
 20
-1.000000000000000E+20
 30
-1.000000000000000E+20
  9
$PLIMMIN
 10
-20.0
 20
-7.5
  9
$PLIMMAX
 10
277.0
 20
202.5
  9
$UNITMODE
 70
     0
  9
$VISRETAIN
 70
     1
  9
$PLINEGEN
 70
     0
  9
$PSLTSCALE
 70
     1
  9
$TREEDEPTH
 70
  3020
  9
$CMLSTYLE
  2
Standard
  9
$CMLJUST
 70
     0
  9
$CMLSCALE
 40
20.0
  9
$PROXYGRAPHICS
 70
     1
  9
$MEASUREMENT
 70
     1
  9
$CELWEIGHT
370
    -1
  9
$ENDCAPS
280
     0
  9
$JOINSTYLE
280
     0
  9
$LWDISPLAY
290
     0
  9
$INSUNITS
 70
     4
  9
$HYPERLINKBASE
  1

  9
$STYLESHEET
  1
ksm0910.ctb
  9
$XEDIT
290
     1
  9
$CEPSNTYPE
380
     0
  9
$PSTYLEMODE
290
     1
  9
$FINGERPRINTGUID
  2
{DEAAE951-45AF-4570-B2EA-434800097196}
  9
$VERSIONGUID
  2
{620C7D6E-B096-4BDC-B172-0D5C9B0FE1AB}
  9
$EXTNAMES
290
     1
  9
$PSVPSCALE
 40
0.0
  9
$OLESTARTUP
290
     0
  9
$SORTENTS
280
   127
  9
$INDEXCTL
280
     0
  9
$HIDETEXT
280
     1
  9
$XCLIPFRAME
280
     0
  9
$HALOGAP
280
     0
  9
$OBSCOLOR
 70
   257
  9
$OBSLTYPE
280
     0
  9
$INTERSECTIONDISPLAY
280
     0
  9
$INTERSECTIONCOLOR
 70
   257
  9
$DIMASSOC
280
     1
  9
$PROJECTNAME
  1

  9
$CAMERADISPLAY
290
     0
  9
$LENSLENGTH
 40
50.0
  9
$CAMERAHEIGHT
 40
0.0
  9
$STEPSPERSEC
 40
2.0
  9
$STEPSIZE
 40
6.0
  9
$3DDWFPREC
 40
2.0
  9
$PSOLWIDTH
 40
5.0
  9
$PSOLHEIGHT
 40
80.0
  9
$LOFTANG1
 40
1.570796326794896
  9
$LOFTANG2
 40
1.570796326794896
  9
$LOFTMAG1
 40
0.0
  9
$LOFTMAG2
 40
0.0
  9
$LOFTPARAM
 70
     7
  9
$LOFTNORMALS
280
     1
  9
$LATITUDE
 40
37.795
  9
$LONGITUDE
 40
-122.394
  9
$NORTHDIRECTION
 40
0.0
  9
$TIMEZONE
 70
 -8000
  9
$LIGHTGLYPHDISPLAY
280
     1
  9
$TILEMODELIGHTSYNCH
280
     1
  9
$CMATERIAL
347
3C
  9
$SOLIDHIST
280
     1
  9
$SHOWHIST
280
     1
  9
$DWFFRAME
280
     2
  9
$DGNFRAME
280
     0
  9
$REALWORLDSCALE
290
     1
  9
$INTERFERECOLOR
 62
     1
  9
$INTERFEREOBJVS
345
44
  9
$INTERFEREVPVS
346
45
  9
$CSHADOW
280
     0
  9
$SHADOWPLANELOCATION
 40
0.0
  0
ENDSEC
  0
SECTION
  2
CLASSES
  0
CLASS
  1
ACDBDICTIONARYWDFLT
  2
AcDbDictionaryWithDefault
  3
ObjectDBX Classes
 90
        0
 91
        1
280
     0
281
     0
  0
CLASS
  1
DICTIONARYVAR
  2
AcDbDictionaryVar
  3
ObjectDBX Classes
 90
        0
 91
       13
280
     0
281
     0
  0
CLASS
  1
TABLESTYLE
  2
AcDbTableStyle
  3
ObjectDBX Classes
 90
     4095
 91
        1
280
     0
281
     0
  0
CLASS
  1
MATERIAL
  2
AcDbMaterial
  3
ObjectDBX Classes
 90
     1153
 91
        3
280
     0
281
     0
  0
CLASS
  1
VISUALSTYLE
  2
AcDbVisualStyle
  3
ObjectDBX Classes
 90
     4095
 91
       26
280
     0
281
     0
  0
CLASS
  1
SCALE
  2
AcDbScale
  3
ObjectDBX Classes
 90
     1153
 91
       33
280
     0
281
     0
  0
CLASS
  1
MLEADERSTYLE
  2
AcDbMLeaderStyle
  3
ACDB_MLEADERSTYLE_CLASS
 90
     4095
 91
        1
280
     0
281
     0
  0
CLASS
  1
CELLSTYLEMAP
  2
AcDbCellStyleMap
  3
ObjectDBX Classes
 90
     1152
 91
        2
280
     0
281
     0
  0
CLASS
  1
SORTENTSTABLE
  2
AcDbSortentsTable
  3
ObjectDBX Classes
 90
        0
 91
        1
280
     0
281
     0
  0
CLASS
  1
DIMASSOC
  2
AcDbDimAssoc
  3
"AcDbDimAssoc|Product Desc:     AcDim ARX App For Dimension|Company:          Autodesk, Inc.|WEB Address:      www.autodesk.com"
 90
        0
 91
        0
280
     0
281
     0
  0
CLASS
  1
SOLID_BACKGROUND
  2
AcDbSolidBackground
  3
SCENEOE
 90
     4095
 91
        0
280
     0
281
     0
  0
CLASS
  1
NPOCOLLECTION
  2
AcDbImpNonPersistentObjectsCollection
  3
ObjectDBX Classes
 90
     1153
 91
        0
280
     0
281
     0
  0
CLASS
  1
ACAD_EVALUATION_GRAPH
  2
AcDbEvalGraph
  3
ObjectDBX Classes
 90
     1153
 91
        0
280
     0
281
     0
  0
CLASS
  1
ACAECUSTOBJ
  2
AcAeEditorObj
  3
AcAeEditorObj
 90
     1024
 91
        0
280
     1
281
     0
  0
CLASS
  1
ACDB_DYNAMICBLOCKPURGEPREVENTER_VERSION
  2
AcDbDynamicBlockPurgePreventer
  3
ObjectDBX Classes
 90
     1153
 91
        0
280
     0
281
     0
  0
CLASS
  1
HELIX
  2
AcDbHelix
  3
ObjectDBX Classes
 90
     4095
 91
        0
280
     0
281
     1
  0
CLASS
  1
MULTILEADER
  2
AcDbMLeader
  3
ACDB_MLEADER_CLASS
 90
     1025
 91
        1
280
     0
281
     1
  0
CLASS
  1
ACMDIMBREAKPERSREACTOR
  2
AcmDimBreakPersReactor
  3
amgDimApp().moduleName()
 90
     1023
 91
        0
280
     1
281
     0
  0
CLASS
  1
ACDB_MTEXTOBJECTCONTEXTDATA_CLASS
  2
AcDbMTextObjectContextData
  3
ObjectDBX Classes
 90
     1153
 91
        0
280
     0
281
     0
  0
CLASS
  1
BREAKDATA
  2
AcDbBreakData
  3
ObjectDBX Classes
 90
     1024
 91
        0
280
     0
281
     0
  0
CLASS
  1
EXACXREFPANELOBJECT
  2
ExAcXREFPanelObject
  3
EXAC_ESW
 90
     1025
 91
        0
280
     1
281
     0
  0
CLASS
  1
ACDBSECTIONVIEWSTYLE
  2
AcDbSectionViewStyle
  3
ObjectDBX Classes
 90
     1025
 91
        1
280
     0
281
     0
  0
CLASS
  1
ACDBDETAILVIEWSTYLE
  2
AcDbDetailViewStyle
  3
ObjectDBX Classes
 90
     1025
 91
        1
280
     0
281
     0
  0
ENDSEC
  0
SECTION
  2
TABLES
  0
TABLE
  2
VPORT
  5
2A
102
{ACAD_XDICTIONARY
360
2E
102
}
330
0
100
AcDbSymbolTable
 70
     1
  0
VPORT
  5
2B
330
2A
100
AcDbSymbolTableRecord
100
AcDbViewportTableRecord
  2
*Active
 70
     0
 10
0.0
 20
0.0
 11
1.0
 21
1.0
 12
786.765724169316
 22
74.99322570359014
 13
0.0
 23
0.0
 14
2.0
 24
2.0
 15
2.0
 25
2.0
 16
0.0
 26
0.0
 36
1.0
 17
0.0
 27
0.0
 37
0.0
 40
146.2375103173392
 41
2.214198286413708
 42
50.0
 43
0.0
 44
0.0
 50
0.0
 51
0.0
 71
     0
 72
  1000
 73
     1
 74
     3
 75
     0
 76
     0
 77
     0
 78
     1
281
     0
 65
     1
110
0.0
120
0.0
130
0.0
111
1.0
121
0.0
131
0.0
112
0.0
122
1.0
132
0.0
 79
     0
146
0.0
348
2C
 60
     3
 61
     5
292
     1
282
     1
141
0.0
142
0.0
 63
   250
421
  3355443
1001
ACAD_NAV_VCDISPLAY
1070
     3
  0
ENDTAB
  0
TABLE
  2
LTYPE
  5
25
330
0
100
AcDbSymbolTable
 70
     2
  0
LTYPE
  5
26
330
25
100
AcDbSymbolTableRecord
100
AcDbLinetypeTableRecord
  2
ByBlock
 70
     0
  3

 72
    65
 73
     0
 40
0.0
  0
LTYPE
  5
27
330
25
100
AcDbSymbolTableRecord
100
AcDbLinetypeTableRecord
  2
ByLayer
 70
     0
  3

 72
    65
 73
     0
 40
0.0
  0
LTYPE
  5
14
330
25
100
AcDbSymbolTableRecord
100
AcDbLinetypeTableRecord
  2
Continuous
 70
     0
  3
Solid line
 72
    65
 73
     0
 40
0.0
  0
LTYPE
  5
68
330
25
100
AcDbSymbolTableRecord
100
AcDbLinetypeTableRecord
  2
CENTER
 70
     0
  3
____ _ ____ _ ____ _ ____ _ ____ _ ____ _ ____ 
 72
    65
 73
     4
 40
2.0
 49
1.25
 74
     0
 49
-0.25
 74
     0
 49
0.25
 74
     0
 49
-0.25
 74
     0
  0
ENDTAB
  0
TABLE
  2
LAYER
  5
1F
102
{ACAD_XDICTIONARY
360
20
102
}
330
0
100
AcDbSymbolTable
 70
     3
  0
LAYER
  5
6
102
{ACAD_XDICTIONARY
360
7
102
}
330
1F
100
AcDbSymbolTableRecord
100
AcDbLayerTableRecord
  2
0
 70
     0
 62
     7
  6
Continuous
370
    -3
390
9
347
C
348
0
  0
LAYER
  5
72
330
1F
100
AcDbSymbolTableRecord
100
AcDbLayerTableRecord
  2
DEFPOINTS
 70
     0
 62
     7
  6
Continuous
290
     0
370
    -3
390
9
347
C
348
0
  0
LAYER
  5
AC
330
1F
100
AcDbSymbolTableRecord
100
AcDbLayerTableRecord
  2
Layer 1
 70
     0
 62
     7
  6
Continuous
370
     0
390
9
347
C
348
0
  0
ENDTAB
  0
TABLE
  2
STYLE
  5
22
330
0
100
AcDbSymbolTable
 70
     5
  0
STYLE
  5
23
330
22
100
AcDbSymbolTableRecord
100
AcDbTextStyleTableRecord
  2
Standard
 70
     0
 40
3.0
 41
1.0
 50
0.0
 71
     0
 42
3.0
  3
isocp.shx
  4
whgtxt.shx
  0
STYLE
  5
32
330
22
100
AcDbSymbolTableRecord
100
AcDbTextStyleTableRecord
  2
ROMANS
 70
     0
 40
2.5
 41
1.0
 50
0.0
 71
     0
 42
2.5
  3
romans.shx
  4

  0
STYLE
  5
A6
330
22
100
AcDbSymbolTableRecord
100
AcDbTextStyleTableRecord
  2
굴림
 70
     0
 40
3.0
 41
1.0
 50
0.0
 71
     0
 42
3.0
  3

  4

1001
ACAD
1000
Gulim
1071
    33074
  0
ENDTAB
  0
TABLE
  2
VIEW
  5
28
330
0
100
AcDbSymbolTable
 70
     0
  0
ENDTAB
  0
TABLE
  2
UCS
  5
29
330
0
100
AcDbSymbolTable
 70
     0
  0
ENDTAB
  0
TABLE
  2
APPID
  5
2F
330
0
100
AcDbSymbolTable
 70
    16
  0
APPID
  5
13
330
2F
100
AcDbSymbolTableRecord
100
AcDbRegAppTableRecord
  2
ACAD
 70
     0
  0
APPID
  5
18
330
2F
100
AcDbSymbolTableRecord
100
AcDbRegAppTableRecord
  2
ACAD_PSEXT
 70
     0
  0
APPID
  5
34
330
2F
100
AcDbSymbolTableRecord
100
AcDbRegAppTableRecord
  2
ACAD_DSTYLE_DIMJAG
 70
     0
  0
APPID
  5
35
330
2F
100
AcDbSymbolTableRecord
100
AcDbRegAppTableRecord
  2
ACAD_DSTYLE_DIMTALN
 70
     0
  0
APPID
  5
147
330
2F
100
AcDbSymbolTableRecord
100
AcDbRegAppTableRecord
  2
ACAD_MLEADERVER
 70
     0
  0
APPID
  5
33
330
2F
100
AcDbSymbolTableRecord
100
AcDbRegAppTableRecord
  2
ACAD_DSTYLE_DIMJOGGED_JOGANGLE_SYMBOL
 70
     0
  0
APPID
  5
37
330
2F
100
AcDbSymbolTableRecord
100
AcDbRegAppTableRecord
  2
ACAD_DSTYLE_DIMBREAK
 70
     0
  0
APPID
  5
192
330
2F
100
AcDbSymbolTableRecord
100
AcDbRegAppTableRecord
  2
ACAD_DSTYLE_DIMRADIAL_EXTENSION
 70
     0
  0
APPID
  5
B3
330
2F
100
AcDbSymbolTableRecord
100
AcDbRegAppTableRecord
  2
GRADIENTCOLOR1ACI
 70
     0
  0
APPID
  5
B4
330
2F
100
AcDbSymbolTableRecord
100
AcDbRegAppTableRecord
  2
GRADIENTCOLOR2ACI
 70
     0
  0
APPID
  5
23A
330
2F
100
AcDbSymbolTableRecord
100
AcDbRegAppTableRecord
  2
ACAD_EXEMPT_FROM_CAD_STANDARDS
 70
     0
  0
APPID
  5
258
330
2F
100
AcDbSymbolTableRecord
100
AcDbRegAppTableRecord
  2
AcadAnnoMonitorAlertIconDisabled
 70
     0
  0
APPID
  5
26E
330
2F
100
AcDbSymbolTableRecord
100
AcDbRegAppTableRecord
  2
ACAD_NAV_VCDISPLAY
 70
     0
  0
APPID
  5
46C
330
2F
100
AcDbSymbolTableRecord
100
AcDbRegAppTableRecord
  2
GENIUS_GENODEF_13
 70
     0
  0
APPID
  5
46D
330
2F
100
AcDbSymbolTableRecord
100
AcDbRegAppTableRecord
  2
GENIUS_GENOBJ-N-FIL_13
 70
     0
  0
APPID
  5
BB8
330
2F
100
AcDbSymbolTableRecord
100
AcDbRegAppTableRecord
  2
AcAecLayerStandard
 70
     0
  0
ENDTAB
  0
TABLE
  2
DIMSTYLE
  5
30
330
0
100
AcDbSymbolTable
 70
     4
100
AcDbDimStyleTable
 71
     1
340
31
  0
DIMSTYLE
105
31
102
{ACAD_REACTORS
330
816
330
15B5
330
15BF
102
}
330
30
100
AcDbSymbolTableRecord
100
AcDbDimStyleTableRecord
  2
Standard
 70
     0
 41
2.5
 73
     0
 77
     3
 78
     8
140
2.5
141
-1.0
147
1.0
175
     1
176
     3
177
     3
178
     2
179
     8
271
     8
272
     8
275
     1
340
32
1001
ACAD_DSTYLE_DIMJOGGED_JOGANGLE_SYMBOL
1070
   384
1040
0.7853981633974483
1001
ACAD_DSTYLE_DIMJAG
1070
   388
1040
1.5
1001
ACAD_DSTYLE_DIMTALN
1070
   392
1070
     0
  0
DIMSTYLE
105
121
102
{ACAD_REACTORS
330
113
330
122
330
130
330
16E
330
17B
330
1D7
330
1E4
102
}
330
30
100
AcDbSymbolTableRecord
100
AcDbDimStyleTableRecord
  2
Standard$0
 70
     0
 41
2.5
 73
     0
 77
     3
 78
     8
140
2.5
141
-1.0
147
1.0
175
     1
176
     3
177
     3
178
     2
179
     8
271
     8
272
     8
275
     1
340
32
  0
ENDTAB
  0
TABLE
  2
BLOCK_RECORD
  5
1
330
0
100
AcDbSymbolTable
 70
    13
  0
BLOCK_RECORD
  5
2
102
{ACAD_XDICTIONARY
360
3
102
}
330
1
100
AcDbSymbolTableRecord
100
AcDbBlockTableRecord
  2
*Model_Space
340
16
 70
     0
280
     1
281
     0
  0
BLOCK_RECORD
  5
19
330
1
100
AcDbSymbolTableRecord
100
AcDbBlockTableRecord
  2
*Paper_Space
340
1C
 70
     0
280
     1
281
     0
  0
BLOCK_RECORD
  5
140
330
1
100
AcDbSymbolTableRecord
100
AcDbBlockTableRecord
  2
_DetailCallout
340
0
 70
     4
280
     1
281
     0
  0
BLOCK_RECORD
  5
242
330
1
100
AcDbSymbolTableRecord
100
AcDbBlockTableRecord
  2
*D1
340
0
 70
     0
280
     1
281
     0
  0
BLOCK_RECORD
  5
24E
330
1
100
AcDbSymbolTableRecord
100
AcDbBlockTableRecord
  2
*D2
340
0
 70
     0
280
     1
281
     0
  0
BLOCK_RECORD
  5
7C7
330
1
100
AcDbSymbolTableRecord
100
AcDbBlockTableRecord
  2
*D3
340
0
 70
     0
280
     1
281
     0
  0
BLOCK_RECORD
  5
7D3
330
1
100
AcDbSymbolTableRecord
100
AcDbBlockTableRecord
  2
*D4
340
0
 70
     0
280
     1
281
     0
  0
BLOCK_RECORD
  5
7E6
330
1
100
AcDbSymbolTableRecord
100
AcDbBlockTableRecord
  2
*D5
340
0
 70
     0
280
     1
281
     0
  0
BLOCK_RECORD
  5
817
330
1
100
AcDbSymbolTableRecord
100
AcDbBlockTableRecord
  2
*D6
340
0
 70
     0
280
     1
281
     0
  0
BLOCK_RECORD
  5
1573
330
1
100
AcDbSymbolTableRecord
100
AcDbBlockTableRecord
  2
*D7
340
0
 70
     0
280
     1
281
     0
  0
BLOCK_RECORD
  5
1580
330
1
100
AcDbSymbolTableRecord
100
AcDbBlockTableRecord
  2
*D8
340
0
 70
     0
280
     1
281
     0
  0
BLOCK_RECORD
  5
15B6
330
1
100
AcDbSymbolTableRecord
100
AcDbBlockTableRecord
  2
*D9
340
0
 70
     0
280
     1
281
     0
  0
BLOCK_RECORD
  5
15C0
330
1
100
AcDbSymbolTableRecord
100
AcDbBlockTableRecord
  2
*D10
340
0
 70
     0
280
     1
281
     0
  0
ENDTAB
  0
ENDSEC
  0
SECTION
  2
BLOCKS
  0
BLOCK
  5
5
330
2
100
AcDbEntity
  8
0
100
AcDbBlockBegin
  2
*Model_Space
 70
     0
 10
0.0
 20
0.0
 30
0.0
  3
*Model_Space
  1

  0
ENDBLK
  5
15
330
2
100
AcDbEntity
  8
0
100
AcDbBlockEnd
  0
BLOCK
  5
1A
330
19
100
AcDbEntity
 67
     1
  8
0
100
AcDbBlockBegin
  2
*Paper_Space
 70
     0
 10
0.0
 20
0.0
 30
0.0
  3
*Paper_Space
  1

  0
ENDBLK
  5
1B
330
19
100
AcDbEntity
 67
     1
  8
0
100
AcDbBlockEnd
  0
BLOCK
  5
141
330
140
100
AcDbEntity
  8
0
100
AcDbBlockBegin
  2
_DetailCallout
 70
     2
 10
0.0
 20
0.0
 30
0.0
  3
_DetailCallout
  1

  0
CIRCLE
  5
142
330
140
100
AcDbEntity
  8
0
  6
ByBlock
 62
     0
370
    -2
100
AcDbCircle
 10
0.0
 20
0.0
 30
0.0
 40
8.0
  0
LINE
  5
143
330
140
100
AcDbEntity
  8
0
  6
ByBlock
 62
     0
370
    -2
100
AcDbLine
 10
8.0
 20
0.0
 30
0.0
 11
-8.0
 21
0.0
 31
0.0
  0
ATTDEF
  5
144
330
140
100
AcDbEntity
  8
0
 62
     0
100
AcDbText
 10
-3.857142857142857
 20
1.0
 30
0.0
 40
3.0
  1
뷰번호
  7
ROMANS
 72
     1
 11
0.0
 21
1.0
 31
0.0
100
AcDbAttributeDefinition
280
     0
  3
뷰 번호 입력
  2
뷰번호
 70
     0
280
     0
  0
ATTDEF
  5
145
330
140
100
AcDbEntity
  8
0
 62
     0
100
AcDbText
 10
-5.142857142857142
 20
-6.0
 30
0.0
 40
3.0
  1
시트번호
  7
ROMANS
 72
     1
 11
0.0
 21
-6.0
 31
0.0
100
AcDbAttributeDefinition
280
     0
  3
시트 번호 입력
  2
시트번호
 70
     0
280
     0
  0
ENDBLK
  5
146
330
140
100
AcDbEntity
  8
0
100
AcDbBlockEnd
  0
BLOCK
  5
243
330
242
100
AcDbEntity
  8
0
 62
     7
100
AcDbBlockBegin
  2
*D1
 70
     1
 10
0.0
 20
0.0
 30
0.0
  3
*D1
  1

  0
LINE
  5
1651
330
242
100
AcDbEntity
  8
0
  6
Continuous
 62
     3
440
 16777216
100
AcDbLine
 10
781.5233316205911
 20
92.83765851910921
 30
0.0
 11
781.5233316205911
 21
129.1689924944215
 31
0.0
  0
LINE
  5
1652
330
242
100
AcDbEntity
  8
0
  6
Continuous
 62
     3
440
 16777216
100
AcDbLine
 10
838.6733316205759
 20
101.432957980696
 30
0.0
 11
838.6733316205759
 21
129.1689924944215
 31
0.0
  0
LINE
  5
1653
330
242
100
AcDbEntity
  8
0
  6
Continuous
 62
     3
440
 16777216
100
AcDbLine
 10
784.023331620591
 20
127.9189924944215
 30
0.0
 11
836.1733316205759
 21
127.9189924944215
 31
0.0
  0
SOLID
  5
1654
330
242
100
AcDbEntity
  8
0
  6
Continuous
 62
     3
440
 16777216
100
AcDbTrace
 10
784.023331620591
 20
128.3356591610882
 30
0.0
 11
784.023331620591
 21
127.5023258277549
 31
0.0
 12
781.5233316205911
 22
127.9189924944215
 32
0.0
 13
781.5233316205911
 23
127.9189924944215
 33
0.0
  0
SOLID
  5
1655
330
242
100
AcDbEntity
  8
0
  6
Continuous
 62
     3
440
 16777216
100
AcDbTrace
 10
836.1733316205759
 20
128.3356591610882
 30
0.0
 11
836.1733316205759
 21
127.5023258277549
 31
0.0
 12
838.6733316205759
 22
127.9189924944215
 32
0.0
 13
838.6733316205759
 23
127.9189924944215
 33
0.0
  0
MTEXT
  5
1656
330
242
100
AcDbEntity
  8
0
  6
Continuous
 62
     2
440
 16777216
100
AcDbMText
 10
810.0983316205836
 20
130.0442877700121
 30
0.0
 40
3.0
 41
0.0
 46
0.0
 71
     5
 72
     1
  1
2.25
 73
     1
 44
1.0
  0
POINT
  5
1657
330
242
100
AcDbEntity
  8
DEFPOINTS
  6
Continuous
 62
     0
440
 16777216
100
AcDbPoint
 10
781.5233316205911
 20
92.21265851910921
 30
0.0
  0
POINT
  5
1658
330
242
100
AcDbEntity
  8
DEFPOINTS
  6
Continuous
 62
     0
440
 16777216
100
AcDbPoint
 10
838.6733316205759
 20
100.8079579806961
 30
0.0
  0
POINT
  5
1659
330
242
100
AcDbEntity
  8
DEFPOINTS
  6
Continuous
 62
     0
440
 16777216
100
AcDbPoint
 10
838.6733316205759
 20
127.9189924944215
 30
0.0
  0
ENDBLK
  5
244
330
242
100
AcDbEntity
  8
0
 62
     7
100
AcDbBlockEnd
  0
BLOCK
  5
24F
330
24E
100
AcDbEntity
  8
0
 62
     7
100
AcDbBlockBegin
  2
*D2
 70
     1
 10
0.0
 20
0.0
 30
0.0
  3
*D2
  1

  0
LINE
  5
1630
330
24E
100
AcDbEntity
  8
0
  6
Continuous
 62
     3
440
 16777216
100
AcDbLine
 10
769.8860448608168
 20
89.96265851910768
 30
0.0
 11
769.1475288481905
 21
89.96265851910768
 31
0.0
  0
LINE
  5
1631
330
24E
100
AcDbEntity
  8
0
  6
Continuous
 62
     3
440
 16777216
100
AcDbLine
 10
770.3975288481905
 20
84.96265851910768
 30
0.0
 11
770.3975288481905
 21
87.46265851910768
 31
0.0
  0
LINE
  5
1632
330
24E
100
AcDbEntity
  8
0
  6
Continuous
 62
     3
440
 16777216
100
AcDbLine
 10
770.3975288481905
 20
89.96265851910768
 30
0.0
 11
770.3975288481905
 21
132.519142764533
 31
0.0
  0
SOLID
  5
1633
330
24E
100
AcDbEntity
  8
0
  6
Continuous
 62
     3
440
 16777216
100
AcDbTrace
 10
769.9808621815239
 20
87.46265851910768
 30
0.0
 11
770.8141955148571
 21
87.46265851910768
 31
0.0
 12
770.3975288481905
 22
89.96265851910768
 32
0.0
 13
770.3975288481905
 23
89.96265851910768
 33
0.0
  0
MTEXT
  5
1634
330
24E
100
AcDbEntity
  8
0
  6
Continuous
 62
     2
440
 16777216
100
AcDbMText
 10
768.2725288481905
 20
126.6429616621709
 30
0.0
 40
3.0
 41
0.0
 46
0.0
 71
     5
 72
     1
  1
M8*1.0
 11
0.0000000000000001
 21
1.0
 31
0.0
 73
     1
 44
1.0
  0
POINT
  5
1635
330
24E
100
AcDbEntity
  8
DEFPOINTS
  6
Continuous
 62
     0
440
 16777216
100
AcDbPoint
 10
775.1733316205756
 20
81.96265851904653
 30
0.0
  0
POINT
  5
1636
330
24E
100
AcDbEntity
  8
DEFPOINTS
  6
Continuous
 62
     0
440
 16777216
100
AcDbPoint
 10
770.5110448608167
 20
89.96265851910768
 30
0.0
  0
POINT
  5
1637
330
24E
100
AcDbEntity
  8
DEFPOINTS
  6
Continuous
 62
     0
440
 16777216
100
AcDbPoint
 10
770.3975288481905
 20
89.96265851910768
 30
0.0
  0
ENDBLK
  5
250
330
24E
100
AcDbEntity
  8
0
 62
     7
100
AcDbBlockEnd
  0
BLOCK
  5
7C8
330
7C7
100
AcDbEntity
  8
0
 62
     7
100
AcDbBlockBegin
  2
*D3
 70
     1
 10
0.0
 20
0.0
 30
0.0
  3
*D3
  1

  0
LINE
  5
1638
330
7C7
100
AcDbEntity
  8
0
  6
Continuous
 62
     3
440
 16777216
100
AcDbLine
 10
839.2983316206157
 20
69.96265851910187
 30
0.0
 11
863.5870910216326
 21
69.96265851910187
 31
0.0
  0
LINE
  5
1639
330
7C7
100
AcDbEntity
  8
0
  6
Continuous
 62
     3
440
 16777216
100
AcDbLine
 10
839.2983316206157
 20
101.9626585190523
 30
0.0
 11
863.5870910216326
 21
101.9626585190523
 31
0.0
  0
LINE
  5
163A
330
7C7
100
AcDbEntity
  8
0
  6
Continuous
 62
     3
440
 16777216
100
AcDbLine
 10
862.3370910216326
 20
72.46265851910187
 30
0.0
 11
862.3370910216326
 21
99.46265851905232
 31
0.0
  0
SOLID
  5
163B
330
7C7
100
AcDbEntity
  8
0
  6
Continuous
 62
     3
440
 16777216
100
AcDbTrace
 10
861.920424354966
 20
72.46265851910187
 30
0.0
 11
862.7537576882993
 21
72.46265851910187
 31
0.0
 12
862.3370910216326
 22
69.96265851910187
 32
0.0
 13
862.3370910216326
 23
69.96265851910187
 33
0.0
  0
SOLID
  5
163C
330
7C7
100
AcDbEntity
  8
0
  6
Continuous
 62
     3
440
 16777216
100
AcDbTrace
 10
861.920424354966
 20
99.46265851905232
 30
0.0
 11
862.7537576882993
 21
99.46265851905232
 31
0.0
 12
862.3370910216326
 22
101.9626585190523
 32
0.0
 13
862.3370910216326
 23
101.9626585190523
 33
0.0
  0
MTEXT
  5
163D
330
7C7
100
AcDbEntity
  8
0
  6
Continuous
 62
     2
440
 16777216
100
AcDbMText
 10
860.211795746042
 20
85.96265851907721
 30
0.0
 40
3.0
 41
0.0
 46
0.0
 71
     5
 72
     1
  1
%%C1.26
 11
0.0000000000000001
 21
1.0
 31
0.0
 73
     1
 44
1.0
  0
POINT
  5
163E
330
7C7
100
AcDbEntity
  8
DEFPOINTS
  6
Continuous
 62
     0
440
 16777216
100
AcDbPoint
 10
838.6733316206157
 20
69.96265851910187
 30
0.0
  0
POINT
  5
163F
330
7C7
100
AcDbEntity
  8
DEFPOINTS
  6
Continuous
 62
     0
440
 16777216
100
AcDbPoint
 10
838.6733316206157
 20
101.9626585190523
 30
0.0
  0
POINT
  5
1640
330
7C7
100
AcDbEntity
  8
DEFPOINTS
  6
Continuous
 62
     0
440
 16777216
100
AcDbPoint
 10
862.3370910216326
 20
101.9626585190523
 30
0.0
  0
ENDBLK
  5
7C9
330
7C7
100
AcDbEntity
  8
0
 62
     7
100
AcDbBlockEnd
  0
BLOCK
  5
7D4
330
7D3
100
AcDbEntity
  8
0
 62
     7
100
AcDbBlockBegin
  2
*D4
 70
     1
 10
0.0
 20
0.0
 30
0.0
  3
*D4
  1

  0
LINE
  5
1641
330
7D3
100
AcDbEntity
  8
0
  6
Continuous
 62
     3
440
 16777216
100
AcDbLine
 10
838.8653189187207
 20
92.31265851907711
 30
0.0
 11
855.5870910216325
 21
92.31265851907711
 31
0.0
  0
LINE
  5
1642
330
7D3
100
AcDbEntity
  8
0
  6
Continuous
 62
     3
440
 16777216
100
AcDbLine
 10
854.3370910216326
 20
89.81265851907711
 30
0.0
 11
854.3370910216326
 21
80.32397741671276
 31
0.0
  0
SOLID
  5
1643
330
7D3
100
AcDbEntity
  8
0
  6
Continuous
 62
     3
440
 16777216
100
AcDbTrace
 10
853.920424354966
 20
89.81265851907711
 30
0.0
 11
854.7537576882993
 21
89.81265851907711
 31
0.0
 12
854.3370910216326
 22
92.31265851907711
 32
0.0
 13
854.3370910216326
 23
92.31265851907711
 33
0.0
  0
MTEXT
  5
1644
330
7D3
100
AcDbEntity
  8
0
  6
Continuous
 62
     2
440
 16777216
100
AcDbMText
 10
852.2120910216326
 20
87.5501585190751
 30
0.0
 40
3.0
 41
0.0
 46
0.0
 71
     5
 72
     1
  1
%%C0.5000
 11
0.0000000000000001
 21
1.0
 31
0.0
 73
     1
 44
1.0
  0
POINT
  5
1645
330
7D3
100
AcDbEntity
  8
DEFPOINTS
  6
Continuous
 62
     0
440
 16777216
100
AcDbPoint
 10
838.2403189187208
 20
79.61265851907706
 30
0.0
  0
POINT
  5
1646
330
7D3
100
AcDbEntity
  8
DEFPOINTS
  6
Continuous
 62
     0
440
 16777216
100
AcDbPoint
 10
838.2403189187208
 20
92.31265851907711
 30
0.0
  0
POINT
  5
1647
330
7D3
100
AcDbEntity
  8
DEFPOINTS
  6
Continuous
 62
     0
440
 16777216
100
AcDbPoint
 10
854.3370910216326
 20
92.31265851907711
 30
0.0
  0
ENDBLK
  5
7D5
330
7D3
100
AcDbEntity
  8
0
 62
     7
100
AcDbBlockEnd
  0
BLOCK
  5
7E7
330
7E6
100
AcDbEntity
  8
0
 62
     7
100
AcDbBlockBegin
  2
*D5
 70
     1
 10
0.0
 20
0.0
 30
0.0
  3
*D5
  1

  0
LINE
  5
1648
330
7E6
100
AcDbEntity
  8
0
  6
Continuous
 62
     3
440
 16777216
100
AcDbLine
 10
827.9804169585945
 20
63.73765851907705
 30
0.0
 11
871.5870910216326
 21
63.73765851907705
 31
0.0
  0
LINE
  5
1649
330
7E6
100
AcDbEntity
  8
0
  6
Continuous
 62
     3
440
 16777216
100
AcDbLine
 10
827.9804169585945
 20
108.1876585190771
 30
0.0
 11
871.5870910216326
 21
108.1876585190771
 31
0.0
  0
LINE
  5
164A
330
7E6
100
AcDbEntity
  8
0
  6
Continuous
 62
     3
440
 16777216
100
AcDbLine
 10
870.3370910216326
 20
66.23765851907704
 30
0.0
 11
870.3370910216326
 21
105.6876585190771
 31
0.0
  0
SOLID
  5
164B
330
7E6
100
AcDbEntity
  8
0
  6
Continuous
 62
     3
440
 16777216
100
AcDbTrace
 10
869.920424354966
 20
66.23765851907704
 30
0.0
 11
870.7537576882993
 21
66.23765851907704
 31
0.0
 12
870.3370910216326
 22
63.73765851907705
 32
0.0
 13
870.3370910216326
 23
63.73765851907705
 33
0.0
  0
SOLID
  5
164C
330
7E6
100
AcDbEntity
  8
0
  6
Continuous
 62
     3
440
 16777216
100
AcDbTrace
 10
869.920424354966
 20
105.6876585190771
 30
0.0
 11
870.7537576882993
 21
105.6876585190771
 31
0.0
 12
870.3370910216326
 22
108.1876585190771
 32
0.0
 13
870.3370910216326
 23
108.1876585190771
 33
0.0
  0
MTEXT
  5
164D
330
7E6
100
AcDbEntity
  8
0
  6
Continuous
 62
     2
440
 16777216
100
AcDbMText
 10
868.2120910216326
 20
85.96265851907672
 30
0.0
 40
3.0
 41
0.0
 46
0.0
 71
     5
 72
     1
  1
%%C1.75
 11
0.0000000000000001
 21
1.0
 31
0.0
 73
     1
 44
1.0
  0
POINT
  5
164E
330
7E6
100
AcDbEntity
  8
DEFPOINTS
  6
Continuous
 62
     0
440
 16777216
100
AcDbPoint
 10
827.3554169585946
 20
63.73765851907705
 30
0.0
  0
POINT
  5
164F
330
7E6
100
AcDbEntity
  8
DEFPOINTS
  6
Continuous
 62
     0
440
 16777216
100
AcDbPoint
 10
827.3554169585946
 20
108.1876585190771
 30
0.0
  0
POINT
  5
1650
330
7E6
100
AcDbEntity
  8
DEFPOINTS
  6
Continuous
 62
     0
440
 16777216
100
AcDbPoint
 10
870.3370910216326
 20
108.1876585190771
 30
0.0
  0
ENDBLK
  5
7E8
330
7E6
100
AcDbEntity
  8
0
 62
     7
100
AcDbBlockEnd
  0
BLOCK
  5
818
330
817
100
AcDbEntity
  8
0
 62
     7
100
AcDbBlockBegin
  2
*D6
 70
     1
 10
0.0
 20
0.0
 30
0.0
  3
*D6
  1

  0
LINE
  5
165A
330
817
100
AcDbEntity
  8
0
  6
Continuous
 62
     3
440
 16777216
100
AcDbLine
 10
850.9329324070366
 20
61.95404713377167
 30
0.0
 11
840.4590663426452
 21
68.68462137860337
 31
0.0
  0
MTEXT
  5
165B
330
817
100
AcDbEntity
  8
0
  6
Continuous
 62
     2
440
 16777216
100
AcDbMText
 10
847.8963851459859
 20
66.43128185303829
 30
0.0
 40
3.0
 41
0.0
 46
0.0
 71
     5
 72
     1
  1
R0.08
 11
0.8412743826820355
 21
-0.5406083730788492
 31
0.0
 73
     1
 44
1.0
  0
LINE
  5
165C
330
817
100
AcDbEntity
  8
0
  6
Continuous
 62
     3
440
 16777216
100
AcDbLine
 10
836.6733316205754
 20
71.11735905745849
 30
0.0
 11
838.3558803859401
 21
70.03614231130052
 31
0.0
  0
SOLID
  5
165D
330
817
100
AcDbEntity
  8
0
  6
Continuous
 62
     3
440
 16777216
100
AcDbTrace
 10
840.6843198314279
 20
69.03515237138748
 30
0.0
 11
840.2338128538621
 21
68.33409038581914
 31
0.0
 12
838.3558803859401
 22
70.03614231130052
 32
0.0
 13
838.3558803859401
 23
70.03614231130052
 33
0.0
  0
POINT
  5
165E
330
817
100
AcDbEntity
  8
DEFPOINTS
  6
Continuous
 62
     0
440
 16777216
100
AcDbPoint
 10
838.3558803859401
 20
70.03614231130052
 30
0.0
  0
POINT
  5
165F
330
817
100
AcDbEntity
  8
DEFPOINTS
  6
Continuous
 62
     0
440
 16777216
100
AcDbPoint
 10
836.6733316205754
 20
71.11735905745849
 30
0.0
  0
ENDBLK
  5
819
330
817
100
AcDbEntity
  8
0
 62
     7
100
AcDbBlockEnd
  0
BLOCK
  5
1574
330
1573
100
AcDbEntity
  8
0
 62
     7
100
AcDbBlockBegin
  2
*D7
 70
     1
 10
0.0
 20
0.0
 30
0.0
  3
*D7
  1

  0
LINE
  5
161C
330
1573
100
AcDbEntity
  8
0
  6
Continuous
 62
     3
440
 16777216
100
AcDbLine
 10
774.5483316205755
 20
63.73765851907705
 30
0.0
 11
761.1475288481905
 21
63.73765851907705
 31
0.0
  0
LINE
  5
161D
330
1573
100
AcDbEntity
  8
0
  6
Continuous
 62
     3
440
 16777216
100
AcDbLine
 10
774.5483316205755
 20
108.187658519077
 30
0.0
 11
761.1475288481905
 21
108.187658519077
 31
0.0
  0
LINE
  5
161E
330
1573
100
AcDbEntity
  8
0
  6
Continuous
 62
     3
440
 16777216
100
AcDbLine
 10
762.3975288481905
 20
66.23765851907705
 30
0.0
 11
762.3975288481905
 21
105.687658519077
 31
0.0
  0
LINE
  5
161F
330
1573
100
AcDbEntity
  8
0
  6
Continuous
 62
     3
440
 16777216
100
AcDbLine
 10
762.3975288481905
 20
108.187658519077
 30
0.0
 11
762.3975288481905
 21
133.569142764533
 31
0.0
  0
SOLID
  5
1620
330
1573
100
AcDbEntity
  8
0
  6
Continuous
 62
     3
440
 16777216
100
AcDbTrace
 10
761.9808621815239
 20
66.23765851907705
 30
0.0
 11
762.8141955148571
 21
66.23765851907705
 31
0.0
 12
762.3975288481905
 22
63.73765851907705
 32
0.0
 13
762.3975288481905
 23
63.73765851907705
 33
0.0
  0
SOLID
  5
1621
330
1573
100
AcDbEntity
  8
0
  6
Continuous
 62
     3
440
 16777216
100
AcDbTrace
 10
761.9808621815239
 20
105.687658519077
 30
0.0
 11
762.8141955148571
 21
105.687658519077
 31
0.0
 12
762.3975288481905
 22
108.187658519077
 32
0.0
 13
762.3975288481905
 23
108.187658519077
 33
0.0
  0
MTEXT
  5
1622
330
1573
100
AcDbEntity
  8
0
  6
Continuous
 62
     2
440
 16777216
100
AcDbMText
 10
760.2725288481905
 20
126.6429616621709
 30
0.0
 40
3.0
 41
0.0
 46
0.0
 71
     5
 72
     1
  1
%%C1.7500
 11
0.0000000000000001
 21
1.0
 31
0.0
 73
     1
 44
1.0
  0
POINT
  5
1623
330
1573
100
AcDbEntity
  8
DEFPOINTS
  6
Continuous
 62
     0
440
 16777216
100
AcDbPoint
 10
775.1733316205756
 20
63.73765851907705
 30
0.0
  0
POINT
  5
1624
330
1573
100
AcDbEntity
  8
DEFPOINTS
  6
Continuous
 62
     0
440
 16777216
100
AcDbPoint
 10
775.1733316205756
 20
108.187658519077
 30
0.0
  0
POINT
  5
1625
330
1573
100
AcDbEntity
  8
DEFPOINTS
  6
Continuous
 62
     0
440
 16777216
100
AcDbPoint
 10
762.3975288481905
 20
108.187658519077
 30
0.0
  0
ENDBLK
  5
1575
330
1573
100
AcDbEntity
  8
0
 62
     7
100
AcDbBlockEnd
  0
BLOCK
  5
1581
330
1580
100
AcDbEntity
  8
0
 62
     7
100
AcDbBlockBegin
  2
*D8
 70
     1
 10
0.0
 20
0.0
 30
0.0
  3
*D8
  1

  0
LINE
  5
1626
330
1580
100
AcDbEntity
  8
0
  6
Continuous
 62
     3
440
 16777216
100
AcDbLine
 10
778.5233316205755
 20
54.21265851907708
 30
0.0
 11
753.1475288481902
 21
54.21265851907708
 31
0.0
  0
LINE
  5
1627
330
1580
100
AcDbEntity
  8
0
  6
Continuous
 62
     3
440
 16777216
100
AcDbLine
 10
778.5233316205755
 20
117.7126585190769
 30
0.0
 11
753.1475288481902
 21
117.7126585190769
 31
0.0
  0
LINE
  5
1628
330
1580
100
AcDbEntity
  8
0
  6
Continuous
 62
     3
440
 16777216
100
AcDbLine
 10
754.3975288481902
 20
56.71265851907708
 30
0.0
 11
754.3975288481902
 21
115.2126585190769
 31
0.0
  0
LINE
  5
1629
330
1580
100
AcDbEntity
  8
0
  6
Continuous
 62
     3
440
 16777216
100
AcDbLine
 10
754.3975288481902
 20
117.7126585190769
 30
0.0
 11
754.3975288481902
 21
132.5650207238014
 31
0.0
  0
SOLID
  5
162A
330
1580
100
AcDbEntity
  8
0
  6
Continuous
 62
     3
440
 16777216
100
AcDbTrace
 10
753.9808621815236
 20
56.71265851907708
 30
0.0
 11
754.8141955148569
 21
56.71265851907708
 31
0.0
 12
754.3975288481902
 22
54.21265851907708
 32
0.0
 13
754.3975288481902
 23
54.21265851907708
 33
0.0
  0
SOLID
  5
162B
330
1580
100
AcDbEntity
  8
0
  6
Continuous
 62
     3
440
 16777216
100
AcDbTrace
 10
753.9808621815236
 20
115.2126585190769
 30
0.0
 11
754.8141955148569
 21
115.2126585190769
 31
0.0
 12
754.3975288481902
 22
117.7126585190769
 32
0.0
 13
754.3975288481902
 23
117.7126585190769
 33
0.0
  0
MTEXT
  5
162C
330
1580
100
AcDbEntity
  8
0
  6
Continuous
 62
     2
440
 16777216
100
AcDbMText
 10
752.2722335725997
 20
126.3888396214394
 30
0.0
 40
3.0
 41
0.0
 46
0.0
 71
     5
 72
     1
  1
%%C2.500
 11
0.0000000000000001
 21
1.0
 31
0.0
 73
     1
 44
1.0
  0
POINT
  5
162D
330
1580
100
AcDbEntity
  8
DEFPOINTS
  6
Continuous
 62
     0
440
 16777216
100
AcDbPoint
 10
779.1483316205755
 20
54.21265851907708
 30
0.0
  0
POINT
  5
162E
330
1580
100
AcDbEntity
  8
DEFPOINTS
  6
Continuous
 62
     0
440
 16777216
100
AcDbPoint
 10
779.1483316205755
 20
117.7126585190769
 30
0.0
  0
POINT
  5
162F
330
1580
100
AcDbEntity
  8
DEFPOINTS
  6
Continuous
 62
     0
440
 16777216
100
AcDbPoint
 10
754.3975288481902
 20
117.7126585190769
 30
0.0
  0
ENDBLK
  5
1582
330
1580
100
AcDbEntity
  8
0
 62
     7
100
AcDbBlockEnd
  0
BLOCK
  5
15B7
330
15B6
100
AcDbEntity
  8
0
 62
     7
100
AcDbBlockBegin
  2
*D9
 70
     1
 10
0.0
 20
0.0
 30
0.0
  3
*D9
  1

  0
LINE
  5
1660
330
15B6
100
AcDbEntity
  8
0
  6
Continuous
 62
     3
440
 16777216
100
AcDbLine
 10
833.1382012958403
 20
49.80461407336912
 30
0.0
 11
828.8906694375086
 21
61.50764671933129
 31
0.0
  0
MTEXT
  5
1661
330
15B6
100
AcDbEntity
  8
0
  6
Continuous
 62
     2
440
 16777216
100
AcDbMText
 10
833.4383999606973
 20
55.20610745590852
 30
0.0
 40
3.0
 41
0.0
 46
0.0
 71
     5
 72
     1
  1
R0.08
 11
0.3411672175366895
 21
-0.9400026221656368
 31
0.0
 73
     1
 44
1.0
  0
LINE
  5
1662
330
15B6
100
AcDbEntity
  8
0
  6
Continuous
 62
     3
440
 16777216
100
AcDbLine
 10
827.3554169585933
 20
65.73765851907691
 30
0.0
 11
828.0377513936668
 21
63.85765327474539
 31
0.0
  0
SOLID
  5
1663
330
15B6
100
AcDbEntity
  8
0
  6
Continuous
 62
     3
440
 16777216
100
AcDbTrace
 10
829.2823371967442
 20
61.64979972663818
 30
0.0
 11
828.499001678273
 21
61.36549371202434
 31
0.0
 12
828.0377513936668
 22
63.85765327474539
 32
0.0
 13
828.0377513936668
 23
63.85765327474539
 33
0.0
  0
POINT
  5
1664
330
15B6
100
AcDbEntity
  8
DEFPOINTS
  6
Continuous
 62
     0
440
 16777216
100
AcDbPoint
 10
828.0377513936668
 20
63.85765327474539
 30
0.0
  0
POINT
  5
1665
330
15B6
100
AcDbEntity
  8
DEFPOINTS
  6
Continuous
 62
     0
440
 16777216
100
AcDbPoint
 10
827.3554169585933
 20
65.73765851907691
 30
0.0
  0
ENDBLK
  5
15B8
330
15B6
100
AcDbEntity
  8
0
 62
     7
100
AcDbBlockEnd
  0
BLOCK
  5
15C1
330
15C0
100
AcDbEntity
  8
0
 62
     7
100
AcDbBlockBegin
  2
*D10
 70
     1
 10
0.0
 20
0.0
 30
0.0
  3
*D10
  1

  0
LINE
  5
2353
330
15C0
100
AcDbEntity
  8
0
  6
Continuous
 62
     3
440
 16777216
100
AcDbLine
 10
805.4613133133724
 20
52.66219924357097
 30
0.0
 11
796.5904216125786
 21
61.39774618882825
 31
0.0
  0
MTEXT
  5
2354
330
15C0
100
AcDbEntity
  8
0
  6
Continuous
 62
     2
440
 16777216
100
AcDbMText
 10
803.4075262488922
 20
57.66701779110838
 30
0.0
 40
3.0
 41
0.0
 46
0.0
 71
     5
 72
     1
  1
R0.08
 11
0.7125214217504867
 21
-0.7016503570487691
 31
0.0
 73
     1
 44
1.0
  0
SOLID
  5
2355
330
15C0
100
AcDbEntity
  8
0
  6
Continuous
 62
     3
440
 16777216
100
AcDbTrace
 10
796.8827759280157
 20
61.69463011455758
 30
0.0
 11
796.2980672971416
 21
61.10086226309892
 31
0.0
 12
794.8091180582024
 22
63.15187208145016
 32
0.0
 13
794.8091180582024
 23
63.15187208145016
 33
0.0
  0
POINT
  5
2356
330
15C0
100
AcDbEntity
  8
DEFPOINTS
  6
Continuous
 62
     0
440
 16777216
100
AcDbPoint
 10
794.8091180582024
 20
63.15187208145016
 30
0.0
  0
POINT
  5
2357
330
15C0
100
AcDbEntity
  8
DEFPOINTS
  6
Continuous
 62
     0
440
 16777216
100
AcDbPoint
 10
796.2341609017035
 20
61.74857136735266
 30
0.0
  0
ENDBLK
  5
15C2
330
15C0
100
AcDbEntity
  8
0
 62
     7
100
AcDbBlockEnd
  0
ENDSEC
  0
SECTION
  2
ENTITIES
  0
LWPOLYLINE
  5
81
330
2
100
AcDbEntity
  8
0
 62
     0
100
AcDbPolyline
 90
        4
 70
     1
 43
0.0
 10
686.297698668114
 20
4.900000005524816
 10
686.297698668114
 20
145.0951487121859
 10
887.197698668114
 20
145.0951487121859
 10
887.197698668114
 20
4.900000005524816
  0
LINE
  5
82
330
2
100
AcDbEntity
  8
0
  6
Continuous
 62
     3
100
AcDbLine
 10
775.1733316205756
 20
63.5808691211347
 30
0.0
 11
775.1733316205756
 21
36.66890474544255
 31
0.0
  0
MTEXT
  5
83
330
2
100
AcDbEntity
  8
0
  6
Continuous
 62
     2
100
AcDbMText
 10
775.1738657897232
 20
34.2200896416465
 30
0.0
 40
3.0
 41
0.0
 46
0.0
 71
     5
 72
     1
  1
0.00
 73
     1
 44
1.0
  0
LINE
  5
84
330
2
100
AcDbEntity
  8
0
  6
Continuous
 62
     3
100
AcDbLine
 10
794.2233316205756
 20
54.36219097187688
 30
0.0
 11
794.2233316205756
 21
36.23345276396924
 31
0.0
  0
LINE
  5
85
330
2
100
AcDbEntity
  8
0
  6
Continuous
 62
     3
100
AcDbLine
 10
838.6733316205759
 20
71.11735905745809
 30
0.0
 11
838.6733316206127
 21
36.18481601843871
 31
0.0
  0
MTEXT
  5
86
330
2
100
AcDbEntity
  8
0
  6
Continuous
 62
     2
100
AcDbMText
 10
793.9295176874281
 20
33.75187903958874
 30
0.0
 40
3.0
 41
0.0
 46
0.0
 71
     5
 72
     1
  1
0.75
 73
     1
 44
1.0
  0
MTEXT
  5
87
330
2
100
AcDbEntity
  8
0
  6
Continuous
 62
     2
100
AcDbMText
 10
838.6511262221571
 20
33.75187903958874
 30
0.0
 40
3.0
 41
0.0
 46
0.0
 71
     5
 72
     1
  1
2.50
 73
     1
 44
1.0
  0
LINE
  5
88
330
2
100
AcDbEntity
  8
0
  6
Continuous
 62
     7
100
AcDbLine
 10
836.972698668114
 20
2.450000005524884
 30
0.0
 11
836.972698668114
 21
4.900000005524816
 31
0.0
  0
LINE
  5
89
330
2
100
AcDbEntity
  8
0
  6
Continuous
 62
     7
100
AcDbLine
 10
834.522698668114
 20
4.900000005524816
 30
0.0
 11
834.522698668114
 21
24.61494279239901
 31
0.0
  0
LINE
  5
8A
330
2
100
AcDbEntity
  8
0
  6
Continuous
 62
     7
100
AcDbLine
 10
736.522698668114
 20
2.450000005524884
 30
0.0
 11
736.522698668114
 21
4.900000005524816
 31
0.0
  0
LINE
  5
8B
330
2
100
AcDbEntity
  8
0
  6
Continuous
 62
     7
100
AcDbLine
 10
836.972698668114
 20
147.5451487121859
 30
0.0
 11
836.972698668114
 21
145.0951487121859
 31
0.0
  0
LINE
  5
8C
330
2
100
AcDbEntity
  8
0
  6
Continuous
 62
     7
100
AcDbLine
 10
736.522698668114
 20
147.5451487121859
 30
0.0
 11
736.522698668114
 21
145.0951487121859
 31
0.0
  0
LINE
  5
8D
330
2
100
AcDbEntity
  8
0
  6
Continuous
 62
     7
100
AcDbLine
 10
683.8476986681139
 20
39.94878718219013
 30
0.0
 11
686.297698668114
 21
39.94878718219013
 31
0.0
  0
LINE
  5
8E
330
2
100
AcDbEntity
  8
0
  6
Continuous
 62
     7
100
AcDbLine
 10
683.8476986681139
 20
110.0463615355206
 30
0.0
 11
686.297698668114
 21
110.0463615355206
 31
0.0
  0
LINE
  5
8F
330
2
100
AcDbEntity
  8
0
  6
Continuous
 62
     7
100
AcDbLine
 10
889.6476986681138
 20
39.94878718219013
 30
0.0
 11
887.197698668114
 21
39.94878718219013
 31
0.0
  0
LINE
  5
90
330
2
100
AcDbEntity
  8
0
  6
Continuous
 62
     7
100
AcDbLine
 10
889.6476986681138
 20
110.0463615355206
 30
0.0
 11
887.197698668114
 21
110.0463615355206
 31
0.0
  0
LINE
  5
91
330
2
100
AcDbEntity
  8
0
  6
Continuous
 62
     7
100
AcDbLine
 10
887.197698668114
 20
24.61494279239901
 30
0.0
 11
834.5226986681138
 21
24.61494279239901
 31
0.0
  0
LINE
  5
92
330
2
100
AcDbEntity
  8
0
  6
Continuous
 62
     7
100
AcDbLine
 10
834.522698668114
 20
11.4716476011497
 30
0.0
 11
887.197698668114
 21
11.4716476011497
 31
0.0
  0
LINE
  5
93
330
2
100
AcDbEntity
  8
0
  6
Continuous
 62
     7
100
AcDbLine
 10
834.522698668114
 20
18.04329519677435
 30
0.0
 11
887.197698668114
 21
18.04329519677435
 31
0.0
  0
LINE
  5
94
330
2
100
AcDbEntity
  8
0
  6
Continuous
 62
     7
100
AcDbLine
 10
834.522698668114
 20
4.900000005524816
 30
0.0
 11
887.197698668114
 21
4.900000005524816
 31
0.0
  0
LINE
  5
95
330
2
100
AcDbEntity
  8
0
  6
Continuous
 62
     7
100
AcDbLine
 10
887.197698668114
 20
74.99757435885545
 30
0.0
 11
889.6476986681138
 21
74.99757435885545
 31
0.0
  0
LINE
  5
96
330
2
100
AcDbEntity
  8
0
  6
Continuous
 62
     7
100
AcDbLine
 10
888.422698668114
 20
74.16457435885536
 30
0.0
 11
888.422698668114
 21
75.83057435885542
 31
0.0
  0
LINE
  5
97
330
2
100
AcDbEntity
  8
0
  6
Continuous
 62
     7
100
AcDbLine
 10
888.422698668114
 20
74.16457435885536
 30
0.0
 11
887.197698668114
 21
74.99757435885545
 31
0.0
  0
LINE
  5
98
330
2
100
AcDbEntity
  8
0
  6
Continuous
 62
     7
100
AcDbLine
 10
887.197698668114
 20
74.99757435885545
 30
0.0
 11
888.422698668114
 21
75.83057435885542
 31
0.0
  0
LINE
  5
99
330
2
100
AcDbEntity
  8
0
  6
Continuous
 62
     7
100
AcDbLine
 10
686.297698668114
 20
74.99757435885545
 30
0.0
 11
683.8476986681139
 21
74.99757435885545
 31
0.0
  0
LINE
  5
9A
330
2
100
AcDbEntity
  8
0
  6
Continuous
 62
     7
100
AcDbLine
 10
685.0726986681139
 20
74.16457435885536
 30
0.0
 11
685.0726986681139
 21
75.83057435885542
 31
0.0
  0
LINE
  5
9B
330
2
100
AcDbEntity
  8
0
  6
Continuous
 62
     7
100
AcDbLine
 10
685.0726986681139
 20
74.16457435885536
 30
0.0
 11
686.297698668114
 21
74.99757435885545
 31
0.0
  0
LINE
  5
9C
330
2
100
AcDbEntity
  8
0
  6
Continuous
 62
     7
100
AcDbLine
 10
686.297698668114
 20
74.99757435885545
 30
0.0
 11
685.0726986681139
 21
75.83057435885542
 31
0.0
  0
LINE
  5
9D
330
2
100
AcDbEntity
  8
0
  6
Continuous
 62
     7
100
AcDbLine
 10
786.747698668114
 20
145.0951487121859
 30
0.0
 11
786.747698668114
 21
147.5451487121859
 31
0.0
  0
LINE
  5
9E
330
2
100
AcDbEntity
  8
0
  6
Continuous
 62
     7
100
AcDbLine
 10
785.9146986681139
 20
146.320148712186
 30
0.0
 11
787.580698668114
 21
146.320148712186
 31
0.0
  0
LINE
  5
9F
330
2
100
AcDbEntity
  8
0
  6
Continuous
 62
     7
100
AcDbLine
 10
785.9146986681139
 20
146.320148712186
 30
0.0
 11
786.747698668114
 21
145.0951487121859
 31
0.0
  0
LINE
  5
A0
330
2
100
AcDbEntity
  8
0
  6
Continuous
 62
     7
100
AcDbLine
 10
786.747698668114
 20
145.0951487121859
 30
0.0
 11
787.580698668114
 21
146.320148712186
 31
0.0
  0
LINE
  5
A1
330
2
100
AcDbEntity
  8
0
  6
Continuous
 62
     7
100
AcDbLine
 10
786.747698668114
 20
4.900000005524816
 30
0.0
 11
786.747698668114
 21
2.450000005524884
 31
0.0
  0
LINE
  5
A2
330
2
100
AcDbEntity
  8
0
  6
Continuous
 62
     7
100
AcDbLine
 10
785.9146986681139
 20
3.675000005524907
 30
0.0
 11
787.580698668114
 21
3.675000005524907
 31
0.0
  0
LINE
  5
A3
330
2
100
AcDbEntity
  8
0
  6
Continuous
 62
     7
100
AcDbLine
 10
785.9146986681139
 20
3.675000005524907
 30
0.0
 11
786.747698668114
 21
4.900000005524816
 31
0.0
  0
LINE
  5
A4
330
2
100
AcDbEntity
  8
0
  6
Continuous
 62
     7
100
AcDbLine
 10
786.747698668114
 20
4.900000005524816
 30
0.0
 11
787.580698668114
 21
3.675000005524907
 31
0.0
  0
TEXT
  5
A5
330
2
100
AcDbEntity
  8
0
 62
     2
100
AcDbText
 10
710.897147256599
 20
2.914916373310916
 30
0.0
 40
1.371999999999999
  1
4
  7
굴림
100
AcDbText
  0
TEXT
  5
A7
330
2
100
AcDbEntity
  8
0
 62
     2
100
AcDbText
 10
761.1687124891859
 20
2.914916373310916
 30
0.0
 40
1.371999999999999
  1
3
  7
굴림
100
AcDbText
  0
TEXT
  5
A8
330
2
100
AcDbEntity
  8
0
 62
     2
100
AcDbText
 10
811.3287445007276
 20
2.914916373310916
 30
0.0
 40
1.371999999999999
  1
2
  7
굴림
100
AcDbText
  0
TEXT
  5
A9
330
2
100
AcDbEntity
  8
0
 62
     2
100
AcDbText
 10
861.7069251975982
 20
2.914916373310916
 30
0.0
 40
1.371999999999999
  1
1
  7
굴림
100
AcDbText
  0
TEXT
  5
AA
330
2
100
AcDbEntity
  8
0
 62
     2
100
AcDbText
 10
710.897147256599
 20
145.8762986012869
 30
0.0
 40
1.371999999999999
  1
4
  7
굴림
100
AcDbText
  0
LWPOLYLINE
  5
AB
102
{ACAD_REACTORS
330
B2
102
}
330
2
100
AcDbEntity
  8
Layer 1
 62
   103
100
AcDbPolyline
 90
        8
 70
     1
 43
0.0
 10
875.7026498312439
 20
23.88471654286172
 10
856.9153458012815
 20
23.88545518268995
 10
856.6350971605869
 20
22.96365440181217
 10
863.1458162014491
 20
22.96333097523143
 10
861.8998177100992
 20
18.64267658101471
 10
863.120789346094
 20
18.64267658101471
 10
864.3665488657347
 20
22.96333097523143
 10
875.4210120392604
 20
22.96278541377899
  0
TEXT
  5
AD
330
2
100
AcDbEntity
  8
0
 62
     2
100
AcDbText
 10
761.1687124891859
 20
145.8762986012869
 30
0.0
 40
1.371999999999999
  1
3
  7
굴림
100
AcDbText
  0
TEXT
  5
AE
330
2
100
AcDbEntity
  8
0
 62
     2
100
AcDbText
 10
811.3287445007276
 20
145.8762986012869
 30
0.0
 40
1.371999999999999
  1
2
  7
굴림
100
AcDbText
  0
TEXT
  5
AF
330
2
100
AcDbEntity
  8
0
 62
     2
100
AcDbText
 10
861.7069251975982
 20
145.8762986012869
 30
0.0
 40
1.371999999999999
  1
1
  7
굴림
100
AcDbText
  0
TEXT
  5
B0
330
2
100
AcDbEntity
  8
0
 62
     2
100
AcDbText
 10
684.3170276539738
 20
21.9675530298523
 30
0.0
 40
1.371999999999999
  1
A
  7
굴림
100
AcDbText
  0
TEXT
  5
B1
330
2
100
AcDbEntity
  8
0
 62
     2
100
AcDbText
 10
684.3170276539738
 20
56.72557459510926
 30
0.0
 40
1.371999999999999
  1
B
  7
굴림
100
AcDbText
  0
HATCH
  5
B2
330
2
100
AcDbEntity
  8
0
  6
Continuous
 62
    93
100
AcDbHatch
 10
0.0
 20
0.0
 30
0.0
210
0.0
220
0.0
230
1.0
  2
SOLID
 70
     1
 71
     1
 91
        1
 92
        7
 72
     0
 73
     1
 93
        8
 10
856.9153458012815
 20
23.88545518268995
 10
856.6350971605869
 20
22.96365440181217
 10
863.1458162014491
 20
22.96333097523143
 10
861.8998177100992
 20
18.64267658101471
 10
863.120789346094
 20
18.64267658101471
 10
864.3665488657347
 20
22.96333097523143
 10
875.4210120392604
 20
22.96278541377899
 10
875.7026498312439
 20
23.88471654286172
 97
        1
330
AB
 75
     1
 76
     1
 47
0.0428322549537331
 98
        1
 10
865.1826056091456
 20
23.42997461865161
450
        0
451
        0
460
0.0
461
0.0
452
        0
462
1.0
453
        2
463
0.0
 63
     5
421
      255
463
1.0
 63
     2
421
 16776960
470
LINEAR
1001
GRADIENTCOLOR1ACI
1070
     5
1001
GRADIENTCOLOR2ACI
1070
     2
1001
ACAD
1010
0.0
1020
0.0
1030
0.0
  0
TEXT
  5
B5
330
2
100
AcDbEntity
  8
0
 62
     2
100
AcDbText
 10
684.3170276539738
 20
91.81526809272645
 30
0.0
 40
1.371999999999999
  1
C
  7
굴림
100
AcDbText
  0
TEXT
  5
B6
330
2
100
AcDbEntity
  8
0
 62
     2
100
AcDbText
 10
684.3170276539738
 20
127.1210366797875
 30
0.0
 40
1.371999999999999
  1
D
  7
굴림
100
AcDbText
  0
TEXT
  5
B7
330
2
100
AcDbEntity
  8
0
 62
     2
100
AcDbText
 10
887.9316319356362
 20
21.9675530298523
 30
0.0
 40
1.371999999999999
  1
A
  7
굴림
100
AcDbText
  0
TEXT
  5
B8
330
2
100
AcDbEntity
  8
0
 62
     2
100
AcDbText
 10
887.9316319356362
 20
56.72557459510926
 30
0.0
 40
1.371999999999999
  1
B
  7
굴림
100
AcDbText
  0
TEXT
  5
B9
330
2
100
AcDbEntity
  8
0
 62
     2
100
AcDbText
 10
887.9316319356362
 20
91.81526809272645
 30
0.0
 40
1.371999999999999
  1
C
  7
굴림
100
AcDbText
  0
TEXT
  5
BA
330
2
100
AcDbEntity
  8
0
 62
     2
100
AcDbText
 10
887.9316319356362
 20
127.1210366797875
 30
0.0
 40
1.371999999999999
  1
D
  7
굴림
100
AcDbText
  0
HATCH
  5
BB
330
2
100
AcDbEntity
  8
0
  6
Continuous
 62
     0
100
AcDbHatch
 10
0.0
 20
0.0
 30
0.0
210
0.0
220
0.0
230
1.0
  2
SOLID
 70
     1
 71
     1
 91
        1
 92
        5
 93
       13
 72
     4
 94
        3
 73
     0
 74
     0
 95
        8
 96
        4
 40
1.0
 40
1.0
 40
1.0
 40
1.0
 40
2.0
 40
2.0
 40
2.0
 40
2.0
 10
850.2235513790088
 20
21.20762510909845
 10
850.2235513790088
 20
21.20762510909845
 10
849.6634451422339
 20
18.64267658101471
 10
849.6634451422339
 20
18.64267658101471
 97
        0
 72
     4
 94
        3
 73
     0
 74
     0
 95
        8
 96
        4
 40
0.0
 40
0.0
 40
0.0
 40
0.0
 40
1.0
 40
1.0
 40
1.0
 40
1.0
 10
849.6634451422339
 20
18.64267658101471
 10
849.6634451422339
 20
18.64267658101471
 10
850.8954312015491
 20
18.64267658101471
 10
850.8954312015491
 20
18.64267658101471
 97
        0
 72
     4
 94
        3
 73
     0
 74
     0
 95
        8
 96
        4
 40
12.0
 40
12.0
 40
12.0
 40
12.0
 40
13.0
 40
13.0
 40
13.0
 40
13.0
 10
850.8954312015491
 20
18.64267658101471
 10
850.8954312015491
 20
18.64267658101471
 10
851.5396554799341
 20
22.59640076895914
 10
851.5396554799341
 20
22.59640076895914
 97
        0
 72
     4
 94
        3
 73
     0
 74
     0
 95
        8
 96
        4
 40
11.0
 40
11.0
 40
11.0
 40
11.0
 40
12.0
 40
12.0
 40
12.0
 40
12.0
 10
851.5396554799341
 20
22.59640076895914
 10
851.5396554799341
 20
22.59640076895914
 10
850.2121893604751
 20
22.59640076895914
 10
850.2121893604751
 20
22.59640076895914
 97
        0
 72
     4
 94
        3
 73
     0
 74
     0
 95
        8
 96
        4
 40
10.0
 40
10.0
 40
10.0
 40
10.0
 40
11.0
 40
11.0
 40
11.0
 40
11.0
 10
850.2121893604751
 20
22.59640076895914
 10
850.2121893604751
 20
22.59640076895914
 10
848.8457056783271
 20
20.42362410557928
 10
848.8457056783271
 20
20.42362410557928
 97
        0
 72
     4
 94
        3
 73
     0
 74
     0
 95
        8
 96
        4
 40
9.0
 40
9.0
 40
9.0
 40
9.0
 40
10.0
 40
10.0
 40
10.0
 40
10.0
 10
848.8457056783271
 20
20.42362410557928
 10
848.8457056783271
 20
20.42362410557928
 10
848.6051268934842
 20
22.59640076895914
 10
848.6051268934842
 20
22.59640076895914
 97
        0
 72
     4
 94
        3
 73
     0
 74
     0
 95
        8
 96
        4
 40
8.0
 40
8.0
 40
8.0
 40
8.0
 40
9.0
 40
9.0
 40
9.0
 40
9.0
 10
848.6051268934842
 20
22.59640076895914
 10
848.6051268934842
 20
22.59640076895914
 10
847.3000371829099
 20
22.59640076895914
 10
847.3000371829099
 20
22.59640076895914
 97
        0
 72
     4
 94
        3
 73
     0
 74
     0
 95
        8
 96
        4
 40
7.0
 40
7.0
 40
7.0
 40
7.0
 40
8.0
 40
8.0
 40
8.0
 40
8.0
 10
847.3000371829099
 20
22.59640076895914
 10
847.3000371829099
 20
22.59640076895914
 10
845.860884340133
 20
18.64267658101471
 10
845.860884340133
 20
18.64267658101471
 97
        0
 72
     4
 94
        3
 73
     0
 74
     0
 95
        8
 96
        4
 40
6.0
 40
6.0
 40
6.0
 40
6.0
 40
7.0
 40
7.0
 40
7.0
 40
7.0
 10
845.860884340133
 20
18.64267658101471
 10
845.860884340133
 20
18.64267658101471
 10
847.0648672904944
 20
18.64267658101471
 10
847.0648672904944
 20
18.64267658101471
 97
        0
 72
     4
 94
        3
 73
     0
 74
     0
 95
        8
 96
        4
 40
5.0
 40
5.0
 40
5.0
 40
5.0
 40
6.0
 40
6.0
 40
6.0
 40
6.0
 10
847.0648672904944
 20
18.64267658101471
 10
847.0648672904944
 20
18.64267658101471
 10
847.8770018021034
 20
21.26354448903248
 10
847.8770018021034
 20
21.26354448903248
 97
        0
 72
     4
 94
        3
 73
     0
 74
     0
 95
        8
 96
        4
 40
4.0
 40
4.0
 40
4.0
 40
4.0
 40
5.0
 40
5.0
 40
5.0
 40
5.0
 10
847.8770018021034
 20
21.26354448903248
 10
847.8770018021034
 20
21.26354448903248
 10
848.1738046723281
 20
18.64267658101471
 10
848.1738046723281
 20
18.64267658101471
 97
        0
 72
     4
 94
        3
 73
     0
 74
     0
 95
        8
 96
        4
 40
3.0
 40
3.0
 40
3.0
 40
3.0
 40
4.0
 40
4.0
 40
4.0
 40
4.0
 10
848.1738046723281
 20
18.64267658101471
 10
848.1738046723281
 20
18.64267658101471
 10
848.5658698069482
 20
18.64267658101471
 10
848.5658698069482
 20
18.64267658101471
 97
        0
 72
     4
 94
        3
 73
     0
 74
     0
 95
        8
 96
        4
 40
2.0
 40
2.0
 40
2.0
 40
2.0
 40
3.0
 40
3.0
 40
3.0
 40
3.0
 10
848.5658698069482
 20
18.64267658101471
 10
848.5658698069482
 20
18.64267658101471
 10
850.2235513790088
 20
21.20762510909845
 10
850.2235513790088
 20
21.20762510909845
 97
        0
 97
       13
330
C9
330
C7
330
C6
330
C5
330
C4
330
C3
330
C2
330
C1
330
C0
330
BF
330
BE
330
BD
330
BC
 75
     1
 76
     1
 47
0.0269459378258844
 98
        1
 10
850.2950094313199
 20
19.98688593726706
450
        0
451
        0
460
0.0
461
0.0
452
        0
462
1.0
453
        2
463
0.0
 63
     5
421
      255
463
1.0
 63
     2
421
 16776960
470
LINEAR
1001
GRADIENTCOLOR1ACI
1070
     5
1001
GRADIENTCOLOR2ACI
1070
     2
1001
ACAD
1010
0.0
1020
0.0
1030
0.0
  0
SPLINE
  5
BC
102
{ACAD_REACTORS
330
BB
102
}
330
2
100
AcDbEntity
  8
Layer 1
100
AcDbSpline
210
0.0
220
0.0
230
1.0
 70
    24
 71
     3
 72
     8
 73
     4
 74
     0
 42
0.000000001
 43
0.0000000001
 40
0.0
 40
0.0
 40
0.0
 40
0.0
 40
1.0
 40
1.0
 40
1.0
 40
1.0
 10
850.8954312015491
 20
18.64267658101471
 30
0.0
 10
850.8954312015491
 20
18.64267658101471
 30
0.0
 10
849.6634451422339
 20
18.64267658101471
 30
0.0
 10
849.6634451422339
 20
18.64267658101471
 30
0.0
  0
SPLINE
  5
BD
102
{ACAD_REACTORS
330
BB
102
}
330
2
100
AcDbEntity
  8
Layer 1
100
AcDbSpline
210
0.0
220
0.0
230
1.0
 70
    24
 71
     3
 72
     8
 73
     4
 74
     0
 42
0.000000001
 43
0.0000000001
 40
1.0
 40
1.0
 40
1.0
 40
1.0
 40
2.0
 40
2.0
 40
2.0
 40
2.0
 10
849.6634451422339
 20
18.64267658101471
 30
0.0
 10
849.6634451422339
 20
18.64267658101471
 30
0.0
 10
850.2235513790088
 20
21.20762510909845
 30
0.0
 10
850.2235513790088
 20
21.20762510909845
 30
0.0
  0
SPLINE
  5
BE
102
{ACAD_REACTORS
330
BB
102
}
330
2
100
AcDbEntity
  8
Layer 1
100
AcDbSpline
210
0.0
220
0.0
230
1.0
 70
    24
 71
     3
 72
     8
 73
     4
 74
     0
 42
0.000000001
 43
0.0000000001
 40
2.0
 40
2.0
 40
2.0
 40
2.0
 40
3.0
 40
3.0
 40
3.0
 40
3.0
 10
850.2235513790088
 20
21.20762510909845
 30
0.0
 10
850.2235513790088
 20
21.20762510909845
 30
0.0
 10
848.5658698069482
 20
18.64267658101471
 30
0.0
 10
848.5658698069482
 20
18.64267658101471
 30
0.0
  0
SPLINE
  5
BF
102
{ACAD_REACTORS
330
BB
102
}
330
2
100
AcDbEntity
  8
Layer 1
100
AcDbSpline
210
0.0
220
0.0
230
1.0
 70
    24
 71
     3
 72
     8
 73
     4
 74
     0
 42
0.000000001
 43
0.0000000001
 40
3.0
 40
3.0
 40
3.0
 40
3.0
 40
4.0
 40
4.0
 40
4.0
 40
4.0
 10
848.5658698069482
 20
18.64267658101471
 30
0.0
 10
848.5658698069482
 20
18.64267658101471
 30
0.0
 10
848.1738046723281
 20
18.64267658101471
 30
0.0
 10
848.1738046723281
 20
18.64267658101471
 30
0.0
  0
SPLINE
  5
C0
102
{ACAD_REACTORS
330
BB
102
}
330
2
100
AcDbEntity
  8
Layer 1
100
AcDbSpline
210
0.0
220
0.0
230
1.0
 70
    24
 71
     3
 72
     8
 73
     4
 74
     0
 42
0.000000001
 43
0.0000000001
 40
4.0
 40
4.0
 40
4.0
 40
4.0
 40
5.0
 40
5.0
 40
5.0
 40
5.0
 10
848.1738046723281
 20
18.64267658101471
 30
0.0
 10
848.1738046723281
 20
18.64267658101471
 30
0.0
 10
847.8770018021034
 20
21.26354448903248
 30
0.0
 10
847.8770018021034
 20
21.26354448903248
 30
0.0
  0
SPLINE
  5
C1
102
{ACAD_REACTORS
330
BB
102
}
330
2
100
AcDbEntity
  8
Layer 1
100
AcDbSpline
210
0.0
220
0.0
230
1.0
 70
    24
 71
     3
 72
     8
 73
     4
 74
     0
 42
0.000000001
 43
0.0000000001
 40
5.0
 40
5.0
 40
5.0
 40
5.0
 40
6.0
 40
6.0
 40
6.0
 40
6.0
 10
847.8770018021034
 20
21.26354448903248
 30
0.0
 10
847.8770018021034
 20
21.26354448903248
 30
0.0
 10
847.0648672904944
 20
18.64267658101471
 30
0.0
 10
847.0648672904944
 20
18.64267658101471
 30
0.0
  0
SPLINE
  5
C2
102
{ACAD_REACTORS
330
BB
102
}
330
2
100
AcDbEntity
  8
Layer 1
100
AcDbSpline
210
0.0
220
0.0
230
1.0
 70
    24
 71
     3
 72
     8
 73
     4
 74
     0
 42
0.000000001
 43
0.0000000001
 40
6.0
 40
6.0
 40
6.0
 40
6.0
 40
7.0
 40
7.0
 40
7.0
 40
7.0
 10
847.0648672904944
 20
18.64267658101471
 30
0.0
 10
847.0648672904944
 20
18.64267658101471
 30
0.0
 10
845.860884340133
 20
18.64267658101471
 30
0.0
 10
845.860884340133
 20
18.64267658101471
 30
0.0
  0
SPLINE
  5
C3
102
{ACAD_REACTORS
330
BB
102
}
330
2
100
AcDbEntity
  8
Layer 1
100
AcDbSpline
210
0.0
220
0.0
230
1.0
 70
    24
 71
     3
 72
     8
 73
     4
 74
     0
 42
0.000000001
 43
0.0000000001
 40
7.0
 40
7.0
 40
7.0
 40
7.0
 40
8.0
 40
8.0
 40
8.0
 40
8.0
 10
845.860884340133
 20
18.64267658101471
 30
0.0
 10
845.860884340133
 20
18.64267658101471
 30
0.0
 10
847.3000371829099
 20
22.59640076895914
 30
0.0
 10
847.3000371829099
 20
22.59640076895914
 30
0.0
  0
SPLINE
  5
C4
102
{ACAD_REACTORS
330
BB
102
}
330
2
100
AcDbEntity
  8
Layer 1
100
AcDbSpline
210
0.0
220
0.0
230
1.0
 70
    24
 71
     3
 72
     8
 73
     4
 74
     0
 42
0.000000001
 43
0.0000000001
 40
8.0
 40
8.0
 40
8.0
 40
8.0
 40
9.0
 40
9.0
 40
9.0
 40
9.0
 10
847.3000371829099
 20
22.59640076895914
 30
0.0
 10
847.3000371829099
 20
22.59640076895914
 30
0.0
 10
848.6051268934842
 20
22.59640076895914
 30
0.0
 10
848.6051268934842
 20
22.59640076895914
 30
0.0
  0
SPLINE
  5
C5
102
{ACAD_REACTORS
330
BB
102
}
330
2
100
AcDbEntity
  8
Layer 1
100
AcDbSpline
210
0.0
220
0.0
230
1.0
 70
    24
 71
     3
 72
     8
 73
     4
 74
     0
 42
0.000000001
 43
0.0000000001
 40
9.0
 40
9.0
 40
9.0
 40
9.0
 40
10.0
 40
10.0
 40
10.0
 40
10.0
 10
848.6051268934842
 20
22.59640076895914
 30
0.0
 10
848.6051268934842
 20
22.59640076895914
 30
0.0
 10
848.8457056783271
 20
20.42362410557928
 30
0.0
 10
848.8457056783271
 20
20.42362410557928
 30
0.0
  0
SPLINE
  5
C6
102
{ACAD_REACTORS
330
BB
102
}
330
2
100
AcDbEntity
  8
Layer 1
100
AcDbSpline
210
0.0
220
0.0
230
1.0
 70
    24
 71
     3
 72
     8
 73
     4
 74
     0
 42
0.000000001
 43
0.0000000001
 40
10.0
 40
10.0
 40
10.0
 40
10.0
 40
11.0
 40
11.0
 40
11.0
 40
11.0
 10
848.8457056783271
 20
20.42362410557928
 30
0.0
 10
848.8457056783271
 20
20.42362410557928
 30
0.0
 10
850.2121893604751
 20
22.59640076895914
 30
0.0
 10
850.2121893604751
 20
22.59640076895914
 30
0.0
  0
SPLINE
  5
C7
102
{ACAD_REACTORS
330
BB
102
}
330
2
100
AcDbEntity
  8
Layer 1
100
AcDbSpline
210
0.0
220
0.0
230
1.0
 70
    24
 71
     3
 72
     8
 73
     4
 74
     0
 42
0.000000001
 43
0.0000000001
 40
11.0
 40
11.0
 40
11.0
 40
11.0
 40
12.0
 40
12.0
 40
12.0
 40
12.0
 10
850.2121893604751
 20
22.59640076895914
 30
0.0
 10
850.2121893604751
 20
22.59640076895914
 30
0.0
 10
851.5396554799341
 20
22.59640076895914
 30
0.0
 10
851.5396554799341
 20
22.59640076895914
 30
0.0
  0
SPLINE
  5
C8
102
{ACAD_REACTORS
330
CE
102
}
330
2
100
AcDbEntity
  8
Layer 1
100
AcDbSpline
210
0.0
220
0.0
230
1.0
 70
     8
 71
     3
 72
     8
 73
     4
 74
     0
 42
0.000000001
 43
0.0000000001
 40
12.0
 40
12.0
 40
12.0
 40
12.0
 40
13.0
 40
13.0
 40
13.0
 40
13.0
 10
858.5151093209319
 20
20.2704432400335
 30
0.0
 10
858.6912966446554
 20
20.32401635227802
 30
0.0
 10
858.866115312227
 20
20.40272494338183
 30
0.0
 10
859.020773457429
 20
20.52088559119102
 30
0.0
  0
SPLINE
  5
C9
102
{ACAD_REACTORS
330
BB
102
}
330
2
100
AcDbEntity
  8
Layer 1
100
AcDbSpline
210
0.0
220
0.0
230
1.0
 70
    24
 71
     3
 72
     8
 73
     4
 74
     0
 42
0.000000001
 43
0.0000000001
 40
12.0
 40
12.0
 40
12.0
 40
12.0
 40
13.0
 40
13.0
 40
13.0
 40
13.0
 10
851.5396554799341
 20
22.59640076895914
 30
0.0
 10
851.5396554799341
 20
22.59640076895914
 30
0.0
 10
850.8954312015491
 20
18.64267658101471
 30
0.0
 10
850.8954312015491
 20
18.64267658101471
 30
0.0
  0
HATCH
  5
CA
330
2
100
AcDbEntity
  8
0
  6
Continuous
 62
     0
100
AcDbHatch
 10
0.0
 20
0.0
 30
0.0
210
0.0
220
0.0
230
1.0
  2
SOLID
 70
     1
 71
     1
 91
        1
 92
        5
 93
        1
 72
     4
 94
        3
 73
     0
 74
     0
 95
       41
 96
       37
 40
0.0
 40
0.0
 40
0.0
 40
0.0
 40
1.0
 40
1.0
 40
1.0
 40
2.0
 40
2.0
 40
2.0
 40
3.0
 40
3.0
 40
3.0
 40
4.0
 40
4.0
 40
4.0
 40
5.0
 40
5.0
 40
5.0
 40
6.0
 40
6.0
 40
6.0
 40
7.0
 40
7.0
 40
7.0
 40
8.0
 40
8.0
 40
8.0
 40
9.0
 40
9.0
 40
9.0
 40
10.0
 40
10.0
 40
10.0
 40
11.0
 40
11.0
 40
11.0
 40
12.0
 40
12.0
 40
12.0
 40
12.0
 10
852.3008672722834
 20
18.64267658101471
 10
852.3008672722834
 20
18.64267658101471
 10
851.0184799070449
 20
18.64267658101471
 10
851.0184799070449
 20
18.64267658101471
 10
851.0184799070449
 20
18.64267658101471
 10
853.5833422142236
 20
22.60191640830749
 10
853.5833422142236
 20
22.60191640830749
 10
853.5833422142236
 20
22.60191640830749
 10
854.9050730460532
 20
22.60191640830749
 10
854.9050730460532
 20
22.60191640830749
 10
854.9050730460532
 20
22.60191640830749
 10
855.2019838209961
 20
18.64267658101471
 10
855.2019838209961
 20
18.64267658101471
 10
855.2019838209961
 20
18.64267658101471
 10
854.0090370490707
 20
18.64267658101471
 10
854.0090370490707
 20
18.64267658101471
 10
854.0090370490707
 20
18.64267658101471
 10
853.9697805146728
 20
19.28116553838072
 10
853.9697805146728
 20
19.28116553838072
 10
853.9697805146728
 20
19.28116553838072
 10
853.1050287981718
 20
19.28116553838072
 10
853.1050287981718
 20
19.28116553838072
 10
853.1050287981718
 20
19.28116553838072
 10
853.5343306112549
 20
20.10420582928964
 10
853.5343306112549
 20
20.10420582928964
 10
853.5343306112549
 20
20.10420582928964
 10
853.9306326037788
 20
20.10420582928964
 10
853.9306326037788
 20
20.10420582928964
 10
853.9306326037788
 20
20.10420582928964
 10
853.880144399052
 20
21.26354448903248
 10
853.880144399052
 20
21.26354448903248
 10
853.880144399052
 20
21.26354448903248
 10
852.3072332552874
 20
18.65158370835456
 10
852.3072332552874
 20
18.65158370835456
 10
852.3072332552874
 20
18.65158370835456
 10
852.3008672722834
 20
18.64267658101471
 10
852.3008672722834
 20
18.64267658101471
 97
        0
 97
        1
330
CB
 75
     1
 76
     1
 47
0.0269459378258844
 98
        1
 10
854.7108081522011
 20
20.27725064192168
450
        0
451
        0
460
0.0
461
0.0
452
        0
462
1.0
453
        2
463
0.0
 63
     5
421
      255
463
1.0
 63
     2
421
 16776960
470
LINEAR
1001
GRADIENTCOLOR1ACI
1070
     5
1001
GRADIENTCOLOR2ACI
1070
     2
1001
ACAD
1010
0.0
1020
0.0
1030
0.0
  0
SPLINE
  5
CB
102
{ACAD_REACTORS
330
CA
102
}
330
2
100
AcDbEntity
  8
Layer 1
100
AcDbSpline
210
0.0
220
0.0
230
1.0
 70
    11
 71
     3
 72
    41
 73
    37
 74
     0
 42
0.000000001
 43
0.0000000001
 40
0.0
 40
0.0
 40
0.0
 40
0.0
 40
1.0
 40
1.0
 40
1.0
 40
2.0
 40
2.0
 40
2.0
 40
3.0
 40
3.0
 40
3.0
 40
4.0
 40
4.0
 40
4.0
 40
5.0
 40
5.0
 40
5.0
 40
6.0
 40
6.0
 40
6.0
 40
7.0
 40
7.0
 40
7.0
 40
8.0
 40
8.0
 40
8.0
 40
9.0
 40
9.0
 40
9.0
 40
10.0
 40
10.0
 40
10.0
 40
11.0
 40
11.0
 40
11.0
 40
12.0
 40
12.0
 40
12.0
 40
12.0
 10
852.3008672722834
 20
18.64267658101471
 30
0.0
 10
852.3008672722834
 20
18.64267658101471
 30
0.0
 10
851.0184799070449
 20
18.64267658101471
 30
0.0
 10
851.0184799070449
 20
18.64267658101471
 30
0.0
 10
851.0184799070449
 20
18.64267658101471
 30
0.0
 10
853.5833422142236
 20
22.60191640830749
 30
0.0
 10
853.5833422142236
 20
22.60191640830749
 30
0.0
 10
853.5833422142236
 20
22.60191640830749
 30
0.0
 10
854.9050730460532
 20
22.60191640830749
 30
0.0
 10
854.9050730460532
 20
22.60191640830749
 30
0.0
 10
854.9050730460532
 20
22.60191640830749
 30
0.0
 10
855.2019838209961
 20
18.64267658101471
 30
0.0
 10
855.2019838209961
 20
18.64267658101471
 30
0.0
 10
855.2019838209961
 20
18.64267658101471
 30
0.0
 10
854.0090370490707
 20
18.64267658101471
 30
0.0
 10
854.0090370490707
 20
18.64267658101471
 30
0.0
 10
854.0090370490707
 20
18.64267658101471
 30
0.0
 10
853.9697805146728
 20
19.28116553838072
 30
0.0
 10
853.9697805146728
 20
19.28116553838072
 30
0.0
 10
853.9697805146728
 20
19.28116553838072
 30
0.0
 10
853.1050287981718
 20
19.28116553838072
 30
0.0
 10
853.1050287981718
 20
19.28116553838072
 30
0.0
 10
853.1050287981718
 20
19.28116553838072
 30
0.0
 10
853.5343306112549
 20
20.10420582928964
 30
0.0
 10
853.5343306112549
 20
20.10420582928964
 30
0.0
 10
853.5343306112549
 20
20.10420582928964
 30
0.0
 10
853.9306326037788
 20
20.10420582928964
 30
0.0
 10
853.9306326037788
 20
20.10420582928964
 30
0.0
 10
853.9306326037788
 20
20.10420582928964
 30
0.0
 10
853.880144399052
 20
21.26354448903248
 30
0.0
 10
853.880144399052
 20
21.26354448903248
 30
0.0
 10
853.880144399052
 20
21.26354448903248
 30
0.0
 10
852.3072332552874
 20
18.65158370835456
 30
0.0
 10
852.3072332552874
 20
18.65158370835456
 30
0.0
 10
852.3072332552874
 20
18.65158370835456
 30
0.0
 10
852.3008672722834
 20
18.64267658101471
 30
0.0
 10
852.3008672722834
 20
18.64267658101471
 30
0.0
  0
HATCH
  5
CC
330
2
100
AcDbEntity
  8
0
  6
Continuous
 62
     0
100
AcDbHatch
 10
0.0
 20
0.0
 30
0.0
210
0.0
220
0.0
230
1.0
  2
SOLID
 70
     1
 71
     1
 91
        1
 92
        5
 93
        1
 72
     4
 94
        3
 73
     0
 74
     0
 95
       17
 96
       13
 40
0.0
 40
0.0
 40
0.0
 40
0.0
 40
1.0
 40
1.0
 40
1.0
 40
2.0
 40
2.0
 40
2.0
 40
3.0
 40
3.0
 40
3.0
 40
4.0
 40
4.0
 40
4.0
 40
4.0
 10
860.6619016641756
 20
18.64267658101471
 10
860.6619016641756
 20
18.64267658101471
 10
859.4410595196681
 20
18.64267658101471
 10
859.4410595196681
 20
18.64267658101471
 10
859.4410595196681
 20
18.64267658101471
 10
860.499595567564
 20
22.59640076895914
 10
860.499595567564
 20
22.59640076895914
 10
860.499595567564
 20
22.59640076895914
 10
861.7203499565503
 20
22.59640076895914
 10
861.7203499565503
 20
22.59640076895914
 10
861.7203499565503
 20
22.59640076895914
 10
860.6619016641756
 20
18.64267658101471
 10
860.6619016641756
 20
18.64267658101471
 97
        0
 97
        1
330
CD
 75
     1
 76
     1
 47
0.0269459378258844
 98
        1
 10
860.1543053650088
 20
19.72270299808156
450
        0
451
        0
460
0.0
461
0.0
452
        0
462
1.0
453
        2
463
0.0
 63
     5
421
      255
463
1.0
 63
     2
421
 16776960
470
LINEAR
1001
GRADIENTCOLOR1ACI
1070
     5
1001
GRADIENTCOLOR2ACI
1070
     2
1001
ACAD
1010
0.0
1020
0.0
1030
0.0
  0
SPLINE
  5
CD
102
{ACAD_REACTORS
330
CC
102
}
330
2
100
AcDbEntity
  8
Layer 1
100
AcDbSpline
210
0.0
220
0.0
230
1.0
 70
    11
 71
     3
 72
    17
 73
    13
 74
     0
 42
0.000000001
 43
0.0000000001
 40
0.0
 40
0.0
 40
0.0
 40
0.0
 40
1.0
 40
1.0
 40
1.0
 40
2.0
 40
2.0
 40
2.0
 40
3.0
 40
3.0
 40
3.0
 40
4.0
 40
4.0
 40
4.0
 40
4.0
 10
860.6619016641756
 20
18.64267658101471
 30
0.0
 10
860.6619016641756
 20
18.64267658101471
 30
0.0
 10
859.4410595196681
 20
18.64267658101471
 30
0.0
 10
859.4410595196681
 20
18.64267658101471
 30
0.0
 10
859.4410595196681
 20
18.64267658101471
 30
0.0
 10
860.499595567564
 20
22.59640076895914
 30
0.0
 10
860.499595567564
 20
22.59640076895914
 30
0.0
 10
860.499595567564
 20
22.59640076895914
 30
0.0
 10
861.7203499565503
 20
22.59640076895914
 30
0.0
 10
861.7203499565503
 20
22.59640076895914
 30
0.0
 10
861.7203499565503
 20
22.59640076895914
 30
0.0
 10
860.6619016641756
 20
18.64267658101471
 30
0.0
 10
860.6619016641756
 20
18.64267658101471
 30
0.0
  0
HATCH
  5
CE
330
2
100
AcDbEntity
  8
0
  6
Continuous
 62
     0
100
AcDbHatch
 10
0.0
 20
0.0
 30
0.0
210
0.0
220
0.0
230
1.0
  2
SOLID
 70
     1
 71
     1
 91
        1
 92
        5
 93
       14
 72
     4
 94
        3
 73
     0
 74
     0
 95
        8
 96
        4
 40
11.0
 40
11.0
 40
11.0
 40
11.0
 40
12.0
 40
12.0
 40
12.0
 40
12.0
 10
859.0781709337289
 20
18.58942933928256
 10
859.0781709337289
 20
18.58942933928256
 10
858.5151093209319
 20
20.2704432400335
 10
858.5151093209319
 20
20.2704432400335
 97
        0
 72
     4
 94
        3
 73
     0
 74
     0
 95
        8
 96
        4
 40
12.0
 40
12.0
 40
12.0
 40
12.0
 40
13.0
 40
13.0
 40
13.0
 40
13.0
 10
858.5151093209319
 20
20.2704432400335
 10
858.6912966446554
 20
20.32401635227802
 10
858.866115312227
 20
20.40272494338183
 10
859.020773457429
 20
20.52088559119102
 97
        0
 72
     4
 94
        3
 73
     0
 74
     0
 95
        8
 96
        4
 40
13.0
 40
13.0
 40
13.0
 40
13.0
 40
14.0
 40
14.0
 40
14.0
 40
14.0
 10
859.020773457429
 20
20.52088559119102
 10
859.3624595520685
 20
20.78416724053841
 10
859.5417317833099
 20
21.1594831720613
 10
859.5417317833099
 20
21.52893343436017
 97
        0
 72
     4
 94
        3
 73
     0
 74
     0
 95
        8
 96
        4
 40
0.0
 40
0.0
 40
0.0
 40
0.0
 40
1.0
 40
1.0
 40
1.0
 40
1.0
 10
859.5417317833099
 20
21.52893343436017
 10
859.5417317833099
 20
22.32410093410544
 10
858.8417184731959
 20
22.60415405249284
 10
858.2313420740193
 20
22.60415405249284
 97
        0
 72
     4
 94
        3
 73
     0
 74
     0
 95
        8
 96
        4
 40
1.0
 40
1.0
 40
1.0
 40
1.0
 40
2.0
 40
2.0
 40
2.0
 40
2.0
 10
858.2313420740193
 20
22.60415405249284
 10
858.2313420740193
 20
22.60415405249284
 10
856.4840243421969
 20
22.60415405249284
 10
856.4840243421969
 20
22.60415405249284
 97
        0
 72
     4
 94
        3
 73
     0
 74
     0
 95
        8
 96
        4
 40
2.0
 40
2.0
 40
2.0
 40
2.0
 40
3.0
 40
3.0
 40
3.0
 40
3.0
 10
856.4840243421969
 20
22.60415405249284
 10
856.4840243421969
 20
22.60415405249284
 10
855.4199694691149
 20
18.65032601068242
 10
855.4199694691149
 20
18.65032601068242
 97
        0
 72
     4
 94
        3
 73
     0
 74
     0
 95
        8
 96
        4
 40
3.0
 40
3.0
 40
3.0
 40
3.0
 40
4.0
 40
4.0
 40
4.0
 40
4.0
 10
855.4199694691149
 20
18.65032601068242
 10
855.4199694691149
 20
18.65032601068242
 10
856.6746578407965
 20
18.65032601068242
 10
856.6746578407965
 20
18.65032601068242
 97
        0
 72
     4
 94
        3
 73
     0
 74
     0
 95
        8
 96
        4
 40
4.0
 40
4.0
 40
4.0
 40
4.0
 40
5.0
 40
5.0
 40
5.0
 40
5.0
 10
856.6746578407965
 20
18.65032601068242
 10
856.6746578407965
 20
18.65032601068242
 10
857.497611232902
 20
21.71924181362283
 10
857.497611232902
 20
21.71924181362283
 97
        0
 72
     4
 94
        3
 73
     0
 74
     0
 95
        8
 96
        4
 40
5.0
 40
5.0
 40
5.0
 40
5.0
 40
6.0
 40
6.0
 40
6.0
 40
6.0
 10
857.497611232902
 20
21.71924181362283
 10
857.497611232902
 20
21.71924181362283
 10
857.8672787422092
 20
21.71924181362283
 10
857.8672787422092
 20
21.71924181362283
 97
        0
 72
     4
 94
        3
 73
     0
 74
     0
 95
        8
 96
        4
 40
6.0
 40
6.0
 40
6.0
 40
6.0
 40
7.0
 40
7.0
 40
7.0
 40
7.0
 10
857.8672787422092
 20
21.71924181362283
 10
858.0855902608405
 20
21.71924181362283
 10
858.3097457239949
 20
21.66886223240021
 10
858.3097457239949
 20
21.40017113254635
 97
        0
 72
     4
 94
        3
 73
     0
 74
     0
 95
        8
 96
        4
 40
7.0
 40
7.0
 40
7.0
 40
7.0
 40
8.0
 40
8.0
 40
8.0
 40
8.0
 10
858.3097457239949
 20
21.40017113254635
 10
858.3097457239949
 20
21.25463736169252
 10
858.1978200653233
 20
21.01925022820956
 10
857.8281525560162
 20
21.0305905220423
 97
        0
 72
     4
 94
        3
 73
     0
 74
     0
 95
        8
 96
        4
 40
8.0
 40
8.0
 40
8.0
 40
8.0
 40
9.0
 40
9.0
 40
9.0
 40
9.0
 10
857.8281525560162
 20
21.0305905220423
 10
857.8281525560162
 20
21.0305905220423
 10
857.5913750416802
 20
20.16384013306538
 10
857.5913750416802
 20
20.16384013306538
 97
        0
 72
     4
 94
        3
 73
     0
 74
     0
 95
        8
 96
        4
 40
9.0
 40
9.0
 40
9.0
 40
9.0
 40
10.0
 40
10.0
 40
10.0
 40
10.0
 10
857.5913750416802
 20
20.16384013306538
 10
857.5913750416802
 20
20.16384013306538
 10
858.0435964141379
 20
18.58942933928256
 10
858.0435964141379
 20
18.58942933928256
 97
        0
 72
     4
 94
        3
 73
     0
 74
     0
 95
        8
 96
        4
 40
10.0
 40
10.0
 40
10.0
 40
10.0
 40
11.0
 40
11.0
 40
11.0
 40
11.0
 10
858.0435964141379
 20
18.58942933928256
 10
858.0435964141379
 20
18.58942933928256
 10
859.0781709337289
 20
18.58942933928256
 10
859.0781709337289
 20
18.58942933928256
 97
        0
 97
       13
330
D9
330
C8
330
DA
330
CF
330
D0
330
D1
330
D2
330
D3
330
D4
330
D5
330
D6
330
D7
330
D8
 75
     1
 76
     1
 47
0.0269459378258844
 98
        1
 10
858.2385121401143
 20
20.06599423317687
450
        0
451
        0
460
0.0
461
0.0
452
        0
462
1.0
453
        2
463
0.0
 63
     5
421
      255
463
1.0
 63
     2
421
 16776960
470
LINEAR
1001
GRADIENTCOLOR1ACI
1070
     5
1001
GRADIENTCOLOR2ACI
1070
     2
1001
ACAD
1010
0.0
1020
0.0
1030
0.0
  0
SPLINE
  5
CF
102
{ACAD_REACTORS
330
CE
102
}
330
2
100
AcDbEntity
  8
Layer 1
100
AcDbSpline
210
0.0
220
0.0
230
1.0
 70
     8
 71
     3
 72
     8
 73
     4
 74
     0
 42
0.000000001
 43
0.0000000001
 40
0.0
 40
0.0
 40
0.0
 40
0.0
 40
1.0
 40
1.0
 40
1.0
 40
1.0
 10
859.5417317833099
 20
21.52893343436017
 30
0.0
 10
859.5417317833099
 20
22.32410093410544
 30
0.0
 10
858.8417184731959
 20
22.60415405249284
 30
0.0
 10
858.2313420740193
 20
22.60415405249284
 30
0.0
  0
SPLINE
  5
D0
102
{ACAD_REACTORS
330
CE
102
}
330
2
100
AcDbEntity
  8
Layer 1
100
AcDbSpline
210
0.0
220
0.0
230
1.0
 70
    24
 71
     3
 72
     8
 73
     4
 74
     0
 42
0.000000001
 43
0.0000000001
 40
1.0
 40
1.0
 40
1.0
 40
1.0
 40
2.0
 40
2.0
 40
2.0
 40
2.0
 10
858.2313420740193
 20
22.60415405249284
 30
0.0
 10
858.2313420740193
 20
22.60415405249284
 30
0.0
 10
856.4840243421969
 20
22.60415405249284
 30
0.0
 10
856.4840243421969
 20
22.60415405249284
 30
0.0
  0
SPLINE
  5
D1
102
{ACAD_REACTORS
330
CE
102
}
330
2
100
AcDbEntity
  8
Layer 1
100
AcDbSpline
210
0.0
220
0.0
230
1.0
 70
    24
 71
     3
 72
     8
 73
     4
 74
     0
 42
0.000000001
 43
0.0000000001
 40
2.0
 40
2.0
 40
2.0
 40
2.0
 40
3.0
 40
3.0
 40
3.0
 40
3.0
 10
856.4840243421969
 20
22.60415405249284
 30
0.0
 10
856.4840243421969
 20
22.60415405249284
 30
0.0
 10
855.4199694691149
 20
18.65032601068242
 30
0.0
 10
855.4199694691149
 20
18.65032601068242
 30
0.0
  0
SPLINE
  5
D2
102
{ACAD_REACTORS
330
CE
102
}
330
2
100
AcDbEntity
  8
Layer 1
100
AcDbSpline
210
0.0
220
0.0
230
1.0
 70
    24
 71
     3
 72
     8
 73
     4
 74
     0
 42
0.000000001
 43
0.0000000001
 40
3.0
 40
3.0
 40
3.0
 40
3.0
 40
4.0
 40
4.0
 40
4.0
 40
4.0
 10
855.4199694691149
 20
18.65032601068242
 30
0.0
 10
855.4199694691149
 20
18.65032601068242
 30
0.0
 10
856.6746578407965
 20
18.65032601068242
 30
0.0
 10
856.6746578407965
 20
18.65032601068242
 30
0.0
  0
SPLINE
  5
D3
102
{ACAD_REACTORS
330
CE
102
}
330
2
100
AcDbEntity
  8
Layer 1
100
AcDbSpline
210
0.0
220
0.0
230
1.0
 70
    24
 71
     3
 72
     8
 73
     4
 74
     0
 42
0.000000001
 43
0.0000000001
 40
4.0
 40
4.0
 40
4.0
 40
4.0
 40
5.0
 40
5.0
 40
5.0
 40
5.0
 10
856.6746578407965
 20
18.65032601068242
 30
0.0
 10
856.6746578407965
 20
18.65032601068242
 30
0.0
 10
857.497611232902
 20
21.71924181362283
 30
0.0
 10
857.497611232902
 20
21.71924181362283
 30
0.0
  0
SPLINE
  5
D4
102
{ACAD_REACTORS
330
CE
102
}
330
2
100
AcDbEntity
  8
Layer 1
100
AcDbSpline
210
0.0
220
0.0
230
1.0
 70
    24
 71
     3
 72
     8
 73
     4
 74
     0
 42
0.000000001
 43
0.0000000001
 40
5.0
 40
5.0
 40
5.0
 40
5.0
 40
6.0
 40
6.0
 40
6.0
 40
6.0
 10
857.497611232902
 20
21.71924181362283
 30
0.0
 10
857.497611232902
 20
21.71924181362283
 30
0.0
 10
857.8672787422092
 20
21.71924181362283
 30
0.0
 10
857.8672787422092
 20
21.71924181362283
 30
0.0
  0
SPLINE
  5
D5
102
{ACAD_REACTORS
330
CE
102
}
330
2
100
AcDbEntity
  8
Layer 1
100
AcDbSpline
210
0.0
220
0.0
230
1.0
 70
     8
 71
     3
 72
    11
 73
     7
 74
     0
 42
0.000000001
 43
0.0000000001
 40
6.0
 40
6.0
 40
6.0
 40
6.0
 40
7.0
 40
7.0
 40
7.0
 40
8.0
 40
8.0
 40
8.0
 40
8.0
 10
857.8672787422092
 20
21.71924181362283
 30
0.0
 10
858.0855902608405
 20
21.71924181362283
 30
0.0
 10
858.3097457239949
 20
21.66886223240021
 30
0.0
 10
858.3097457239949
 20
21.40017113254635
 30
0.0
 10
858.3097457239949
 20
21.25463736169252
 30
0.0
 10
858.1978200653233
 20
21.01925022820956
 30
0.0
 10
857.8281525560162
 20
21.0305905220423
 30
0.0
  0
SPLINE
  5
D6
102
{ACAD_REACTORS
330
CE
102
}
330
2
100
AcDbEntity
  8
Layer 1
100
AcDbSpline
210
0.0
220
0.0
230
1.0
 70
    24
 71
     3
 72
     8
 73
     4
 74
     0
 42
0.000000001
 43
0.0000000001
 40
8.0
 40
8.0
 40
8.0
 40
8.0
 40
9.0
 40
9.0
 40
9.0
 40
9.0
 10
857.8281525560162
 20
21.0305905220423
 30
0.0
 10
857.8281525560162
 20
21.0305905220423
 30
0.0
 10
857.5913750416802
 20
20.16384013306538
 30
0.0
 10
857.5913750416802
 20
20.16384013306538
 30
0.0
  0
SPLINE
  5
D7
102
{ACAD_REACTORS
330
CE
102
}
330
2
100
AcDbEntity
  8
Layer 1
100
AcDbSpline
210
0.0
220
0.0
230
1.0
 70
    24
 71
     3
 72
     8
 73
     4
 74
     0
 42
0.000000001
 43
0.0000000001
 40
9.0
 40
9.0
 40
9.0
 40
9.0
 40
10.0
 40
10.0
 40
10.0
 40
10.0
 10
857.5913750416802
 20
20.16384013306538
 30
0.0
 10
857.5913750416802
 20
20.16384013306538
 30
0.0
 10
858.0435964141379
 20
18.58942933928256
 30
0.0
 10
858.0435964141379
 20
18.58942933928256
 30
0.0
  0
SPLINE
  5
D8
102
{ACAD_REACTORS
330
CE
102
}
330
2
100
AcDbEntity
  8
Layer 1
100
AcDbSpline
210
0.0
220
0.0
230
1.0
 70
    24
 71
     3
 72
     8
 73
     4
 74
     0
 42
0.000000001
 43
0.0000000001
 40
10.0
 40
10.0
 40
10.0
 40
10.0
 40
11.0
 40
11.0
 40
11.0
 40
11.0
 10
858.0435964141379
 20
18.58942933928256
 30
0.0
 10
858.0435964141379
 20
18.58942933928256
 30
0.0
 10
859.0781709337289
 20
18.58942933928256
 30
0.0
 10
859.0781709337289
 20
18.58942933928256
 30
0.0
  0
SPLINE
  5
D9
102
{ACAD_REACTORS
330
CE
102
}
330
2
100
AcDbEntity
  8
Layer 1
100
AcDbSpline
210
0.0
220
0.0
230
1.0
 70
    24
 71
     3
 72
     8
 73
     4
 74
     0
 42
0.000000001
 43
0.0000000001
 40
11.0
 40
11.0
 40
11.0
 40
11.0
 40
12.0
 40
12.0
 40
12.0
 40
12.0
 10
859.0781709337289
 20
18.58942933928256
 30
0.0
 10
859.0781709337289
 20
18.58942933928256
 30
0.0
 10
858.5151093209319
 20
20.2704432400335
 30
0.0
 10
858.5151093209319
 20
20.2704432400335
 30
0.0
  0
SPLINE
  5
DA
102
{ACAD_REACTORS
330
CE
102
}
330
2
100
AcDbEntity
  8
Layer 1
100
AcDbSpline
210
0.0
220
0.0
230
1.0
 70
     8
 71
     3
 72
     8
 73
     4
 74
     0
 42
0.000000001
 43
0.0000000001
 40
13.0
 40
13.0
 40
13.0
 40
13.0
 40
14.0
 40
14.0
 40
14.0
 40
14.0
 10
859.020773457429
 20
20.52088559119102
 30
0.0
 10
859.3624595520685
 20
20.78416724053841
 30
0.0
 10
859.5417317833099
 20
21.1594831720613
 30
0.0
 10
859.5417317833099
 20
21.52893343436017
 30
0.0
  0
HATCH
  5
DB
330
2
100
AcDbEntity
  8
0
  6
Continuous
 62
     0
100
AcDbHatch
 10
0.0
 20
0.0
 30
0.0
210
0.0
220
0.0
230
1.0
  2
SOLID
 70
     1
 71
     1
 91
        2
 92
        5
 93
        4
 72
     4
 94
        3
 73
     0
 74
     0
 95
        8
 96
        4
 40
0.0
 40
0.0
 40
0.0
 40
0.0
 40
1.0
 40
1.0
 40
1.0
 40
1.0
 10
864.4421942740216
 20
20.24582915399424
 10
864.4421942740216
 20
19.22122708879328
 10
865.1439021108002
 20
18.43592260322452
 10
866.3578566684273
 20
18.43592260322452
 97
        0
 72
     4
 94
        3
 73
     0
 74
     0
 95
        8
 96
        4
 40
3.0
 40
3.0
 40
3.0
 40
3.0
 40
4.0
 40
4.0
 40
4.0
 40
4.0
 10
866.3578566684273
 20
18.43592260322452
 10
867.967352854049
 20
18.43592260322452
 10
868.797106077514
 20
19.6666486298916
 10
868.797106077514
 20
20.78045231669671
 97
        0
 72
     4
 94
        3
 73
     0
 74
     0
 95
        8
 96
        4
 40
2.0
 40
2.0
 40
2.0
 40
2.0
 40
3.0
 40
3.0
 40
3.0
 40
3.0
 10
868.797106077514
 20
20.78045231669671
 10
868.797106077514
 20
21.77737952701341
 10
868.0955068642395
 20
22.60159053779501
 10
866.8313682476973
 20
22.60159053779501
 97
        0
 72
     4
 94
        3
 73
     0
 74
     0
 95
        8
 96
        4
 40
1.0
 40
1.0
 40
1.0
 40
1.0
 40
2.0
 40
2.0
 40
2.0
 40
2.0
 10
866.8313682476973
 20
22.60159053779501
 10
865.2775524703004
 20
22.60159053779501
 10
864.4421942740216
 20
21.36515091480987
 10
864.4421942740216
 20
20.24582915399424
 97
        0
 97
        1
330
DC
 92
       20
 93
        4
 72
     4
 94
        3
 73
     0
 74
     0
 95
        8
 96
        4
 40
2.0
 40
2.0
 40
2.0
 40
2.0
 40
3.0
 40
3.0
 40
3.0
 40
3.0
 10
866.4303954444955
 20
19.38268506535485
 10
866.018299594469
 20
19.38268506535485
 10
865.6617755291634
 20
19.65561248187043
 10
865.6617755291634
 20
20.23479300597319
 97
        0
 72
     4
 94
        3
 73
     0
 74
     0
 95
        8
 96
        4
 40
1.0
 40
1.0
 40
1.0
 40
1.0
 40
2.0
 40
2.0
 40
2.0
 40
2.0
 10
865.6617755291634
 20
20.23479300597319
 10
865.6617755291634
 20
20.83626546332425
 10
866.0796076937893
 20
21.69940716176586
 10
866.8425130192227
 20
21.69940716176586
 97
        0
 72
     4
 94
        3
 73
     0
 74
     0
 95
        8
 96
        4
 40
0.0
 40
0.0
 40
0.0
 40
0.0
 40
1.0
 40
1.0
 40
1.0
 40
1.0
 10
866.8425130192227
 20
21.69940716176586
 10
867.2434858224246
 20
21.69940716176586
 10
867.5887782174017
 20
21.42658836875444
 10
867.5887782174017
 20
20.85290419396153
 97
        0
 72
     4
 94
        3
 73
     0
 74
     0
 95
        8
 96
        4
 40
3.0
 40
3.0
 40
3.0
 40
3.0
 40
4.0
 40
4.0
 40
4.0
 40
4.0
 10
867.5887782174017
 20
20.85290419396153
 10
867.5887782174017
 20
20.27935036737358
 10
867.2547392174541
 20
19.38268506535485
 10
866.4303954444955
 20
19.38268506535485
 97
        0
 97
        1
330
DD
 75
     1
 76
     1
 47
0.0269459378258844
 98
        2
 10
865.2807044731098
 20
19.64348255999471
 10
865.2807044731098
 20
19.64348255999471
450
        0
451
        0
460
0.0
461
0.0
452
        0
462
1.0
453
        2
463
0.0
 63
     5
421
      255
463
1.0
 63
     2
421
 16776960
470
LINEAR
1001
GRADIENTCOLOR1ACI
1070
     5
1001
GRADIENTCOLOR2ACI
1070
     2
1001
ACAD
1010
0.0
1020
0.0
1030
0.0
  0
SPLINE
  5
DC
102
{ACAD_REACTORS
330
DB
102
}
330
2
100
AcDbEntity
  8
Layer 1
100
AcDbSpline
210
0.0
220
0.0
230
1.0
 70
     9
 71
     3
 72
    17
 73
    13
 74
     0
 42
0.000000001
 43
0.0000000001
 40
0.0
 40
0.0
 40
0.0
 40
0.0
 40
1.0
 40
1.0
 40
1.0
 40
2.0
 40
2.0
 40
2.0
 40
3.0
 40
3.0
 40
3.0
 40
4.0
 40
4.0
 40
4.0
 40
4.0
 10
866.3578566684273
 20
18.43592260322452
 30
0.0
 10
865.1439021108002
 20
18.43592260322452
 30
0.0
 10
864.4421942740216
 20
19.22122708879328
 30
0.0
 10
864.4421942740216
 20
20.24582915399424
 30
0.0
 10
864.4421942740216
 20
21.36515091480987
 30
0.0
 10
865.2775524703004
 20
22.60159053779501
 30
0.0
 10
866.8313682476973
 20
22.60159053779501
 30
0.0
 10
868.0955068642395
 20
22.60159053779501
 30
0.0
 10
868.797106077514
 20
21.77737952701341
 30
0.0
 10
868.797106077514
 20
20.78045231669671
 30
0.0
 10
868.797106077514
 20
19.6666486298916
 30
0.0
 10
867.967352854049
 20
18.43592260322452
 30
0.0
 10
866.3578566684273
 20
18.43592260322452
 30
0.0
  0
SPLINE
  5
DD
102
{ACAD_REACTORS
330
DB
102
}
330
2
100
AcDbEntity
  8
Layer 1
100
AcDbSpline
210
0.0
220
0.0
230
1.0
 70
     9
 71
     3
 72
    17
 73
    13
 74
     0
 42
0.000000001
 43
0.0000000001
 40
0.0
 40
0.0
 40
0.0
 40
0.0
 40
1.0
 40
1.0
 40
1.0
 40
2.0
 40
2.0
 40
2.0
 40
3.0
 40
3.0
 40
3.0
 40
4.0
 40
4.0
 40
4.0
 40
4.0
 10
867.5887782174017
 20
20.85290419396153
 30
0.0
 10
867.5887782174017
 20
21.42658836875444
 30
0.0
 10
867.2434858224246
 20
21.69940716176586
 30
0.0
 10
866.8425130192227
 20
21.69940716176586
 30
0.0
 10
866.0796076937893
 20
21.69940716176586
 30
0.0
 10
865.6617755291634
 20
20.83626546332425
 30
0.0
 10
865.6617755291634
 20
20.23479300597319
 30
0.0
 10
865.6617755291634
 20
19.65561248187043
 30
0.0
 10
866.018299594469
 20
19.38268506535485
 30
0.0
 10
866.4303954444955
 20
19.38268506535485
 30
0.0
 10
867.2547392174541
 20
19.38268506535485
 30
0.0
 10
867.5887782174017
 20
20.27935036737358
 30
0.0
 10
867.5887782174017
 20
20.85290419396153
 30
0.0
  0
HATCH
  5
DE
330
2
100
AcDbEntity
  8
0
  6
Continuous
 62
     0
100
AcDbHatch
 10
0.0
 20
0.0
 30
0.0
210
0.0
220
0.0
230
1.0
  2
SOLID
 70
     1
 71
     1
 91
        2
 92
        5
 93
        4
 72
     4
 94
        3
 73
     0
 74
     0
 95
        8
 96
        4
 40
0.0
 40
0.0
 40
0.0
 40
0.0
 40
1.0
 40
1.0
 40
1.0
 40
1.0
 10
868.9331027047039
 20
20.24582915399424
 10
868.9331027047039
 20
19.22122708879328
 10
869.6348974402859
 20
18.43592260322452
 10
870.8487433744087
 20
18.43592260322452
 97
        0
 72
     4
 94
        3
 73
     0
 74
     0
 95
        8
 96
        4
 40
3.0
 40
3.0
 40
3.0
 40
3.0
 40
4.0
 40
4.0
 40
4.0
 40
4.0
 10
870.8487433744087
 20
18.43592260322452
 10
872.4582612847314
 20
18.43592260322452
 10
873.2880145081963
 20
19.6666486298916
 10
873.2880145081963
 20
20.78045231669671
 97
        0
 72
     4
 94
        3
 73
     0
 74
     0
 95
        8
 96
        4
 40
2.0
 40
2.0
 40
2.0
 40
2.0
 40
3.0
 40
3.0
 40
3.0
 40
3.0
 10
873.2880145081963
 20
20.78045231669671
 10
873.2880145081963
 20
21.77737952701341
 10
872.5863066714177
 20
22.60159053779501
 10
871.3222766783799
 20
22.60159053779501
 97
        0
 72
     4
 94
        3
 73
     0
 74
     0
 95
        8
 96
        4
 40
1.0
 40
1.0
 40
1.0
 40
1.0
 40
2.0
 40
2.0
 40
2.0
 40
2.0
 10
871.3222766783799
 20
22.60159053779501
 10
869.7683522774788
 20
22.60159053779501
 10
868.9331027047039
 20
21.36515091480987
 10
868.9331027047039
 20
20.24582915399424
 97
        0
 97
        1
330
E0
 92
       20
 93
        4
 72
     4
 94
        3
 73
     0
 74
     0
 95
        8
 96
        4
 40
2.0
 40
2.0
 40
2.0
 40
2.0
 40
3.0
 40
3.0
 40
3.0
 40
3.0
 10
870.9210866281695
 20
19.38268506535485
 10
870.5089907781431
 20
19.38268506535485
 10
870.1527719551265
 20
19.65561248187043
 10
870.1527719551265
 20
20.23479300597319
 97
        0
 72
     4
 94
        3
 73
     0
 74
     0
 95
        8
 96
        4
 40
1.0
 40
1.0
 40
1.0
 40
1.0
 40
2.0
 40
2.0
 40
2.0
 40
2.0
 10
870.1527719551265
 20
20.23479300597319
 10
870.1527719551265
 20
20.83626546332425
 10
870.5704065073868
 20
21.69940716176586
 10
871.3330955793926
 20
21.69940716176586
 97
        0
 72
     4
 94
        3
 73
     0
 74
     0
 95
        8
 96
        4
 40
0.0
 40
0.0
 40
0.0
 40
0.0
 40
1.0
 40
1.0
 40
1.0
 40
1.0
 10
871.3330955793926
 20
21.69940716176586
 10
871.734285629603
 20
21.69940716176586
 10
872.0795780245801
 20
21.42658836875444
 10
872.0795780245801
 20
20.85290419396153
 97
        0
 72
     4
 94
        3
 73
     0
 74
     0
 95
        8
 96
        4
 40
3.0
 40
3.0
 40
3.0
 40
3.0
 40
4.0
 40
4.0
 40
4.0
 40
4.0
 10
872.0795780245801
 20
20.85290419396153
 10
872.0795780245801
 20
20.27935036737358
 10
871.745321777624
 20
19.38268506535485
 10
870.9210866281695
 20
19.38268506535485
 97
        0
 97
        1
330
DF
 75
     1
 76
     1
 47
0.0269459378258844
 98
        2
 10
870.0767942521437
 20
19.96036660095819
 10
870.0767942521437
 20
19.96036660095819
450
        0
451
        0
460
0.0
461
0.0
452
        0
462
1.0
453
        2
463
0.0
 63
     5
421
      255
463
1.0
 63
     2
421
 16776960
470
LINEAR
1001
GRADIENTCOLOR1ACI
1070
     5
1001
GRADIENTCOLOR2ACI
1070
     2
1001
ACAD
1010
0.0
1020
0.0
1030
0.0
  0
SPLINE
  5
DF
102
{ACAD_REACTORS
330
DE
102
}
330
2
100
AcDbEntity
  8
Layer 1
100
AcDbSpline
210
0.0
220
0.0
230
1.0
 70
     9
 71
     3
 72
    17
 73
    13
 74
     0
 42
0.000000001
 43
0.0000000001
 40
0.0
 40
0.0
 40
0.0
 40
0.0
 40
1.0
 40
1.0
 40
1.0
 40
2.0
 40
2.0
 40
2.0
 40
3.0
 40
3.0
 40
3.0
 40
4.0
 40
4.0
 40
4.0
 40
4.0
 10
872.0795780245801
 20
20.85290419396153
 30
0.0
 10
872.0795780245801
 20
21.42658836875444
 30
0.0
 10
871.734285629603
 20
21.69940716176586
 30
0.0
 10
871.3330955793926
 20
21.69940716176586
 30
0.0
 10
870.5704065073868
 20
21.69940716176586
 30
0.0
 10
870.1527719551265
 20
20.83626546332425
 30
0.0
 10
870.1527719551265
 20
20.23479300597319
 30
0.0
 10
870.1527719551265
 20
19.65561248187043
 30
0.0
 10
870.5089907781431
 20
19.38268506535485
 30
0.0
 10
870.9210866281695
 20
19.38268506535485
 30
0.0
 10
871.745321777624
 20
19.38268506535485
 30
0.0
 10
872.0795780245801
 20
20.27935036737358
 30
0.0
 10
872.0795780245801
 20
20.85290419396153
 30
0.0
  0
SPLINE
  5
E0
102
{ACAD_REACTORS
330
DE
102
}
330
2
100
AcDbEntity
  8
Layer 1
100
AcDbSpline
210
0.0
220
0.0
230
1.0
 70
     9
 71
     3
 72
    17
 73
    13
 74
     0
 42
0.000000001
 43
0.0000000001
 40
0.0
 40
0.0
 40
0.0
 40
0.0
 40
1.0
 40
1.0
 40
1.0
 40
2.0
 40
2.0
 40
2.0
 40
3.0
 40
3.0
 40
3.0
 40
4.0
 40
4.0
 40
4.0
 40
4.0
 10
870.8487433744087
 20
18.43592260322452
 30
0.0
 10
869.6348974402859
 20
18.43592260322452
 30
0.0
 10
868.9331027047039
 20
19.22122708879328
 30
0.0
 10
868.9331027047039
 20
20.24582915399424
 30
0.0
 10
868.9331027047039
 20
21.36515091480987
 30
0.0
 10
869.7683522774788
 20
22.60159053779501
 30
0.0
 10
871.3222766783799
 20
22.60159053779501
 30
0.0
 10
872.5863066714177
 20
22.60159053779501
 30
0.0
 10
873.2880145081963
 20
21.77737952701341
 30
0.0
 10
873.2880145081963
 20
20.78045231669671
 30
0.0
 10
873.2880145081963
 20
19.6666486298916
 30
0.0
 10
872.4582612847314
 20
18.43592260322452
 30
0.0
 10
870.8487433744087
 20
18.43592260322452
 30
0.0
  0
HATCH
  5
E1
330
2
100
AcDbEntity
  8
0
  6
Continuous
 62
     0
100
AcDbHatch
 10
0.0
 20
0.0
 30
0.0
210
0.0
220
0.0
230
1.0
  2
SOLID
 70
     1
 71
     1
 91
        1
 92
        5
 93
        6
 72
     4
 94
        3
 73
     0
 74
     0
 95
        8
 96
        4
 40
4.0
 40
4.0
 40
4.0
 40
4.0
 40
5.0
 40
5.0
 40
5.0
 40
5.0
 10
874.4929327963975
 20
19.46615136594016
 10
874.4929327963975
 20
19.46615136594016
 10
875.3005038941971
 20
22.48471164733473
 10
875.3005038941971
 20
22.48471164733473
 97
        0
 72
     4
 94
        3
 73
     0
 74
     0
 95
        8
 96
        4
 40
3.0
 40
3.0
 40
3.0
 40
3.0
 40
4.0
 40
4.0
 40
4.0
 40
4.0
 10
875.3005038941971
 20
22.48471164733473
 10
875.3005038941971
 20
22.48471164733473
 10
874.0639556477079
 20
22.48471164733473
 10
874.0639556477079
 20
22.48471164733473
 97
        0
 72
     4
 94
        3
 73
     0
 74
     0
 95
        8
 96
        4
 40
2.0
 40
2.0
 40
2.0
 40
2.0
 40
3.0
 40
3.0
 40
3.0
 40
3.0
 10
874.0639556477079
 20
22.48471164733473
 10
874.0639556477079
 20
22.48471164733473
 10
873.0115676901466
 20
18.55293184188974
 10
873.0115676901466
 20
18.55293184188974
 97
        0
 72
     4
 94
        3
 73
     0
 74
     0
 95
        8
 96
        4
 40
1.0
 40
1.0
 40
1.0
 40
1.0
 40
2.0
 40
2.0
 40
2.0
 40
2.0
 10
873.0115676901466
 20
18.55293184188974
 10
873.0115676901466
 20
18.55293184188974
 10
875.556791422872
 20
18.55293184188974
 10
875.556791422872
 20
18.55293184188974
 97
        0
 72
     4
 94
        3
 73
     0
 74
     0
 95
        8
 96
        4
 40
0.0
 40
0.0
 40
0.0
 40
0.0
 40
1.0
 40
1.0
 40
1.0
 40
1.0
 10
875.556791422872
 20
18.55293184188974
 10
875.556791422872
 20
18.55293184188974
 10
875.8588938796064
 20
19.46615136594016
 10
875.8588938796064
 20
19.46615136594016
 97
        0
 72
     4
 94
        3
 73
     0
 74
     0
 95
        8
 96
        4
 40
5.0
 40
5.0
 40
5.0
 40
5.0
 40
6.0
 40
6.0
 40
6.0
 40
6.0
 10
875.8588938796064
 20
19.46615136594016
 10
875.8588938796064
 20
19.46615136594016
 10
874.4929327963975
 20
19.46615136594016
 10
874.4929327963975
 20
19.46615136594016
 97
        0
 97
        6
330
E6
330
E5
330
E4
330
E3
330
E2
330
E7
 75
     1
 76
     1
 47
0.0168242271866721
 98
        1
 10
874.1142681338825
 20
19.72262976237402
450
        0
451
        0
460
0.0
461
0.0
452
        0
462
1.0
453
        2
463
0.0
 63
     5
421
      255
463
1.0
 63
     2
421
 16776960
470
LINEAR
1001
GRADIENTCOLOR1ACI
1070
     5
1001
GRADIENTCOLOR2ACI
1070
     2
1001
ACAD
1010
0.0
1020
0.0
1030
0.0
  0
SPLINE
  5
E2
102
{ACAD_REACTORS
330
E1
102
}
330
2
100
AcDbEntity
  8
Layer 1
100
AcDbSpline
210
0.0
220
0.0
230
1.0
 70
    24
 71
     3
 72
     8
 73
     4
 74
     0
 42
0.000000001
 43
0.0000000001
 40
0.0
 40
0.0
 40
0.0
 40
0.0
 40
1.0
 40
1.0
 40
1.0
 40
1.0
 10
875.8588938796064
 20
19.46615136594016
 30
0.0
 10
875.8588938796064
 20
19.46615136594016
 30
0.0
 10
875.556791422872
 20
18.55293184188974
 30
0.0
 10
875.556791422872
 20
18.55293184188974
 30
0.0
  0
SPLINE
  5
E3
102
{ACAD_REACTORS
330
E1
102
}
330
2
100
AcDbEntity
  8
Layer 1
100
AcDbSpline
210
0.0
220
0.0
230
1.0
 70
    24
 71
     3
 72
     8
 73
     4
 74
     0
 42
0.000000001
 43
0.0000000001
 40
1.0
 40
1.0
 40
1.0
 40
1.0
 40
2.0
 40
2.0
 40
2.0
 40
2.0
 10
875.556791422872
 20
18.55293184188974
 30
0.0
 10
875.556791422872
 20
18.55293184188974
 30
0.0
 10
873.0115676901466
 20
18.55293184188974
 30
0.0
 10
873.0115676901466
 20
18.55293184188974
 30
0.0
  0
SPLINE
  5
E4
102
{ACAD_REACTORS
330
E1
102
}
330
2
100
AcDbEntity
  8
Layer 1
100
AcDbSpline
210
0.0
220
0.0
230
1.0
 70
    24
 71
     3
 72
     8
 73
     4
 74
     0
 42
0.000000001
 43
0.0000000001
 40
2.0
 40
2.0
 40
2.0
 40
2.0
 40
3.0
 40
3.0
 40
3.0
 40
3.0
 10
873.0115676901466
 20
18.55293184188974
 30
0.0
 10
873.0115676901466
 20
18.55293184188974
 30
0.0
 10
874.0639556477079
 20
22.48471164733473
 30
0.0
 10
874.0639556477079
 20
22.48471164733473
 30
0.0
  0
SPLINE
  5
E5
102
{ACAD_REACTORS
330
E1
102
}
330
2
100
AcDbEntity
  8
Layer 1
100
AcDbSpline
210
0.0
220
0.0
230
1.0
 70
    24
 71
     3
 72
     8
 73
     4
 74
     0
 42
0.000000001
 43
0.0000000001
 40
3.0
 40
3.0
 40
3.0
 40
3.0
 40
4.0
 40
4.0
 40
4.0
 40
4.0
 10
874.0639556477079
 20
22.48471164733473
 30
0.0
 10
874.0639556477079
 20
22.48471164733473
 30
0.0
 10
875.3005038941971
 20
22.48471164733473
 30
0.0
 10
875.3005038941971
 20
22.48471164733473
 30
0.0
  0
SPLINE
  5
E6
102
{ACAD_REACTORS
330
E1
102
}
330
2
100
AcDbEntity
  8
Layer 1
100
AcDbSpline
210
0.0
220
0.0
230
1.0
 70
    24
 71
     3
 72
     8
 73
     4
 74
     0
 42
0.000000001
 43
0.0000000001
 40
4.0
 40
4.0
 40
4.0
 40
4.0
 40
5.0
 40
5.0
 40
5.0
 40
5.0
 10
875.3005038941971
 20
22.48471164733473
 30
0.0
 10
875.3005038941971
 20
22.48471164733473
 30
0.0
 10
874.4929327963975
 20
19.46615136594016
 30
0.0
 10
874.4929327963975
 20
19.46615136594016
 30
0.0
  0
SPLINE
  5
E7
102
{ACAD_REACTORS
330
E1
102
}
330
2
100
AcDbEntity
  8
Layer 1
100
AcDbSpline
210
0.0
220
0.0
230
1.0
 70
    24
 71
     3
 72
     8
 73
     4
 74
     0
 42
0.000000001
 43
0.0000000001
 40
5.0
 40
5.0
 40
5.0
 40
5.0
 40
6.0
 40
6.0
 40
6.0
 40
6.0
 10
874.4929327963975
 20
19.46615136594016
 30
0.0
 10
874.4929327963975
 20
19.46615136594016
 30
0.0
 10
875.8588938796064
 20
19.46615136594016
 30
0.0
 10
875.8588938796064
 20
19.46615136594016
 30
0.0
  0
TEXT
  5
E8
330
2
100
AcDbEntity
  8
0
 62
     2
100
AcDbText
 10
849.632861377132
 20
13.93031843686981
 30
0.0
 40
1.920799999999999
  1
www.maritool.com
  7
굴림
100
AcDbText
  0
TEXT
  5
E9
330
2
100
AcDbEntity
  8
0
 62
     2
100
AcDbText
 10
836.5005589595131
 20
7.496349986810059
 30
0.0
 40
1.536639999999999
  1
ITEM#
  7
굴림
100
AcDbText
  0
TEXT
  5
EA
330
2
100
AcDbEntity
  8
0
 62
     2
100
AcDbText
 10
850.0813965423571
 20
7.1312486089422
 30
0.0
 40
2.304959999999999
  1
CAT40-HC.500-2.5
  7
굴림
100
AcDbText
  0
TEXT
  5
EB
330
2
100
AcDbEntity
  8
0
 62
     2
100
AcDbText
 10
757.1181492157688
 20
15.6998155777203
 30
0.0
 40
3.457439999999999
  1
T.I.R. ACCURACY .0001"
  7
굴림
100
AcDbText
  0
DIMENSION
  5
113
330
2
100
AcDbEntity
  8
0
  6
Continuous
 62
     7
100
AcDbDimension
280
     0
  2
*D7
 10
762.3975288481905
 20
108.187658519077
 30
0.0
 11
762.3975288481905
 21
126.6429616621709
 31
0.0
 70
   160
  1
%%C1.7500
 71
     5
 42
44.44999999999993
 73
     0
 74
     0
 75
     0
  3
Standard$0
100
AcDbAlignedDimension
 13
775.1733316205756
 23
63.73765851907705
 33
0.0
 14
775.1733316205756
 24
108.187658519077
 34
0.0
 50
90.0
100
AcDbRotatedDimension
1001
ACAD
1000
DSTYLE
1002
{
1070
    42
1040
0.625
1070
    43
1040
3.75
1070
    44
1040
1.25
1070
    48
1040
0.000000001
1070
    74
1070
     0
1070
    77
1070
     1
1070
    90
1070
     1
1070
   140
1040
3.0
1070
   141
1040
-0.5
1070
   143
1040
0.03937007874016
1070
   146
1040
0.7
1070
   147
1040
0.625
1070
   171
1070
     3
1070
   172
1070
     1
1070
   175
1070
     0
1070
   179
1070
     0
1070
   274
1070
     3
1070
   283
1070
     0
1070
   284
1070
     8
1070
   340
1005
23
1070
   371
1070
    -1
1070
   372
1070
    -1
1002
}
  0
DIMENSION
  5
122
330
2
100
AcDbEntity
  8
0
  6
Continuous
 62
     7
100
AcDbDimension
280
     0
  2
*D8
 10
754.3975288481902
 20
117.7126585190769
 30
0.0
 11
754.3975288481902
 21
126.3888396214394
 31
0.0
 70
   160
  1
%%C2.500
 71
     5
 42
63.49999999999988
 73
     0
 74
     0
 75
     0
  3
Standard$0
100
AcDbAlignedDimension
 13
779.1483316205755
 23
54.21265851907708
 33
0.0
 14
779.1483316205755
 24
117.7126585190769
 34
0.0
 50
90.0
100
AcDbRotatedDimension
1001
ACAD
1000
DSTYLE
1002
{
1070
    42
1040
0.625
1070
    43
1040
3.75
1070
    44
1040
1.25
1070
    48
1040
0.000000001
1070
    74
1070
     0
1070
    77
1070
     1
1070
    90
1070
     1
1070
   140
1040
3.0
1070
   141
1040
-0.5
1070
   143
1040
0.03937007874016
1070
   146
1040
0.7
1070
   147
1040
0.625
1070
   171
1070
     3
1070
   172
1070
     1
1070
   175
1070
     0
1070
   179
1070
     0
1070
   274
1070
     3
1070
   283
1070
     0
1070
   284
1070
     8
1070
   340
1005
23
1070
   371
1070
    -1
1070
   372
1070
    -1
1002
}
  0
DIMENSION
  5
130
330
2
100
AcDbEntity
  8
0
  6
Continuous
 62
     7
100
AcDbDimension
280
     0
  2
*D2
 10
770.3975288481905
 20
89.96265851910768
 30
0.0
 11
770.3975288481905
 21
126.6429616621709
 31
0.0
 70
   160
  1
M<>*1.0
 71
     5
 42
8.000000000061149
 73
     0
 74
     0
 75
     0
  3
Standard$0
100
AcDbAlignedDimension
 13
775.1733316205756
 23
81.96265851904653
 33
0.0
 14
770.5110448608167
 24
89.96265851910768
 34
0.0
 50
90.0
100
AcDbRotatedDimension
1001
ACAD
1000
DSTYLE
1002
{
1070
    42
1040
0.625
1070
    43
1040
3.75
1070
    44
1040
1.25
1070
    48
1040
0.000000001
1070
    74
1070
     0
1070
    75
1070
     1
1070
    77
1070
     1
1070
    90
1070
     1
1070
   140
1040
3.0
1070
   141
1040
-0.5
1070
   143
1040
0.03937007874016
1070
   146
1040
0.7
1070
   147
1040
0.625
1070
   171
1070
     3
1070
   172
1070
     1
1070
   175
1070
     0
1070
   179
1070
     0
1070
   274
1070
     3
1070
   281
1070
     1
1070
   283
1070
     0
1070
   284
1070
     8
1070
   340
1005
23
1070
   371
1070
    -1
1070
   372
1070
    -1
1002
}
  0
MULTILEADER
  5
13B
330
2
100
AcDbEntity
  8
0
  6
Continuous
 62
     7
160
               736
310
E0020000190000000C00000016000000020000C30C00000033000000000000000C00000013000000993A00000C00000016000000020000C3E000000026000000B2CC28210040864060D98AACD1405D40000000000000000000000000000000000000000000000000000000000000F03F000000000000F03F00000000000000
310
00000000000000000055004E00430035002F0038002D0031003100000009000000010000000000000000000840000000000000F03F0000000000000000000000000000F03F00000000000000000000000000000000000000000000000000000000010000000000000000000000690073006F00630070002E00730068007800
310
00007700680067007400780074002E00730068007800000000000C00000033000000000000000C00000010000000000000000C00000016000000030000C30C00000012000000000000000C00000013000000010000000C00000014000000010000005400000007000000030000009BBA78D508CF8640A030956C8773584000
310
000000000000000915EF7FAAC48640B8297A329C7D57400000000000000000F8530F1E81C486404C61225C2381584000000000000000000C00000013000000891300003C00000006000000020000004907C4F9C4C98640F6C85B64557A58400000000000000000FAADA335AEE18640F87224466B1A5D400000000000000000
310
0C00000013000000112700003C0000000600000002000000FAADA335AEE18640F87224466B1A5D4000000000000000007F99F5EDCCDE8640F87224466B1A5D4000000000000000000C00000016000000030000C30C00000012000000000000000C00000017000000000000000C000000130000009A3A00003C000000060000
310
00020000004C66C2BA99438640F87224466B1A5D4000000000000000007F99F5EDCCDE8640F87224466B1A5D4000000000000000000C00000016000000070000C30C00000012000000000000000C00000017000000FFFFFFFF0C0000003300000000000000
100
AcDbMLeader
270
     2
300
CONTEXT_DATA{
 40
1.0
 10
710.4500632464855
 20
118.5127974849651
 30
0.0
 41
3.0
140
4.0
145
2.0
174
     1
175
     6
176
     2
177
     0
290
     1
304
UNC5/8-11
 11
0.0
 21
0.0
 31
1.0
340
23
 12
729.8500632464855
 22
120.0127974849652
 32
0.0
 13
1.0
 23
0.0
 33
0.0
 42
0.0
 43
0.0
 44
0.0
 45
1.0
170
     1
 90
-1023410174
171
     3
172
     5
 91
-1073741824
141
0.0
 92
        0
291
     0
292
     0
173
     0
293
     0
142
0.0
143
0.0
294
     0
295
     0
296
     0
110
728.5832518270774
120
78.66338205511318
130
0.0
111
1.0
121
0.0
131
0.0
112
0.0
122
1.0
132
0.0
297
     0
302
LEADER{
290
     1
291
     1
 10
732.2100632464855
 20
116.4127974849651
 30
0.0
 11
-1.0
 21
0.0
 31
0.0
 90
        0
 40
0.36
304
LEADER_LINE{
 10
728.5832518270773
 20
93.96265851907708
 30
0.0
 91
        0
305
}
271
     0
303
}
272
     9
273
     9
301
}
340
13E
 90
   279552
170
     1
 91
-1023410173
341
26
171
    -2
290
     1
291
     1
 41
0.36
 42
4.0
172
     2
343
23
173
     1
 95
        6
174
     1
175
     2
 92
-1023410174
292
     0
 93
-1056964608
 10
1.0
 20
1.0
 30
1.0
 43
0.0
176
     0
293
     0
294
     0
178
     0
179
     3
 45
1.0
271
     0
272
     9
273
     9
295
     1
  0
LINE
  5
148
330
2
100
AcDbEntity
  8
0
  6
Continuous
 62
     3
100
AcDbLine
 10
706.9233316205757
 20
74.26949298468514
 30
0.0
 11
706.9233316205757
 21
36.66890474544255
 31
0.0
  0
MTEXT
  5
149
330
2
100
AcDbEntity
  8
0
  6
Continuous
 62
     2
100
AcDbMText
 10
706.9238657897232
 20
34.2200896416465
 30
0.0
 40
3.0
 41
0.0
 46
0.0
 71
     5
 72
     1
  1
2.69
 73
     1
 44
1.0
  0
LINE
  5
15C
330
2
100
AcDbEntity
  8
0
  6
Continuous
 62
     3
100
AcDbLine
 10
778.3483316205755
 20
54.20461028957868
 30
0.0
 11
778.3483316205755
 21
45.97462093134061
 31
0.0
  0
LINE
  5
15D
330
2
100
AcDbEntity
  8
0
  6
Continuous
 62
     3
100
AcDbLine
 10
778.3483316205755
 20
45.97462093134061
 30
0.0
 11
784.6164824109219
 21
44.22587976289662
 31
0.0
  0
LINE
  5
15E
330
2
100
AcDbEntity
  8
0
  6
Continuous
 62
     3
100
AcDbLine
 10
784.6164824109219
 20
44.22587976289662
 30
0.0
 11
784.6164824109219
 21
31.40095441855226
 31
0.0
  0
MTEXT
  5
15F
330
2
100
AcDbEntity
  8
0
  6
Continuous
 62
     2
100
AcDbMText
 10
784.5610256407959
 20
28.91951015804341
 30
0.0
 40
3.0
 41
0.0
 46
0.0
 71
     5
 72
     1
  1
0.13
 73
     1
 44
1.0
  0
DIMENSION
  5
16E
330
2
100
AcDbEntity
  8
0
  6
Continuous
 62
     7
100
AcDbDimension
280
     0
  2
*D3
 10
862.3370910216326
 20
101.9626585190523
 30
0.0
 11
860.211795746042
 21
85.96265851907721
 31
0.0
 70
    32
  1
%%C1.26
 71
     5
 42
31.99999999995046
 73
     0
 74
     0
 75
     0
  3
Standard$0
100
AcDbAlignedDimension
 13
838.6733316206157
 23
69.96265851910187
 33
0.0
 14
838.6733316206157
 24
101.9626585190523
 34
0.0
 50
90.0
100
AcDbRotatedDimension
1001
ACAD
1000
DSTYLE
1002
{
1070
    42
1040
0.625
1070
    43
1040
3.75
1070
    44
1040
1.25
1070
    48
1040
0.000000001
1070
    74
1070
     0
1070
    77
1070
     1
1070
    90
1070
     1
1070
   140
1040
3.0
1070
   141
1040
-0.5
1070
   143
1040
0.03937007874016
1070
   146
1040
0.7
1070
   147
1040
0.625
1070
   171
1070
     3
1070
   172
1070
     1
1070
   175
1070
     0
1070
   179
1070
     0
1070
   274
1070
     3
1070
   283
1070
     0
1070
   284
1070
     8
1070
   340
1005
23
1070
   371
1070
    -1
1070
   372
1070
    -1
1002
}
  0
DIMENSION
  5
17B
330
2
100
AcDbEntity
  8
0
  6
Continuous
 62
     7
100
AcDbDimension
280
     0
  2
*D4
 10
854.3370910216326
 20
92.31265851907711
 30
0.0
 11
854.3370910216326
 21
87.5501585190751
 31
0.0
 70
   160
  1
%%C0.5000
 71
     5
 42
12.70000000000004
 73
     0
 74
     0
 75
     0
  3
Standard$0
100
AcDbAlignedDimension
 13
838.2403189187208
 23
79.61265851907706
 33
0.0
 14
838.2403189187208
 24
92.31265851907711
 34
0.0
 50
90.0
100
AcDbRotatedDimension
1001
ACAD
1000
DSTYLE
1002
{
1070
    42
1040
0.625
1070
    43
1040
3.75
1070
    44
1040
1.25
1070
    48
1040
0.000000001
1070
    74
1070
     0
1070
    75
1070
     1
1070
    77
1070
     1
1070
    90
1070
     1
1070
   140
1040
3.0
1070
   141
1040
-0.5
1070
   143
1040
0.03937007874016
1070
   146
1040
0.7
1070
   147
1040
0.625
1070
   171
1070
     3
1070
   172
1070
     1
1070
   175
1070
     0
1070
   179
1070
     0
1070
   274
1070
     3
1070
   281
1070
     1
1070
   283
1070
     0
1070
   284
1070
     8
1070
   340
1005
23
1070
   371
1070
    -1
1070
   372
1070
    -1
1002
}
  0
DIMENSION
  5
1D7
330
2
100
AcDbEntity
  8
0
  6
Continuous
 62
     7
100
AcDbDimension
280
     0
  2
*D5
 10
870.3370910216326
 20
108.1876585190771
 30
0.0
 11
870.3370910216326
 21
85.96265851907672
 31
0.0
 70
   160
  1
%%C1.75
 71
     5
 42
44.45000000000004
 73
     0
 74
     0
 75
     0
  3
Standard$0
100
AcDbAlignedDimension
 13
827.3554169585946
 23
63.73765851907705
 33
0.0
 14
827.3554169585946
 24
108.1876585190771
 34
0.0
 50
90.0
100
AcDbRotatedDimension
1001
ACAD
1000
DSTYLE
1002
{
1070
    42
1040
0.625
1070
    43
1040
3.75
1070
    44
1040
1.25
1070
    48
1040
0.000000001
1070
    74
1070
     0
1070
    77
1070
     1
1070
    90
1070
     1
1070
   140
1040
3.0
1070
   141
1040
-0.5
1070
   143
1040
0.03937007874016
1070
   146
1040
0.7
1070
   147
1040
0.625
1070
   171
1070
     3
1070
   172
1070
     1
1070
   175
1070
     0
1070
   179
1070
     0
1070
   274
1070
     3
1070
   283
1070
     0
1070
   284
1070
     8
1070
   340
1005
23
1070
   371
1070
    -1
1070
   372
1070
    -1
1002
}
  0
DIMENSION
  5
1E4
330
2
100
AcDbEntity
  8
0
  6
Continuous
 62
     7
100
AcDbDimension
280
     0
  2
*D1
 10
838.6733316205759
 20
127.9189924944215
 30
0.0
 11
810.0983316205836
 21
130.0442877700121
 31
0.0
 70
    32
  1
2.25
 71
     5
 42
57.14999999998486
 73
     0
 74
     0
 75
     0
  3
Standard$0
100
AcDbAlignedDimension
 13
781.5233316205911
 23
92.21265851910921
 33
0.0
 14
838.6733316205759
 24
100.8079579806961
 34
0.0
100
AcDbRotatedDimension
1001
ACAD
1000
DSTYLE
1002
{
1070
    42
1040
0.625
1070
    43
1040
3.75
1070
    44
1040
1.25
1070
    48
1040
0.000000001
1070
    74
1070
     0
1070
    77
1070
     1
1070
    90
1070
     1
1070
   140
1040
3.0
1070
   141
1040
-0.5
1070
   143
1040
0.03937007874016
1070
   146
1040
0.7
1070
   147
1040
0.625
1070
   171
1070
     3
1070
   172
1070
     1
1070
   175
1070
     0
1070
   179
1070
     0
1070
   274
1070
     3
1070
   283
1070
     0
1070
   284
1070
     8
1070
   340
1005
23
1070
   371
1070
    -1
1070
   372
1070
    -1
1002
}
  0
LINE
  5
4EA
330
2
100
AcDbEntity
  8
0
  6
CENTER
 62
     3
100
AcDbLine
 10
704.9233316205755
 20
85.96265851907707
 30
0.0
 11
840.6733316205755
 21
85.96265851907707
 31
0.0
  0
LINE
  5
4EB
330
2
100
AcDbEntity
  8
0
 62
     0
100
AcDbLine
 10
796.2233316205755
 20
63.73765851907705
 30
0.0
 11
827.3554169585946
 21
63.73765851907705
 31
0.0
  0
LINE
  5
4ED
102
{ACAD_REACTORS
330
23A8
102
}
330
2
100
AcDbEntity
  8
0
  6
Continuous
 62
     7
100
AcDbLine
 10
775.1733316205756
 20
108.187658519077
 30
0.0
 11
708.4447539810772
 21
98.45640824789434
 31
0.0
1001
ACAD
1000
ASC_BOUNDS
1002
{
1070
    19
1002
}
  0
LINE
  5
4EE
102
{ACAD_REACTORS
330
23A8
102
}
330
2
100
AcDbEntity
  8
0
  6
Continuous
100
AcDbLine
 10
708.6553824281445
 20
94.11265851907705
 30
0.0
 11
711.7233316205755
 21
94.11265851907728
 31
0.0
  0
LINE
  5
4EF
330
2
100
AcDbEntity
  8
0
  6
Continuous
 62
     7
100
AcDbLine
 10
775.1733316205756
 20
63.73765851907705
 30
0.0
 11
708.4447539810772
 21
73.46890879025981
 31
0.0
1001
ACAD
1000
ASC_BOUNDS
1002
{
1070
    19
1002
}
  0
LINE
  5
4F0
330
2
100
AcDbEntity
  8
0
  6
Continuous
100
AcDbLine
 10
706.9233316205756
 20
85.96265851907707
 30
0.0
 11
706.9233316205757
 21
75.22829843297952
 31
0.0
  0
POINT
  5
4F3
330
2
100
AcDbEntity
  8
DEFPOINTS
  6
ByBlock
 62
     0
100
AcDbPoint
 10
706.9233316205756
 20
85.96265851907707
 30
0.0
  0
LINE
  5
4F4
102
{ACAD_REACTORS
330
23A8
102
}
330
2
100
AcDbEntity
  8
0
  6
Continuous
100
AcDbLine
 10
706.9233316205756
 20
85.96265851907707
 30
0.0
 11
706.9233316205756
 21
96.69701860517463
 31
0.0
  0
LINE
  5
4F6
330
2
100
AcDbEntity
  8
0
  6
Continuous
100
AcDbLine
 10
782.5345474519322
 20
54.21265851907708
 30
0.0
 11
778.8483316205756
 21
54.21265851907708
 31
0.0
  0
LINE
  5
4F7
102
{ACAD_REACTORS
330
23A8
102
}
330
2
100
AcDbEntity
  8
0
  6
Continuous
100
AcDbLine
 10
751.9233316205757
 20
92.96265851907708
 30
0.0
 11
712.3931059495618
 21
92.96265851907708
 31
0.0
  0
LINE
  5
4F8
102
{ACAD_REACTORS
330
23A8
102
}
330
2
100
AcDbEntity
  8
0
  6
Continuous
 62
     3
100
AcDbLine
 10
736.9233316205756
 20
93.96265851907708
 30
0.0
 11
711.8106934895739
 21
93.96265851907697
 31
0.0
  0
LINE
  5
4F9
102
{ACAD_REACTORS
330
23A8
102
}
330
2
100
AcDbEntity
  8
0
  6
Continuous
100
AcDbLine
 10
711.7233316205755
 20
94.11265851907728
 30
0.0
 11
712.3931059495618
 21
92.96265851907719
 31
0.0
  0
POINT
  5
4FA
330
2
100
AcDbEntity
  8
DEFPOINTS
  6
ByBlock
 62
     0
100
AcDbPoint
 10
711.5733316205757
 20
94.11265851907705
 30
0.0
  0
LINE
  5
4FB
330
2
100
AcDbEntity
  8
0
  6
Continuous
100
AcDbLine
 10
711.7233316205755
 20
85.96265851907707
 30
0.0
 11
711.7233316205755
 21
94.11265851907717
 31
0.0
1001
ACAD
1000
ASC_BOUNDS
1002
{
1070
    19
1005
0
1002
}
  0
LINE
  5
4FC
330
2
100
AcDbEntity
  8
0
  6
Continuous
100
AcDbLine
 10
712.3931059495618
 20
92.96265851907719
 30
0.0
 11
712.3931059495618
 21
85.9626585190772
 31
0.0
  0
LINE
  5
4FD
102
{ACAD_REACTORS
330
23A8
102
}
330
2
100
AcDbEntity
  8
0
  6
Continuous
 62
     3
100
AcDbLine
 10
736.9233316205756
 20
93.96265851907708
 30
0.0
 11
738.7429346818061
 21
92.96265851907708
 31
0.0
  0
LINE
  5
4FE
102
{ACAD_REACTORS
330
23A8
102
}
330
2
100
AcDbEntity
  8
0
  6
Continuous
 62
     2
100
AcDbLine
 10
736.9233316205756
 20
93.96265851907708
 30
0.0
 11
736.9233316205756
 21
85.96265851907707
 31
0.0
  0
LINE
  5
4FF
102
{ACAD_REACTORS
330
23A8
102
}
330
2
100
AcDbEntity
  8
0
  6
Continuous
100
AcDbLine
 10
751.9233316205757
 20
92.96265851907708
 30
0.0
 11
751.9233316205757
 21
85.96265851907707
 31
0.0
  0
LINE
  5
500
330
2
100
AcDbEntity
  8
0
  6
Continuous
100
AcDbLine
 10
782.8232225865272
 20
54.30441022861344
 30
0.0
 11
782.823222586527
 21
77.77115851907706
 31
0.0
  0
LINE
  5
501
330
2
100
AcDbEntity
  8
0
  6
Continuous
100
AcDbLine
 10
784.4316316205754
 20
77.77115851907706
 30
0.0
 11
784.4316316205754
 21
56.99850468540183
 31
0.0
  0
LINE
  5
502
330
2
100
AcDbEntity
  8
0
  6
Continuous
100
AcDbLine
 10
789.8754406546238
 20
54.30441022861344
 30
0.0
 11
789.875440654624
 21
77.77115851907706
 31
0.0
  0
LINE
  5
503
330
2
100
AcDbEntity
  8
0
  6
Continuous
100
AcDbLine
 10
788.2670316205755
 20
77.77115851907701
 30
0.0
 11
788.2670316205757
 21
56.99850468540176
 31
0.0
  0
LINE
  5
504
330
2
100
AcDbEntity
  8
0
  6
Continuous
100
AcDbLine
 10
793.4233316205756
 20
54.21265851907702
 30
0.0
 11
790.164115789219
 21
54.21265851907702
 31
0.0
  0
LINE
  5
505
330
2
100
AcDbEntity
  8
0
  6
Continuous
100
AcDbLine
 10
784.4493316205757
 20
57.81265851907716
 30
0.0
 11
788.2493316205755
 21
57.81265851907716
 31
0.0
  0
LINE
  5
506
330
2
100
AcDbEntity
  8
0
  6
Continuous
100
AcDbLine
 10
784.4316316205754
 20
56.99850468540183
 30
0.0
 11
782.9675601538244
 21
54.46265851907708
 31
0.0
  0
ARC
  5
507
330
2
100
AcDbEntity
  8
0
  6
Continuous
100
AcDbCircle
 10
782.5345474519322
 20
54.71265851907708
 30
0.0
 40
0.5
100
AcDbArc
 50
270.0
 51
330.0000000000078
  0
LINE
  5
508
330
2
100
AcDbEntity
  8
0
  6
Continuous
100
AcDbLine
 10
788.2670316205757
 20
56.99850468540183
 30
0.0
 11
789.7311030873268
 21
54.46265851907708
 31
0.0
  0
POINT
  5
509
330
2
100
AcDbEntity
  8
DEFPOINTS
  6
ByBlock
 62
     0
100
AcDbPoint
 10
788.2493316205755
 20
57.81265851907716
 30
0.0
  0
POINT
  5
50A
330
2
100
AcDbEntity
  8
DEFPOINTS
  6
ByBlock
 62
     0
100
AcDbPoint
 10
788.2493316205755
 20
57.02078122258263
 30
0.0
  0
ARC
  5
50B
330
2
100
AcDbEntity
  8
0
  6
Continuous
100
AcDbCircle
 10
790.164115789219
 20
54.71265851907708
 30
0.0
 40
0.5
100
AcDbArc
 50
209.9999999999918
 51
270.0
  0
LINE
  5
50C
102
{ACAD_REACTORS
330
23A8
102
}
330
2
100
AcDbEntity
  8
0
  6
Continuous
100
AcDbLine
 10
782.5345474519322
 20
117.7126585190771
 30
0.0
 11
778.8483316205756
 21
117.712658519077
 31
0.0
  0
LINE
  5
50D
102
{ACAD_REACTORS
330
23A8
102
}
330
2
100
AcDbEntity
  8
0
  6
Continuous
100
AcDbLine
 10
784.4493316205757
 20
114.112658519077
 30
0.0
 11
788.2493316205755
 21
114.112658519077
 31
0.0
  0
ARC
  5
50E
102
{ACAD_REACTORS
330
23A8
102
}
330
2
100
AcDbEntity
  8
0
  6
Continuous
100
AcDbCircle
 10
782.5345474519322
 20
117.2126585190771
 30
0.0
 40
0.5
100
AcDbArc
 50
29.99999999999211
 51
90.0
  0
LINE
  5
50F
102
{ACAD_REACTORS
330
23A8
102
}
330
2
100
AcDbEntity
  8
0
  6
Continuous
100
AcDbLine
 10
784.4316316205755
 20
114.112658519077
 30
0.0
 11
784.4316316205756
 21
114.926812352752
 31
0.0
  0
POINT
  5
510
330
2
100
AcDbEntity
  8
DEFPOINTS
  6
ByBlock
 62
     0
100
AcDbPoint
 10
784.4493316205757
 20
114.9045358155716
 30
0.0
  0
LINE
  5
511
102
{ACAD_REACTORS
330
23A8
102
}
330
2
100
AcDbEntity
  8
0
  6
Continuous
100
AcDbLine
 10
784.4316316205755
 20
114.9268123527522
 30
0.0
 11
782.9675601538244
 21
117.4626585190771
 31
0.0
  0
LINE
  5
512
102
{ACAD_REACTORS
330
23A8
102
}
330
2
100
AcDbEntity
  8
0
  6
Continuous
100
AcDbLine
 10
788.2670316205755
 20
114.112658519077
 30
0.0
 11
788.2670316205754
 21
114.9268123527521
 31
0.0
  0
POINT
  5
513
330
2
100
AcDbEntity
  8
DEFPOINTS
  6
ByBlock
 62
     0
100
AcDbPoint
 10
788.2493316205755
 20
114.9045358155716
 30
0.0
  0
POINT
  5
514
330
2
100
AcDbEntity
  8
DEFPOINTS
  6
ByBlock
 62
     0
100
AcDbPoint
 10
788.2493316205755
 20
114.112658519077
 30
0.0
  0
LINE
  5
515
102
{ACAD_REACTORS
330
23A8
102
}
330
2
100
AcDbEntity
  8
0
  6
Continuous
100
AcDbLine
 10
788.2670316205755
 20
114.9268123527522
 30
0.0
 11
789.7311030873268
 21
117.4626585190771
 31
0.0
  0
ARC
  5
516
102
{ACAD_REACTORS
330
23A8
102
}
330
2
100
AcDbEntity
  8
0
  6
Continuous
100
AcDbCircle
 10
790.164115789219
 20
117.2126585190771
 30
0.0
 40
0.5
100
AcDbArc
 50
90.0
 51
150.0000000000081
  0
LINE
  5
517
102
{ACAD_REACTORS
330
23A8
102
}
330
2
100
AcDbEntity
  8
0
  6
Continuous
100
AcDbLine
 10
793.4233316205756
 20
117.7126585190771
 30
0.0
 11
790.164115789219
 21
117.7126585190771
 31
0.0
  0
LINE
  5
518
102
{ACAD_REACTORS
330
23A8
102
}
330
2
100
AcDbEntity
  8
0
  6
ByBlock
 62
     0
100
AcDbLine
 10
751.9233316205757
 20
92.71265851907703
 30
0.0
 11
768.9233316205758
 21
92.71265851907708
 31
0.0
  0
LINE
  5
519
102
{ACAD_REACTORS
330
23A8
102
}
330
2
100
AcDbEntity
  8
0
  6
Continuous
100
AcDbLine
 10
706.9233316205756
 20
95.11265851907706
 30
0.0
 11
708.6553824281445
 21
94.11265851907705
 31
0.0
  0
LINE
  5
51A
330
2
100
AcDbEntity
  8
0
  6
Continuous
100
AcDbLine
 10
708.6553824281445
 20
94.11265851907705
 30
0.0
 11
708.6553824281445
 21
85.96265851907702
 31
0.0
  0
LINE
  5
51E
330
2
100
AcDbEntity
  8
0
  6
Continuous
100
AcDbLine
 10
778.3483316205754
 20
77.77115851907705
 30
0.0
 11
794.2233316205758
 21
77.77115851907705
 31
0.0
  0
LINE
  5
51F
330
2
100
AcDbEntity
  8
0
  6
Continuous
 62
     7
100
AcDbLine
 10
838.6733316205754
 20
85.96265851907707
 30
0.0
 11
838.6733316206127
 21
71.11735905746312
 31
0.0
  0
LINE
  5
520
102
{ACAD_REACTORS
330
23A8
102
}
330
2
100
AcDbEntity
  8
0
  6
Continuous
 62
     7
100
AcDbLine
 10
781.5233316205913
 20
92.21265851910642
 30
0.0
 11
781.5233316205953
 21
85.96265851910596
 31
0.0
  0
ARC
  5
521
102
{ACAD_REACTORS
330
23A8
102
}
330
2
100
AcDbEntity
  8
0
  6
Continuous
 62
     7
100
AcDbCircle
 10
781.923331620591
 20
92.21265851910663
 30
0.0
 40
0.4
100
AcDbArc
 50
90.0
 51
180.0000000000391
  0
ARC
  5
527
330
2
100
AcDbEntity
  8
0
  6
Continuous
 62
     7
100
AcDbCircle
 10
836.673331620576
 20
71.11735905745809
 30
0.0
 40
2.0
100
AcDbArc
 50
300.0
 51
0.0
  0
LINE
  5
528
330
2
100
AcDbEntity
  8
0
  6
Continuous
 62
     7
100
AcDbLine
 10
837.673331620576
 20
69.38530824988929
 30
0.0
 11
828.3554169585945
 21
64.00560771150816
 31
0.0
  0
ARC
  5
529
330
2
100
AcDbEntity
  8
0
  6
Continuous
100
AcDbCircle
 10
827.3554169585946
 20
65.73765851907706
 30
0.0
 40
2.0
100
AcDbArc
 50
270.0
 51
300.0
  0
LINE
  5
52A
330
2
100
AcDbEntity
  8
0
  6
Continuous
 62
     7
100
AcDbLine
 10
827.8913153434569
 20
63.73765851907705
 30
0.0
 11
827.8913153434572
 21
85.96265851907725
 31
0.0
  0
LINE
  5
52B
102
{ACAD_REACTORS
330
23A8
102
}
330
2
100
AcDbEntity
  8
0
 62
     0
100
AcDbLine
 10
796.2233316205755
 20
108.1876585190771
 30
0.0
 11
827.3554169585946
 21
108.1876585190771
 31
0.0
  0
LINE
  5
52D
102
{ACAD_REACTORS
330
23A8
102
}
330
2
100
AcDbEntity
  8
0
  6
Continuous
 62
     7
100
AcDbLine
 10
838.6733316205754
 20
85.96265851907707
 30
0.0
 11
838.6733316205759
 21
100.8079579806961
 31
0.0
  0
ARC
  5
52E
102
{ACAD_REACTORS
330
23A8
102
}
330
2
100
AcDbEntity
  8
0
  6
Continuous
 62
     7
100
AcDbCircle
 10
836.673331620576
 20
100.8079579806961
 30
0.0
 40
2.0
100
AcDbArc
 50
0.0
 51
59.99999999999992
  0
LINE
  5
52F
102
{ACAD_REACTORS
330
23A8
102
}
330
2
100
AcDbEntity
  8
0
  6
Continuous
 62
     7
100
AcDbLine
 10
837.673331620576
 20
102.5400087882649
 30
0.0
 11
828.3554169585945
 21
107.919709326646
 31
0.0
  0
ARC
  5
530
102
{ACAD_REACTORS
330
23A8
102
}
330
2
100
AcDbEntity
  8
0
  6
Continuous
100
AcDbCircle
 10
827.3554169585946
 20
106.1876585190771
 30
0.0
 40
2.0
100
AcDbArc
 50
59.99999999999992
 51
90.0
  0
LINE
  5
533
102
{ACAD_REACTORS
330
23A8
102
}
330
2
100
AcDbEntity
  8
0
  6
Continuous
 62
     0
100
AcDbLine
 10
804.6733316206104
 20
94.81265851907858
 30
0.0
 11
832.6733316206146
 21
94.81265851907869
 31
0.0
1001
ACAD
1000
ASC_BOUNDS
1002
{
1070
    19
1005
0
1005
0
1005
0
1005
0
1005
0
1005
0
1005
0
1002
}
  0
LINE
  5
534
330
2
100
AcDbEntity
  8
0
  6
Continuous
 62
     0
100
AcDbLine
 10
800.6733316206132
 20
92.61265851907603
 30
0.0
 11
800.6733316206132
 21
85.96265851907668
 31
0.0
  0
LINE
  5
535
102
{ACAD_REACTORS
330
23A8
102
}
330
2
100
AcDbEntity
  8
0
  6
Continuous
 62
     0
100
AcDbLine
 10
781.923331620591
 20
92.61265851907603
 30
0.0
 11
800.6733316206132
 21
92.61265851907603
 31
0.0
1001
ACAD
1000
ASC_BOUNDS
1002
{
1070
    19
1005
0
1002
}
  0
LINE
  5
536
102
{ACAD_REACTORS
330
23A8
102
}
330
2
100
AcDbEntity
  8
0
  6
Continuous
 62
     0
100
AcDbLine
 10
832.6733316206146
 20
94.81265851907869
 30
0.0
 11
832.6733316206146
 21
93.71265851907697
 31
0.0
1001
ACAD
1000
ASC_BOUNDS
1002
{
1070
    19
1005
0
1002
}
  0
ARC
  5
537
102
{ACAD_REACTORS
330
23A8
102
}
330
2
100
AcDbEntity
  8
0
  6
Continuous
 62
     0
100
AcDbCircle
 10
832.273331620613
 20
93.71265851907697
 30
0.0
 40
0.4
100
AcDbArc
 50
270.0
 51
0.0
1001
ACAD
1000
ASC_BOUNDS
1002
{
1070
    19
1005
0
1002
}
  0
LINE
  5
538
102
{ACAD_REACTORS
330
23A8
102
}
330
2
100
AcDbEntity
  8
0
  6
Continuous
 62
     0
100
AcDbLine
 10
825.6733316206128
 20
93.3126585190771
 30
0.0
 11
832.273331620613
 21
93.3126585190771
 31
0.0
1001
ACAD
1000
ASC_BOUNDS
1002
{
1070
    19
1005
0
1002
}
  0
LINE
  5
539
102
{ACAD_REACTORS
330
23A8
102
}
330
2
100
AcDbEntity
  8
0
  6
Continuous
 62
     0
100
AcDbLine
 10
806.173331620614
 20
93.3126585190762
 30
0.0
 11
812.873331620613
 21
93.31265851907664
 31
0.0
1001
ACAD
1000
ASC_BOUNDS
1002
{
1070
    19
1005
0
1002
}
  0
LINE
  5
53A
102
{ACAD_REACTORS
330
23A8
102
}
330
2
100
AcDbEntity
  8
0
  6
Continuous
 62
     0
100
AcDbLine
 10
804.6733316206104
 20
94.81265851907858
 30
0.0
 11
806.173331620614
 21
93.3126585190762
 31
0.0
1001
ACAD
1000
ASC_BOUNDS
1002
{
1070
    19
1005
0
1002
}
  0
LINE
  5
53B
102
{ACAD_REACTORS
330
23A8
102
}
330
2
100
AcDbEntity
  8
0
  6
Continuous
 62
     0
100
AcDbLine
 10
824.5733316206161
 20
94.41265851907747
 30
0.0
 11
825.6733316206128
 21
93.3126585190771
 31
0.0
1001
ACAD
1000
ASC_BOUNDS
1002
{
1070
    19
1005
0
1002
}
  0
LINE
  5
53C
102
{ACAD_REACTORS
330
23A8
102
}
330
2
100
AcDbEntity
  8
0
  6
Continuous
 62
     0
100
AcDbLine
 10
813.9733316206134
 20
94.41265851907656
 30
0.0
 11
812.873331620613
 21
93.31265851907664
 31
0.0
1001
ACAD
1000
ASC_BOUNDS
1002
{
1070
    19
1005
0
1002
}
  0
LINE
  5
53D
102
{ACAD_REACTORS
330
23A8
102
}
330
2
100
AcDbEntity
  8
0
 62
     0
100
AcDbLine
 10
813.9733316206134
 20
94.41265851907656
 30
0.0
 11
824.5733316206161
 21
94.41265851907747
 31
0.0
  0
LINE
  5
53E
102
{ACAD_REACTORS
330
23A8
102
}
330
2
100
AcDbEntity
  8
0
  6
Continuous
 62
     0
100
AcDbLine
 10
800.6733316206132
 20
92.61265851907603
 30
0.0
 11
800.84653670137
 21
92.31265851907711
 31
0.0
  0
LINE
  5
53F
102
{ACAD_REACTORS
330
23A8
102
}
330
2
100
AcDbEntity
  8
0
  6
Continuous
 62
     0
100
AcDbLine
 10
838.6733316206115
 20
92.56265851907722
 30
0.0
 11
838.2403189187208
 21
92.31265851907711
 31
0.0
  0
LINE
  5
540
330
2
100
AcDbEntity
  8
0
  6
Continuous
 62
     0
100
AcDbLine
 10
838.2403189187208
 20
92.31265851907711
 30
0.0
 11
838.2403189187208
 21
85.96265851907549
 31
0.0
  0
LINE
  5
541
102
{ACAD_REACTORS
330
23A8
102
}
330
2
100
AcDbEntity
  8
0
  6
Continuous
 62
     0
100
AcDbLine
 10
838.2403189187208
 20
92.31265851907711
 30
0.0
 11
800.84653670137
 21
92.31265851907711
 31
0.0
  0
LINE
  5
542
330
2
100
AcDbEntity
  8
0
  6
Continuous
 62
     0
100
AcDbLine
 10
800.84653670137
 20
92.31265851907711
 30
0.0
 11
800.84653670137
 21
85.96265851907714
 31
0.0
  0
ARC
  5
552
330
2
100
AcDbEntity
  8
0
  6
Continuous
100
AcDbCircle
 10
786.3493316205755
 20
85.96265851907707
 30
0.0
 40
4.7625
100
AcDbArc
 50
180.0
 51
0.0
  0
LINE
  5
553
330
2
100
AcDbEntity
  8
0
  6
Continuous
100
AcDbLine
 10
775.1733316205756
 20
63.73765851907705
 30
0.0
 11
775.1733316205756
 21
85.96265851907702
 31
0.0
  0
LINE
  5
554
102
{ACAD_REACTORS
330
23A8
102
}
330
2
100
AcDbEntity
  8
0
  6
Continuous
100
AcDbLine
 10
778.3483316205755
 20
107.7633862787132
 30
0.0
 11
778.3483316205755
 21
117.212658519077
 31
0.0
  0
LINE
  5
555
330
2
100
AcDbEntity
  8
0
  6
Continuous
100
AcDbLine
 10
778.3483316205755
 20
85.96265851907707
 30
0.0
 11
778.3483316205755
 21
54.71265851907702
 31
0.0
  0
ARC
  5
556
330
2
100
AcDbEntity
  8
0
  6
Continuous
100
AcDbCircle
 10
777.8483316205755
 20
63.66193075944079
 30
0.0
 40
0.5
100
AcDbArc
 50
0.0
 51
90.0
  0
LINE
  5
557
330
2
100
AcDbEntity
  8
0
  6
Continuous
100
AcDbLine
 10
775.1733316205756
 20
63.73765851907705
 30
0.0
 11
776.7567371778542
 21
64.1619307594409
 31
0.0
  0
LINE
  5
558
330
2
100
AcDbEntity
  8
0
  6
Continuous
100
AcDbLine
 10
776.7567371778542
 20
64.1619307594409
 30
0.0
 11
777.8483316205755
 21
64.16193075944079
 31
0.0
  0
ARC
  5
559
330
2
100
AcDbEntity
  8
0
  6
Continuous
100
AcDbCircle
 10
778.8483316205756
 20
54.71265851907702
 30
0.0
 40
0.5
100
AcDbArc
 50
180.0
 51
270.0
  0
ARC
  5
55D
102
{ACAD_REACTORS
330
23A8
102
}
330
2
100
AcDbEntity
  8
0
  6
Continuous
100
AcDbCircle
 10
778.8483316205756
 20
117.212658519077
 30
0.0
 40
0.5
100
AcDbArc
 50
90.0
 51
180.0
  0
LINE
  5
55E
330
2
100
AcDbEntity
  8
0
  6
Continuous
 62
     0
100
AcDbLine
 10
776.7567371778542
 20
64.1619307594409
 30
0.0
 11
776.7567371778542
 21
85.96265851907707
 31
0.0
  0
LINE
  5
72D
102
{ACAD_REACTORS
330
23A8
102
}
330
2
100
AcDbEntity
  8
0
  6
Continuous
 62
     7
100
AcDbLine
 10
770.7708524819491
 20
89.51265851910774
 30
0.0
 11
768.9233316205757
 21
92.71265851907708
 31
0.0
  0
LINE
  5
72E
330
2
100
AcDbEntity
  8
0
  6
Continuous
100
AcDbLine
 10
768.9233316205593
 20
92.71265851910504
 30
0.0
 11
768.9233316205591
 21
85.96265851907707
 31
0.0
  0
LINE
  5
755
102
{ACAD_REACTORS
330
23A8
102
}
330
2
100
AcDbEntity
  8
0
100
AcDbLine
 10
770.7708524819502
 20
89.5126585191077
 30
0.0
 11
781.1480539456015
 21
89.51265851910752
 31
0.0
  0
LINE
  5
756
102
{ACAD_REACTORS
330
23A8
102
}
330
2
100
AcDbEntity
  8
0
 62
     3
100
AcDbLine
 10
770.5110448608167
 20
89.96265851910768
 30
0.0
 11
781.4078615667372
 21
89.96265851910752
 31
0.0
  0
LINE
  5
757
330
2
100
AcDbEntity
  8
0
  6
Continuous
 62
     7
100
AcDbLine
 10
781.1480539456015
 20
89.51265851910752
 30
0.0
 11
781.1480539456015
 21
85.96265851910752
 31
0.0
  0
LINE
  5
758
102
{ACAD_REACTORS
330
23A8
102
}
330
2
100
AcDbEntity
  8
0
  6
Continuous
 62
     7
100
AcDbLine
 10
781.5233316205754
 20
90.16265851910768
 30
0.0
 11
781.1480539456015
 21
89.51265851910747
 31
0.0
  0
LINE
  5
759
330
2
100
AcDbEntity
  8
0
  6
Continuous
 62
     7
100
AcDbLine
 10
770.7708524819502
 20
89.5126585191077
 30
0.0
 11
770.7708524819502
 21
85.96265851907707
 31
0.0
  0
DIMENSION
  5
816
330
2
100
AcDbEntity
  8
0
  6
Continuous
 62
     7
100
AcDbDimension
280
     0
  2
*D6
 10
836.6733316205754
 20
71.11735905745849
 30
0.0
 11
847.8963851459859
 21
66.43128185303829
 31
0.0
 70
    36
  1
R0.08
 71
     5
 42
2.000000000000568
 73
     0
 74
     0
 75
     0
  3
Standard
100
AcDbRadialDimension
 15
838.3558803859401
 25
70.03614231130052
 35
0.0
 40
0.0
1001
ACAD
1000
DSTYLE
1002
{
1070
    42
1040
0.625
1070
    43
1040
3.75
1070
    44
1040
1.25
1070
    48
1040
0.000000001
1070
    74
1070
     0
1070
    77
1070
     1
1070
    90
1070
     1
1070
   140
1040
3.0
1070
   141
1040
-0.5
1070
   143
1040
0.03937007874016
1070
   146
1040
0.7
1070
   147
1040
0.625
1070
   171
1070
     3
1070
   172
1070
     1
1070
   175
1070
     0
1070
   274
1070
     3
1070
   283
1070
     0
1070
   284
1070
     8
1070
   288
1070
     1
1070
   340
1005
23
1070
   371
1070
    -1
1070
   372
1070
    -1
1002
}
1001
ACAD_DSTYLE_DIMRADIAL_EXTENSION
1070
   387
1070
     1
1070
   388
1040
5.235987755982994
1070
   390
1040
0.0
  0
DIMENSION
  5
15B5
330
2
100
AcDbEntity
  8
0
  6
Continuous
 62
     7
100
AcDbDimension
280
     0
  2
*D9
 10
827.3554169585933
 20
65.73765851907691
 30
0.0
 11
833.4383999606973
 21
55.20610745590852
 31
0.0
 70
    36
  1
R0.08
 71
     5
 42
2.000000000000284
 73
     0
 74
     0
 75
     0
  3
Standard
100
AcDbRadialDimension
 15
828.0377513936668
 25
63.85765327474539
 35
0.0
 40
0.0
1001
ACAD
1000
DSTYLE
1002
{
1070
    42
1040
0.625
1070
    43
1040
3.75
1070
    44
1040
1.25
1070
    48
1040
0.000000001
1070
    74
1070
     0
1070
    77
1070
     1
1070
    90
1070
     1
1070
   140
1040
3.0
1070
   141
1040
-0.5
1070
   143
1040
0.03937007874016
1070
   146
1040
0.7
1070
   147
1040
0.625
1070
   171
1070
     3
1070
   172
1070
     1
1070
   175
1070
     0
1070
   274
1070
     3
1070
   283
1070
     0
1070
   284
1070
     8
1070
   288
1070
     1
1070
   340
1005
23
1070
   371
1070
    -1
1070
   372
1070
    -1
1002
}
1001
ACAD_DSTYLE_DIMRADIAL_EXTENSION
1070
   387
1070
     1
1070
   388
1040
4.712388980384689
1070
   390
1040
5.235987755982994
  0
DIMENSION
  5
15BF
330
2
100
AcDbEntity
  8
0
  6
Continuous
 62
     7
100
AcDbDimension
280
     0
  2
*D10
 10
796.2341609017035
 20
61.74857136735266
 30
0.0
 11
801.9165192401636
 21
56.15290976988859
 31
0.0
 70
   164
  1
R0.08
 71
     5
 42
2.0
 73
     0
 74
     0
 75
     0
  3
Standard
100
AcDbRadialDimension
 15
794.8091180582024
 25
63.15187208145016
 35
0.0
 40
0.0
1001
ACAD
1000
DSTYLE
1002
{
1070
    42
1040
0.625
1070
    43
1040
3.75
1070
    44
1040
1.25
1070
    48
1040
0.000000001
1070
    74
1070
     0
1070
    77
1070
     1
1070
    90
1070
     1
1070
   140
1040
3.0
1070
   141
1040
-0.5
1070
   143
1040
0.03937007874016
1070
   146
1040
0.7
1070
   147
1040
0.625
1070
   171
1070
     3
1070
   172
1070
     1
1070
   175
1070
     0
1070
   274
1070
     3
1070
   283
1070
     0
1070
   284
1070
     8
1070
   288
1070
     1
1070
   340
1005
23
1070
   371
1070
    -1
1070
   372
1070
    -1
1002
}
1001
ACAD_DSTYLE_DIMRADIAL_EXTENSION
1070
   387
1070
     1
1070
   388
1040
1.570796326794896
1070
   390
1040
3.141592653589793
  0
ARC
  5
22BA
330
2
100
AcDbEntity
  8
0
  6
Continuous
 62
     7
100
AcDbCircle
 10
708.7013316205757
 20
75.22829843297953
 30
0.0
 40
1.778
100
AcDbArc
 50
180.0000000000006
 51
261.7028555636895
1001
ACAD
1000
ASC_BOUNDS
1002
{
1070
    19
1002
}
  0
ARC
  5
22BB
102
{ACAD_REACTORS
330
23A8
102
}
330
2
100
AcDbEntity
  8
0
  6
Continuous
 62
     7
100
AcDbCircle
 10
708.7013316205756
 20
96.69701860517463
 30
0.0
 40
1.778
100
AcDbArc
 50
98.29714443631035
 51
180.0
1001
ACAD
1000
ASC_BOUNDS
1002
{
1070
    19
1002
}
  0
LINE
  5
22BC
102
{ACAD_REACTORS
330
23A8
102
}
330
2
100
AcDbEntity
  8
0
  6
Continuous
100
AcDbLine
 10
776.7567371778542
 20
107.7633862787132
 30
0.0
 11
778.4483316205759
 21
107.7633862787132
 31
0.0
  0
LINE
  5
22BD
102
{ACAD_REACTORS
330
23A8
102
}
330
2
100
AcDbEntity
  8
0
  6
Continuous
100
AcDbLine
 10
775.1733316205756
 20
108.187658519077
 30
0.0
 11
776.7567371778542
 21
107.7633862787132
 31
0.0
  0
ARC
  5
22BE
102
{ACAD_REACTORS
330
23A8
102
}
330
2
100
AcDbEntity
  8
0
  6
Continuous
100
AcDbCircle
 10
778.4483316205759
 20
108.0633862787128
 30
0.0
 40
0.3
100
AcDbArc
 50
270.0
 51
0.0
1001
ACAD
1000
ASC_BOUNDS
1002
{
1070
    19
1002
}
  0
LINE
  5
22BF
102
{ACAD_REACTORS
330
23A8
102
}
330
2
100
AcDbEntity
  8
0
  6
Continuous
100
AcDbLine
 10
778.7483316205752
 20
108.0633862787128
 30
0.0
 11
778.7483316205752
 21
108.9705659556877
 31
0.0
  0
LINE
  5
22C0
102
{ACAD_REACTORS
330
23A8
102
}
330
2
100
AcDbEntity
  8
0
  6
Continuous
100
AcDbLine
 10
778.3483316205755
 20
109.6633862787113
 30
0.0
 11
778.7483316205752
 21
108.9705659556859
 31
0.0
  0
LINE
  5
234C
330
2
100
AcDbEntity
  8
0
  6
Continuous
100
AcDbLine
 10
794.2233316205755
 20
55.01265851907703
 30
0.0
 11
794.2233316205758
 21
85.96265851907707
 31
0.0
  0
ARC
  5
234D
330
2
100
AcDbEntity
  8
0
  6
Continuous
100
AcDbCircle
 10
793.4233316205756
 20
55.01265851907703
 30
0.0
 40
0.8
100
AcDbArc
 50
270.0
 51
0.0
  0
ARC
  5
234E
330
2
100
AcDbEntity
  8
0
  6
Continuous
100
AcDbCircle
 10
796.2233316205755
 20
61.73765851907706
 30
0.0
 40
2.0
100
AcDbArc
 50
90.0
 51
180.0
  0
ARC
  5
234F
102
{ACAD_REACTORS
330
23A8
102
}
330
2
100
AcDbEntity
  8
0
  6
Continuous
100
AcDbCircle
 10
796.2233316205755
 20
110.1876585190771
 30
0.0
 40
2.0
100
AcDbArc
 50
180.0
 51
270.0
  0
LINE
  5
2350
102
{ACAD_REACTORS
330
23A8
102
}
330
2
100
AcDbEntity
  8
0
  6
Continuous
100
AcDbLine
 10
794.2233316205755
 20
116.912658519077
 30
0.0
 11
794.2233316205755
 21
110.1876585190771
 31
0.0
  0
ARC
  5
2351
102
{ACAD_REACTORS
330
23A8
102
}
330
2
100
AcDbEntity
  8
0
  6
Continuous
100
AcDbCircle
 10
793.4233316205756
 20
116.912658519077
 30
0.0
 40
0.8
100
AcDbArc
 50
0.0
 51
90.0
  0
HATCH
  5
23A8
330
2
100
AcDbEntity
  8
0
  6
Continuous
 62
     4
100
AcDbHatch
 10
0.0
 20
0.0
 30
0.0
210
0.0
220
0.0
230
1.0
  2
ANSI31
 70
     0
 71
     1
 91
        4
 92
        7
 72
     1
 73
     1
 93
       44
 10
838.6733316205759
 20
100.807957980696
 42
0.2679491924311273
 10
837.673331620576
 20
102.5400087882649
 42
0.0
 10
828.3554169585945
 20
107.919709326646
 42
0.1316524975873984
 10
827.3554169585946
 20
108.1876585190771
 42
0.0
 10
796.2233316205755
 20
108.1876585190771
 42
-0.4142135623730951
 10
794.2233316205755
 20
110.1876585190771
 42
0.0
 10
794.2233316205755
 20
116.9126585190771
 42
0.4142135623730951
 10
793.4233316205756
 20
117.712658519077
 42
0.0
 10
790.164115789219
 20
117.7126585190771
 42
0.2679491924311193
 10
789.7311030873268
 20
117.4626585190771
 42
0.0
 10
788.2670316205754
 20
114.926812352752
 42
0.0
 10
788.2670316205755
 20
114.112658519077
 42
0.0
 10
784.4316316205755
 20
114.112658519077
 42
0.0
 10
784.4316316205756
 20
114.926812352752
 42
0.0
 10
782.9675601538244
 20
117.4626585190771
 42
0.2679491924311331
 10
782.5345474519322
 20
117.7126585190771
 42
0.0
 10
778.8483316205756
 20
117.712658519077
 42
0.4142135623730866
 10
778.3483316205755
 20
117.212658519077
 42
0.0
 10
778.3483316205755
 20
109.6633862787113
 42
0.0
 10
778.7483316205752
 20
108.9705659556859
 42
0.0
 10
778.7483316205759
 20
108.0633862787128
 42
-0.4142135623730916
 10
778.4483316205759
 20
107.7633862787128
 42
0.0
 10
776.7567371778542
 20
107.7633862787132
 42
0.0
 10
775.1733316205756
 20
108.187658519077
 42
0.0
 10
708.4447539810772
 20
98.45640824789434
 42
0.3724076148657625
 10
706.9233316205756
 20
96.69701860517463
 42
0.0
 10
706.9233316205756
 20
95.11265851907706
 42
0.0
 10
708.6553824281445
 20
94.11265851907705
 42
0.0
 10
711.7233316205755
 20
94.11265851907728
 42
0.0
 10
711.8106934895739
 20
93.96265851907697
 42
0.0
 10
736.9233316205756
 20
93.96265851907708
 42
0.0
 10
738.7429346818061
 20
92.96265851907708
 42
0.0
 10
751.9233316205757
 20
92.96265851907708
 42
0.0
 10
751.9233316205757
 20
92.71265851907703
 42
0.0
 10
768.9233316205757
 20
92.71265851907708
 42
0.0
 10
770.511044860816
 20
89.96265851910768
 42
0.0
 10
781.4078615667372
 20
89.96265851910752
 42
0.0
 10
781.5233316205927
 20
90.16265851913756
 42
0.0
 10
781.5233316205909
 20
92.2126585191064
 42
-0.414213562373287
 10
781.923331620591
 20
92.61265851910664
 42
0.0
 10
800.6733316206132
 20
92.61265851907603
 42
0.0
 10
800.84653670137
 20
92.31265851907711
 42
0.0
 10
838.2403189187208
 20
92.31265851907711
 42
0.0
 10
838.6733316205758
 20
92.56265851905659
 42
0.0
 97
       44
330
52E
330
52F
330
530
330
52B
330
234F
330
2350
330
2351
330
517
330
516
330
515
330
512
330
50D
330
50F
330
511
330
50E
330
50C
330
55D
330
554
330
22C0
330
22BF
330
22BE
330
22BC
330
22BD
330
4ED
330
22BB
330
4F4
330
519
330
4EE
330
4F9
330
4F8
330
4FD
330
4F7
330
4FF
330
518
330
72D
330
756
330
758
330
520
330
521
330
535
330
53E
330
541
330
53F
330
52D
 92
       22
 72
     1
 73
     1
 93
        9
 10
804.6733316206104
 20
94.81265851907858
 42
0.0
 10
832.6733316206146
 20
94.81265851907869
 42
0.0
 10
832.673331620613
 20
93.71265851907695
 42
-0.4142135623730911
 10
832.273331620613
 20
93.31265851907696
 42
0.0
 10
825.6733316206128
 20
93.3126585190771
 42
0.0
 10
824.5733316206161
 20
94.41265851907747
 42
0.0
 10
813.9733316206134
 20
94.41265851907656
 42
0.0
 10
812.873331620613
 20
93.31265851907664
 42
0.0
 10
806.173331620614
 20
93.3126585190762
 42
0.0
 97
        9
330
533
330
536
330
537
330
538
330
53B
330
53D
330
53C
330
539
330
53A
 92
       23
 72
     0
 73
     1
 93
        4
 10
736.9233316205756
 20
93.96265851907708
 10
711.8106934895739
 20
93.96265851907697
 10
712.3931059495618
 20
92.96265851907708
 10
736.9233316205756
 20
92.96265851907708
 97
        3
330
4F9
330
4F7
330
4FE
 92
        7
 72
     0
 73
     1
 93
        4
 10
781.4078615667372
 20
89.96265851910752
 10
770.511044860816
 20
89.96265851910768
 10
770.7708524819491
 20
89.5126585191077
 10
781.1480539456015
 20
89.51265851910752
 97
        3
330
72D
330
755
330
758
 75
     1
 76
     1
 52
0.0
 41
1.0
 77
     0
 78
     1
 53
45.0
 43
0.0
 44
0.0
 45
-2.245064030267287
 46
2.245064030267288
 79
     0
 47
0.0106988054055052
 98
        4
 10
758.9946234404804
 20
97.38445494386736
 10
758.9946234404804
 20
97.38445494386736
 10
733.9339116960975
 20
93.24294827065353
 10
773.4227187782405
 20
89.75619475095561
1001
GRADIENTCOLOR1ACI
1070
     5
1001
GRADIENTCOLOR2ACI
1070
     2
1001
ACAD
1010
0.0
1020
0.0
1030
0.0
  0
ENDSEC
  0
SECTION
  2
OBJECTS
  0
DICTIONARY
  5
B
330
0
100
AcDbDictionary
281
     1
  3
ACAD_CIP_PREVIOUS_PRODUCT_INFO
350
239
  3
ACAD_COLOR
350
3E
  3
ACAD_DETAILVIEWSTYLE
350
231
  3
ACAD_GROUP
350
39
  3
ACAD_LAYOUT
350
17
  3
ACAD_MATERIAL
350
D
  3
ACAD_MLEADERSTYLE
350
13F
  3
ACAD_MLINESTYLE
350
3A
  3
ACAD_PLOTSETTINGS
350
3B
  3
ACAD_PLOTSTYLENAME
350
A
  3
ACAD_SCALELIST
350
3F
  3
ACAD_SECTIONVIEWSTYLE
350
22F
  3
ACAD_TABLESTYLE
350
40
  3
ACAD_VISUALSTYLE
350
2D
  3
ACDB_RECOMPOSE_DATA
350
2477
  3
AcDbVariableDictionary
350
200
  0
DICTIONARY
  5
2E
330
2A
100
AcDbDictionary
280
     1
281
     1
  0
DICTIONARY
  5
20
330
1F
100
AcDbDictionary
280
     1
281
     1
  3
ACAD_LAYERSTATES
360
21
  0
DICTIONARY
  5
7
330
6
100
AcDbDictionary
280
     1
281
     1
  3
ADSK_XREC_LAYER_RECONCILED
360
8
  0
DICTIONARY
  5
3
330
2
100
AcDbDictionary
280
     1
281
     1
  3
ACAD_SORTENTS
360
1FA
  0
XRECORD
  5
239
102
{ACAD_REACTORS
330
B
102
}
330
B
100
AcDbXrecord
280
     1
300
ACD
300
2014
300
ACD_F_S
  0
DICTIONARY
  5
3E
102
{ACAD_REACTORS
330
B
102
}
330
B
100
AcDbDictionary
281
     1
  0
DICTIONARY
  5
231
102
{ACAD_REACTORS
330
B
102
}
330
B
100
AcDbDictionary
281
     1
  3
Metric50
350
232
  0
DICTIONARY
  5
39
102
{ACAD_REACTORS
330
B
102
}
330
B
100
AcDbDictionary
281
     1
  0
DICTIONARY
  5
17
102
{ACAD_REACTORS
330
B
102
}
330
B
100
AcDbDictionary
281
     1
  3
Model
350
16
  3
배치1
350
1C
  0
DICTIONARY
  5
D
102
{ACAD_REACTORS
330
B
102
}
330
B
100
AcDbDictionary
281
     1
  3
ByBlock
350
3D
  3
ByLayer
350
3C
  3
Global
350
C
  0
DICTIONARY
  5
13F
102
{ACAD_REACTORS
330
B
102
}
330
B
100
AcDbDictionary
281
     1
  3
Standard
350
13E
  0
DICTIONARY
  5
3A
102
{ACAD_REACTORS
330
B
102
}
330
B
100
AcDbDictionary
281
     1
  3
Standard
350
41
  0
DICTIONARY
  5
3B
102
{ACAD_REACTORS
330
B
102
}
330
B
100
AcDbDictionary
281
     1
  0
ACDBDICTIONARYWDFLT
  5
A
102
{ACAD_REACTORS
330
B
102
}
330
B
100
AcDbDictionary
281
     1
  3
Normal
350
9
100
AcDbDictionaryWithDefault
340
9
  0
DICTIONARY
  5
3F
102
{ACAD_REACTORS
330
B
102
}
330
B
100
AcDbDictionary
281
     1
  3
A0
350
46
  3
A1
350
47
  3
A2
350
48
  3
A3
350
49
  3
A4
350
4A
  3
A5
350
4B
  3
A6
350
4C
  3
A7
350
4D
  3
A8
350
4E
  3
A9
350
4F
  3
B0
350
50
  3
B1
350
51
  3
B2
350
52
  3
B3
350
53
  3
B4
350
54
  3
B5
350
55
  3
B6
350
56
  3
B7
350
57
  3
B8
350
58
  3
B9
350
59
  3
C0
350
5A
  3
C1
350
5B
  3
C2
350
5C
  3
C3
350
5D
  3
C4
350
5E
  3
C5
350
5F
  3
C6
350
60
  3
C7
350
61
  3
C8
350
62
  3
C9
350
63
  3
D0
350
64
  3
D1
350
65
  3
D2
350
66
  0
DICTIONARY
  5
22F
102
{ACAD_REACTORS
330
B
102
}
330
B
100
AcDbDictionary
281
     1
  3
Metric50
350
230
  0
DICTIONARY
  5
40
102
{ACAD_REACTORS
330
B
102
}
330
B
100
AcDbDictionary
281
     1
  3
Standard
350
42
  0
DICTIONARY
  5
2D
102
{ACAD_REACTORS
330
B
102
}
330
B
100
AcDbDictionary
281
     1
  3
2dWireframe
350
2C
  3
3D Hidden
350
20A
  3
3dWireframe
350
45
  3
Basic
350
209
  3
Brighten
350
20D
  3
ColorChange
350
211
  3
Conceptual
350
20B
  3
Dim
350
20C
  3
EdgeColorOff
350
22E
  3
Facepattern
350
210
  3
Flat
350
205
  3
FlatWithEdges
350
206
  3
Gouraud
350
207
  3
GouraudWithEdges
350
208
  3
Hidden
350
226
  3
JitterOff
350
22C
  3
Linepattern
350
20F
  3
OverhangOff
350
22D
  3
Realistic
350
44
  3
Shaded
350
22B
  3
Shaded with edges
350
22A
  3
Shades of Gray
350
227
  3
Sketchy
350
228
  3
Thicken
350
20E
  3
Wireframe
350
225
  3
X-Ray
350
229
  0
XRECORD
  5
2477
102
{ACAD_REACTORS
330
B
102
}
330
B
100
AcDbXrecord
280
     1
 90
        1
330
42
330
230
330
232
  0
DICTIONARY
  5
200
102
{ACAD_REACTORS
330
B
102
}
330
B
100
AcDbDictionary
281
     1
  3
CANNOSCALE
350
203
  3
CMLEADERSTYLE
350
202
  3
CTABLESTYLE
350
201
  3
CVIEWDETAILSTYLE
350
3A3
  3
CVIEWSECTIONSTYLE
350
3A4
  3
HPCOLOR
350
270
  3
LAYEREVAL
350
2470
  3
LAYERNOTIFY
350
2471
  3
LIGHTINGUNITS
350
3A6
  3
MSLTSCALE
350
3A5
  3
SOLIDHIST
350
3A7
  0
DICTIONARY
  5
21
102
{ACAD_REACTORS
330
20
102
}
330
20
100
AcDbDictionary
281
     1
  0
XRECORD
  5
8
102
{ACAD_REACTORS
330
7
102
}
330
7
100
AcDbXrecord
280
     1
290
     1
  0
SORTENTSTABLE
  5
1FA
102
{ACAD_REACTORS
330
3
102
}
330
3
100
AcDbSortentsTable
330
2
331
15E
  5
4ED
331
527
  5
535
331
756
  5
E52
331
EB
  5
EE
331
E7
  5
EA
331
A8
  5
AB
331
E3
  5
E6
331
72E
  5
E50
331
51F
  5
532
331
A4
  5
A8
331
A0
  5
A3
331
DF
  5
E2
331
DB
  5
DE
331
517
  5
52A
331
55E
  5
E4E
331
9C
  5
9F
331
D7
  5
DA
331
513
  5
521
331
98
  5
9B
331
556
  5
E47
331
94
  5
97
331
D3
  5
D6
331
50F
  5
51D
331
552
  5
72E
331
90
  5
93
331
50B
  5
519
331
15BF
  5
22E0
331
2351
  5
2373
331
234D
  5
2351
331
CF
  5
D2
331
CB
  5
CE
331
8C
  5
8F
331
507
  5
515
331
C7
  5
CA
331
88
  5
8B
331
503
  5
511
331
542
  5
72D
331
84
  5
87
331
C3
  5
C6
331
122
  5
14B
331
4FF
  5
50D
331
53E
  5
55B
331
4FB
  5
509
331
53A
  5
557
331
22BD
  5
234C
331
BF
  5
C2
331
BB
  5
BE
331
536
  5
553
331
B7
  5
BA
331
4F7
  5
505
331
52E
  5
53E
331
4F3
  5
502
331
52A
  5
539
331
759
  5
22C2
331
AF
  5
B2
331
15D
  5
4EB
331
EA
  5
ED
331
AB
  5
AF
331
4EF
  5
4FF
331
755
  5
E51
331
4EB
  5
4F6
331
A7
  5
AA
331
E6
  5
E9
331
149
  5
26D
331
E2
  5
E5
331
72D
  5
E4F
331
51E
  5
531
331
A3
  5
A7
331
51A
  5
530
331
23A8
  5
4F9
331
DE
  5
E1
331
9F
  5
A2
331
DA
  5
DD
331
516
  5
529
331
55D
  5
E4C
331
9B
  5
9E
331
1E4
  5
4F3
331
512
  5
520
331
559
  5
E4B
331
97
  5
9A
331
D6
  5
D9
331
D2
  5
D5
331
50E
  5
51C
331
555
  5
E46
331
93
  5
96
331
50A
  5
518
331
2350
  5
2372
331
234C
  5
2350
331
CE
  5
D1
331
8F
  5
92
331
CA
  5
CD
331
506
  5
514
331
8B
  5
8E
331
502
  5
510
331
541
  5
55E
331
87
  5
8A
331
C6
  5
C9
331
4FE
  5
50C
331
53D
  5
55A
331
83
  5
86
331
C2
  5
C5
331
4FA
  5
508
331
539
  5
556
331
22C0
  5
234F
331
22BC
  5
22E1
331
BE
  5
C1
331
535
  5
552
331
BA
  5
BD
331
B6
  5
B9
331
4F6
  5
504
331
52D
  5
53B
331
B2
  5
B7
331
529
  5
538
331
758
  5
22BF
331
AE
  5
B1
331
15C
  5
4EA
331
E9
  5
EC
331
4EE
  5
4FE
331
AA
  5
AE
331
4EA
  5
4F5
331
521
  5
534
331
E5
  5
E8
331
E1
  5
E4
331
A2
  5
A5
331
148
  5
188
331
519
  5
52F
331
816
  5
22C3
331
DD
  5
E0
331
9E
  5
A1
331
D9
  5
DC
331
515
  5
528
331
9A
  5
9D
331
511
  5
51F
331
558
  5
E4A
331
96
  5
99
331
D5
  5
D8
331
D1
  5
D4
331
50D
  5
51B
331
554
  5
816
331
92
  5
95
331
509
  5
517
331
234F
  5
2362
331
15B5
  5
22D0
331
1D7
  5
4F2
331
CD
  5
D0
331
8E
  5
91
331
C9
  5
CC
331
505
  5
513
331
8A
  5
8D
331
130
  5
162
331
501
  5
50F
331
540
  5
55D
331
86
  5
89
331
C5
  5
C8
331
C1
  5
C4
331
4FD
  5
50B
331
53C
  5
559
331
82
  5
85
331
4F9
  5
507
331
538
  5
555
331
22BF
  5
234E
331
22BB
  5
4FD
331
BD
  5
C0
331
17B
  5
4F1
331
534
  5
542
331
B9
  5
BC
331
530
  5
540
331
B5
  5
B8
331
B1
  5
B6
331
528
  5
536
331
15F
  5
4EE
331
757
  5
22BE
331
AD
  5
B0
331
4ED
  5
4FB
331
A9
  5
AD
331
E8
  5
EB
331
520
  5
533
331
A5
  5
A9
331
E4
  5
E7
331
E0
  5
E3
331
A1
  5
A4
331
518
  5
52E
331
DC
  5
DF
331
9D
  5
A0
331
D8
  5
DB
331
514
  5
527
331
99
  5
9C
331
510
  5
51E
331
557
  5
E48
331
95
  5
98
331
D4
  5
D7
331
13B
  5
187
331
D0
  5
D3
331
50C
  5
51A
331
553
  5
759
331
91
  5
94
331
508
  5
516
331
234E
  5
2360
331
CC
  5
CF
331
8D
  5
90
331
C8
  5
CB
331
504
  5
512
331
89
  5
8C
331
500
  5
50E
331
53F
  5
55C
331
85
  5
88
331
C4
  5
C7
331
C0
  5
C3
331
4FC
  5
50A
331
53B
  5
558
331
81
  5
84
331
4F8
  5
506
331
22BE
  5
234D
331
22BA
  5
500
331
537
  5
554
331
BC
  5
BF
331
533
  5
541
331
B8
  5
BB
331
16E
  5
4EF
331
52F
  5
53F
331
113
  5
148
331
4F4
  5
503
331
52B
  5
53A
331
B0
  5
B5
331
4F0
  5
501
  0
ACDBDETAILVIEWSTYLE
  5
232
102
{ACAD_XDICTIONARY
360
2475
102
}
102
{ACAD_REACTORS
330
231
102
}
330
231
100
AcDbModelDocViewStyle
 70
     0
  3
Metric50
290
     0
100
AcDbDetailViewStyle
 70
     0
 71
     0
 90
        3
 71
     1
340
23
 62
   256
 40
5.0
340
0
 62
   256
 40
5.0
300

 40
0.0
280
     1
 71
     2
340
14
 90
       25
 62
   256
 71
     3
340
23
 62
   256
 40
5.0
 90
        0
 40
15.0
 90
        1
300
%<\AcVar ViewDetailId>% (%<\AcVar ViewScale \f "%sn">%)
 71
     4
340
14
 90
       25
 62
   256
340
14
 90
       25
 62
   256
280
     0
  0
LAYOUT
  5
16
102
{ACAD_XDICTIONARY
360
361
102
}
102
{ACAD_REACTORS
330
17
102
}
330
17
100
AcDbPlotSettings
  1

  2
DWG To PDF.pc3
  4
ISO_expand_A4_(297.00_x_210.00_MM)
  6

 40
5.793749809265136
 41
10.79374980926513
 42
5.79376220703125
 43
10.79374694824219
 44
297.0
 45
210.0
 46
7.709682544653645
 47
0.0
 48
680.5922422378853
 49
0.8621115406501758
140
892.22711715701
141
148.5497864319861
142
1.0
143
0.7838528353994502
 70
 11956
 72
     1
 73
     0
 74
     4
  7
ksm0910.ctb
 75
     0
147
1.27574967498893
 76
     0
 77
     2
 78
   300
148
-680.5922422378853
149
-0.8621115406501758
100
AcDbLayout
  1
Model
 70
     1
 71
     0
 10
0.0
 20
0.0
 11
12.0
 21
9.0
 12
0.0
 22
0.0
 32
0.0
 14
0.0
 24
0.0
 34
0.0
 15
0.0
 25
0.0
 35
0.0
146
0.0
 13
0.0
 23
0.0
 33
0.0
 16
1.0
 26
0.0
 36
0.0
 17
0.0
 27
1.0
 37
0.0
 76
     0
330
2
331
2B
1001
ACAD_PSEXT
1000
DWG To PDF.pc3
1000
PDF
1000
파일
1000

1070
     0
  0
LAYOUT
  5
1C
102
{ACAD_XDICTIONARY
360
1D
102
}
102
{ACAD_REACTORS
330
17
102
}
330
17
100
AcDbPlotSettings
  1

  2
none_device
  4
ISO_A4_(210.00_x_297.00_MM)
  6

 40
7.5
 41
20.0
 42
7.5
 43
20.0
 44
210.0
 45
297.0
 46
0.0
 47
0.0
 48
0.0
 49
0.0
140
0.0
141
0.0
142
1.0
143
1.0
 70
   688
 72
     1
 73
     1
 74
     5
  7
ksm0910.ctb
 75
    16
147
1.0
 76
     0
 77
     2
 78
   300
148
0.0
149
0.0
100
AcDbLayout
  1
배치1
 70
     1
 71
     1
 10
-20.0
 20
-7.5
 11
277.0
 21
202.5
 12
0.0
 22
0.0
 32
0.0
 14
1.000000000000000E+20
 24
1.000000000000000E+20
 34
1.000000000000000E+20
 15
-1.000000000000000E+20
 25
-1.000000000000000E+20
 35
-1.000000000000000E+20
146
0.0
 13
0.0
 23
0.0
 33
0.0
 16
1.0
 26
0.0
 36
0.0
 17
0.0
 27
1.0
 37
0.0
 76
     0
330
19
1001
ACAD_PSEXT
1000
없음
1000
없음
1000
해당 없음
1000
배치가 새로운 플로터 구성을 선택할 때까지 플롯되지 않습니다.
1070
     0
  0
MATERIAL
  5
3D
102
{ACAD_REACTORS
330
D
102
}
330
D
100
AcDbMaterial
  1
ByBlock
 94
       63
  0
MATERIAL
  5
3C
102
{ACAD_REACTORS
330
D
102
}
330
D
100
AcDbMaterial
  1
ByLayer
 94
       63
  0
MATERIAL
  5
C
102
{ACAD_XDICTIONARY
360
E
102
}
102
{ACAD_REACTORS
330
D
102
}
330
D
100
AcDbMaterial
  1
Global
 43
0.0007999999797903
 43
0.0
 43
0.0
 43
0.0
 43
0.0
 43
0.0007999999797903
 43
0.0
 43
0.0
 43
0.0
 43
0.0
 43
1.0
 43
0.0
 43
0.0
 43
0.0
 43
0.0
 43
1.0
 49
0.0007999999797903
 49
0.0
 49
0.0
 49
0.0
 49
0.0
 49
0.0007999999797903
 49
0.0
 49
0.0
 49
0.0
 49
0.0
 49
1.0
 49
0.0
 49
0.0
 49
0.0
 49
0.0
 49
1.0
142
0.0007999999797903
142
0.0
142
0.0
142
0.0
142
0.0
142
0.0007999999797903
142
0.0
142
0.0
142
0.0
142
0.0
142
1.0
142
0.0
142
0.0
142
0.0
142
0.0
142
1.0
144
0.0007999999797903
144
0.0
144
0.0
144
0.0
144
0.0
144
0.0007999999797903
144
0.0
144
0.0
144
0.0
144
0.0
144
1.0
144
0.0
144
0.0
144
0.0
144
0.0
144
1.0
 94
       63
1001
ACAD
1070
    -1
1070
     3
1070
     0
1000

1071
        0
1070
     0
  0
MLEADERSTYLE
  5
13E
102
{ACAD_REACTORS
330
13F
330
13B
102
}
330
13F
100
AcDbMLeaderStyle
179
     2
170
     2
171
     1
172
     0
 90
        5
 40
0.0
 41
0.0
173
     1
 91
-1023410173
340
26
 92
       -1
290
     1
 42
0.5
291
     1
 43
0.5
  3
Standard
 44
2.5
300

342
32
174
     2
178
     2
175
     1
176
     0
 93
-1023410174
 45
2.5
292
     0
297
     0
 46
4.0
343
140
 94
-1023410174
 47
1.0
 49
1.0
140
1.0
293
     1
141
0.0
294
     1
177
     1
142
1.0
295
     0
296
     0
143
1.0
271
     0
272
     9
273
     9
298
     0
  0
MLINESTYLE
  5
41
102
{ACAD_REACTORS
330
3A
102
}
330
3A
100
AcDbMlineStyle
  2
STANDARD
 70
     0
  3

 62
   256
 51
90.0
 52
90.0
 71
     2
 49
0.5
 62
   256
  6
BYLAYER
 49
-0.5
 62
   256
  6
BYLAYER
  0
ACDBPLACEHOLDER
  5
9
102
{ACAD_REACTORS
330
A
102
}
330
A
  0
SCALE
  5
46
102
{ACAD_REACTORS
330
3F
102
}
330
3F
100
AcDbScale
 70
     0
300
1:1
140
1.0
141
1.0
290
     1
  0
SCALE
  5
47
102
{ACAD_REACTORS
330
3F
102
}
330
3F
100
AcDbScale
 70
     0
300
1:2
140
1.0
141
2.0
290
     0
  0
SCALE
  5
48
102
{ACAD_REACTORS
330
3F
102
}
330
3F
100
AcDbScale
 70
     0
300
1:4
140
1.0
141
4.0
290
     0
  0
SCALE
  5
49
102
{ACAD_REACTORS
330
3F
102
}
330
3F
100
AcDbScale
 70
     0
300
1:5
140
1.0
141
5.0
290
     0
  0
SCALE
  5
4A
102
{ACAD_REACTORS
330
3F
102
}
330
3F
100
AcDbScale
 70
     0
300
1:8
140
1.0
141
8.0
290
     0
  0
SCALE
  5
4B
102
{ACAD_REACTORS
330
3F
102
}
330
3F
100
AcDbScale
 70
     0
300
1:10
140
1.0
141
10.0
290
     0
  0
SCALE
  5
4C
102
{ACAD_REACTORS
330
3F
102
}
330
3F
100
AcDbScale
 70
     0
300
1:16
140
1.0
141
16.0
290
     0
  0
SCALE
  5
4D
102
{ACAD_REACTORS
330
3F
102
}
330
3F
100
AcDbScale
 70
     0
300
1:20
140
1.0
141
20.0
290
     0
  0
SCALE
  5
4E
102
{ACAD_REACTORS
330
3F
102
}
330
3F
100
AcDbScale
 70
     0
300
1:30
140
1.0
141
30.0
290
     0
  0
SCALE
  5
4F
102
{ACAD_REACTORS
330
3F
102
}
330
3F
100
AcDbScale
 70
     0
300
1:40
140
1.0
141
40.0
290
     0
  0
SCALE
  5
50
102
{ACAD_REACTORS
330
3F
102
}
330
3F
100
AcDbScale
 70
     0
300
1:50
140
1.0
141
50.0
290
     0
  0
SCALE
  5
51
102
{ACAD_REACTORS
330
3F
102
}
330
3F
100
AcDbScale
 70
     0
300
1:100
140
1.0
141
100.0
290
     0
  0
SCALE
  5
52
102
{ACAD_REACTORS
330
3F
102
}
330
3F
100
AcDbScale
 70
     0
300
2:1
140
2.0
141
1.0
290
     0
  0
SCALE
  5
53
102
{ACAD_REACTORS
330
3F
102
}
330
3F
100
AcDbScale
 70
     0
300
4:1
140
4.0
141
1.0
290
     0
  0
SCALE
  5
54
102
{ACAD_REACTORS
330
3F
102
}
330
3F
100
AcDbScale
 70
     0
300
8:1
140
8.0
141
1.0
290
     0
  0
SCALE
  5
55
102
{ACAD_REACTORS
330
3F
102
}
330
3F
100
AcDbScale
 70
     0
300
10:1
140
10.0
141
1.0
290
     0
  0
SCALE
  5
56
102
{ACAD_REACTORS
330
3F
102
}
330
3F
100
AcDbScale
 70
     0
300
100:1
140
100.0
141
1.0
290
     0
  0
SCALE
  5
57
102
{ACAD_REACTORS
330
3F
102
}
330
3F
100
AcDbScale
 70
     0
300
1/128" = 1'-0"
140
0.0078125
141
12.0
290
     0
  0
SCALE
  5
58
102
{ACAD_REACTORS
330
3F
102
}
330
3F
100
AcDbScale
 70
     0
300
1/64" = 1'-0"
140
0.015625
141
12.0
290
     0
  0
SCALE
  5
59
102
{ACAD_REACTORS
330
3F
102
}
330
3F
100
AcDbScale
 70
     0
300
1/32" = 1'-0"
140
0.03125
141
12.0
290
     0
  0
SCALE
  5
5A
102
{ACAD_REACTORS
330
3F
102
}
330
3F
100
AcDbScale
 70
     0
300
1/16" = 1'-0"
140
0.0625
141
12.0
290
     0
  0
SCALE
  5
5B
102
{ACAD_REACTORS
330
3F
102
}
330
3F
100
AcDbScale
 70
     0
300
3/32" = 1'-0"
140
0.09375
141
12.0
290
     0
  0
SCALE
  5
5C
102
{ACAD_REACTORS
330
3F
102
}
330
3F
100
AcDbScale
 70
     0
300
1/8" = 1'-0"
140
0.125
141
12.0
290
     0
  0
SCALE
  5
5D
102
{ACAD_REACTORS
330
3F
102
}
330
3F
100
AcDbScale
 70
     0
300
3/16" = 1'-0"
140
0.1875
141
12.0
290
     0
  0
SCALE
  5
5E
102
{ACAD_REACTORS
330
3F
102
}
330
3F
100
AcDbScale
 70
     0
300
1/4" = 1'-0"
140
0.25
141
12.0
290
     0
  0
SCALE
  5
5F
102
{ACAD_REACTORS
330
3F
102
}
330
3F
100
AcDbScale
 70
     0
300
3/8" = 1'-0"
140
0.375
141
12.0
290
     0
  0
SCALE
  5
60
102
{ACAD_REACTORS
330
3F
102
}
330
3F
100
AcDbScale
 70
     0
300
1/2" = 1'-0"
140
0.5
141
12.0
290
     0
  0
SCALE
  5
61
102
{ACAD_REACTORS
330
3F
102
}
330
3F
100
AcDbScale
 70
     0
300
3/4" = 1'-0"
140
0.75
141
12.0
290
     0
  0
SCALE
  5
62
102
{ACAD_REACTORS
330
3F
102
}
330
3F
100
AcDbScale
 70
     0
300
1" = 1'-0"
140
1.0
141
12.0
290
     0
  0
SCALE
  5
63
102
{ACAD_REACTORS
330
3F
102
}
330
3F
100
AcDbScale
 70
     0
300
1-1/2" = 1'-0"
140
1.5
141
12.0
290
     0
  0
SCALE
  5
64
102
{ACAD_REACTORS
330
3F
102
}
330
3F
100
AcDbScale
 70
     0
300
3" = 1'-0"
140
3.0
141
12.0
290
     0
  0
SCALE
  5
65
102
{ACAD_REACTORS
330
3F
102
}
330
3F
100
AcDbScale
 70
     0
300
6" = 1'-0"
140
6.0
141
12.0
290
     0
  0
SCALE
  5
66
102
{ACAD_REACTORS
330
3F
102
}
330
3F
100
AcDbScale
 70
     0
300
1'-0" = 1'-0"
140
12.0
141
12.0
290
     0
  0
ACDBSECTIONVIEWSTYLE
  5
230
102
{ACAD_XDICTIONARY
360
2473
102
}
102
{ACAD_REACTORS
330
22F
102
}
330
22F
100
AcDbModelDocViewStyle
 70
     0
  3
Metric50
290
     0
100
AcDbSectionViewStyle
 70
     0
 71
     0
 90
      102
 71
     1
340
23
 62
   256
 40
5.0
340
0
340
0
 62
   256
 40
5.0
300
I, O, Q, S, X, Z
 40
10.0
 90
        0
 40
2.5
 90
        0
 71
     2
340
14
 90
       25
 62
   256
340
14
 90
       50
 62
   256
 40
5.0
 40
2.5
 40
5.0
 71
     3
340
23
 62
   256
 40
5.0
 90
        0
 40
15.0
 90
        1
300
%<\AcVar ViewSectionStartId>%-%<\AcVar ViewSectionEndId>% (%<\AcVar ViewScale \f "%sn">%)
 71
     4
 62
   256
 62
   257
300
ANSI31
 40
1.0
 90
        0
290
     0
290
     0
 90
        6
 40
0.0
 40
1.570796326794896
 40
0.2617993877991494
 40
1.308996938995747
 40
-0.2617993877991494
 40
1.832595714594046
  0
TABLESTYLE
  5
42
102
{ACAD_XDICTIONARY
360
43
102
}
102
{ACAD_REACTORS
330
40
102
}
330
40
100
AcDbTableStyle
280
     0
  3
Standard
 70
     0
 71
     0
 40
1.5
 41
1.5
280
     0
281
     0
  7
Standard
140
4.5
170
     2
 62
     0
 63
     7
283
     0
 90
      512
 91
        0
  1

274
    -2
284
     1
 64
     0
275
    -2
285
     1
 65
     0
276
    -2
286
     1
 66
     0
277
    -2
287
     1
 67
     0
278
    -2
288
     1
 68
     0
279
    -2
289
     1
 69
     0
  7
Standard
140
6.0
170
     5
 62
     0
 63
     7
283
     0
 90
      512
 91
        0
  1

274
    -2
284
     1
 64
     0
275
    -2
285
     1
 65
     0
276
    -2
286
     1
 66
     0
277
    -2
287
     1
 67
     0
278
    -2
288
     1
 68
     0
279
    -2
289
     1
 69
     0
  7
Standard
140
4.5
170
     5
 62
     0
 63
     7
283
     0
 90
      512
 91
        0
  1

274
    -2
284
     1
 64
     0
275
    -2
285
     1
 65
     0
276
    -2
286
     1
 66
     0
277
    -2
287
     1
 67
     0
278
    -2
288
     1
 68
     0
279
    -2
289
     1
 69
     0
  0
VISUALSTYLE
  5
2C
102
{ACAD_REACTORS
330
2D
102
}
330
2D
100
AcDbVisualStyle
  2
2dWireframe
 70
     4
177
     3
291
     0
 70
    58
 90
        0
176
     1
 90
        2
176
     1
 90
        1
176
     1
 90
        0
176
     1
 40
0.6
176
     1
 40
30.0
176
     1
 62
     7
420
 16777215
176
     1
 90
        1
176
     1
 90
        4
176
     1
 62
     7
176
     1
 62
   257
176
     1
 90
        1
176
     1
 90
        1
176
     1
 40
1.0
176
     1
 90
        0
176
     1
 62
   257
176
     1
 40
1.0
176
     1
 90
        1
176
     1
 90
        6
176
     1
 90
        2
176
     1
 62
     7
176
     1
 90
        5
176
     1
 90
        0
176
     1
 90
        0
176
     1
290
     0
176
     1
 90
        1
176
     1
 40
0.0
176
     1
 90
        0
176
     1
290
     1
176
     1
290
     1
176
     1
290
     0
176
     1
290
     0
176
     1
290
     0
176
     1
290
     0
176
     1
290
     0
176
     1
290
     0
176
     1
290
     0
176
     1
 90
       50
176
     1
 40
0.0
176
     1
 40
1.0
176
     1
 90
        0
176
     1
 62
    18
420
        0
176
     1
 90
       50
176
     1
 90
        3
176
     1
 62
     5
420
      255
176
     1
290
     0
176
     1
 90
       50
176
     1
 90
       50
176
     1
 90
       50
176
     1
290
     0
176
     1
 90
       50
176
     1
 62
   256
176
     0
 40
1.0
176
     0
 90
        2
176
     1
  1
strokes_ogs.tif
176
     1
290
     0
176
     1
 40
1.0
176
     1
 40
1.0
176
     1
  0
VISUALSTYLE
  5
20A
102
{ACAD_REACTORS
330
2D
102
}
330
2D
100
AcDbVisualStyle
  2
3D Hidden
 70
     6
177
     3
291
     0
 70
    58
 90
        1
176
     1
 90
        2
176
     1
 90
        2
176
     1
 90
        0
176
     1
 40
0.6
176
     1
 40
30.0
176
     1
 62
     7
420
 16777215
176
     1
 90
        2
176
     1
 90
        2
176
     1
 62
     7
176
     1
 62
   257
176
     1
 90
        2
176
     1
 90
        1
176
     1
 40
40.0
176
     1
 90
        0
176
     1
 62
   257
176
     1
 40
1.0
176
     1
 90
        1
176
     1
 90
        6
176
     1
 90
        2
176
     1
 62
     7
176
     1
 90
        3
176
     1
 90
        0
176
     1
 90
        0
176
     1
290
     0
176
     1
 90
        1
176
     1
 40
0.0
176
     1
 90
        0
176
     1
290
     0
176
     1
290
     1
176
     1
290
     1
176
     1
290
     0
176
     1
290
     0
176
     1
290
     0
176
     1
290
     0
176
     1
290
     0
176
     1
290
     0
176
     1
 90
       50
176
     1
 40
0.0
176
     1
 40
1.0
176
     1
 90
        0
176
     1
 62
    18
420
        0
176
     1
 90
       50
176
     1
 90
        3
176
     1
 62
     5
420
      255
176
     1
290
     0
176
     1
 90
       50
176
     1
 90
       50
176
     1
 90
       50
176
     1
290
     0
176
     1
 90
       50
176
     1
 62
   256
176
     0
 40
1.0
176
     0
 90
        2
176
     1
  1
strokes_ogs.tif
176
     1
290
     0
176
     1
 40
1.0
176
     1
 40
1.0
176
     1
  0
VISUALSTYLE
  5
45
102
{ACAD_REACTORS
330
2D
102
}
330
2D
100
AcDbVisualStyle
  2
3dWireframe
 70
     5
177
     3
291
     0
 70
    58
 90
        0
176
     1
 90
        2
176
     1
 90
        1
176
     1
 90
        0
176
     1
 40
0.6
176
     1
 40
30.0
176
     1
 62
     7
420
 16777215
176
     1
 90
        1
176
     1
 90
        4
176
     1
 62
     7
176
     1
 62
   257
176
     1
 90
        1
176
     1
 90
        1
176
     1
 40
1.0
176
     1
 90
        0
176
     1
 62
   257
176
     1
 40
1.0
176
     1
 90
        1
176
     1
 90
        6
176
     1
 90
        2
176
     1
 62
     7
176
     1
 90
        5
176
     1
 90
        0
176
     1
 90
        0
176
     1
290
     0
176
     1
 90
        1
176
     1
 40
0.0
176
     1
 90
        0
176
     1
290
     0
176
     1
290
     1
176
     1
290
     1
176
     1
290
     0
176
     1
290
     0
176
     1
290
     0
176
     1
290
     0
176
     1
290
     0
176
     1
290
     0
176
     1
 90
       50
176
     1
 40
0.0
176
     1
 40
1.0
176
     1
 90
        0
176
     1
 62
    18
420
        0
176
     1
 90
       50
176
     1
 90
        3
176
     1
 62
     5
420
      255
176
     1
290
     0
176
     1
 90
       50
176
     1
 90
       50
176
     1
 90
       50
176
     1
290
     0
176
     1
 90
       50
176
     1
 62
   256
176
     0
 40
1.0
176
     0
 90
        2
176
     1
  1
strokes_ogs.tif
176
     1
290
     0
176
     1
 40
1.0
176
     1
 40
1.0
176
     1
  0
VISUALSTYLE
  5
209
102
{ACAD_REACTORS
330
2D
102
}
330
2D
100
AcDbVisualStyle
  2
Basic
 70
     7
177
     3
291
     1
 70
    58
 90
        1
176
     1
 90
        0
176
     1
 90
        1
176
     1
 90
        0
176
     1
 40
0.6
176
     1
 40
30.0
176
     1
 62
     7
420
 16777215
176
     1
 90
        0
176
     1
 90
        4
176
     1
 62
     7
176
     1
 62
   257
176
     1
 90
        1
176
     1
 90
        1
176
     1
 40
1.0
176
     1
 90
        8
176
     1
 62
     7
176
     1
 40
1.0
176
     1
 90
        1
176
     1
 90
        6
176
     1
 90
        2
176
     1
 62
     7
176
     1
 90
        5
176
     1
 90
        0
176
     1
 90
        0
176
     1
290
     0
176
     1
 90
        1
176
     1
 40
0.0
176
     1
 90
        0
176
     1
290
     0
176
     1
290
     1
176
     1
290
     1
176
     1
290
     0
176
     1
290
     0
176
     1
290
     0
176
     1
290
     0
176
     1
290
     0
176
     1
290
     0
176
     1
 90
       50
176
     1
 40
0.0
176
     1
 40
1.0
176
     1
 90
        0
176
     1
 62
    18
420
        0
176
     1
 90
       50
176
     1
 90
        3
176
     1
 62
     5
420
      255
176
     1
290
     0
176
     1
 90
       50
176
     1
 90
       50
176
     1
 90
       50
176
     1
290
     0
176
     1
 90
       50
176
     1
 62
   256
176
     0
 40
1.0
176
     0
 90
        2
176
     1
  1
strokes_ogs.tif
176
     1
290
     0
176
     1
 40
1.0
176
     1
 40
1.0
176
     1
  0
VISUALSTYLE
  5
20D
102
{ACAD_REACTORS
330
2D
102
}
330
2D
100
AcDbVisualStyle
  2
Brighten
 70
    12
177
     3
291
     1
 70
    58
 90
        2
176
     1
 90
        2
176
     1
 90
        0
176
     1
 90
        0
176
     1
 40
0.6
176
     1
 40
30.0
176
     1
 62
     7
420
 16777215
176
     1
 90
        1
176
     1
 90
        4
176
     1
 62
     7
176
     1
 62
   257
176
     1
 90
        1
176
     1
 90
        1
176
     1
 40
1.0
176
     1
 90
        8
176
     1
 62
     7
176
     1
 40
1.0
176
     1
 90
        1
176
     1
 90
        6
176
     1
 90
        2
176
     1
 62
     7
176
     1
 90
        5
176
     1
 90
        0
176
     1
 90
        0
176
     1
290
     0
176
     1
 90
        1
176
     1
 40
50.0
176
     1
 90
        0
176
     1
290
     0
176
     1
290
     1
176
     1
290
     1
176
     1
290
     0
176
     1
290
     0
176
     1
290
     0
176
     1
290
     0
176
     1
290
     0
176
     1
290
     0
176
     1
 90
       50
176
     1
 40
0.0
176
     1
 40
1.0
176
     1
 90
        0
176
     1
 62
    18
420
        0
176
     1
 90
       50
176
     1
 90
        3
176
     1
 62
     5
420
      255
176
     1
290
     0
176
     1
 90
       50
176
     1
 90
       50
176
     1
 90
       50
176
     1
290
     0
176
     1
 90
       50
176
     1
 62
   256
176
     0
 40
1.0
176
     0
 90
        2
176
     1
  1
strokes_ogs.tif
176
     1
290
     0
176
     1
 40
1.0
176
     1
 40
1.0
176
     1
  0
VISUALSTYLE
  5
211
102
{ACAD_REACTORS
330
2D
102
}
330
2D
100
AcDbVisualStyle
  2
ColorChange
 70
    16
177
     3
291
     1
 70
    58
 90
        2
176
     1
 90
        2
176
     1
 90
        3
176
     1
 90
        0
176
     1
 40
0.6
176
     1
 40
30.0
176
     1
 62
     8
420
  8421504
176
     1
 90
        1
176
     1
 90
        4
176
     1
 62
     7
176
     1
 62
   257
176
     1
 90
        1
176
     1
 90
        1
176
     1
 40
1.0
176
     1
 90
        8
176
     1
 62
     8
420
  8421504
176
     1
 40
1.0
176
     1
 90
        1
176
     1
 90
        6
176
     1
 90
        2
176
     1
 62
     7
176
     1
 90
        5
176
     1
 90
        0
176
     1
 90
        0
176
     1
290
     0
176
     1
 90
        1
176
     1
 40
0.0
176
     1
 90
        0
176
     1
290
     0
176
     1
290
     1
176
     1
290
     1
176
     1
290
     0
176
     1
290
     0
176
     1
290
     0
176
     1
290
     0
176
     1
290
     0
176
     1
290
     0
176
     1
 90
       50
176
     1
 40
0.0
176
     1
 40
1.0
176
     1
 90
        0
176
     1
 62
    18
420
        0
176
     1
 90
       50
176
     1
 90
        3
176
     1
 62
     5
420
      255
176
     1
290
     0
176
     1
 90
       50
176
     1
 90
       50
176
     1
 90
       50
176
     1
290
     0
176
     1
 90
       50
176
     1
 62
   256
176
     0
 40
1.0
176
     0
 90
        2
176
     1
  1
strokes_ogs.tif
176
     1
290
     0
176
     1
 40
1.0
176
     1
 40
1.0
176
     1
  0
VISUALSTYLE
  5
20B
102
{ACAD_REACTORS
330
2D
102
}
330
2D
100
AcDbVisualStyle
  2
Conceptual
 70
     9
177
     3
291
     0
 70
    58
 90
        3
176
     1
 90
        2
176
     1
 90
        0
176
     1
 90
        0
176
     1
 40
0.6
176
     1
 40
30.0
176
     1
 62
     7
420
 16777215
176
     1
 90
        2
176
     1
 90
        2
176
     1
 62
     7
176
     1
 62
   257
176
     1
 90
        1
176
     1
 90
        1
176
     1
 40
40.0
176
     1
 90
        8
176
     1
 62
     7
176
     1
 40
1.0
176
     1
 90
        1
176
     1
 90
        6
176
     1
 90
        2
176
     1
 62
     7
176
     1
 90
        3
176
     1
 90
        0
176
     1
 90
        0
176
     1
290
     0
176
     1
 90
        1
176
     1
 40
0.0
176
     1
 90
        0
176
     1
290
     0
176
     1
290
     1
176
     1
290
     1
176
     1
290
     0
176
     1
290
     0
176
     1
290
     0
176
     1
290
     0
176
     1
290
     0
176
     1
290
     0
176
     1
 90
       50
176
     1
 40
0.0
176
     1
 40
1.0
176
     1
 90
        0
176
     1
 62
    18
420
        0
176
     1
 90
       50
176
     1
 90
        3
176
     1
 62
     5
420
      255
176
     1
290
     0
176
     1
 90
       50
176
     1
 90
       50
176
     1
 90
       50
176
     1
290
     0
176
     1
 90
       50
176
     1
 62
   256
176
     0
 40
1.0
176
     0
 90
        2
176
     1
  1
strokes_ogs.tif
176
     1
290
     0
176
     1
 40
1.0
176
     1
 40
1.0
176
     1
  0
VISUALSTYLE
  5
20C
102
{ACAD_REACTORS
330
2D
102
}
330
2D
100
AcDbVisualStyle
  2
Dim
 70
    11
177
     3
291
     1
 70
    58
 90
        2
176
     1
 90
        2
176
     1
 90
        0
176
     1
 90
        0
176
     1
 40
0.6
176
     1
 40
30.0
176
     1
 62
     7
420
 16777215
176
     1
 90
        1
176
     1
 90
        4
176
     1
 62
     7
176
     1
 62
   257
176
     1
 90
        1
176
     1
 90
        1
176
     1
 40
1.0
176
     1
 90
        8
176
     1
 62
     7
176
     1
 40
1.0
176
     1
 90
        1
176
     1
 90
        6
176
     1
 90
        2
176
     1
 62
     7
176
     1
 90
        5
176
     1
 90
        0
176
     1
 90
        0
176
     1
290
     0
176
     1
 90
        1
176
     1
 40
-50.0
176
     1
 90
        0
176
     1
290
     0
176
     1
290
     1
176
     1
290
     1
176
     1
290
     0
176
     1
290
     0
176
     1
290
     0
176
     1
290
     0
176
     1
290
     0
176
     1
290
     0
176
     1
 90
       50
176
     1
 40
0.0
176
     1
 40
1.0
176
     1
 90
        0
176
     1
 62
    18
420
        0
176
     1
 90
       50
176
     1
 90
        3
176
     1
 62
     5
420
      255
176
     1
290
     0
176
     1
 90
       50
176
     1
 90
       50
176
     1
 90
       50
176
     1
290
     0
176
     1
 90
       50
176
     1
 62
   256
176
     0
 40
1.0
176
     0
 90
        2
176
     1
  1
strokes_ogs.tif
176
     1
290
     0
176
     1
 40
1.0
176
     1
 40
1.0
176
     1
  0
VISUALSTYLE
  5
22E
102
{ACAD_REACTORS
330
2D
102
}
330
2D
100
AcDbVisualStyle
  2
EdgeColorOff
 70
    22
177
     3
291
     1
 70
    58
 90
        2
176
     0
 90
        2
176
     0
 90
        0
176
     0
 90
        0
176
     0
 40
0.6
176
     0
 40
30.0
176
     0
 62
     7
420
 16777215
176
     0
 90
        1
176
     0
 90
        4
176
     0
 62
     7
176
     0
 62
   257
176
     0
 90
        1
176
     0
 90
        1
176
     0
 40
1.0
176
     0
 90
        8
176
     2
 62
     7
176
     0
 40
1.0
176
     0
 90
        1
176
     0
 90
        6
176
     0
 90
        2
176
     0
 62
     7
176
     0
 90
        5
176
     0
 90
        0
176
     0
 90
        0
176
     0
290
     0
176
     0
 90
        1
176
     0
 40
0.0
176
     0
 90
        0
176
     0
290
     0
176
     0
290
     1
176
     0
290
     1
176
     0
290
     0
176
     0
290
     0
176
     0
290
     0
176
     0
290
     0
176
     0
290
     0
176
     0
290
     0
176
     0
 90
       50
176
     0
 40
0.0
176
     0
 40
1.0
176
     0
 90
        0
176
     0
 62
    18
420
        0
176
     0
 90
       50
176
     0
 90
        3
176
     0
 62
     5
420
      255
176
     0
290
     0
176
     0
 90
       50
176
     0
 90
       50
176
     0
 90
       50
176
     0
290
     0
176
     0
 90
       50
176
     0
 62
   256
176
     0
 40
1.0
176
     0
 90
        2
176
     0
  1
strokes_ogs.tif
176
     0
290
     0
176
     0
 40
1.0
176
     0
 40
1.0
176
     0
  0
VISUALSTYLE
  5
210
102
{ACAD_REACTORS
330
2D
102
}
330
2D
100
AcDbVisualStyle
  2
Facepattern
 70
    15
177
     3
291
     1
 70
    58
 90
        2
176
     1
 90
        2
176
     1
 90
        0
176
     1
 90
        0
176
     1
 40
0.6
176
     1
 40
30.0
176
     1
 62
     7
420
 16777215
176
     1
 90
        1
176
     1
 90
        4
176
     1
 62
     7
176
     1
 62
   257
176
     1
 90
        1
176
     1
 90
        1
176
     1
 40
1.0
176
     1
 90
        8
176
     1
 62
     7
176
     1
 40
1.0
176
     1
 90
        1
176
     1
 90
        6
176
     1
 90
        2
176
     1
 62
     7
176
     1
 90
        5
176
     1
 90
        0
176
     1
 90
        0
176
     1
290
     0
176
     1
 90
        1
176
     1
 40
0.0
176
     1
 90
        0
176
     1
290
     0
176
     1
290
     1
176
     1
290
     1
176
     1
290
     0
176
     1
290
     0
176
     1
290
     0
176
     1
290
     0
176
     1
290
     0
176
     1
290
     0
176
     1
 90
       50
176
     1
 40
0.0
176
     1
 40
1.0
176
     1
 90
        0
176
     1
 62
    18
420
        0
176
     1
 90
       50
176
     1
 90
        3
176
     1
 62
     5
420
      255
176
     1
290
     0
176
     1
 90
       50
176
     1
 90
       50
176
     1
 90
       50
176
     1
290
     0
176
     1
 90
       50
176
     1
 62
   256
176
     0
 40
1.0
176
     0
 90
        2
176
     1
  1
strokes_ogs.tif
176
     1
290
     0
176
     1
 40
1.0
176
     1
 40
1.0
176
     1
  0
VISUALSTYLE
  5
205
102
{ACAD_REACTORS
330
2D
102
}
330
2D
100
AcDbVisualStyle
  2
Flat
 70
     0
177
     3
291
     1
 70
    58
 90
        2
176
     1
 90
        1
176
     1
 90
        1
176
     1
 90
        2
176
     1
 40
0.6
176
     1
 40
30.0
176
     1
 62
     7
420
 16777215
176
     1
 90
        0
176
     1
 90
        4
176
     1
 62
     7
176
     1
 62
   257
176
     1
 90
        1
176
     1
 90
        1
176
     1
 40
1.0
176
     1
 90
        8
176
     1
 62
     7
176
     1
 40
1.0
176
     1
 90
        1
176
     1
 90
        6
176
     1
 90
        2
176
     1
 62
     7
176
     1
 90
        5
176
     1
 90
        0
176
     1
 90
        0
176
     1
290
     0
176
     1
 90
       13
176
     1
 40
0.0
176
     1
 90
        0
176
     1
290
     0
176
     1
290
     1
176
     1
290
     1
176
     1
290
     0
176
     1
290
     0
176
     1
290
     0
176
     1
290
     0
176
     1
290
     0
176
     1
290
     0
176
     1
 90
       50
176
     1
 40
0.0
176
     1
 40
1.0
176
     1
 90
        0
176
     1
 62
    18
420
        0
176
     1
 90
       50
176
     1
 90
        3
176
     1
 62
     5
420
      255
176
     1
290
     0
176
     1
 90
       50
176
     1
 90
       50
176
     1
 90
       50
176
     1
290
     0
176
     1
 90
       50
176
     1
 62
   256
176
     0
 40
1.0
176
     0
 90
        2
176
     1
  1
strokes_ogs.tif
176
     1
290
     0
176
     1
 40
1.0
176
     1
 40
1.0
176
     1
  0
VISUALSTYLE
  5
206
102
{ACAD_REACTORS
330
2D
102
}
330
2D
100
AcDbVisualStyle
  2
FlatWithEdges
 70
     1
177
     3
291
     1
 70
    58
 90
        2
176
     1
 90
        1
176
     1
 90
        1
176
     1
 90
        2
176
     1
 40
0.6
176
     1
 40
30.0
176
     1
 62
     7
420
 16777215
176
     1
 90
        1
176
     1
 90
        4
176
     1
 62
     7
176
     1
 62
   257
176
     1
 90
        1
176
     1
 90
        1
176
     1
 40
1.0
176
     1
 90
        0
176
     1
 62
   257
176
     1
 40
1.0
176
     1
 90
        1
176
     1
 90
        6
176
     1
 90
        2
176
     1
 62
     7
176
     1
 90
        5
176
     1
 90
        0
176
     1
 90
        0
176
     1
290
     0
176
     1
 90
       13
176
     1
 40
0.0
176
     1
 90
        0
176
     1
290
     0
176
     1
290
     1
176
     1
290
     1
176
     1
290
     0
176
     1
290
     0
176
     1
290
     0
176
     1
290
     0
176
     1
290
     0
176
     1
290
     0
176
     1
 90
       50
176
     1
 40
0.0
176
     1
 40
1.0
176
     1
 90
        0
176
     1
 62
    18
420
        0
176
     1
 90
       50
176
     1
 90
        3
176
     1
 62
     5
420
      255
176
     1
290
     0
176
     1
 90
       50
176
     1
 90
       50
176
     1
 90
       50
176
     1
290
     0
176
     1
 90
       50
176
     1
 62
   256
176
     0
 40
1.0
176
     0
 90
        2
176
     1
  1
strokes_ogs.tif
176
     1
290
     0
176
     1
 40
1.0
176
     1
 40
1.0
176
     1
  0
VISUALSTYLE
  5
207
102
{ACAD_REACTORS
330
2D
102
}
330
2D
100
AcDbVisualStyle
  2
Gouraud
 70
     2
177
     3
291
     1
 70
    58
 90
        2
176
     1
 90
        2
176
     1
 90
        1
176
     1
 90
        2
176
     1
 40
0.6
176
     1
 40
30.0
176
     1
 62
     7
420
 16777215
176
     1
 90
        0
176
     1
 90
        4
176
     1
 62
     7
176
     1
 62
   257
176
     1
 90
        1
176
     1
 90
        1
176
     1
 40
1.0
176
     1
 90
        0
176
     1
 62
     7
176
     1
 40
1.0
176
     1
 90
        1
176
     1
 90
        6
176
     1
 90
        2
176
     1
 62
     7
176
     1
 90
        5
176
     1
 90
        0
176
     1
 90
        0
176
     1
290
     0
176
     1
 90
       13
176
     1
 40
0.0
176
     1
 90
        0
176
     1
290
     0
176
     1
290
     1
176
     1
290
     1
176
     1
290
     0
176
     1
290
     0
176
     1
290
     0
176
     1
290
     0
176
     1
290
     0
176
     1
290
     0
176
     1
 90
       50
176
     1
 40
0.0
176
     1
 40
1.0
176
     1
 90
        0
176
     1
 62
    18
420
        0
176
     1
 90
       50
176
     1
 90
        3
176
     1
 62
     5
420
      255
176
     1
290
     0
176
     1
 90
       50
176
     1
 90
       50
176
     1
 90
       50
176
     1
290
     0
176
     1
 90
       50
176
     1
 62
   256
176
     0
 40
1.0
176
     0
 90
        2
176
     1
  1
strokes_ogs.tif
176
     1
290
     0
176
     1
 40
1.0
176
     1
 40
1.0
176
     1
  0
VISUALSTYLE
  5
208
102
{ACAD_REACTORS
330
2D
102
}
330
2D
100
AcDbVisualStyle
  2
GouraudWithEdges
 70
     3
177
     3
291
     1
 70
    58
 90
        2
176
     1
 90
        2
176
     1
 90
        1
176
     1
 90
        2
176
     1
 40
0.6
176
     1
 40
30.0
176
     1
 62
     7
420
 16777215
176
     1
 90
        1
176
     1
 90
        4
176
     1
 62
     7
176
     1
 62
   257
176
     1
 90
        1
176
     1
 90
        1
176
     1
 40
1.0
176
     1
 90
        0
176
     1
 62
   257
176
     1
 40
1.0
176
     1
 90
        1
176
     1
 90
        6
176
     1
 90
        2
176
     1
 62
     7
176
     1
 90
        5
176
     1
 90
        0
176
     1
 90
        0
176
     1
290
     0
176
     1
 90
       13
176
     1
 40
0.0
176
     1
 90
        0
176
     1
290
     0
176
     1
290
     1
176
     1
290
     1
176
     1
290
     0
176
     1
290
     0
176
     1
290
     0
176
     1
290
     0
176
     1
290
     0
176
     1
290
     0
176
     1
 90
       50
176
     1
 40
0.0
176
     1
 40
1.0
176
     1
 90
        0
176
     1
 62
    18
420
        0
176
     1
 90
       50
176
     1
 90
        3
176
     1
 62
     5
420
      255
176
     1
290
     0
176
     1
 90
       50
176
     1
 90
       50
176
     1
 90
       50
176
     1
290
     0
176
     1
 90
       50
176
     1
 62
   256
176
     0
 40
1.0
176
     0
 90
        2
176
     1
  1
strokes_ogs.tif
176
     1
290
     0
176
     1
 40
1.0
176
     1
 40
1.0
176
     1
  0
VISUALSTYLE
  5
226
102
{ACAD_REACTORS
330
2D
102
}
330
2D
100
AcDbVisualStyle
  2
Hidden
 70
     6
177
     3
291
     0
 70
    58
 90
        1
176
     1
 90
        2
176
     1
 90
        2
176
     1
 90
        0
176
     1
 40
0.6
176
     1
 40
30.0
176
     1
 62
     7
420
 16777215
176
     1
 90
        2
176
     1
 90
        2
176
     1
 62
     7
176
     1
 62
   257
176
     1
 90
        2
176
     1
 90
        1
176
     1
 40
40.0
176
     1
 90
        0
176
     1
 62
   257
176
     1
 40
1.0
176
     1
 90
        1
176
     1
 90
        6
176
     1
 90
        2
176
     1
 62
     7
176
     1
 90
        3
176
     1
 90
        0
176
     1
 90
        0
176
     1
290
     0
176
     1
 90
        1
176
     1
 40
0.0
176
     1
 90
        0
176
     1
290
     0
176
     1
290
     1
176
     1
290
     1
176
     1
290
     0
176
     1
290
     0
176
     1
290
     0
176
     1
290
     0
176
     1
290
     0
176
     1
290
     0
176
     1
 90
       50
176
     1
 40
0.0
176
     1
 40
1.0
176
     1
 90
        0
176
     1
 62
    18
420
        0
176
     1
 90
       50
176
     1
 90
        3
176
     1
 62
     5
420
      255
176
     1
290
     0
176
     1
 90
       50
176
     1
 90
       50
176
     1
 90
       50
176
     1
290
     0
176
     1
 90
       50
176
     1
 62
   256
176
     0
 40
1.0
176
     0
 90
        2
176
     1
  1
strokes_ogs.tif
176
     1
290
     0
176
     1
 40
1.0
176
     1
 40
1.0
176
     1
  0
VISUALSTYLE
  5
22C
102
{ACAD_REACTORS
330
2D
102
}
330
2D
100
AcDbVisualStyle
  2
JitterOff
 70
    20
177
     3
291
     1
 70
    58
 90
        2
176
     0
 90
        2
176
     0
 90
        0
176
     0
 90
        0
176
     0
 40
0.6
176
     0
 40
30.0
176
     0
 62
     7
420
 16777215
176
     0
 90
        1
176
     0
 90
        4
176
     0
 62
     7
176
     0
 62
   257
176
     0
 90
        1
176
     0
 90
        1
176
     0
 40
1.0
176
     0
 90
       10
176
     2
 62
     7
176
     0
 40
1.0
176
     0
 90
        1
176
     0
 90
        6
176
     0
 90
        2
176
     0
 62
     7
176
     0
 90
        5
176
     0
 90
        0
176
     0
 90
        0
176
     0
290
     0
176
     0
 90
        1
176
     0
 40
0.0
176
     0
 90
        0
176
     0
290
     0
176
     0
290
     1
176
     0
290
     1
176
     0
290
     0
176
     0
290
     0
176
     0
290
     0
176
     0
290
     0
176
     0
290
     0
176
     0
290
     0
176
     0
 90
       50
176
     0
 40
0.0
176
     0
 40
1.0
176
     0
 90
        0
176
     0
 62
    18
420
        0
176
     0
 90
       50
176
     0
 90
        3
176
     0
 62
     5
420
      255
176
     0
290
     0
176
     0
 90
       50
176
     0
 90
       50
176
     0
 90
       50
176
     0
290
     0
176
     0
 90
       50
176
     0
 62
   256
176
     0
 40
1.0
176
     0
 90
        2
176
     0
  1
strokes_ogs.tif
176
     0
290
     0
176
     0
 40
1.0
176
     0
 40
1.0
176
     0
  0
VISUALSTYLE
  5
20F
102
{ACAD_REACTORS
330
2D
102
}
330
2D
100
AcDbVisualStyle
  2
Linepattern
 70
    14
177
     3
291
     1
 70
    58
 90
        2
176
     1
 90
        2
176
     1
 90
        0
176
     1
 90
        0
176
     1
 40
0.6
176
     1
 40
30.0
176
     1
 62
     7
420
 16777215
176
     1
 90
        1
176
     1
 90
        4
176
     1
 62
     7
176
     1
 62
   257
176
     1
 90
        7
176
     1
 90
        7
176
     1
 40
1.0
176
     1
 90
        8
176
     1
 62
     7
176
     1
 40
1.0
176
     1
 90
        1
176
     1
 90
        6
176
     1
 90
        2
176
     1
 62
     7
176
     1
 90
        5
176
     1
 90
        0
176
     1
 90
        0
176
     1
290
     0
176
     1
 90
        1
176
     1
 40
0.0
176
     1
 90
        0
176
     1
290
     0
176
     1
290
     1
176
     1
290
     1
176
     1
290
     0
176
     1
290
     0
176
     1
290
     0
176
     1
290
     0
176
     1
290
     0
176
     1
290
     0
176
     1
 90
       50
176
     1
 40
0.0
176
     1
 40
1.0
176
     1
 90
        0
176
     1
 62
    18
420
        0
176
     1
 90
       50
176
     1
 90
        3
176
     1
 62
     5
420
      255
176
     1
290
     0
176
     1
 90
       50
176
     1
 90
       50
176
     1
 90
       50
176
     1
290
     0
176
     1
 90
       50
176
     1
 62
   256
176
     0
 40
1.0
176
     0
 90
        2
176
     1
  1
strokes_ogs.tif
176
     1
290
     0
176
     1
 40
1.0
176
     1
 40
1.0
176
     1
  0
VISUALSTYLE
  5
22D
102
{ACAD_REACTORS
330
2D
102
}
330
2D
100
AcDbVisualStyle
  2
OverhangOff
 70
    21
177
     3
291
     1
 70
    58
 90
        2
176
     0
 90
        2
176
     0
 90
        0
176
     0
 90
        0
176
     0
 40
0.6
176
     0
 40
30.0
176
     0
 62
     7
420
 16777215
176
     0
 90
        1
176
     0
 90
        4
176
     0
 62
     7
176
     0
 62
   257
176
     0
 90
        1
176
     0
 90
        1
176
     0
 40
1.0
176
     0
 90
        9
176
     2
 62
     7
176
     0
 40
1.0
176
     0
 90
        1
176
     0
 90
        6
176
     0
 90
        2
176
     0
 62
     7
176
     0
 90
        5
176
     0
 90
        0
176
     0
 90
        0
176
     0
290
     0
176
     0
 90
        1
176
     0
 40
0.0
176
     0
 90
        0
176
     0
290
     0
176
     0
290
     1
176
     0
290
     1
176
     0
290
     0
176
     0
290
     0
176
     0
290
     0
176
     0
290
     0
176
     0
290
     0
176
     0
290
     0
176
     0
 90
       50
176
     0
 40
0.0
176
     0
 40
1.0
176
     0
 90
        0
176
     0
 62
    18
420
        0
176
     0
 90
       50
176
     0
 90
        3
176
     0
 62
     5
420
      255
176
     0
290
     0
176
     0
 90
       50
176
     0
 90
       50
176
     0
 90
       50
176
     0
290
     0
176
     0
 90
       50
176
     0
 62
   256
176
     0
 40
1.0
176
     0
 90
        2
176
     0
  1
strokes_ogs.tif
176
     0
290
     0
176
     0
 40
1.0
176
     0
 40
1.0
176
     0
  0
VISUALSTYLE
  5
44
102
{ACAD_REACTORS
330
2D
102
}
330
2D
100
AcDbVisualStyle
  2
Realistic
 70
     8
177
     3
291
     0
 70
    58
 90
        2
176
     1
 90
        2
176
     1
 90
        1
176
     1
 90
        0
176
     1
 40
0.6
176
     1
 40
30.0
176
     1
 62
     7
420
 16777215
176
     1
 90
        1
176
     1
 90
        0
176
     1
 62
     7
176
     1
 62
   257
176
     1
 90
        1
176
     1
 90
        1
176
     1
 40
1.0
176
     1
 90
        8
176
     1
 62
     8
420
  7895160
176
     1
 40
1.0
176
     1
 90
        1
176
     1
 90
        6
176
     1
 90
        2
176
     1
 62
     7
176
     1
 90
        5
176
     1
 90
        0
176
     1
 90
        0
176
     1
290
     0
176
     1
 90
       13
176
     1
 40
0.0
176
     1
 90
        0
176
     1
290
     0
176
     1
290
     1
176
     1
290
     1
176
     1
290
     0
176
     1
290
     0
176
     1
290
     0
176
     1
290
     0
176
     1
290
     0
176
     1
290
     0
176
     1
 90
       50
176
     1
 40
0.0
176
     1
 40
1.0
176
     1
 90
        0
176
     1
 62
    18
420
        0
176
     1
 90
       50
176
     1
 90
        3
176
     1
 62
     5
420
      255
176
     1
290
     0
176
     1
 90
       50
176
     1
 90
       50
176
     1
 90
       50
176
     1
290
     0
176
     1
 90
       50
176
     1
 62
   256
176
     0
 40
1.0
176
     0
 90
        2
176
     1
  1
strokes_ogs.tif
176
     1
290
     0
176
     1
 40
1.0
176
     1
 40
1.0
176
     1
  0
VISUALSTYLE
  5
22B
102
{ACAD_REACTORS
330
2D
102
}
330
2D
100
AcDbVisualStyle
  2
Shaded
 70
    27
177
     3
291
     0
 70
    58
 90
        2
176
     1
 90
        2
176
     1
 90
        1
176
     1
 90
        2
176
     1
 40
0.6
176
     1
 40
30.0
176
     1
 62
     7
420
 16777215
176
     1
 90
        0
176
     1
 90
        4
176
     1
 62
     7
176
     1
 62
   257
176
     1
 90
        1
176
     1
 90
        1
176
     1
 40
1.0
176
     1
 90
        8
176
     1
 62
   257
176
     1
 40
1.0
176
     1
 90
        1
176
     1
 90
        6
176
     1
 90
        2
176
     1
 62
     8
420
  7895160
176
     1
 90
        3
176
     1
 90
        0
176
     1
 90
        0
176
     1
290
     0
176
     1
 90
        5
176
     1
 40
0.0
176
     1
 90
        0
176
     1
290
     0
176
     1
290
     1
176
     1
290
     1
176
     1
290
     0
176
     1
290
     0
176
     1
290
     0
176
     1
290
     0
176
     1
290
     0
176
     1
290
     0
176
     1
 90
       50
176
     1
 40
0.0
176
     1
 40
1.0
176
     1
 90
        0
176
     1
 62
    18
420
        0
176
     1
 90
       50
176
     1
 90
        3
176
     1
 62
     5
420
      255
176
     1
290
     0
176
     1
 90
       50
176
     1
 90
       50
176
     1
 90
       50
176
     1
290
     0
176
     1
 90
       50
176
     1
 62
   256
176
     0
 40
1.0
176
     0
 90
        2
176
     1
  1
strokes_ogs.tif
176
     1
290
     0
176
     1
 40
1.0
176
     1
 40
1.0
176
     1
  0
VISUALSTYLE
  5
22A
102
{ACAD_REACTORS
330
2D
102
}
330
2D
100
AcDbVisualStyle
  2
Shaded with edges
 70
    26
177
     3
291
     0
 70
    58
 90
        2
176
     1
 90
        2
176
     1
 90
        1
176
     1
 90
        2
176
     1
 40
0.6
176
     1
 40
30.0
176
     1
 62
     7
420
 16777215
176
     1
 90
        1
176
     1
 90
       10
176
     1
 62
     7
176
     1
 62
   257
176
     1
 90
        2
176
     1
 90
        1
176
     1
 40
1.0
176
     1
 90
        8
176
     1
 62
   257
176
     1
 40
1.0
176
     1
 90
        1
176
     1
 90
        6
176
     1
 90
        2
176
     1
 62
     7
176
     1
 90
        3
176
     1
 90
        0
176
     1
 90
        0
176
     1
290
     0
176
     1
 90
        5
176
     1
 40
0.0
176
     1
 90
        0
176
     1
290
     0
176
     1
290
     1
176
     1
290
     1
176
     1
290
     0
176
     1
290
     0
176
     1
290
     0
176
     1
290
     0
176
     1
290
     0
176
     1
290
     0
176
     1
 90
       50
176
     1
 40
0.0
176
     1
 40
1.0
176
     1
 90
        0
176
     1
 62
    18
420
        0
176
     1
 90
       50
176
     1
 90
        3
176
     1
 62
     5
420
      255
176
     1
290
     0
176
     1
 90
       50
176
     1
 90
       50
176
     1
 90
       50
176
     1
290
     0
176
     1
 90
       50
176
     1
 62
   256
176
     0
 40
1.0
176
     0
 90
        2
176
     1
  1
strokes_ogs.tif
176
     1
290
     0
176
     1
 40
1.0
176
     1
 40
1.0
176
     1
  0
VISUALSTYLE
  5
227
102
{ACAD_REACTORS
330
2D
102
}
330
2D
100
AcDbVisualStyle
  2
Shades of Gray
 70
    23
177
     3
291
     0
 70
    58
 90
        2
176
     1
 90
        2
176
     1
 90
        3
176
     1
 90
        0
176
     1
 40
0.6
176
     1
 40
30.0
176
     1
 62
     7
420
 16777215
176
     1
 90
        2
176
     1
 90
        2
176
     1
 62
     7
176
     1
 62
     7
176
     1
 90
        1
176
     1
 90
        1
176
     1
 40
40.0
176
     1
 90
        8
176
     1
 62
     7
176
     1
 40
1.0
176
     1
 90
        1
176
     1
 90
        6
176
     1
 90
        2
176
     1
 62
     7
176
     1
 90
        3
176
     1
 90
        0
176
     1
 90
        0
176
     1
290
     0
176
     1
 90
        1
176
     1
 40
0.0
176
     1
 90
        0
176
     1
290
     0
176
     1
290
     1
176
     1
290
     1
176
     1
290
     0
176
     1
290
     0
176
     1
290
     0
176
     1
290
     0
176
     1
290
     0
176
     1
290
     0
176
     1
 90
       50
176
     1
 40
0.0
176
     1
 40
1.0
176
     1
 90
        0
176
     1
 62
    18
420
        0
176
     1
 90
       50
176
     1
 90
        3
176
     1
 62
     5
420
      255
176
     1
290
     0
176
     1
 90
       50
176
     1
 90
       50
176
     1
 90
       50
176
     1
290
     0
176
     1
 90
       50
176
     1
 62
   256
176
     0
 40
1.0
176
     0
 90
        2
176
     1
  1
strokes_ogs.tif
176
     1
290
     0
176
     1
 40
1.0
176
     1
 40
1.0
176
     1
  0
VISUALSTYLE
  5
228
102
{ACAD_REACTORS
330
2D
102
}
330
2D
100
AcDbVisualStyle
  2
Sketchy
 70
    24
177
     3
291
     0
 70
    58
 90
        1
176
     1
 90
        2
176
     1
 90
        2
176
     1
 90
        0
176
     1
 40
0.6
176
     1
 40
30.0
176
     1
 62
     7
420
 16777215
176
     1
 90
        2
176
     1
 90
        2
176
     1
 62
     7
176
     1
 62
     7
176
     1
 90
        1
176
     1
 90
        1
176
     1
 40
40.0
176
     1
 90
       11
176
     1
 62
     7
176
     1
 40
1.0
176
     1
 90
        1
176
     1
 90
        6
176
     1
 90
        2
176
     1
 62
     7
176
     1
 90
        6
176
     1
 90
        0
176
     1
 90
        0
176
     1
290
     0
176
     1
 90
        1
176
     1
 40
0.0
176
     1
 90
        0
176
     1
290
     0
176
     1
290
     1
176
     1
290
     1
176
     1
290
     0
176
     1
290
     0
176
     1
290
     0
176
     1
290
     0
176
     1
290
     0
176
     1
290
     0
176
     1
 90
       50
176
     1
 40
0.0
176
     1
 40
1.0
176
     1
 90
        0
176
     1
 62
    18
420
        0
176
     1
 90
       50
176
     1
 90
        3
176
     1
 62
     5
420
      255
176
     1
290
     0
176
     1
 90
       50
176
     1
 90
       50
176
     1
 90
       50
176
     1
290
     0
176
     1
 90
       50
176
     1
 62
   256
176
     0
 40
1.0
176
     0
 90
        2
176
     1
  1
strokes_ogs.tif
176
     1
290
     0
176
     1
 40
1.0
176
     1
 40
1.0
176
     1
  0
VISUALSTYLE
  5
20E
102
{ACAD_REACTORS
330
2D
102
}
330
2D
100
AcDbVisualStyle
  2
Thicken
 70
    13
177
     3
291
     1
 70
    58
 90
        2
176
     1
 90
        2
176
     1
 90
        0
176
     1
 90
        0
176
     1
 40
0.6
176
     1
 40
30.0
176
     1
 62
     7
420
 16777215
176
     1
 90
        1
176
     1
 90
        4
176
     1
 62
     7
176
     1
 62
   257
176
     1
 90
        1
176
     1
 90
        1
176
     1
 40
1.0
176
     1
 90
       12
176
     1
 62
     7
176
     1
 40
1.0
176
     1
 90
        1
176
     1
 90
        6
176
     1
 90
        2
176
     1
 62
     7
176
     1
 90
        5
176
     1
 90
        0
176
     1
 90
        0
176
     1
290
     0
176
     1
 90
        1
176
     1
 40
0.0
176
     1
 90
        0
176
     1
290
     0
176
     1
290
     1
176
     1
290
     1
176
     1
290
     0
176
     1
290
     0
176
     1
290
     0
176
     1
290
     0
176
     1
290
     0
176
     1
290
     0
176
     1
 90
       50
176
     1
 40
0.0
176
     1
 40
1.0
176
     1
 90
        0
176
     1
 62
    18
420
        0
176
     1
 90
       50
176
     1
 90
        3
176
     1
 62
     5
420
      255
176
     1
290
     0
176
     1
 90
       50
176
     1
 90
       50
176
     1
 90
       50
176
     1
290
     0
176
     1
 90
       50
176
     1
 62
   256
176
     0
 40
1.0
176
     0
 90
        2
176
     1
  1
strokes_ogs.tif
176
     1
290
     0
176
     1
 40
1.0
176
     1
 40
1.0
176
     1
  0
VISUALSTYLE
  5
225
102
{ACAD_REACTORS
330
2D
102
}
330
2D
100
AcDbVisualStyle
  2
Wireframe
 70
     5
177
     3
291
     0
 70
    58
 90
        0
176
     1
 90
        2
176
     1
 90
        0
176
     1
 90
        0
176
     1
 40
0.6
176
     1
 40
30.0
176
     1
 62
     7
420
 16777215
176
     1
 90
        1
176
     1
 90
        4
176
     1
 62
     7
176
     1
 62
   257
176
     1
 90
        1
176
     1
 90
        1
176
     1
 40
1.0
176
     1
 90
        0
176
     1
 62
   257
176
     1
 40
1.0
176
     1
 90
        1
176
     1
 90
        6
176
     1
 90
        2
176
     1
 62
     7
176
     1
 90
        3
176
     1
 90
        0
176
     1
 90
        0
176
     1
290
     0
176
     1
 90
        1
176
     1
 40
0.0
176
     1
 90
        0
176
     1
290
     0
176
     1
290
     1
176
     1
290
     1
176
     1
290
     0
176
     1
290
     0
176
     1
290
     0
176
     1
290
     0
176
     1
290
     0
176
     1
290
     0
176
     1
 90
       50
176
     1
 40
0.0
176
     1
 40
1.0
176
     1
 90
        0
176
     1
 62
    18
420
        0
176
     1
 90
       50
176
     1
 90
        3
176
     1
 62
     5
420
      255
176
     1
290
     0
176
     1
 90
       50
176
     1
 90
       50
176
     1
 90
       50
176
     1
290
     0
176
     1
 90
       50
176
     1
 62
   256
176
     0
 40
1.0
176
     0
 90
        2
176
     1
  1
strokes_ogs.tif
176
     1
290
     0
176
     1
 40
1.0
176
     1
 40
1.0
176
     1
  0
VISUALSTYLE
  5
229
102
{ACAD_REACTORS
330
2D
102
}
330
2D
100
AcDbVisualStyle
  2
X-Ray
 70
    25
177
     3
291
     0
 70
    58
 90
        2
176
     1
 90
        2
176
     1
 90
        1
176
     1
 90
        1
176
     1
 40
0.5
176
     1
 40
30.0
176
     1
 62
     7
420
 16777215
176
     1
 90
        1
176
     1
 90
        0
176
     1
 62
     7
176
     1
 62
   257
176
     1
 90
        1
176
     1
 90
        1
176
     1
 40
1.0
176
     1
 90
        8
176
     1
 62
     7
176
     1
 40
1.0
176
     1
 90
        1
176
     1
 90
        6
176
     1
 90
        2
176
     1
 62
     7
176
     1
 90
        3
176
     1
 90
        0
176
     1
 90
        0
176
     1
290
     0
176
     1
 90
       13
176
     1
 40
0.0
176
     1
 90
        0
176
     1
290
     0
176
     1
290
     1
176
     1
290
     1
176
     1
290
     0
176
     1
290
     0
176
     1
290
     0
176
     1
290
     0
176
     1
290
     0
176
     1
290
     0
176
     1
 90
       50
176
     1
 40
0.0
176
     1
 40
1.0
176
     1
 90
        0
176
     1
 62
    18
420
        0
176
     1
 90
       50
176
     1
 90
        3
176
     1
 62
     5
420
      255
176
     1
290
     0
176
     1
 90
       50
176
     1
 90
       50
176
     1
 90
       50
176
     1
290
     0
176
     1
 90
       50
176
     1
 62
   256
176
     0
 40
1.0
176
     0
 90
        2
176
     1
  1
strokes_ogs.tif
176
     1
290
     0
176
     1
 40
1.0
176
     1
 40
1.0
176
     1
  0
DICTIONARYVAR
  5
203
102
{ACAD_REACTORS
330
200
102
}
330
200
100
DictionaryVariables
280
     0
  1
1:1
  0
DICTIONARYVAR
  5
202
102
{ACAD_REACTORS
330
200
102
}
330
200
100
DictionaryVariables
280
     0
  1
STANDARD
  0
DICTIONARYVAR
  5
201
102
{ACAD_REACTORS
330
200
102
}
330
200
100
DictionaryVariables
280
     0
  1
STANDARD
  0
DICTIONARYVAR
  5
3A3
102
{ACAD_REACTORS
330
200
102
}
330
200
100
DictionaryVariables
280
     0
  1
Metric50
  0
DICTIONARYVAR
  5
3A4
102
{ACAD_REACTORS
330
200
102
}
330
200
100
DictionaryVariables
280
     0
  1
Metric50
  0
DICTIONARYVAR
  5
270
102
{ACAD_REACTORS
330
200
102
}
330
200
100
DictionaryVariables
280
     0
  1
4
  0
DICTIONARYVAR
  5
2470
102
{ACAD_REACTORS
330
200
102
}
330
200
100
DictionaryVariables
280
     0
  1
1
  0
DICTIONARYVAR
  5
2471
102
{ACAD_REACTORS
330
200
102
}
330
200
100
DictionaryVariables
280
     0
  1
15
  0
DICTIONARYVAR
  5
3A6
102
{ACAD_REACTORS
330
200
102
}
330
200
100
DictionaryVariables
280
     0
  1
2
  0
DICTIONARYVAR
  5
3A5
102
{ACAD_REACTORS
330
200
102
}
330
200
100
DictionaryVariables
280
     0
  1
1
  0
DICTIONARYVAR
  5
3A7
102
{ACAD_REACTORS
330
200
102
}
330
200
100
DictionaryVariables
280
     0
  1
1
  0
DICTIONARY
  5
2475
330
232
100
AcDbDictionary
280
     1
281
     1
  3
ACAD_XREC_ROUNDTRIP
360
2476
  0
DICTIONARY
  5
361
330
16
100
AcDbDictionary
280
     1
281
     1
  0
DICTIONARY
  5
1D
330
1C
100
AcDbDictionary
280
     1
281
     1
  0
DICTIONARY
  5
E
330
C
100
AcDbDictionary
280
     1
281
     1
  3
BUMPTILE
360
F
  3
DIFFUSETILE
360
10
  3
OPACITYTILE
360
11
  3
REFLECTIONTILE
360
12
  0
DICTIONARY
  5
2473
330
230
100
AcDbDictionary
280
     1
281
     1
  3
ACAD_XREC_ROUNDTRIP
360
2474
  0
DICTIONARY
  5
43
330
42
100
AcDbDictionary
280
     1
281
     1
  3
ACAD_ROUNDTRIP_2008_TABLESTYLE_CELLSTYLEMAP
360
2472
  0
XRECORD
  5
2476
102
{ACAD_REACTORS
330
2475
102
}
330
2475
100
AcDbXrecord
280
     1
102
DISPLAYNAME
  1
Metric50
102
FLAGS
 90
        0
  0
XRECORD
  5
F
102
{ACAD_REACTORS
330
E
102
}
330
E
100
AcDbXrecord
280
     1
270
     1
271
     1
  0
XRECORD
  5
10
102
{ACAD_REACTORS
330
E
102
}
330
E
100
AcDbXrecord
280
     1
270
     1
271
     1
  0
XRECORD
  5
11
102
{ACAD_REACTORS
330
E
102
}
330
E
100
AcDbXrecord
280
     1
270
     1
271
     1
  0
XRECORD
  5
12
102
{ACAD_REACTORS
330
E
102
}
330
E
100
AcDbXrecord
280
     1
270
     1
271
     1
  0
XRECORD
  5
2474
102
{ACAD_REACTORS
330
2473
102
}
330
2473
100
AcDbXrecord
280
     1
102
DISPLAYNAME
  1
Metric50
102
FLAGS
 90
        0
  0
CELLSTYLEMAP
  5
2472
102
{ACAD_REACTORS
330
43
102
}
330
43
100
AcDbCellStyleMap
 90
        3
300
CELLSTYLE
  1
TABLEFORMAT_BEGIN
 90
        5
170
     1
 91
        0
 92
    32768
 62
   257
 93
        1
300
CONTENTFORMAT
  1
CONTENTFORMAT_BEGIN
 90
        0
 91
        0
 92
      512
 93
        0
300

 40
0.0
140
1.0
 94
        5
 62
     0
340
23
144
6.0
309
CONTENTFORMAT_END
171
     1
301
MARGIN
  1
CELLMARGIN_BEGIN
 40
1.5
 40
1.5
 40
1.5
 40
1.5
 40
4.5
 40
4.5
309
CELLMARGIN_END
 94
        6
 95
        1
302
GRIDFORMAT
  1
GRIDFORMAT_BEGIN
 90
        0
 91
        1
 62
     0
 92
       -2
340
26
 93
        0
 40
1.125
309
GRIDFORMAT_END
 95
        2
302
GRIDFORMAT
  1
GRIDFORMAT_BEGIN
 90
        0
 91
        1
 62
     0
 92
       -2
340
26
 93
        0
 40
1.125
309
GRIDFORMAT_END
 95
        4
302
GRIDFORMAT
  1
GRIDFORMAT_BEGIN
 90
        0
 91
        1
 62
     0
 92
       -2
340
26
 93
        0
 40
1.125
309
GRIDFORMAT_END
 95
        8
302
GRIDFORMAT
  1
GRIDFORMAT_BEGIN
 90
        0
 91
        1
 62
     0
 92
       -2
340
26
 93
        0
 40
1.125
309
GRIDFORMAT_END
 95
       16
302
GRIDFORMAT
  1
GRIDFORMAT_BEGIN
 90
        0
 91
        1
 62
     0
 92
       -2
340
26
 93
        0
 40
1.125
309
GRIDFORMAT_END
 95
       32
302
GRIDFORMAT
  1
GRIDFORMAT_BEGIN
 90
        0
 91
        1
 62
     0
 92
       -2
340
26
 93
        0
 40
1.125
309
GRIDFORMAT_END
309
TABLEFORMAT_END
  1
CELLSTYLE_BEGIN
 90
        1
 91
        1
300
_TITLE
309
CELLSTYLE_END
300
CELLSTYLE
  1
TABLEFORMAT_BEGIN
 90
        5
170
     1
 91
        0
 92
        0
 62
   257
 93
        1
300
CONTENTFORMAT
  1
CONTENTFORMAT_BEGIN
 90
        0
 91
        0
 92
      512
 93
        0
300

 40
0.0
140
1.0
 94
        5
 62
     0
340
23
144
4.5
309
CONTENTFORMAT_END
171
     1
301
MARGIN
  1
CELLMARGIN_BEGIN
 40
1.5
 40
1.5
 40
1.5
 40
1.5
 40
4.5
 40
4.5
309
CELLMARGIN_END
 94
        6
 95
        1
302
GRIDFORMAT
  1
GRIDFORMAT_BEGIN
 90
        0
 91
        1
 62
     0
 92
       -2
340
26
 93
        0
 40
1.125
309
GRIDFORMAT_END
 95
        2
302
GRIDFORMAT
  1
GRIDFORMAT_BEGIN
 90
        0
 91
        1
 62
     0
 92
       -2
340
26
 93
        0
 40
1.125
309
GRIDFORMAT_END
 95
        4
302
GRIDFORMAT
  1
GRIDFORMAT_BEGIN
 90
        0
 91
        1
 62
     0
 92
       -2
340
26
 93
        0
 40
1.125
309
GRIDFORMAT_END
 95
        8
302
GRIDFORMAT
  1
GRIDFORMAT_BEGIN
 90
        0
 91
        1
 62
     0
 92
       -2
340
26
 93
        0
 40
1.125
309
GRIDFORMAT_END
 95
       16
302
GRIDFORMAT
  1
GRIDFORMAT_BEGIN
 90
        0
 91
        1
 62
     0
 92
       -2
340
26
 93
        0
 40
1.125
309
GRIDFORMAT_END
 95
       32
302
GRIDFORMAT
  1
GRIDFORMAT_BEGIN
 90
        0
 91
        1
 62
     0
 92
       -2
340
26
 93
        0
 40
1.125
309
GRIDFORMAT_END
309
TABLEFORMAT_END
  1
CELLSTYLE_BEGIN
 90
        2
 91
        1
300
_HEADER
309
CELLSTYLE_END
300
CELLSTYLE
  1
TABLEFORMAT_BEGIN
 90
        5
170
     1
 91
        0
 92
        0
 62
   257
 93
        1
300
CONTENTFORMAT
  1
CONTENTFORMAT_BEGIN
 90
        0
 91
        0
 92
      512
 93
        0
300

 40
0.0
140
1.0
 94
        2
 62
     0
340
23
144
4.5
309
CONTENTFORMAT_END
171
     1
301
MARGIN
  1
CELLMARGIN_BEGIN
 40
1.5
 40
1.5
 40
1.5
 40
1.5
 40
4.5
 40
4.5
309
CELLMARGIN_END
 94
        6
 95
        1
302
GRIDFORMAT
  1
GRIDFORMAT_BEGIN
 90
        0
 91
        1
 62
     0
 92
       -2
340
26
 93
        0
 40
1.125
309
GRIDFORMAT_END
 95
        2
302
GRIDFORMAT
  1
GRIDFORMAT_BEGIN
 90
        0
 91
        1
 62
     0
 92
       -2
340
26
 93
        0
 40
1.125
309
GRIDFORMAT_END
 95
        4
302
GRIDFORMAT
  1
GRIDFORMAT_BEGIN
 90
        0
 91
        1
 62
     0
 92
       -2
340
26
 93
        0
 40
1.125
309
GRIDFORMAT_END
 95
        8
302
GRIDFORMAT
  1
GRIDFORMAT_BEGIN
 90
        0
 91
        1
 62
     0
 92
       -2
340
26
 93
        0
 40
1.125
309
GRIDFORMAT_END
 95
       16
302
GRIDFORMAT
  1
GRIDFORMAT_BEGIN
 90
        0
 91
        1
 62
     0
 92
       -2
340
26
 93
        0
 40
1.125
309
GRIDFORMAT_END
 95
       32
302
GRIDFORMAT
  1
GRIDFORMAT_BEGIN
 90
        0
 91
        1
 62
     0
 92
       -2
340
26
 93
        0
 40
1.125
309
GRIDFORMAT_END
309
TABLEFORMAT_END
  1
CELLSTYLE_BEGIN
 90
        3
 91
        2
300
_DATA
309
CELLSTYLE_END
  0
ENDSEC
  0
SECTION
  2
ACDSDATA
 70
     2
 71
     6
  0
ACDSSCHEMA
 90
        0
  1
AcDb_Thumbnail_Schema
  2
AcDbDs::ID
280
    10
 91
        8
  2
Thumbnail_Data
280
    15
 91
        0
101
ACDSRECORD
 95
        0
 90
        1
  2
AcDbDs::TreatedAsObjectData
280
     1
291
     1
101
ACDSRECORD
 95
        0
 90
        2
  2
AcDbDs::Legacy
280
     1
291
     1
101
ACDSRECORD
  1
AcDbDs::ID
 90
        3
  2
AcDs:Indexable
280
     1
291
     1
101
ACDSRECORD
  1
AcDbDs::ID
 90
        4
  2
AcDbDs::HandleAttribute
280
     7
282
     1
  0
ACDSSCHEMA
 90
        1
  1
AcDbDs::TreatedAsObjectDataSchema
  2
AcDbDs::TreatedAsObjectData
280
     1
 91
        0
  0
ACDSSCHEMA
 90
        2
  1
AcDbDs::LegacySchema
  2
AcDbDs::Legacy
280
     1
 91
        0
  0
ACDSSCHEMA
 90
        3
  1
AcDbDs::IndexedPropertySchema
  2
AcDs:Indexable
280
     1
 91
        0
  0
ACDSSCHEMA
 90
        4
  1
AcDbDs::HandleAttributeSchema
  2
AcDbDs::HandleAttribute
280
     7
 91
        1
284
     1
  0
ACDSRECORD
 90
        0
  2
AcDbDs::ID
280
    10
320
16
  2
Thumbnail_Data
280
    15
 94
     1926
310
89504E470D0A1A0A0000000D4948445200000100000000730803000000406D2C8F00000300504C5445000000000000C8C8C80000000000000000000000000000000000000000000000000000330000660000990000CC0000FF0033000033330033660033990033CC0033FF0066000066330066660066990066CC0066FF0099
310
000099330099660099990099CC0099FF00CC0000CC3300CC6600CC9900CCCC00CCFF00FF0000FF3300FF6600FF9900FFCC00FFFF3300003300333300663300993300CC3300FF3333003333333333663333993333CC3333FF3366003366333366663366993366CC3366FF3399003399333399663399993399CC3399FF33CC00
310
33CC3333CC6633CC9933CCCC33CCFF33FF0033FF3333FF6633FF9933FFCC33FFFF6600006600336600666600996600CC6600FF6633006633336633666633996633CC6633FF6666006666336666666666996666CC6666FF6699006699336699666699996699CC6699FF66CC0066CC3366CC6666CC9966CCCC66CCFF66FF0066
310
FF3366FF6666FF9966FFCC66FFFF9900009900339900669900999900CC9900FF9933009933339933669933999933CC9933FF9966009966339966669966999966CC9966FF9999009999339999669999999999CC9999FF99CC0099CC3399CC6699CC9999CCCC99CCFF99FF0099FF3399FF6699FF9999FFCC99FFFFCC0000CC00
310
33CC0066CC0099CC00CCCC00FFCC3300CC3333CC3366CC3399CC33CCCC33FFCC6600CC6633CC6666CC6699CC66CCCC66FFCC9900CC9933CC9966CC9999CC99CCCC99FFCCCC00CCCC33CCCC66CCCC99CCCCCCCCCCFFCCFF00CCFF33CCFF66CCFF99CCFFCCCCFFFFFF0000FF0033FF0066FF0099FF00CCFF00FFFF3300FF3333
310
FF3366FF3399FF33CCFF33FFFF6600FF6633FF6666FF6699FF66CCFF66FFFF9900FF9933FF9966FF9999FF99CCFF99FFFFCC00FFCC33FFCC66FFCC99FFCCCCFFCCFFFFFF00FFFF33FFFF66FFFF99FFFFCCFFFFFF0000000D0D0D1A1A1A2828283535354343435050505D5D5D6B6B6B787878868686939393A1A1A1AEAEAEBB
310
BBBBC9C9C9D6D6D6E4E4E4F1F1F1FFFFFF00000000000000000000000000000000000000000000000000000000000008F1915C000004414944415478DAED9C5B9683200C40B39CFCB0B35932DBC8FFB40A0A1834D607E1C199195B0769724942042CC043856EAD26AEA7A74801506D008829D692A408AB5D6BAE48CF5A2BBA
310
5458ED5273A4C5B4957BDE0030000C0003C0003000BCFE09D82F009C1217FB3C0795003E9AAF00DC9B9DF4CE4A33C626018095A7CCD5034044AE2E67015CD532007EE91D0F00ECFC2E00202FF49C7CAF01B02980074690C7015C7101485DE0010075C580EE00E01CE6BB0300ED5B8075A397CDE5311846BFB6015837DA71E2
310
370FC04E992C03008919D8FD14AE6C2E573780543989051098B93112895D5510940130E895377D02F81CCD64FEA6530B00633E9D3FFD34060041EC020E413D007E0DD83917700804ADE28D0296B2003F18FA654C5C5C0076D6400FEF93B122179855FA6AEC7ECDF22A78191F5C97662D00AB00E07B73520C9D7228D1DF23A8
310
1580719A871AA3530E65FACFC324CA702B02B06E5858F4701A4F0799FDFBFF135504C079BA973FB0FA443114EBFFF5835CF85304C0A49DBEE80FDEF923C5D1AB69C243263ED2C1D85A1880D73CEAED8D7298289EEB6DEE9F7A01F8912D50732B3F724AE109FD35034823DA32CC058770FC5B14C713FA1BCD00D88E8DE5C750
310
638C4ECAF457EE024C866A318781517CD13D930E47009255660500F8CD9384796D786DE7AC6F8DA66B3211C580B200B653BE1300A662245520AB4B88B7567DB03174B52D6BC30C000FE4D308805FEFDCBF91A550064C171CDF03907181330020B3AF570AC0EE01281503CE00587ABE0900DFE90DE486011B25EDD11B9AFED0
310
72DABDE2E73ED64AC802509108496F10D729B1C96A564BA0E3CF13C6802A00B840B05C7A1240B4D89CEE38AA11C0FECA10E90F82BF03003F16F46A019236D8210395DD0DBE0E009A00207BD6491B00BA37081284C3C11D00E869FDD503A0D72D40B2C3A3190B6004C17052B43C00280320BAA37F0200550120E270B705CC73
310
21DBBD480A0130E67015C0771A0981DD83A81640C4E12280797114D95D88DA0144E680A7011085CBE3C83C4F517C795C0420DA20017E73A4C40230DE20513580788F6804E0C416993410D66401D1FB0440328DB8E960947D60AD00E6102F03004D0270F18DBD743ADD2A80251EB8418E29561580AD8C3759409EC07C5ACB53
310
63F70248B6CBF308F08C0514581A9348C6AE78300F4C60DE042A8F01CC45C8B5C136861D01800120E7D85D0340E81C000C004D0240EC1B00040C7A05B079987600500F8099F55706E0FDA7C6860B0C003D03F8ED9BAFD6D97DF7AD22876DD8DC8459710B900AB60BC01ECF63680560EF01704840AF055C2CA85BBCA73FE1E2
310
57E7550FC0F60EE0B708DA560C80BE63C0995B10696914C0E6CC5F525E13EFF995977D00516FFF6DFB5DE5374A3E05004A0028EC02B101FC6D5D5F6F0CB0F2220D822100FD41F01A800686C101E02E00FBF53BC803BA073052E1910AF76801C19DF37EE41C00860B288A47454A91691861F2C667F9B73657A85C01008501FC
310
03E9AC2D54610A76540000000049454E44AE426082
  0
ACDSRECORD
 90
        0
  2
AcDbDs::ID
280
    10
320
1C
  2
Thumbnail_Data
280
    15
 94
     1014
310
89504E470D0A1A0A0000000D49484452000000B80000007F08030000006B00F8F900000300504C5445FFFFFF000000FFFFFF0000000000000000000000000000000000000000000000000000330000660000990000CC0000FF0033000033330033660033990033CC0033FF0066000066330066660066990066CC0066FF0099
310
000099330099660099990099CC0099FF00CC0000CC3300CC6600CC9900CCCC00CCFF00FF0000FF3300FF6600FF9900FFCC00FFFF3300003300333300663300993300CC3300FF3333003333333333663333993333CC3333FF3366003366333366663366993366CC3366FF3399003399333399663399993399CC3399FF33CC00
310
33CC3333CC6633CC9933CCCC33CCFF33FF0033FF3333FF6633FF9933FFCC33FFFF6600006600336600666600996600CC6600FF6633006633336633666633996633CC6633FF6666006666336666666666996666CC6666FF6699006699336699666699996699CC6699FF66CC0066CC3366CC6666CC9966CCCC66CCFF66FF0066
310
FF3366FF6666FF9966FFCC66FFFF9900009900339900669900999900CC9900FF9933009933339933669933999933CC9933FF9966009966339966669966999966CC9966FF9999009999339999669999999999CC9999FF99CC0099CC3399CC6699CC9999CCCC99CCFF99FF0099FF3399FF6699FF9999FFCC99FFFFCC0000CC00
310
33CC0066CC0099CC00CCCC00FFCC3300CC3333CC3366CC3399CC33CCCC33FFCC6600CC6633CC6666CC6699CC66CCCC66FFCC9900CC9933CC9966CC9999CC99CCCC99FFCCCC00CCCC33CCCC66CCCC99CCCCCCCCCCFFCCFF00CCFF33CCFF66CCFF99CCFFCCCCFFFFFF0000FF0033FF0066FF0099FF00CCFF00FFFF3300FF3333
310
FF3366FF3399FF33CCFF33FFFF6600FF6633FF6666FF6699FF66CCFF66FFFF9900FF9933FF9966FF9999FF99CCFF99FFFFCC00FFCC33FFCC66FFCC99FFCCCCFFCCFFFFFF00FFFF33FFFF66FFFF99FFFFCCFFFFFF0000000D0D0D1A1A1A2828283535354343435050505D5D5D6B6B6B787878868686939393A1A1A1AEAEAEBB
310
BBBBC9C9C9D6D6D6E4E4E4F1F1F1FFFFFF000000000000000000000000000000000000000000000000000000000000790CAC0F000000B14944415478DAEDDC3B0A80301004D0DCFF987B81ADEC258D4D8A547E46DE968AF01061B25338BAE2A6C79CAE236C72E105FE3EFCFAFED72BBB1B373FB2837FF62D838383833F0A97
310
9CE0E0E0E0E1E771C9090E0E0E0E0E0E0E0EAE9EB04880838383AB27443E3838383838383838B87A021C1C1C1C5CAF22F2C1C1C1C1C1C1C1C1C1F52A362070707070F5043838383838383838B87AC222010E0E0EAE9E909CE0E0E099F0D47F7A4A4EF05FC2F366BA4F0386279D40CB09810000000049454E44AE426082
  0
ENDSEC
  0
EOF
