  0
SECTION
  2
HEADER
  9
$ACADVER
  1
AC1027
  9
$ACADMAINTVER
 70
    55
  9
$DWGCODEPAGE
  3
ANSI_949
  9
$LASTSAVEDBY
  1
DESKTOP
  9
$REQUIREDVERSIONS
160
                 0
  9
$INSBASE
 10
0.0
 20
0.0
 30
0.0
  9
$EXTMIN
 10
-2.852291607553752
 20
-2.866500582669345
 30
-0.0000000000000135
  9
$EXTMAX
 10
278.6921705310269
 20
195.6549794402057
 30
0.0000000000000018
  9
$LIMMIN
 10
0.0
 20
0.0
  9
$LIMMAX
 10
420.0
 20
297.0
  9
$ORTHOMODE
 70
     0
  9
$REGENMODE
 70
     1
  9
$FILLMODE
 70
     1
  9
$QTEXTMODE
 70
     0
  9
$MIRRTEXT
 70
     0
  9
$LTSCALE
 40
5.0
  9
$ATTMODE
 70
     1
  9
$TEXTSIZE
 40
3.0
  9
$TRACEWID
 40
1.0
  9
$TEXTSTYLE
  7
Standard
  9
$CLAYER
  8
0
  9
$CELTYPE
  6
Continuous
  9
$CECOLOR
 62
     7
  9
$CELTSCALE
 40
1.0
  9
$DISPSILH
 70
     0
  9
$DIMSCALE
 40
1.0
  9
$DIMASZ
 40
2.5
  9
$DIMEXO
 40
0.625
  9
$DIMDLI
 40
3.75
  9
$DIMRND
 40
0.0
  9
$DIMDLE
 40
0.0
  9
$DIMEXE
 40
1.25
  9
$DIMTP
 40
0.0
  9
$DIMTM
 40
0.000000001
  9
$DIMTXT
 40
3.0
  9
$DIMCEN
 40
-0.5
  9
$DIMTSZ
 40
0.0
  9
$DIMTOL
 70
     0
  9
$DIMLIM
 70
     0
  9
$DIMTIH
 70
     0
  9
$DIMTOH
 70
     0
  9
$DIMSE1
 70
     0
  9
$DIMSE2
 70
     0
  9
$DIMTAD
 70
     1
  9
$DIMZIN
 70
     8
  9
$DIMBLK
  1

  9
$DIMASO
 70
     1
  9
$DIMSHO
 70
     1
  9
$DIMPOST
  1

  9
$DIMAPOST
  1

  9
$DIMALT
 70
     0
  9
$DIMALTD
 70
     3
  9
$DIMALTF
 40
0.03937007874016
  9
$DIMLFAC
 40
1.0
  9
$DIMTOFL
 70
     1
  9
$DIMTVP
 40
0.0
  9
$DIMTIX
 70
     0
  9
$DIMSOXD
 70
     0
  9
$DIMSAH
 70
     0
  9
$DIMBLK1
  1

  9
$DIMBLK2
  1

  9
$DIMSTYLE
  2
Standard
  9
$DIMCLRD
 70
     3
  9
$DIMCLRE
 70
     3
  9
$DIMCLRT
 70
     2
  9
$DIMTFAC
 40
0.7
  9
$DIMGAP
 40
0.625
  9
$DIMJUST
 70
     0
  9
$DIMSD1
 70
     0
  9
$DIMSD2
 70
     0
  9
$DIMTOLJ
 70
     0
  9
$DIMTZIN
 70
     8
  9
$DIMALTZ
 70
     0
  9
$DIMALTTZ
 70
     0
  9
$DIMUPT
 70
     0
  9
$DIMDEC
 70
     8
  9
$DIMTDEC
 70
     8
  9
$DIMALTU
 70
     2
  9
$DIMALTTD
 70
     3
  9
$DIMTXSTY
  7
Standard
  9
$DIMAUNIT
 70
     1
  9
$DIMADEC
 70
     0
  9
$DIMALTRND
 40
0.0
  9
$DIMAZIN
 70
     0
  9
$DIMDSEP
 70
    46
  9
$DIMATFIT
 70
     3
  9
$DIMFRAC
 70
     0
  9
$DIMLDRBLK
  1

  9
$DIMLUNIT
 70
     2
  9
$DIMLWD
 70
    -1
  9
$DIMLWE
 70
    -1
  9
$DIMTMOVE
 70
     0
  9
$DIMFXL
 40
1.0
  9
$DIMFXLON
 70
     0
  9
$DIMJOGANG
 40
0.7853981633974483
  9
$DIMTFILL
 70
     0
  9
$DIMTFILLCLR
 70
     0
  9
$DIMARCSYM
 70
     1
  9
$DIMLTYPE
  6

  9
$DIMLTEX1
  6

  9
$DIMLTEX2
  6

  9
$DIMTXTDIRECTION
 70
     0
  9
$LUNITS
 70
     2
  9
$LUPREC
 70
     4
  9
$SKETCHINC
 40
0.0
  9
$FILLETRAD
 40
0.0
  9
$AUNITS
 70
     0
  9
$AUPREC
 70
     0
  9
$MENU
  1
.
  9
$ELEVATION
 40
0.0
  9
$PELEVATION
 40
0.0
  9
$THICKNESS
 40
0.0
  9
$LIMCHECK
 70
     0
  9
$CHAMFERA
 40
1.5
  9
$CHAMFERB
 40
1.5
  9
$CHAMFERC
 40
0.0
  9
$CHAMFERD
 40
0.0087266462599716
  9
$SKPOLY
 70
     0
  9
$TDCREATE
 40
2455072.745932974
  9
$TDUCREATE
 40
2455072.370932974
  9
$TDUPDATE
 40
2460908.423576910
  9
$TDUUPDATE
 40
2460908.048576910
  9
$TDINDWG
 40
132.0353865394
  9
$TDUSRTIMER
 40
132.0353863542
  9
$USRTIMER
 70
     1
  9
$ANGBASE
 50
0.0
  9
$ANGDIR
 70
     0
  9
$PDMODE
 70
     0
  9
$PDSIZE
 40
0.0
  9
$PLINEWID
 40
0.0
  9
$SPLFRAME
 70
     0
  9
$SPLINETYPE
 70
     6
  9
$SPLINESEGS
 70
     8
  9
$HANDSEED
  5
38A85
  9
$SURFTAB1
 70
     6
  9
$SURFTAB2
 70
     6
  9
$SURFTYPE
 70
     6
  9
$SURFU
 70
     6
  9
$SURFV
 70
     6
  9
$UCSBASE
  2

  9
$UCSNAME
  2

  9
$UCSORG
 10
0.0
 20
0.0
 30
0.0
  9
$UCSXDIR
 10
1.0
 20
0.0
 30
0.0
  9
$UCSYDIR
 10
0.0
 20
1.0
 30
0.0
  9
$UCSORTHOREF
  2

  9
$UCSORTHOVIEW
 70
     0
  9
$UCSORGTOP
 10
0.0
 20
0.0
 30
0.0
  9
$UCSORGBOTTOM
 10
0.0
 20
0.0
 30
0.0
  9
$UCSORGLEFT
 10
0.0
 20
0.0
 30
0.0
  9
$UCSORGRIGHT
 10
0.0
 20
0.0
 30
0.0
  9
$UCSORGFRONT
 10
0.0
 20
0.0
 30
0.0
  9
$UCSORGBACK
 10
0.0
 20
0.0
 30
0.0
  9
$PUCSBASE
  2

  9
$PUCSNAME
  2

  9
$PUCSORG
 10
0.0
 20
0.0
 30
0.0
  9
$PUCSXDIR
 10
1.0
 20
0.0
 30
0.0
  9
$PUCSYDIR
 10
0.0
 20
1.0
 30
0.0
  9
$PUCSORTHOREF
  2

  9
$PUCSORTHOVIEW
 70
     0
  9
$PUCSORGTOP
 10
0.0
 20
0.0
 30
0.0
  9
$PUCSORGBOTTOM
 10
0.0
 20
0.0
 30
0.0
  9
$PUCSORGLEFT
 10
0.0
 20
0.0
 30
0.0
  9
$PUCSORGRIGHT
 10
0.0
 20
0.0
 30
0.0
  9
$PUCSORGFRONT
 10
0.0
 20
0.0
 30
0.0
  9
$PUCSORGBACK
 10
0.0
 20
0.0
 30
0.0
  9
$USERI1
 70
     0
  9
$USERI2
 70
     0
  9
$USERI3
 70
     0
  9
$USERI4
 70
     0
  9
$USERI5
 70
     0
  9
$USERR1
 40
0.0
  9
$USERR2
 40
0.0
  9
$USERR3
 40
0.0
  9
$USERR4
 40
0.0
  9
$USERR5
 40
0.0
  9
$WORLDVIEW
 70
     1
  9
$SHADEDGE
 70
     3
  9
$SHADEDIF
 70
    70
  9
$TILEMODE
 70
     1
  9
$MAXACTVP
 70
    64
  9
$PINSBASE
 10
0.0
 20
0.0
 30
0.0
  9
$PLIMCHECK
 70
     0
  9
$PEXTMIN
 10
1.000000000000000E+20
 20
1.000000000000000E+20
 30
1.000000000000000E+20
  9
$PEXTMAX
 10
-1.000000000000000E+20
 20
-1.000000000000000E+20
 30
-1.000000000000000E+20
  9
$PLIMMIN
 10
-20.0
 20
-7.5
  9
$PLIMMAX
 10
277.0
 20
202.5
  9
$UNITMODE
 70
     0
  9
$VISRETAIN
 70
     1
  9
$PLINEGEN
 70
     0
  9
$PSLTSCALE
 70
     1
  9
$TREEDEPTH
 70
  3020
  9
$CMLSTYLE
  2
Standard
  9
$CMLJUST
 70
     0
  9
$CMLSCALE
 40
20.0
  9
$PROXYGRAPHICS
 70
     1
  9
$MEASUREMENT
 70
     1
  9
$CELWEIGHT
370
    -1
  9
$ENDCAPS
280
     0
  9
$JOINSTYLE
280
     0
  9
$LWDISPLAY
290
     0
  9
$INSUNITS
 70
     4
  9
$HYPERLINKBASE
  1

  9
$STYLESHEET
  1
ksm0910.ctb
  9
$XEDIT
290
     1
  9
$CEPSNTYPE
380
     0
  9
$PSTYLEMODE
290
     1
  9
$FINGERPRINTGUID
  2
{D2C70C36-9B4F-4E20-9CCB-531AA1EE4AC8}
  9
$VERSIONGUID
  2
{667D5FE2-E491-4992-914B-E45A058845D8}
  9
$EXTNAMES
290
     1
  9
$PSVPSCALE
 40
0.0
  9
$OLESTARTUP
290
     0
  9
$SORTENTS
280
   127
  9
$INDEXCTL
280
     0
  9
$HIDETEXT
280
     1
  9
$XCLIPFRAME
280
     2
  9
$HALOGAP
280
     0
  9
$OBSCOLOR
 70
   257
  9
$OBSLTYPE
280
     0
  9
$INTERSECTIONDISPLAY
280
     0
  9
$INTERSECTIONCOLOR
 70
   257
  9
$DIMASSOC
280
     1
  9
$PROJECTNAME
  1

  9
$CAMERADISPLAY
290
     0
  9
$LENSLENGTH
 40
50.0
  9
$CAMERAHEIGHT
 40
0.0
  9
$STEPSPERSEC
 40
2.0
  9
$STEPSIZE
 40
6.0
  9
$3DDWFPREC
 40
2.0
  9
$PSOLWIDTH
 40
5.0
  9
$PSOLHEIGHT
 40
80.0
  9
$LOFTANG1
 40
1.570796326794896
  9
$LOFTANG2
 40
1.570796326794896
  9
$LOFTMAG1
 40
0.0
  9
$LOFTMAG2
 40
0.0
  9
$LOFTPARAM
 70
     7
  9
$LOFTNORMALS
280
     1
  9
$LATITUDE
 40
37.795
  9
$LONGITUDE
 40
-122.394
  9
$NORTHDIRECTION
 40
0.0
  9
$TIMEZONE
 70
 -8000
  9
$LIGHTGLYPHDISPLAY
280
     1
  9
$TILEMODELIGHTSYNCH
280
     1
  9
$CMATERIAL
347
3D
  9
$SOLIDHIST
280
     1
  9
$SHOWHIST
280
     1
  9
$DWFFRAME
280
     2
  9
$DGNFRAME
280
     0
  9
$REALWORLDSCALE
290
     1
  9
$INTERFERECOLOR
 62
     1
  9
$INTERFEREOBJVS
345
46
  9
$INTERFEREVPVS
346
47
  9
$CSHADOW
280
     0
  9
$SHADOWPLANELOCATION
 40
0.0
  0
ENDSEC
  0
SECTION
  2
CLASSES
  0
CLASS
  1
ACDBDICTIONARYWDFLT
  2
AcDbDictionaryWithDefault
  3
ObjectDBX Classes
 90
        0
 91
        1
280
     0
281
     0
  0
CLASS
  1
DICTIONARYVAR
  2
AcDbDictionaryVar
  3
ObjectDBX Classes
 90
        0
 91
       18
280
     0
281
     0
  0
CLASS
  1
TABLESTYLE
  2
AcDbTableStyle
  3
ObjectDBX Classes
 90
     4095
 91
        1
280
     0
281
     0
  0
CLASS
  1
MATERIAL
  2
AcDbMaterial
  3
ObjectDBX Classes
 90
     1153
 91
        3
280
     0
281
     0
  0
CLASS
  1
VISUALSTYLE
  2
AcDbVisualStyle
  3
ObjectDBX Classes
 90
     4095
 91
       26
280
     0
281
     0
  0
CLASS
  1
SCALE
  2
AcDbScale
  3
ObjectDBX Classes
 90
     1153
 91
       17
280
     0
281
     0
  0
CLASS
  1
MLEADERSTYLE
  2
AcDbMLeaderStyle
  3
ACDB_MLEADERSTYLE_CLASS
 90
     4095
 91
        1
280
     0
281
     0
  0
CLASS
  1
CELLSTYLEMAP
  2
AcDbCellStyleMap
  3
ObjectDBX Classes
 90
     1152
 91
        2
280
     0
281
     0
  0
CLASS
  1
SORTENTSTABLE
  2
AcDbSortentsTable
  3
ObjectDBX Classes
 90
        0
 91
        1
280
     0
281
     0
  0
CLASS
  1
DIMASSOC
  2
AcDbDimAssoc
  3
"AcDbDimAssoc|Product Desc:     AcDim ARX App For Dimension|Company:          Autodesk, Inc.|WEB Address:      www.autodesk.com"
 90
        0
 91
        0
280
     0
281
     0
  0
CLASS
  1
SOLID_BACKGROUND
  2
AcDbSolidBackground
  3
SCENEOE
 90
     4095
 91
        0
280
     0
281
     0
  0
CLASS
  1
NPOCOLLECTION
  2
AcDbImpNonPersistentObjectsCollection
  3
ObjectDBX Classes
 90
     1153
 91
        0
280
     0
281
     0
  0
CLASS
  1
ACAD_EVALUATION_GRAPH
  2
AcDbEvalGraph
  3
ObjectDBX Classes
 90
     1153
 91
        0
280
     0
281
     0
  0
CLASS
  1
ACAECUSTOBJ
  2
AcAeEditorObj
  3
AcAeEditorObj
 90
     1024
 91
        0
280
     1
281
     0
  0
CLASS
  1
ACDB_DYNAMICBLOCKPURGEPREVENTER_VERSION
  2
AcDbDynamicBlockPurgePreventer
  3
ObjectDBX Classes
 90
     1153
 91
        0
280
     0
281
     0
  0
CLASS
  1
HELIX
  2
AcDbHelix
  3
ObjectDBX Classes
 90
     4095
 91
        0
280
     0
281
     1
  0
CLASS
  1
MULTILEADER
  2
AcDbMLeader
  3
ACDB_MLEADER_CLASS
 90
     1025
 91
        3
280
     0
281
     1
  0
CLASS
  1
ACMDIMBREAKPERSREACTOR
  2
AcmDimBreakPersReactor
  3
amgDimApp().moduleName()
 90
     1023
 91
        0
280
     1
281
     0
  0
CLASS
  1
ACDB_MTEXTOBJECTCONTEXTDATA_CLASS
  2
AcDbMTextObjectContextData
  3
ObjectDBX Classes
 90
     1153
 91
        0
280
     0
281
     0
  0
CLASS
  1
BREAKDATA
  2
AcDbBreakData
  3
ObjectDBX Classes
 90
     1024
 91
        0
280
     0
281
     0
  0
CLASS
  1
EXACXREFPANELOBJECT
  2
ExAcXREFPanelObject
  3
EXAC_ESW
 90
     1025
 91
        0
280
     1
281
     0
  0
CLASS
  1
ACDBSECTIONVIEWSTYLE
  2
AcDbSectionViewStyle
  3
ObjectDBX Classes
 90
     1025
 91
        2
280
     0
281
     0
  0
CLASS
  1
ACDBDETAILVIEWSTYLE
  2
AcDbDetailViewStyle
  3
ObjectDBX Classes
 90
     1025
 91
        2
280
     0
281
     0
  0
CLASS
  1
ACDBASSOCACTION
  2
AcDbAssocAction
  3
ObjectDBX Classes
 90
     1025
 91
        0
280
     0
281
     0
  0
CLASS
  1
ACDBASSOCARRAYACTIONBODY
  2
AcDbAssocArrayActionBody
  3
ObjectDBX Classes
 90
     1025
 91
        0
280
     0
281
     0
  0
CLASS
  1
ACDBASSOCDEPENDENCY
  2
AcDbAssocDependency
  3
ObjectDBX Classes
 90
     1025
 91
        0
280
     0
281
     0
  0
CLASS
  1
ACDBASSOCVERTEXACTIONPARAM
  2
AcDbAssocVertexActionParam
  3
ObjectDBX Classes
 90
     1025
 91
        0
280
     0
281
     0
  0
CLASS
  1
ACDBASSOCARRAYPOLARPARAMETERS
  2
AcDbAssocArrayPolarParameters
  3
ObjectDBX Classes
 90
     1025
 91
        0
280
     0
281
     0
  0
CLASS
  1
ACDBASSOCNETWORK
  2
AcDbAssocNetwork
  3
ObjectDBX Classes
 90
     1025
 91
        0
280
     0
281
     0
  0
CLASS
  1
ACARRAYJIGENTITY
  2
AcArrayJigEntity
  3
ACAD_ARRAY
 90
      129
 91
        0
280
     0
281
     1
  0
ENDSEC
  0
SECTION
  2
TABLES
  0
TABLE
  2
VPORT
  5
2C
102
{ACAD_XDICTIONARY
360
31
102
}
330
0
100
AcDbSymbolTable
 70
     1
  0
VPORT
  5
2D
330
2C
100
AcDbSymbolTableRecord
100
AcDbViewportTableRecord
  2
*Active
 70
     0
 10
0.0
 20
0.0
 11
1.0
 21
1.0
 12
137.9302913951667
 22
96.39232081441051
 13
0.0
 23
0.0
 14
2.0
 24
2.0
 15
2.0
 25
2.0
 16
0.0
 26
0.0
 36
1.0
 17
0.0
 27
0.0
 37
0.0
 40
200.051945013433
 41
2.15871121718377
 42
50.0
 43
0.0
 44
0.0
 50
0.0
 51
0.0
 71
     0
 72
  1000
 73
     1
 74
     3
 75
     0
 76
     0
 77
     0
 78
     1
281
     0
 65
     1
110
0.0
120
0.0
130
0.0
111
1.0
121
0.0
131
0.0
112
0.0
122
1.0
132
0.0
 79
     0
146
0.0
348
2E
 60
     3
 61
     5
292
     1
282
     1
141
0.0
142
0.0
 63
   250
421
  3355443
1001
ACAD_NAV_VCDISPLAY
1070
     3
  0
ENDTAB
  0
TABLE
  2
LTYPE
  5
27
330
0
100
AcDbSymbolTable
 70
     4
  0
LTYPE
  5
28
330
27
100
AcDbSymbolTableRecord
100
AcDbLinetypeTableRecord
  2
ByBlock
 70
     0
  3

 72
    65
 73
     0
 40
0.0
  0
LTYPE
  5
29
330
27
100
AcDbSymbolTableRecord
100
AcDbLinetypeTableRecord
  2
ByLayer
 70
     0
  3

 72
    65
 73
     0
 40
0.0
  0
LTYPE
  5
14
330
27
100
AcDbSymbolTableRecord
100
AcDbLinetypeTableRecord
  2
Continuous
 70
     0
  3
Solid line
 72
    65
 73
     0
 40
0.0
  0
LTYPE
  5
33216
330
27
100
AcDbSymbolTableRecord
100
AcDbLinetypeTableRecord
  2
CENTER
 70
     0
  3
____ _ ____ _ ____ _ ____ _ ____ _ ____ _ ____ 
 72
    65
 73
     4
 40
2.0
 49
1.25
 74
     0
 49
-0.25
 74
     0
 49
0.25
 74
     0
 49
-0.25
 74
     0
  0
LTYPE
  5
36DF9
330
27
100
AcDbSymbolTableRecord
100
AcDbLinetypeTableRecord
  2
CENTER2
 70
     0
  3
Center (.5x) ___ _ ___ _ ___ _ ___ _ ___ _ ___
 72
    65
 73
     4
 40
1.125
 49
0.75
 74
     0
 49
-0.125
 74
     0
 49
0.125
 74
     0
 49
-0.125
 74
     0
  0
LTYPE
  5
36DFA
330
27
100
AcDbSymbolTableRecord
100
AcDbLinetypeTableRecord
  2
HIDDEN
 70
     0
  3
Hidden __ __ __ __ __ __ __ __ __ __ __ __ __ _
 72
    65
 73
     2
 40
9.524999999999998
 49
6.349999999999999
 74
     0
 49
-3.174999999999999
 74
     0
  0
ENDTAB
  0
TABLE
  2
LAYER
  5
21
102
{ACAD_XDICTIONARY
360
22
102
}
330
0
100
AcDbSymbolTable
 70
     9
  0
LAYER
  5
6
102
{ACAD_XDICTIONARY
360
7
102
}
330
21
100
AcDbSymbolTableRecord
100
AcDbLayerTableRecord
  2
0
 70
     0
 62
     7
  6
Continuous
370
    -3
390
9
347
C
348
0
  0
LAYER
  5
1A4
330
21
100
AcDbSymbolTableRecord
100
AcDbLayerTableRecord
  2
DEFPOINTS
 70
     0
 62
     7
  6
Continuous
290
     0
370
    -3
390
9
347
C
348
0
  0
LAYER
  5
283CB
330
21
100
AcDbSymbolTableRecord
100
AcDbLayerTableRecord
  2
Layer 1
 70
     0
 62
     7
  6
Continuous
370
     0
390
9
347
C
348
0
  0
LAYER
  5
36DFC
330
21
100
AcDbSymbolTableRecord
100
AcDbLayerTableRecord
  2
06-D06-75
 70
     0
 62
     7
  6
Continuous
370
    -3
390
9
347
C
348
0
1001
AcAecLayerStandard
1000

1000

  0
LAYER
  5
36DFD
330
21
100
AcDbSymbolTableRecord
100
AcDbLayerTableRecord
  2
26-D06-105
 70
     0
 62
     7
  6
Continuous
370
    -3
390
9
347
C
348
0
1001
AcAecLayerStandard
1000

1000

  0
LAYER
  5
36DFE
330
21
100
AcDbSymbolTableRecord
100
AcDbLayerTableRecord
  2
32-D12-105
 70
     0
 62
     7
  6
Continuous
370
    -3
390
9
347
C
348
0
1001
AcAecLayerStandard
1000

1000

  0
LAYER
  5
36DFF
330
21
100
AcDbSymbolTableRecord
100
AcDbLayerTableRecord
  2
28-D08-105
 70
     0
 62
     7
  6
Continuous
370
    -3
390
9
347
C
348
0
1001
AcAecLayerStandard
1000

1000

  0
LAYER
  5
36E00
330
21
100
AcDbSymbolTableRecord
100
AcDbLayerTableRecord
  2
30-D10-105
 70
     0
 62
     7
  6
Continuous
370
    -3
390
9
347
C
348
0
1001
AcAecLayerStandard
1000

1000

  0
LAYER
  5
36E01
330
21
100
AcDbSymbolTableRecord
100
AcDbLayerTableRecord
  2
36-D16-105
 70
     0
 62
     7
  6
Continuous
370
    -3
390
9
347
C
348
0
1001
AcAecLayerStandard
1000

1000

  0
ENDTAB
  0
TABLE
  2
STYLE
  5
24
330
0
100
AcDbSymbolTable
 70
     4
  0
STYLE
  5
25
330
24
100
AcDbSymbolTableRecord
100
AcDbTextStyleTableRecord
  2
Standard
 70
     0
 40
3.0
 41
1.0
 50
0.0
 71
     0
 42
3.0
  3
isocp.shx
  4
whgtxt.shx
  0
STYLE
  5
35
330
24
100
AcDbSymbolTableRecord
100
AcDbTextStyleTableRecord
  2
ROMANS
 70
     0
 40
2.5
 41
1.0
 50
0.0
 71
     0
 42
2.5
  3
romans.shx
  4

  0
STYLE
  5
5C
330
24
100
AcDbSymbolTableRecord
100
AcDbTextStyleTableRecord
  2
굴림
 70
     0
 40
3.0
 41
1.0
 50
0.0
 71
     0
 42
3.0
  3

  4

1001
ACAD
1000
Gulim
1071
    33074
  0
ENDTAB
  0
TABLE
  2
VIEW
  5
2A
330
0
100
AcDbSymbolTable
 70
     0
  0
ENDTAB
  0
TABLE
  2
UCS
  5
2B
330
0
100
AcDbSymbolTable
 70
     0
  0
ENDTAB
  0
TABLE
  2
APPID
  5
32
330
0
100
AcDbSymbolTable
 70
    45
  0
APPID
  5
13
330
32
100
AcDbSymbolTableRecord
100
AcDbRegAppTableRecord
  2
ACAD
 70
     0
  0
APPID
  5
1A
330
32
100
AcDbSymbolTableRecord
100
AcDbRegAppTableRecord
  2
ACAD_PSEXT
 70
     0
  0
APPID
  5
37
330
32
100
AcDbSymbolTableRecord
100
AcDbRegAppTableRecord
  2
ACAD_DSTYLE_DIMJAG
 70
     0
  0
APPID
  5
38
330
32
100
AcDbSymbolTableRecord
100
AcDbRegAppTableRecord
  2
ACAD_DSTYLE_DIMTALN
 70
     0
  0
APPID
  5
36
330
32
100
AcDbSymbolTableRecord
100
AcDbRegAppTableRecord
  2
ACAD_DSTYLE_DIMJOGGED_JOGANGLE_SYMBOL
 70
     0
  0
APPID
  5
183
330
32
100
AcDbSymbolTableRecord
100
AcDbRegAppTableRecord
  2
AcAecLayerStandard
 70
     0
  0
APPID
  5
3DE
330
32
100
AcDbSymbolTableRecord
100
AcDbRegAppTableRecord
  2
ACAD_DSTYLE_DIMRADIAL_EXTENSION
 70
     0
  0
APPID
  5
530
330
32
100
AcDbSymbolTableRecord
100
AcDbRegAppTableRecord
  2
GRADIENTCOLOR1ACI
 70
     0
  0
APPID
  5
531
330
32
100
AcDbSymbolTableRecord
100
AcDbRegAppTableRecord
  2
GRADIENTCOLOR2ACI
 70
     0
  0
APPID
  5
30
330
32
100
AcDbSymbolTableRecord
100
AcDbRegAppTableRecord
  2
ACAD_NAV_VCDISPLAY
 70
     0
  0
APPID
  5
C34
330
32
100
AcDbSymbolTableRecord
100
AcDbRegAppTableRecord
  2
ACAD_MLEADERVER
 70
     0
  0
APPID
  5
C97
330
32
100
AcDbSymbolTableRecord
100
AcDbRegAppTableRecord
  2
ACAD_EXEMPT_FROM_CAD_STANDARDS
 70
     0
  0
APPID
  5
D79
330
32
100
AcDbSymbolTableRecord
100
AcDbRegAppTableRecord
  2
AcadAnnoMonitorAlertIconDisabled
 70
     0
  0
APPID
  5
1A45
330
32
100
AcDbSymbolTableRecord
100
AcDbRegAppTableRecord
  2
GENIUS_GENODEF_13
 70
     0
  0
APPID
  5
1A46
330
32
100
AcDbSymbolTableRecord
100
AcDbRegAppTableRecord
  2
GENIUS_GENOBJ-N-FIL_13
 70
     0
  0
APPID
  5
1A47
330
32
100
AcDbSymbolTableRecord
100
AcDbRegAppTableRecord
  2
ACAD_DSTYLE_DIMBREAK
 70
     0
  0
APPID
  5
1A48
330
32
100
AcDbSymbolTableRecord
100
AcDbRegAppTableRecord
  2
GENIUS_GENOBJ-N-HTC_13
 70
     0
  0
APPID
  5
1A49
330
32
100
AcDbSymbolTableRecord
100
AcDbRegAppTableRecord
  2
GENIUS_GENHATCH_13
 70
     0
  0
APPID
  5
1A4A
330
32
100
AcDbSymbolTableRecord
100
AcDbRegAppTableRecord
  2
GENIUS_GENREC_14
 70
     0
  0
APPID
  5
1A4B
330
32
100
AcDbSymbolTableRecord
100
AcDbRegAppTableRecord
  2
GENIUS_GENOBJ-N-REC_13
 70
     0
  0
APPID
  5
1A4C
330
32
100
AcDbSymbolTableRecord
100
AcDbRegAppTableRecord
  2
ACAUTHENVIRON
 70
     0
  0
APPID
  5
1A4D
330
32
100
AcDbSymbolTableRecord
100
AcDbRegAppTableRecord
  2
AcDbDynamicBlockTrueName
 70
     0
  0
APPID
  5
1A4E
330
32
100
AcDbSymbolTableRecord
100
AcDbRegAppTableRecord
  2
AcDbDynamicBlockGUID
 70
     0
  0
APPID
  5
1A4F
330
32
100
AcDbSymbolTableRecord
100
AcDbRegAppTableRecord
  2
AcDbBlockRepETag
 70
     0
  0
APPID
  5
1A50
330
32
100
AcDbSymbolTableRecord
100
AcDbRegAppTableRecord
  2
DCO15
 70
     0
  0
APPID
  5
1A51
330
32
100
AcDbSymbolTableRecord
100
AcDbRegAppTableRecord
  2
ACAD_DSTYLE_DIMTEXT_FILL
 70
     0
  0
APPID
  5
1A52
330
32
100
AcDbSymbolTableRecord
100
AcDbRegAppTableRecord
  2
ACAD_DSTYLE_DIM_LINETYPE
 70
     0
  0
APPID
  5
1A53
330
32
100
AcDbSymbolTableRecord
100
AcDbRegAppTableRecord
  2
ACAD_DSTYLE_DIM_EXT1_LINETYPE
 70
     0
  0
APPID
  5
1A54
330
32
100
AcDbSymbolTableRecord
100
AcDbRegAppTableRecord
  2
ACAD_DSTYLE_DIM_EXT2_LINETYPE
 70
     0
  0
APPID
  5
1A55
330
32
100
AcDbSymbolTableRecord
100
AcDbRegAppTableRecord
  2
ACAD_DSTYLE_DIMINSPECT
 70
     0
  0
APPID
  5
1A56
330
32
100
AcDbSymbolTableRecord
100
AcDbRegAppTableRecord
  2
AcadAnnotative
 70
     0
  0
APPID
  5
1A57
330
32
100
AcDbSymbolTableRecord
100
AcDbRegAppTableRecord
  2
GENIUS_GENDTOL_13
 70
     0
  0
APPID
  5
1A58
330
32
100
AcDbSymbolTableRecord
100
AcDbRegAppTableRecord
  2
GENIUS_GENFIL_13
 70
     0
  0
APPID
  5
1A59
330
32
100
AcDbSymbolTableRecord
100
AcDbRegAppTableRecord
  2
GENIUS_GENOBJ-N-CHA_13
 70
     0
  0
APPID
  5
1A5A
330
32
100
AcDbSymbolTableRecord
100
AcDbRegAppTableRecord
  2
AcadAnnotativeDecomposition
 70
     0
  0
APPID
  5
1A5B
330
32
100
AcDbSymbolTableRecord
100
AcDbRegAppTableRecord
  2
MCAD_NO_VIS
 70
     0
  0
APPID
  5
1A5C
330
32
100
AcDbSymbolTableRecord
100
AcDbRegAppTableRecord
  2
ACAD_TEMP_GRAPHIC
 70
     0
  0
APPID
  5
1A5D
330
32
100
AcDbSymbolTableRecord
100
AcDbRegAppTableRecord
  2
ACATTRIBSERVICES
 70
     0
  0
APPID
  5
1A5E
330
32
100
AcDbSymbolTableRecord
100
AcDbRegAppTableRecord
  2
DESIGNERASSEMBLIES
 70
     0
  0
APPID
  5
1A5F
330
32
100
AcDbSymbolTableRecord
100
AcDbRegAppTableRecord
  2
GENIUS_GENDIMSH_14
 70
     0
  0
APPID
  5
1A60
330
32
100
AcDbSymbolTableRecord
100
AcDbRegAppTableRecord
  2
ACAD_DSTYLE_DIMARC_LENGTH_SYMBOL
 70
     0
  0
APPID
  5
1A61
330
32
100
AcDbSymbolTableRecord
100
AcDbRegAppTableRecord
  2
ACAD_SPLINE_DATA
 70
     0
  0
APPID
  5
1A62
330
32
100
AcDbSymbolTableRecord
100
AcDbRegAppTableRecord
  2
GENIUS_GENOREF_13
 70
     0
  0
APPID
  5
1A63
330
32
100
AcDbSymbolTableRecord
100
AcDbRegAppTableRecord
  2
ACAD_DSTYLE_DIMANGULAR_EXTENSION
 70
     0
  0
APPID
  5
318CC
330
32
100
AcDbSymbolTableRecord
100
AcDbRegAppTableRecord
  2
HATCHBACKGROUNDCOLOR
 70
     0
  0
ENDTAB
  0
TABLE
  2
DIMSTYLE
  5
33
330
0
100
AcDbSymbolTable
 70
     4
100
AcDbDimStyleTable
 71
     1
340
34
  0
DIMSTYLE
105
34
330
33
100
AcDbSymbolTableRecord
100
AcDbDimStyleTableRecord
  2
Standard
 70
     0
 41
2.5
 73
     0
 77
     3
 78
     8
140
2.5
141
-1.0
147
1.0
175
     1
176
     3
177
     3
178
     2
179
     8
271
     8
272
     8
275
     1
340
35
1001
ACAD_DSTYLE_DIMJOGGED_JOGANGLE_SYMBOL
1070
   384
1040
0.7853981633974483
1001
ACAD_DSTYLE_DIMJAG
1070
   388
1040
1.5
1001
ACAD_DSTYLE_DIMTALN
1070
   392
1070
     0
  0
DIMSTYLE
105
1A8
102
{ACAD_REACTORS
330
37320
330
38150
330
38152
330
38153
330
38154
330
38155
330
381E6
102
}
330
33
100
AcDbSymbolTableRecord
100
AcDbDimStyleTableRecord
  2
Standard$0
 70
     0
 41
2.5
 73
     0
 77
     3
 78
     8
140
2.5
141
-1.0
147
1.0
175
     1
176
     3
177
     3
178
     2
179
     8
271
     8
272
     8
275
     1
340
35
  0
DIMSTYLE
105
37F7A
102
{ACAD_REACTORS
330
3891E
102
}
330
33
100
AcDbSymbolTableRecord
100
AcDbDimStyleTableRecord
  2
STANDARD$2
 70
     0
 41
2.5
 73
     0
 77
     3
 78
     8
140
2.5
141
-1.0
147
1.0
175
     1
176
     3
177
     3
178
     2
179
     8
271
     8
272
     8
275
     1
340
35
  0
ENDTAB
  0
TABLE
  2
BLOCK_RECORD
  5
1
330
0
100
AcDbSymbolTable
 70
     9
  0
BLOCK_RECORD
  5
2
102
{ACAD_XDICTIONARY
360
3
102
}
330
1
100
AcDbSymbolTableRecord
100
AcDbBlockTableRecord
  2
*Model_Space
340
16
 70
     0
280
     1
281
     0
  0
BLOCK_RECORD
  5
1B
330
1
100
AcDbSymbolTableRecord
100
AcDbBlockTableRecord
  2
*Paper_Space
340
1E
 70
     0
280
     1
281
     0
  0
BLOCK_RECORD
  5
373A6
330
1
100
AcDbSymbolTableRecord
100
AcDbBlockTableRecord
  2
*D0
340
0
 70
     0
280
     1
281
     0
  0
BLOCK_RECORD
  5
381F5
330
1
100
AcDbSymbolTableRecord
100
AcDbBlockTableRecord
  2
*D1
340
0
 70
     0
280
     1
281
     0
  0
BLOCK_RECORD
  5
38202
330
1
100
AcDbSymbolTableRecord
100
AcDbBlockTableRecord
  2
*D2
340
0
 70
     0
280
     1
281
     0
  0
BLOCK_RECORD
  5
3820E
330
1
100
AcDbSymbolTableRecord
100
AcDbBlockTableRecord
  2
*D3
340
0
 70
     0
280
     1
281
     0
  0
BLOCK_RECORD
  5
3821A
330
1
100
AcDbSymbolTableRecord
100
AcDbBlockTableRecord
  2
*D4
340
0
 70
     0
280
     1
281
     0
  0
BLOCK_RECORD
  5
38226
330
1
100
AcDbSymbolTableRecord
100
AcDbBlockTableRecord
  2
*D5
340
0
 70
     0
280
     1
281
     0
  0
BLOCK_RECORD
  5
382AD
330
1
100
AcDbSymbolTableRecord
100
AcDbBlockTableRecord
  2
*D6
340
0
 70
     0
280
     1
281
     0
  0
BLOCK_RECORD
  5
3891F
330
1
100
AcDbSymbolTableRecord
100
AcDbBlockTableRecord
  2
*D7
340
0
 70
     0
280
     1
281
     0
  0
ENDTAB
  0
ENDSEC
  0
SECTION
  2
BLOCKS
  0
BLOCK
  5
5
330
2
100
AcDbEntity
  8
0
100
AcDbBlockBegin
  2
*Model_Space
 70
     0
 10
0.0
 20
0.0
 30
0.0
  3
*Model_Space
  1

  0
ENDBLK
  5
15
330
2
100
AcDbEntity
  8
0
100
AcDbBlockEnd
  0
BLOCK
  5
1C
330
1B
100
AcDbEntity
 67
     1
  8
0
100
AcDbBlockBegin
  2
*Paper_Space
 70
     0
 10
0.0
 20
0.0
 30
0.0
  3
*Paper_Space
  1

  0
ENDBLK
  5
1D
330
1B
100
AcDbEntity
 67
     1
  8
0
100
AcDbBlockEnd
  0
BLOCK
  5
373A7
330
373A6
100
AcDbEntity
  8
0
 62
     7
100
AcDbBlockBegin
  2
*D0
 70
     1
 10
0.0
 20
0.0
 30
0.0
  3
*D0
  1

  0
LINE
  5
3895A
330
373A6
100
AcDbEntity
  8
0
  6
Continuous
 62
     3
440
 16777216
100
AcDbLine
 10
69.05972006855268
 20
80.40772645204265
 30
0.0
 11
56.87815368425551
 21
80.40772645204265
 31
0.0
  0
LINE
  5
3895B
330
373A6
100
AcDbEntity
  8
0
  6
Continuous
 62
     3
440
 16777216
100
AcDbLine
 10
58.12815368425551
 20
82.90772645204265
 30
0.0
 11
58.12815368425551
 21
99.5574311764512
 31
0.0
  0
SOLID
  5
3895C
330
373A6
100
AcDbEntity
  8
0
  6
Continuous
 62
     3
440
 16777216
100
AcDbTrace
 10
57.71148701758884
 20
82.90772645204265
 30
0.0
 11
58.54482035092217
 21
82.90772645204265
 31
0.0
 12
58.12815368425551
 22
80.40772645204265
 32
0.0
 13
58.12815368425551
 23
80.40772645204265
 33
0.0
  0
MTEXT
  5
3895D
330
373A6
100
AcDbEntity
  8
0
  6
Continuous
 62
     2
440
 16777216
100
AcDbMText
 10
56.00315368425549
 20
93.98243117645121
 30
0.0
 40
3.0
 41
0.0
 46
0.0
 71
     5
 72
     1
  1
%%c1.551
 11
0.0000000000000001
 21
1.0
 31
0.0
 73
     1
 44
1.0
  0
POINT
  5
3895E
330
373A6
100
AcDbEntity
  8
DEFPOINTS
  6
Continuous
 62
     0
440
 16777216
100
AcDbPoint
 10
69.68472006855268
 20
119.9077264520426
 30
0.0
  0
POINT
  5
3895F
330
373A6
100
AcDbEntity
  8
DEFPOINTS
  6
Continuous
 62
     0
440
 16777216
100
AcDbPoint
 10
69.68472006855268
 20
80.40772645204265
 30
0.0
  0
POINT
  5
38960
330
373A6
100
AcDbEntity
  8
DEFPOINTS
  6
Continuous
 62
     0
440
 16777216
100
AcDbPoint
 10
58.12815368425551
 20
80.40772645204265
 30
0.0
  0
ENDBLK
  5
373A8
330
373A6
100
AcDbEntity
  8
0
 62
     7
100
AcDbBlockEnd
  0
BLOCK
  5
381F6
330
381F5
100
AcDbEntity
  8
0
 62
     7
100
AcDbBlockBegin
  2
*D1
 70
     1
 10
0.0
 20
0.0
 30
0.0
  3
*D1
  1

  0
LINE
  5
38961
330
381F5
100
AcDbEntity
  8
0
  6
Continuous
 62
     3
440
 16777216
100
AcDbLine
 10
218.199169129526
 20
122.6516363185367
 30
0.0
 11
218.199169129526
 21
130.7082678461463
 31
0.0
  0
LINE
  5
38962
330
381F5
100
AcDbEntity
  8
0
  6
Continuous
 62
     3
440
 16777216
100
AcDbLine
 10
226.1366691295263
 20
122.6505029379211
 30
0.0
 11
226.1366691295263
 21
130.7082678461463
 31
0.0
  0
LINE
  5
38963
330
381F5
100
AcDbEntity
  8
0
  6
Continuous
 62
     3
440
 16777216
100
AcDbLine
 10
220.699169129526
 20
129.4582678461463
 30
0.0
 11
223.6366691295263
 21
129.4582678461463
 31
0.0
  0
LINE
  5
38964
330
381F5
100
AcDbEntity
  8
0
  6
Continuous
 62
     3
440
 16777216
100
AcDbLine
 10
226.1366691295263
 20
129.4582678461463
 30
0.0
 11
250.6628502318884
 21
129.4582678461463
 31
0.0
  0
SOLID
  5
38965
330
381F5
100
AcDbEntity
  8
0
  6
Continuous
 62
     3
440
 16777216
100
AcDbTrace
 10
220.699169129526
 20
129.874934512813
 30
0.0
 11
220.699169129526
 21
129.0416011794796
 31
0.0
 12
218.199169129526
 22
129.4582678461463
 32
0.0
 13
218.199169129526
 23
129.4582678461463
 33
0.0
  0
SOLID
  5
38966
330
381F5
100
AcDbEntity
  8
0
  6
Continuous
 62
     3
440
 16777216
100
AcDbTrace
 10
223.6366691295263
 20
129.874934512813
 30
0.0
 11
223.6366691295263
 21
129.0416011794796
 31
0.0
 12
226.1366691295263
 22
129.4582678461463
 32
0.0
 13
226.1366691295263
 23
129.4582678461463
 33
0.0
  0
MTEXT
  5
38967
330
381F5
100
AcDbEntity
  8
0
  6
Continuous
 62
     2
440
 16777216
100
AcDbMText
 10
239.6497596807074
 20
131.5835631217369
 30
0.0
 40
3.0
 41
0.0
 46
0.0
 71
     5
 72
     1
  1
2-.3125%%P.001
 73
     1
 44
1.0
  0
POINT
  5
38968
330
381F5
100
AcDbEntity
  8
DEFPOINTS
  6
Continuous
 62
     0
440
 16777216
100
AcDbPoint
 10
218.199169129526
 20
122.0266363185367
 30
0.0
  0
POINT
  5
38969
330
381F5
100
AcDbEntity
  8
DEFPOINTS
  6
Continuous
 62
     0
440
 16777216
100
AcDbPoint
 10
226.1366691295263
 20
122.0255029379211
 30
0.0
  0
POINT
  5
3896A
330
381F5
100
AcDbEntity
  8
DEFPOINTS
  6
Continuous
 62
     0
440
 16777216
100
AcDbPoint
 10
226.1366691295263
 20
129.4582678461463
 30
0.0
  0
ENDBLK
  5
381F7
330
381F5
100
AcDbEntity
  8
0
 62
     7
100
AcDbBlockEnd
  0
BLOCK
  5
38203
330
38202
100
AcDbEntity
  8
0
 62
     7
100
AcDbBlockBegin
  2
*D2
 70
     1
 10
0.0
 20
0.0
 30
0.0
  3
*D2
  1

  0
LINE
  5
3896B
330
38202
100
AcDbEntity
  8
0
  6
Continuous
 62
     3
440
 16777216
100
AcDbLine
 10
226.755419129526
 20
113.3657264520163
 30
0.0
 11
253.3247172837183
 21
113.3657264520163
 31
0.0
  0
LINE
  5
3896C
330
38202
100
AcDbEntity
  8
0
  6
Continuous
 62
     3
440
 16777216
100
AcDbLine
 10
245.5179191295262
 20
100.1577264520163
 30
0.0
 11
253.3247172837183
 21
100.1577264520163
 31
0.0
  0
LINE
  5
3896D
330
38202
100
AcDbEntity
  8
0
  6
Continuous
 62
     3
440
 16777216
100
AcDbLine
 10
252.0747172837183
 20
110.8657264520163
 30
0.0
 11
252.0747172837183
 21
102.6577264520162
 31
0.0
  0
SOLID
  5
3896E
330
38202
100
AcDbEntity
  8
0
  6
Continuous
 62
     3
440
 16777216
100
AcDbTrace
 10
251.6580506170516
 20
110.8657264520163
 30
0.0
 11
252.491383950385
 21
110.8657264520163
 31
0.0
 12
252.0747172837183
 22
113.3657264520163
 32
0.0
 13
252.0747172837183
 23
113.3657264520163
 33
0.0
  0
SOLID
  5
3896F
330
38202
100
AcDbEntity
  8
0
  6
Continuous
 62
     3
440
 16777216
100
AcDbTrace
 10
251.6580506170516
 20
102.6577264520162
 30
0.0
 11
252.491383950385
 21
102.6577264520162
 31
0.0
 12
252.0747172837183
 22
100.1577264520163
 32
0.0
 13
252.0747172837183
 23
100.1577264520163
 33
0.0
  0
MTEXT
  5
38970
330
38202
100
AcDbEntity
  8
0
  6
Continuous
 62
     2
440
 16777216
100
AcDbMText
 10
249.9494220081277
 20
106.7617264520163
 30
0.0
 40
3.0
 41
0.0
 46
0.0
 71
     5
 72
     1
  1
.52
 11
0.0000000000000001
 21
1.0
 31
0.0
 73
     1
 44
1.0
  0
POINT
  5
38971
330
38202
100
AcDbEntity
  8
DEFPOINTS
  6
Continuous
 62
     0
440
 16777216
100
AcDbPoint
 10
226.130419129526
 20
113.3657264520163
 30
0.0
  0
POINT
  5
38972
330
38202
100
AcDbEntity
  8
DEFPOINTS
  6
Continuous
 62
     0
440
 16777216
100
AcDbPoint
 10
244.8929191295261
 20
100.1577264520163
 30
0.0
  0
POINT
  5
38973
330
38202
100
AcDbEntity
  8
DEFPOINTS
  6
Continuous
 62
     0
440
 16777216
100
AcDbPoint
 10
252.0747172837183
 20
100.1577264520163
 30
0.0
  0
ENDBLK
  5
38204
330
38202
100
AcDbEntity
  8
0
 62
     7
100
AcDbBlockEnd
  0
BLOCK
  5
3820F
330
3820E
100
AcDbEntity
  8
0
 62
     7
100
AcDbBlockBegin
  2
*D3
 70
     1
 10
0.0
 20
0.0
 30
0.0
  3
*D3
  1

  0
LINE
  5
38974
330
3820E
100
AcDbEntity
  8
0
  6
Continuous
 62
     3
440
 16777216
100
AcDbLine
 10
226.755419129526
 20
86.9497264520162
 30
0.0
 11
253.3247172837183
 21
86.9497264520162
 31
0.0
  0
LINE
  5
38975
330
3820E
100
AcDbEntity
  8
0
  6
Continuous
 62
     3
440
 16777216
100
AcDbLine
 10
245.5179191295262
 20
100.1577264520163
 30
0.0
 11
253.3247172837183
 21
100.1577264520163
 31
0.0
  0
LINE
  5
38976
330
3820E
100
AcDbEntity
  8
0
  6
Continuous
 62
     3
440
 16777216
100
AcDbLine
 10
252.0747172837183
 20
89.4497264520162
 30
0.0
 11
252.0747172837183
 21
97.65772645201629
 31
0.0
  0
SOLID
  5
38977
330
3820E
100
AcDbEntity
  8
0
  6
Continuous
 62
     3
440
 16777216
100
AcDbTrace
 10
251.6580506170516
 20
89.4497264520162
 30
0.0
 11
252.491383950385
 21
89.4497264520162
 31
0.0
 12
252.0747172837183
 22
86.9497264520162
 32
0.0
 13
252.0747172837183
 23
86.9497264520162
 33
0.0
  0
SOLID
  5
38978
330
3820E
100
AcDbEntity
  8
0
  6
Continuous
 62
     3
440
 16777216
100
AcDbTrace
 10
251.6580506170516
 20
97.65772645201629
 30
0.0
 11
252.491383950385
 21
97.65772645201629
 31
0.0
 12
252.0747172837183
 22
100.1577264520163
 32
0.0
 13
252.0747172837183
 23
100.1577264520163
 33
0.0
  0
MTEXT
  5
38979
330
3820E
100
AcDbEntity
  8
0
  6
Continuous
 62
     2
440
 16777216
100
AcDbMText
 10
249.9494220081277
 20
93.55372645201628
 30
0.0
 40
3.0
 41
0.0
 46
0.0
 71
     5
 72
     1
  1
.52
 11
0.0000000000000001
 21
1.0
 31
0.0
 73
     1
 44
1.0
  0
POINT
  5
3897A
330
3820E
100
AcDbEntity
  8
DEFPOINTS
  6
Continuous
 62
     0
440
 16777216
100
AcDbPoint
 10
226.130419129526
 20
86.9497264520162
 30
0.0
  0
POINT
  5
3897B
330
3820E
100
AcDbEntity
  8
DEFPOINTS
  6
Continuous
 62
     0
440
 16777216
100
AcDbPoint
 10
244.8929191295261
 20
100.1577264520163
 30
0.0
  0
POINT
  5
3897C
330
3820E
100
AcDbEntity
  8
DEFPOINTS
  6
Continuous
 62
     0
440
 16777216
100
AcDbPoint
 10
252.0747172837183
 20
100.1577264520163
 30
0.0
  0
ENDBLK
  5
38210
330
3820E
100
AcDbEntity
  8
0
 62
     7
100
AcDbBlockEnd
  0
BLOCK
  5
3821B
330
3821A
100
AcDbEntity
  8
0
 62
     7
100
AcDbBlockBegin
  2
*D4
 70
     1
 10
0.0
 20
0.0
 30
0.0
  3
*D4
  1

  0
LINE
  5
3897D
330
3821A
100
AcDbEntity
  8
0
  6
Continuous
 62
     3
440
 16777216
100
AcDbLine
 10
149.0597200685529
 20
109.6827264520164
 30
0.0
 11
172.480202817992
 21
109.6827264520163
 31
0.0
  0
LINE
  5
3897E
330
3821A
100
AcDbEntity
  8
0
  6
Continuous
 62
     3
440
 16777216
100
AcDbLine
 10
148.8017200685642
 20
90.63272645201482
 30
0.0
 11
172.480202817992
 21
90.63272645201481
 31
0.0
  0
LINE
  5
3897F
330
3821A
100
AcDbEntity
  8
0
  6
Continuous
 62
     3
440
 16777216
100
AcDbLine
 10
171.230202817992
 20
107.1827264520163
 30
0.0
 11
171.230202817992
 21
93.13272645201481
 31
0.0
  0
SOLID
  5
38980
330
3821A
100
AcDbEntity
  8
0
  6
Continuous
 62
     3
440
 16777216
100
AcDbTrace
 10
170.8135361513253
 20
107.1827264520163
 30
0.0
 11
171.6468694846586
 21
107.1827264520163
 31
0.0
 12
171.230202817992
 22
109.6827264520163
 32
0.0
 13
171.230202817992
 23
109.6827264520163
 33
0.0
  0
SOLID
  5
38981
330
3821A
100
AcDbEntity
  8
0
  6
Continuous
 62
     3
440
 16777216
100
AcDbTrace
 10
170.8135361513253
 20
93.13272645201481
 30
0.0
 11
171.6468694846586
 21
93.13272645201481
 31
0.0
 12
171.230202817992
 22
90.63272645201481
 32
0.0
 13
171.230202817992
 23
90.63272645201481
 33
0.0
  0
MTEXT
  5
38982
330
3821A
100
AcDbEntity
  8
0
  6
Continuous
 62
     2
440
 16777216
100
AcDbMText
 10
169.1052028179919
 20
100.1577264520156
 30
0.0
 40
3.0
 41
0.0
 46
0.0
 71
     5
 72
     1
  1
%%C.75
 11
0.0000000000000001
 21
1.0
 31
0.0
 73
     1
 44
1.0
  0
POINT
  5
38983
330
3821A
100
AcDbEntity
  8
DEFPOINTS
  6
Continuous
 62
     0
440
 16777216
100
AcDbPoint
 10
148.4347200685529
 20
109.6827264520164
 30
0.0
  0
POINT
  5
38984
330
3821A
100
AcDbEntity
  8
DEFPOINTS
  6
Continuous
 62
     0
440
 16777216
100
AcDbPoint
 10
148.1767200685642
 20
90.63272645201482
 30
0.0
  0
POINT
  5
38985
330
3821A
100
AcDbEntity
  8
DEFPOINTS
  6
Continuous
 62
     0
440
 16777216
100
AcDbPoint
 10
171.230202817992
 20
90.63272645201481
 30
0.0
  0
ENDBLK
  5
3821C
330
3821A
100
AcDbEntity
  8
0
 62
     7
100
AcDbBlockEnd
  0
BLOCK
  5
38227
330
38226
100
AcDbEntity
  8
0
 62
     7
100
AcDbBlockBegin
  2
*D5
 70
     1
 10
0.0
 20
0.0
 30
0.0
  3
*D5
  1

  0
LINE
  5
38986
330
38226
100
AcDbEntity
  8
0
  6
Continuous
 62
     3
440
 16777216
100
AcDbLine
 10
133.0083421685397
 20
122.2378201881354
 30
0.0
 11
180.480202817992
 21
122.2378201881354
 31
0.0
  0
LINE
  5
38987
330
38226
100
AcDbEntity
  8
0
  6
Continuous
 62
     3
440
 16777216
100
AcDbLine
 10
179.230202817992
 20
119.7378201881354
 30
0.0
 11
179.230202817992
 21
95.18272645201625
 31
0.0
  0
SOLID
  5
38988
330
38226
100
AcDbEntity
  8
0
  6
Continuous
 62
     3
440
 16777216
100
AcDbTrace
 10
178.8135361513253
 20
119.7378201881354
 30
0.0
 11
179.6468694846587
 21
119.7378201881354
 31
0.0
 12
179.230202817992
 22
122.2378201881354
 32
0.0
 13
179.230202817992
 23
122.2378201881354
 33
0.0
  0
MTEXT
  5
38989
330
38226
100
AcDbEntity
  8
0
  6
Continuous
 62
     2
440
 16777216
100
AcDbMText
 10
177.105202817992
 20
100.1577264520163
 30
0.0
 40
3.0
 41
0.0
 46
0.0
 71
     5
 72
     1
  1
%%C1.74
 11
0.0000000000000001
 21
1.0
 31
0.0
 73
     1
 44
1.0
  0
POINT
  5
3898A
330
38226
100
AcDbEntity
  8
DEFPOINTS
  6
Continuous
 62
     0
440
 16777216
100
AcDbPoint
 10
132.3833421685397
 20
122.2378201881354
 30
0.0
  0
POINT
  5
3898B
330
38226
100
AcDbEntity
  8
DEFPOINTS
  6
Continuous
 62
     0
440
 16777216
100
AcDbPoint
 10
132.4347200685517
 20
78.05972645200814
 30
0.0
  0
POINT
  5
3898C
330
38226
100
AcDbEntity
  8
DEFPOINTS
  6
Continuous
 62
     0
440
 16777216
100
AcDbPoint
 10
179.230202817992
 20
78.05972645200812
 30
0.0
  0
ENDBLK
  5
38228
330
38226
100
AcDbEntity
  8
0
 62
     7
100
AcDbBlockEnd
  0
BLOCK
  5
382AE
330
382AD
100
AcDbEntity
  8
0
 62
     7
100
AcDbBlockBegin
  2
*D6
 70
     1
 10
0.0
 20
0.0
 30
0.0
  3
*D6
  1

  0
LINE
  5
3898D
330
382AD
100
AcDbEntity
  8
0
  6
Continuous
 62
     3
440
 16777216
100
AcDbLine
 10
99.34246377339071
 20
81.10772645201519
 30
0.0
 11
103.8461769417384
 21
81.10772645201519
 31
0.0
  0
LINE
  5
3898E
330
382AD
100
AcDbEntity
  8
0
  6
Continuous
 62
     3
440
 16777216
100
AcDbLine
 10
102.5961769417385
 20
83.60772645201519
 30
0.0
 11
102.5961769417385
 21
99.12199810555444
 31
0.0
  0
SOLID
  5
3898F
330
382AD
100
AcDbEntity
  8
0
  6
Continuous
 62
     3
440
 16777216
100
AcDbTrace
 10
102.1795102750718
 20
83.60772645201519
 30
0.0
 11
103.0128436084051
 21
83.60772645201519
 31
0.0
 12
102.5961769417385
 22
81.10772645201519
 32
0.0
 13
102.5961769417385
 23
81.10772645201519
 33
0.0
  0
MTEXT
  5
38990
330
382AD
100
AcDbEntity
  8
0
  6
Continuous
 62
     2
440
 16777216
100
AcDbMText
 10
100.4711769417384
 20
94.29581700319227
 30
0.0
 40
3.0
 41
0.0
 46
0.0
 71
     5
 72
     1
  1
%%c1.50
 11
0.0000000000000001
 21
1.0
 31
0.0
 73
     1
 44
1.0
  0
POINT
  5
38991
330
382AD
100
AcDbEntity
  8
DEFPOINTS
  6
Continuous
 62
     0
440
 16777216
100
AcDbPoint
 10
98.71746377339071
 20
81.10772645201519
 30
0.0
  0
POINT
  5
38992
330
382AD
100
AcDbEntity
  8
DEFPOINTS
  6
Continuous
 62
     0
440
 16777216
100
AcDbPoint
 10
98.71746377339071
 20
119.2077264519982
 30
0.0
  0
POINT
  5
38993
330
382AD
100
AcDbEntity
  8
DEFPOINTS
  6
Continuous
 62
     0
440
 16777216
100
AcDbPoint
 10
102.5961769417385
 20
119.2077264519982
 30
0.0
  0
ENDBLK
  5
382AF
330
382AD
100
AcDbEntity
  8
0
 62
     7
100
AcDbBlockEnd
  0
BLOCK
  5
38920
330
3891F
100
AcDbEntity
  8
0
 62
     7
100
AcDbBlockBegin
  2
*D7
 70
     1
 10
0.0
 20
0.0
 30
0.0
  3
*D7
  1

  0
LINE
  5
38994
330
3891F
100
AcDbEntity
  8
0
  6
Continuous
 62
     3
440
 16777216
100
AcDbLine
 10
77.90085927522497
 20
81.26948835520432
 30
0.0
 11
91.32077196417885
 21
84.86534312270677
 31
0.0
  0
ARC
  5
38995
330
3891F
100
AcDbEntity
  8
0
  6
Continuous
 62
     3
440
 16777216
100
AcDbCircle
 10
77.29715563379432
 20
81.10772645201519
 30
0.0
 40
13.26831595005727
100
AcDbArc
 50
338.27895841112
 51
360.0
  0
LINE
  5
38996
330
3891F
100
AcDbEntity
  8
0
  6
Continuous
 62
     3
440
 16777216
100
AcDbLine
 10
89.62337764766173
 20
76.19728258049049
 30
0.0
 11
87.49537192579429
 21
70.8555514334091
 31
0.0
  0
ARC
  5
38997
330
3891F
100
AcDbEntity
  8
0
  6
Continuous
 62
     3
440
 16777216
100
AcDbCircle
 10
77.29715563379432
 20
81.10772645201519
 30
0.0
 40
13.26831595005727
100
AcDbArc
 50
338.3767307204701
 51
349.188365360235
  0
ARC
  5
38998
330
3891F
100
AcDbEntity
  8
0
  6
Continuous
 62
     3
440
 16777216
100
AcDbCircle
 10
77.29715563379432
 20
81.10772645201519
 30
0.0
 40
13.26831595005727
100
AcDbArc
 50
25.81163463976935
 51
36.62326927953428
  0
ARC
  5
38999
330
3891F
100
AcDbEntity
  8
0
  6
Continuous
 62
     3
440
 16777216
100
AcDbCircle
 10
77.29715563379432
 20
81.10772645201519
 30
0.0
 40
13.26831595005727
100
AcDbArc
 50
360.0
 51
15.0000000000044
  0
SOLID
  5
3899A
330
3891F
100
AcDbEntity
  8
0
  6
Continuous
 62
     3
440
 16777216
100
AcDbTrace
 10
89.91513459791901
 20
78.65809935471254
 30
0.0
 11
90.7447616016892
 21
78.57959152669673
 31
0.0
 12
90.56547158385159
 22
81.10772645201517
 32
0.0
 13
90.56547158385159
 23
81.10772645201517
 33
0.0
  0
SOLID
  5
3899B
330
3891F
100
AcDbEntity
  8
0
  6
Continuous
 62
     3
440
 16777216
100
AcDbTrace
 10
89.63221607268129
 20
87.0302138042501
 30
0.0
 11
88.85117724463301
 21
86.73965779669664
 31
0.0
 12
90.11336468131755
 22
84.54181931632851
 32
0.0
 13
90.11336468131755
 23
84.54181931632851
 33
0.0
  0
MTEXT
  5
3899C
330
3891F
100
AcDbEntity
  8
0
  6
Continuous
 62
     2
440
 16777216
100
AcDbMText
 10
90.53349281934504
 20
72.73998010973791
 30
0.0
 40
3.0
 41
0.0
 46
0.0
 71
     5
 72
     1
  1
15°
 11
-0.3700879516291209
 21
-0.9289967212315453
 31
0.0
 73
     1
 44
1.0
  0
POINT
  5
3899D
330
3891F
100
AcDbEntity
  8
DEFPOINTS
  6
Continuous
 62
     0
440
 16777216
100
AcDbPoint
 10
90.36389605082613
 20
83.41174533745236
 30
0.0
  0
POINT
  5
3899E
330
3891F
100
AcDbEntity
  8
DEFPOINTS
  6
Continuous
 62
     0
440
 16777216
100
AcDbPoint
 10
74.68472006855359
 20
80.40772645203036
 30
0.0
  0
POINT
  5
3899F
330
3891F
100
AcDbEntity
  8
DEFPOINTS
  6
Continuous
 62
     0
440
 16777216
100
AcDbPoint
 10
163.4187200685519
 20
81.10772645201519
 30
0.0
  0
POINT
  5
389A0
330
3891F
100
AcDbEntity
  8
DEFPOINTS
  6
Continuous
 62
     0
440
 16777216
100
AcDbPoint
 10
77.29715563379454
 20
81.10772645201519
 30
0.0
  0
POINT
  5
389A1
330
3891F
100
AcDbEntity
  8
DEFPOINTS
  6
Continuous
 62
     0
440
 16777216
100
AcDbPoint
 10
77.29715563379432
 20
81.10772645201519
 30
0.0
  0
ENDBLK
  5
38921
330
3891F
100
AcDbEntity
  8
0
 62
     7
100
AcDbBlockEnd
  0
ENDSEC
  0
SECTION
  2
ENTITIES
  0
LWPOLYLINE
  5
1DEB1
330
2
100
AcDbEntity
  8
0
 62
     0
100
AcDbPolyline
 90
        4
 70
     1
 43
0.0
 10
0.5
 20
0.5
 10
0.5
 20
192.2869634307123
 10
275.3311999999998
 20
192.2869634307123
 10
275.3311999999998
 20
0.5
  0
LINE
  5
28352
330
2
100
AcDbEntity
  8
0
  6
Continuous
 62
     7
100
AcDbLine
 10
206.6234
 20
-2.851599999999999
 30
0.0
 11
206.6234
 21
0.5
 31
0.0
  0
LINE
  5
28355
330
2
100
AcDbEntity
  8
0
  6
Continuous
 62
     7
100
AcDbLine
 10
69.20779999999999
 20
-2.851599999999999
 30
0.0
 11
69.20779999999999
 21
0.5
 31
0.0
  0
LINE
  5
28356
330
2
100
AcDbEntity
  8
0
  6
Continuous
 62
     7
100
AcDbLine
 10
206.6234
 20
195.6385634307123
 30
0.0
 11
206.6234
 21
192.2869634307123
 31
0.0
  0
LINE
  5
28357
330
2
100
AcDbEntity
  8
0
  6
Continuous
 62
     7
100
AcDbLine
 10
69.20779999999999
 20
195.6385634307123
 30
0.0
 11
69.20779999999999
 21
192.2869634307123
 31
0.0
  0
LINE
  5
2835B
330
2
100
AcDbEntity
  8
0
  6
Continuous
 62
     7
100
AcDbLine
 10
-2.851599999999999
 20
48.44674085767808
 30
0.0
 11
0.5
 21
48.44674085767808
 31
0.0
  0
LINE
  5
2835C
330
2
100
AcDbEntity
  8
0
  6
Continuous
 62
     7
100
AcDbLine
 10
-2.851599999999999
 20
144.3402225730342
 30
0.0
 11
0.5
 21
144.3402225730342
 31
0.0
  0
LINE
  5
2835D
330
2
100
AcDbEntity
  8
0
  6
Continuous
 62
     7
100
AcDbLine
 10
278.6827999999999
 20
48.44674085767808
 30
0.0
 11
275.3311999999998
 21
48.44674085767808
 31
0.0
  0
LINE
  5
2835E
330
2
100
AcDbEntity
  8
0
  6
Continuous
 62
     7
100
AcDbLine
 10
278.6827999999999
 20
144.3402225730342
 30
0.0
 11
275.3311999999998
 21
144.3402225730342
 31
0.0
  0
LINE
  5
28361
330
2
100
AcDbEntity
  8
0
  6
Continuous
 62
     7
100
AcDbLine
 10
203.2718
 20
0.4999999999999993
 30
0.0
 11
203.2718
 21
27.47004173244392
 31
0.0
  0
LINE
  5
28365
330
2
100
AcDbEntity
  8
0
  6
Continuous
 62
     7
100
AcDbLine
 10
275.3311999999998
 20
27.47004173244392
 30
0.0
 11
203.2718
 21
27.47004173244392
 31
0.0
  0
LINE
  5
28366
330
2
100
AcDbEntity
  8
0
  6
Continuous
 62
     7
100
AcDbLine
 10
203.2718
 20
9.490013910814644
 30
0.0
 11
275.3311999999998
 21
9.490013910814644
 31
0.0
  0
LINE
  5
28368
330
2
100
AcDbEntity
  8
0
  6
Continuous
 62
     7
100
AcDbLine
 10
203.2718
 20
18.48002782162928
 30
0.0
 11
275.3311999999998
 21
18.48002782162928
 31
0.0
  0
LINE
  5
28369
330
2
100
AcDbEntity
  8
0
  6
Continuous
 62
     7
100
AcDbLine
 10
203.2718
 20
0.4999999999999988
 30
0.0
 11
275.3311999999998
 21
0.5000000000000036
 31
0.0
  0
LINE
  5
2836B
330
2
100
AcDbEntity
  8
0
  6
Continuous
 62
     7
100
AcDbLine
 10
275.3311999999998
 20
96.39348171535619
 30
0.0
 11
278.6827999999999
 21
96.39348171535619
 31
0.0
  0
LINE
  5
2836C
330
2
100
AcDbEntity
  8
0
  6
Continuous
 62
     7
100
AcDbLine
 10
277.0069999999999
 20
95.25393771535616
 30
0.0
 11
277.0069999999999
 21
97.5330257153562
 31
0.0
  0
LINE
  5
2836F
330
2
100
AcDbEntity
  8
0
  6
Continuous
 62
     7
100
AcDbLine
 10
277.0069999999999
 20
95.25393771535616
 30
0.0
 11
275.3311999999998
 21
96.39348171535619
 31
0.0
  0
LINE
  5
28370
330
2
100
AcDbEntity
  8
0
  6
Continuous
 62
     7
100
AcDbLine
 10
275.3311999999998
 20
96.39348171535619
 30
0.0
 11
277.0069999999999
 21
97.5330257153562
 31
0.0
  0
LINE
  5
28371
330
2
100
AcDbEntity
  8
0
  6
Continuous
 62
     7
100
AcDbLine
 10
0.5
 20
96.39348171535619
 30
0.0
 11
-2.851599999999999
 21
96.39348171535619
 31
0.0
  0
LINE
  5
28372
330
2
100
AcDbEntity
  8
0
  6
Continuous
 62
     7
100
AcDbLine
 10
-1.175799999999999
 20
95.25393771535616
 30
0.0
 11
-1.175799999999999
 21
97.5330257153562
 31
0.0
  0
LINE
  5
28373
330
2
100
AcDbEntity
  8
0
  6
Continuous
 62
     7
100
AcDbLine
 10
-1.175799999999999
 20
95.25393771535616
 30
0.0
 11
0.5
 21
96.39348171535619
 31
0.0
  0
LINE
  5
28374
330
2
100
AcDbEntity
  8
0
  6
Continuous
 62
     7
100
AcDbLine
 10
0.5
 20
96.39348171535619
 30
0.0
 11
-1.175799999999999
 21
97.5330257153562
 31
0.0
  0
LINE
  5
28375
330
2
100
AcDbEntity
  8
0
  6
Continuous
 62
     7
100
AcDbLine
 10
137.9156
 20
192.2869634307123
 30
0.0
 11
137.9156
 21
195.6385634307123
 31
0.0
  0
LINE
  5
28376
330
2
100
AcDbEntity
  8
0
  6
Continuous
 62
     7
100
AcDbLine
 10
136.7760559999999
 20
193.9627634307123
 30
0.0
 11
139.055144
 21
193.9627634307123
 31
0.0
  0
LINE
  5
28377
330
2
100
AcDbEntity
  8
0
  6
Continuous
 62
     7
100
AcDbLine
 10
136.7760559999999
 20
193.9627634307123
 30
0.0
 11
137.9156
 21
192.2869634307123
 31
0.0
  0
LINE
  5
28378
330
2
100
AcDbEntity
  8
0
  6
Continuous
 62
     7
100
AcDbLine
 10
137.9156
 20
192.2869634307123
 30
0.0
 11
139.055144
 21
193.9627634307123
 31
0.0
  0
LINE
  5
28379
330
2
100
AcDbEntity
  8
0
  6
Continuous
 62
     7
100
AcDbLine
 10
137.9156
 20
0.5
 30
0.0
 11
137.9156
 21
-2.851599999999999
 31
0.0
  0
LINE
  5
2837A
330
2
100
AcDbEntity
  8
0
  6
Continuous
 62
     7
100
AcDbLine
 10
136.7760559999999
 20
-1.175799999999999
 30
0.0
 11
139.055144
 21
-1.175799999999999
 31
0.0
  0
LINE
  5
2837B
330
2
100
AcDbEntity
  8
0
  6
Continuous
 62
     7
100
AcDbLine
 10
136.7760559999999
 20
-1.175799999999999
 30
0.0
 11
137.9156
 21
0.5
 31
0.0
  0
LINE
  5
2837C
330
2
100
AcDbEntity
  8
0
  6
Continuous
 62
     7
100
AcDbLine
 10
137.9156
 20
0.5
 30
0.0
 11
139.055144
 21
-1.175799999999999
 31
0.0
  0
TEXT
  5
2837D
330
2
100
AcDbEntity
  8
0
 62
     2
100
AcDbText
 10
34.1520456690476
 20
-2.215594408868794
 30
0.0
 40
1.876895999999999
  1
4
  7
굴림
100
AcDbText
  0
TEXT
  5
2837E
330
2
100
AcDbEntity
  8
0
 62
     2
100
AcDbText
 10
102.9235469072265
 20
-2.215594408868794
 30
0.0
 40
1.876895999999999
  1
3
  7
굴림
100
AcDbText
  0
TEXT
  5
2837F
330
2
100
AcDbEntity
  8
0
 62
     2
100
AcDbText
 10
171.5424706990155
 20
-2.215594408868794
 30
0.0
 40
1.876895999999999
  1
2
  7
굴림
100
AcDbText
  0
TEXT
  5
28380
330
2
100
AcDbEntity
  8
0
 62
     2
100
AcDbText
 10
240.4598218923343
 20
-2.215594408868794
 30
0.0
 40
1.876895999999999
  1
1
  7
굴림
100
AcDbText
  0
TEXT
  5
28392
330
2
100
AcDbEntity
  8
0
 62
     2
100
AcDbText
 10
34.1520456690476
 20
193.3555764790025
 30
0.0
 40
1.876895999999999
  1
4
  7
굴림
100
AcDbText
  0
TEXT
  5
28393
330
2
100
AcDbEntity
  8
0
 62
     2
100
AcDbText
 10
102.9235469072265
 20
193.3555764790025
 30
0.0
 40
1.876895999999999
  1
3
  7
굴림
100
AcDbText
  0
TEXT
  5
28394
330
2
100
AcDbEntity
  8
0
 62
     2
100
AcDbText
 10
171.5424706990155
 20
193.3555764790025
 30
0.0
 40
1.876895999999999
  1
2
  7
굴림
100
AcDbText
  0
TEXT
  5
28395
330
2
100
AcDbEntity
  8
0
 62
     2
100
AcDbText
 10
240.4598218923343
 20
193.3555764790025
 30
0.0
 40
1.876895999999999
  1
1
  7
굴림
100
AcDbText
  0
TEXT
  5
28396
330
2
100
AcDbEntity
  8
0
 62
     2
100
AcDbText
 10
-2.209557947343677
 20
23.84841253728
 30
0.0
 40
1.876895999999999
  1
A
  7
굴림
100
AcDbText
  0
TEXT
  5
283A7
330
2
100
AcDbEntity
  8
0
 62
     2
100
AcDbText
 10
-2.209557947343677
 20
71.39738603855146
 30
0.0
 40
1.876895999999999
  1
B
  7
굴림
100
AcDbText
  0
TEXT
  5
283A9
330
2
100
AcDbEntity
  8
0
 62
     2
100
AcDbText
 10
-2.209557947343677
 20
119.4000867432917
 30
0.0
 40
1.876895999999999
  1
C
  7
굴림
100
AcDbText
  0
TEXT
  5
283AA
330
2
100
AcDbEntity
  8
0
 62
     2
100
AcDbText
 10
-2.209557947343677
 20
167.6983781703912
 30
0.0
 40
1.876895999999999
  1
D
  7
굴림
100
AcDbText
  0
TEXT
  5
283AB
330
2
100
AcDbEntity
  8
0
 62
     2
100
AcDbText
 10
276.3352207099705
 20
23.84841253728
 30
0.0
 40
1.876895999999999
  1
A
  7
굴림
100
AcDbText
  0
TEXT
  5
283AC
330
2
100
AcDbEntity
  8
0
 62
     2
100
AcDbText
 10
276.3352207099705
 20
71.39738603855146
 30
0.0
 40
1.876895999999999
  1
B
  7
굴림
100
AcDbText
  0
TEXT
  5
283AD
330
2
100
AcDbEntity
  8
0
 62
     2
100
AcDbText
 10
276.3352207099705
 20
119.4000867432917
 30
0.0
 40
1.876895999999999
  1
C
  7
굴림
100
AcDbText
  0
TEXT
  5
283AE
330
2
100
AcDbEntity
  8
0
 62
     2
100
AcDbText
 10
276.3352207099705
 20
167.6983781703912
 30
0.0
 40
1.876895999999999
  1
D
  7
굴림
100
AcDbText
  0
SPLINE
  5
283D6
330
2
100
AcDbEntity
  8
Layer 1
100
AcDbSpline
210
0.0
220
0.0
230
1.0
 70
    11
 71
     3
 72
    41
 73
    37
 74
     0
 42
0.000000001
 43
0.0000000001
 40
0.0
 40
0.0
 40
0.0
 40
0.0
 40
1.0
 40
1.0
 40
1.0
 40
2.0
 40
2.0
 40
2.0
 40
3.0
 40
3.0
 40
3.0
 40
4.0
 40
4.0
 40
4.0
 40
5.0
 40
5.0
 40
5.0
 40
6.0
 40
6.0
 40
6.0
 40
7.0
 40
7.0
 40
7.0
 40
8.0
 40
8.0
 40
8.0
 40
9.0
 40
9.0
 40
9.0
 40
10.0
 40
10.0
 40
10.0
 40
11.0
 40
11.0
 40
11.0
 40
12.0
 40
12.0
 40
12.0
 40
12.0
 10
227.5923346505039
 20
19.29998155526998
 30
0.0
 10
227.5923346505039
 20
19.29998155526998
 30
0.0
 10
225.8380287348576
 20
19.29998155526998
 30
0.0
 10
225.8380287348576
 20
19.29998155526998
 30
0.0
 10
225.8380287348576
 20
19.29998155526998
 30
0.0
 10
229.3467603710779
 20
24.71622163900658
 30
0.0
 10
229.3467603710779
 20
24.71622163900658
 30
0.0
 10
229.3467603710779
 20
24.71622163900658
 30
0.0
 10
231.1548881490208
 20
24.71622163900658
 30
0.0
 10
231.1548881490208
 20
24.71622163900658
 30
0.0
 10
231.1548881490208
 20
24.71622163900658
 30
0.0
 10
231.5610620891428
 20
19.29998155526998
 30
0.0
 10
231.5610620891428
 20
19.29998155526998
 30
0.0
 10
231.5610620891428
 20
19.29998155526998
 30
0.0
 10
229.9291109051489
 20
19.29998155526998
 30
0.0
 10
229.9291109051489
 20
19.29998155526998
 30
0.0
 10
229.9291109051489
 20
19.29998155526998
 30
0.0
 10
229.8754079660923
 20
20.17343444894676
 30
0.0
 10
229.8754079660923
 20
20.17343444894676
 30
0.0
 10
229.8754079660923
 20
20.17343444894676
 30
0.0
 10
228.6924276179193
 20
20.17343444894676
 30
0.0
 10
228.6924276179193
 20
20.17343444894676
 30
0.0
 10
228.6924276179193
 20
20.17343444894676
 30
0.0
 10
229.2797124982168
 20
21.29935356691016
 30
0.0
 10
229.2797124982168
 20
21.29935356691016
 30
0.0
 10
229.2797124982168
 20
21.29935356691016
 30
0.0
 10
229.8218536239894
 20
21.29935356691016
 30
0.0
 10
229.8218536239894
 20
21.29935356691016
 30
0.0
 10
229.8218536239894
 20
21.29935356691016
 30
0.0
 10
229.7527857599232
 20
22.8853288534383
 30
0.0
 10
229.7527857599232
 20
22.8853288534383
 30
0.0
 10
229.7527857599232
 20
22.8853288534383
 30
0.0
 10
227.6010433152532
 20
19.31216650547106
 30
0.0
 10
227.6010433152532
 20
19.31216650547106
 30
0.0
 10
227.6010433152532
 20
19.31216650547106
 30
0.0
 10
227.5923346505039
 20
19.29998155526998
 30
0.0
 10
227.5923346505039
 20
19.29998155526998
 30
0.0
  0
SPLINE
  5
283D7
102
{ACAD_REACTORS
330
2923A
102
}
330
2
100
AcDbEntity
  8
Layer 1
100
AcDbSpline
210
0.0
220
0.0
230
1.0
 70
    11
 71
     3
 72
    17
 73
    13
 74
     0
 42
0.000000001
 43
0.0000000001
 40
0.0
 40
0.0
 40
0.0
 40
0.0
 40
1.0
 40
1.0
 40
1.0
 40
2.0
 40
2.0
 40
2.0
 40
3.0
 40
3.0
 40
3.0
 40
4.0
 40
4.0
 40
4.0
 40
4.0
 10
239.0302296986123
 20
19.29998155526998
 30
0.0
 10
239.0302296986123
 20
19.29998155526998
 30
0.0
 10
237.360117644926
 20
19.29998155526998
 30
0.0
 10
237.360117644926
 20
19.29998155526998
 30
0.0
 10
237.360117644926
 20
19.29998155526998
 30
0.0
 10
238.8081949584476
 20
24.70867624437805
 30
0.0
 10
238.8081949584476
 20
24.70867624437805
 30
0.0
 10
238.8081949584476
 20
24.70867624437805
 30
0.0
 10
240.478186962581
 20
24.70867624437805
 30
0.0
 10
240.478186962581
 20
24.70867624437805
 30
0.0
 10
240.478186962581
 20
24.70867624437805
 30
0.0
 10
239.0302296986123
 20
19.29998155526998
 30
0.0
 10
239.0302296986123
 20
19.29998155526998
 30
0.0
  0
LWPOLYLINE
  5
283DB
102
{ACAD_REACTORS
330
28498
102
}
330
2
100
AcDbEntity
  8
Layer 1
 62
   103
100
AcDbPolyline
 90
        8
 70
     1
 43
0.0
 10
259.6059731911617
 20
26.47109222307688
 10
233.9049412781733
 20
26.47210268236184
 10
233.5215611377028
 20
25.21107921412096
 10
242.4282247856024
 20
25.21063676655853
 10
240.7236988494358
 20
19.29998155527
 10
242.3939880474768
 20
19.29998155527
 10
244.0981870703452
 20
25.21063676655853
 10
259.2206926917282
 20
25.20989043849159
  0
SPLINE
  5
283DD
102
{ACAD_REACTORS
330
2924F
102
}
330
2
100
AcDbEntity
  8
Layer 1
100
AcDbSpline
210
0.0
220
0.0
230
1.0
 70
     9
 71
     3
 72
    17
 73
    13
 74
     0
 42
0.000000001
 43
0.0000000001
 40
0.0
 40
0.0
 40
0.0
 40
0.0
 40
1.0
 40
1.0
 40
1.0
 40
2.0
 40
2.0
 40
2.0
 40
3.0
 40
3.0
 40
3.0
 40
4.0
 40
4.0
 40
4.0
 40
4.0
 10
248.5061968234257
 20
22.32357292978132
 30
0.0
 10
248.5061968234257
 20
23.10837288089808
 30
0.0
 10
248.0338368270969
 20
23.48158898973764
 30
0.0
 10
247.4853060323167
 20
23.48158898973764
 30
0.0
 10
246.4416515471238
 20
23.48158898973764
 30
0.0
 10
245.8700571459155
 20
22.30081114626944
 30
0.0
 10
245.8700571459155
 20
21.47799682461318
 30
0.0
 10
245.8700571459155
 20
20.68567786764069
 30
0.0
 10
246.3577820672537
 20
20.31231316184737
 30
0.0
 10
246.9215291900898
 20
20.31231316184737
 30
0.0
 10
248.0492314714974
 20
20.31231316184737
 30
0.0
 10
248.5061968234257
 20
21.53895129500892
 30
0.0
 10
248.5061968234257
 20
22.32357292978132
 30
0.0
  0
SPLINE
  5
283DE
102
{ACAD_REACTORS
330
2924F
102
}
330
2
100
AcDbEntity
  8
Layer 1
100
AcDbSpline
210
0.0
220
0.0
230
1.0
 70
     9
 71
     3
 72
    17
 73
    13
 74
     0
 42
0.000000001
 43
0.0000000001
 40
0.0
 40
0.0
 40
0.0
 40
0.0
 40
1.0
 40
1.0
 40
1.0
 40
2.0
 40
2.0
 40
2.0
 40
3.0
 40
3.0
 40
3.0
 40
4.0
 40
4.0
 40
4.0
 40
4.0
 10
246.8222961444286
 20
19.01714211365301
 30
0.0
 10
245.1616063095947
 20
19.01714211365301
 30
0.0
 10
244.2016699888815
 20
20.09143864991123
 30
0.0
 10
244.2016699888815
 20
21.49309427510605
 30
0.0
 10
244.2016699888815
 20
23.02432644390192
 30
0.0
 10
245.3444400013912
 20
24.7157758481455
 30
0.0
 10
247.47005998487
 20
24.7157758481455
 30
0.0
 10
249.1994016122998
 20
24.7157758481455
 30
0.0
 10
250.1591893360593
 20
23.58825518539628
 30
0.0
 10
250.1591893360593
 20
22.22445876168296
 30
0.0
 10
250.1591893360593
 20
20.70077531813356
 30
0.0
 10
249.0240869263591
 20
19.01714211365301
 30
0.0
 10
246.8222961444286
 20
19.01714211365301
 30
0.0
  0
SPLINE
  5
283E0
102
{ACAD_REACTORS
330
29296
102
}
330
2
100
AcDbEntity
  8
Layer 1
100
AcDbSpline
210
0.0
220
0.0
230
1.0
 70
     9
 71
     3
 72
    17
 73
    13
 74
     0
 42
0.000000001
 43
0.0000000001
 40
0.0
 40
0.0
 40
0.0
 40
0.0
 40
1.0
 40
1.0
 40
1.0
 40
2.0
 40
2.0
 40
2.0
 40
3.0
 40
3.0
 40
3.0
 40
4.0
 40
4.0
 40
4.0
 40
4.0
 10
254.6496109596456
 20
22.32357292978132
 30
0.0
 10
254.6496109596456
 20
23.10837288089808
 30
0.0
 10
254.1772509633169
 20
23.48158898973764
 30
0.0
 10
253.6284229746292
 20
23.48158898973764
 30
0.0
 10
252.5850643241252
 20
23.48158898973764
 30
0.0
 10
252.0137402566331
 20
22.30081114626944
 30
0.0
 10
252.0137402566331
 20
21.47799682461318
 30
0.0
 10
252.0137402566331
 20
20.68567786764069
 30
0.0
 10
252.5010476065198
 20
20.31231316184737
 30
0.0
 10
253.0647947293561
 20
20.31231316184737
 30
0.0
 10
254.1923484138098
 20
20.31231316184737
 30
0.0
 10
254.6496109596456
 20
21.53895129500892
 30
0.0
 10
254.6496109596456
 20
22.32357292978132
 30
0.0
  0
SPLINE
  5
283E1
102
{ACAD_REACTORS
330
29296
102
}
330
2
100
AcDbEntity
  8
Layer 1
100
AcDbSpline
210
0.0
220
0.0
230
1.0
 70
     9
 71
     3
 72
    17
 73
    13
 74
     0
 42
0.000000001
 43
0.0000000001
 40
0.0
 40
0.0
 40
0.0
 40
0.0
 40
1.0
 40
1.0
 40
1.0
 40
2.0
 40
2.0
 40
2.0
 40
3.0
 40
3.0
 40
3.0
 40
4.0
 40
4.0
 40
4.0
 40
4.0
 10
252.9658291582113
 20
19.01714211365301
 30
0.0
 10
251.3052879203311
 20
19.01714211365301
 30
0.0
 10
250.3452327220549
 20
20.09143864991123
 30
0.0
 10
250.3452327220549
 20
21.49309427510605
 30
0.0
 10
250.3452327220549
 20
23.02432644390192
 30
0.0
 10
251.487854137611
 20
24.7157758481455
 30
0.0
 10
253.6136227180437
 20
24.7157758481455
 30
0.0
 10
255.3428157485197
 20
24.7157758481455
 30
0.0
 10
256.3027520692327
 20
23.58825518539628
 30
0.0
 10
256.3027520692327
 20
22.22445876168296
 30
0.0
 10
256.3027520692327
 20
20.70077531813356
 30
0.0
 10
255.1676496595326
 20
19.01714211365301
 30
0.0
 10
252.9658291582113
 20
19.01714211365301
 30
0.0
  0
TEXT
  5
2844E
330
2
100
AcDbEntity
  8
0
 62
     2
100
AcDbText
 10
223.9425025859367
 20
12.85347561407977
 30
0.0
 40
2.627654399999999
  1
www.maritool.com
  7
굴림
100
AcDbText
  0
TEXT
  5
28454
330
2
100
AcDbEntity
  8
0
 62
     2
100
AcDbText
 10
205.9775128786343
 20
4.051806774398166
 30
0.0
 40
2.102123519999999
  1
ITEM#
  7
굴림
100
AcDbText
  0
TEXT
  5
28455
330
2
100
AcDbEntity
  8
0
 62
     2
100
AcDbText
 10
223.0295816888257
 20
3.552348089474925
 30
0.0
 40
3.153185279999998
  1
DSF16-FM.750-2.5
  7
굴림
100
AcDbText
  0
HATCH
  5
28498
330
2
100
AcDbEntity
  8
0
  6
Continuous
 62
    93
100
AcDbHatch
 10
0.0
 20
0.0
 30
0.0
210
0.0
220
0.0
230
0.9999999999999998
  2
SOLID
 70
     1
 71
     1
 91
        1
 92
        7
 72
     0
 73
     1
 93
        8
 10
233.9049412781733
 20
26.47210268236184
 10
233.5215611377028
 20
25.21107921412096
 10
242.4282247856024
 20
25.21063676655853
 10
240.7236988494358
 20
19.29998155527
 10
242.3939880474768
 20
19.29998155527
 10
244.0981870703452
 20
25.21063676655853
 10
259.2206926917282
 20
25.20989043849159
 10
259.6059731911617
 20
26.47109222307688
 97
        1
330
283DB
 75
     1
 76
     1
 47
0.0428322549537331
 98
        1
 10
245.2145526953313
 20
25.84900527075732
450
        0
451
        0
460
0.0
461
0.0
452
        0
462
1.0
453
        2
463
0.0
 63
     5
421
      255
463
1.0
 63
     2
421
 16776960
470
LINEAR
1001
GRADIENTCOLOR1ACI
1070
     5
1001
GRADIENTCOLOR2ACI
1070
     2
1001
ACAD
1010
0.0
1020
0.0
1030
0.0
  0
SPLINE
  5
2910D
102
{ACAD_REACTORS
330
29214
102
}
330
2
100
AcDbEntity
  8
Layer 1
100
AcDbSpline
210
0.0
220
0.0
230
1.0
 70
    24
 71
     3
 72
     8
 73
     4
 74
     0
 42
0.000000001
 43
0.0000000001
 40
0.0
 40
0.0
 40
0.0
 40
0.0
 40
1.0
 40
1.0
 40
1.0
 40
1.0
 10
259.8197150493218
 20
20.42649506104808
 30
0.0
 10
259.8197150493218
 20
20.42649506104808
 30
0.0
 10
259.406438888509
 20
19.1772107521471
 30
0.0
 10
259.406438888509
 20
19.1772107521471
 30
0.0
  0
SPLINE
  5
2910E
102
{ACAD_REACTORS
330
29214
102
}
330
2
100
AcDbEntity
  8
Layer 1
100
AcDbSpline
210
0.0
220
0.0
230
1.0
 70
    24
 71
     3
 72
     8
 73
     4
 74
     0
 42
0.000000001
 43
0.0000000001
 40
1.0
 40
1.0
 40
1.0
 40
1.0
 40
2.0
 40
2.0
 40
2.0
 40
2.0
 10
259.406438888509
 20
19.1772107521471
 30
0.0
 10
259.406438888509
 20
19.1772107521471
 30
0.0
 10
255.9245728221407
 20
19.1772107521471
 30
0.0
 10
255.9245728221407
 20
19.1772107521471
 30
0.0
  0
SPLINE
  5
2910F
102
{ACAD_REACTORS
330
29214
102
}
330
2
100
AcDbEntity
  8
Layer 1
100
AcDbSpline
210
0.0
220
0.0
230
1.0
 70
    24
 71
     3
 72
     8
 73
     4
 74
     0
 42
0.000000001
 43
0.0000000001
 40
2.0
 40
2.0
 40
2.0
 40
2.0
 40
3.0
 40
3.0
 40
3.0
 40
3.0
 10
255.9245728221407
 20
19.1772107521471
 30
0.0
 10
255.9245728221407
 20
19.1772107521471
 30
0.0
 10
257.3642395480845
 20
24.55588552599577
 30
0.0
 10
257.3642395480845
 20
24.55588552599577
 30
0.0
  0
SPLINE
  5
29110
102
{ACAD_REACTORS
330
29214
102
}
330
2
100
AcDbEntity
  8
Layer 1
100
AcDbSpline
210
0.0
220
0.0
230
1.0
 70
    24
 71
     3
 72
     8
 73
     4
 74
     0
 42
0.000000001
 43
0.0000000001
 40
3.0
 40
3.0
 40
3.0
 40
3.0
 40
4.0
 40
4.0
 40
4.0
 40
4.0
 10
257.3642395480845
 20
24.55588552599577
 30
0.0
 10
257.3642395480845
 20
24.55588552599577
 30
0.0
 10
259.0558375492818
 20
24.55588552599577
 30
0.0
 10
259.0558375492818
 20
24.55588552599577
 30
0.0
  0
SPLINE
  5
29111
102
{ACAD_REACTORS
330
29214
102
}
330
2
100
AcDbEntity
  8
Layer 1
100
AcDbSpline
210
0.0
220
0.0
230
1.0
 70
    24
 71
     3
 72
     8
 73
     4
 74
     0
 42
0.000000001
 43
0.0000000001
 40
4.0
 40
4.0
 40
4.0
 40
4.0
 40
5.0
 40
5.0
 40
5.0
 40
5.0
 10
259.0558375492818
 20
24.55588552599577
 30
0.0
 10
259.0558375492818
 20
24.55588552599577
 30
0.0
 10
257.9510802874918
 20
20.42649506104808
 30
0.0
 10
257.9510802874918
 20
20.42649506104808
 30
0.0
  0
SPLINE
  5
29112
102
{ACAD_REACTORS
330
29214
102
}
330
2
100
AcDbEntity
  8
Layer 1
100
AcDbSpline
210
0.0
220
0.0
230
1.0
 70
    24
 71
     3
 72
     8
 73
     4
 74
     0
 42
0.000000001
 43
0.0000000001
 40
5.0
 40
5.0
 40
5.0
 40
5.0
 40
6.0
 40
6.0
 40
6.0
 40
6.0
 10
257.9510802874918
 20
20.42649506104808
 30
0.0
 10
257.9510802874918
 20
20.42649506104808
 30
0.0
 10
259.8197150493218
 20
20.42649506104808
 30
0.0
 10
259.8197150493218
 20
20.42649506104808
 30
0.0
  0
HATCH
  5
29214
330
2
100
AcDbEntity
  8
0
  6
Continuous
 62
     0
100
AcDbHatch
 10
0.0
 20
0.0
 30
0.0
210
0.0
220
0.0
230
0.9999999999999998
  2
SOLID
 70
     1
 71
     1
 91
        1
 92
        5
 93
        6
 72
     4
 94
        3
 73
     0
 74
     0
 95
        8
 96
        4
 40
4.0
 40
4.0
 40
4.0
 40
4.0
 40
5.0
 40
5.0
 40
5.0
 40
5.0
 10
257.9510802874918
 20
20.42649506104808
 10
257.9510802874918
 20
20.42649506104808
 10
259.0558375492818
 20
24.55588552599577
 10
259.0558375492818
 20
24.55588552599577
 97
        0
 72
     4
 94
        3
 73
     0
 74
     0
 95
        8
 96
        4
 40
3.0
 40
3.0
 40
3.0
 40
3.0
 40
4.0
 40
4.0
 40
4.0
 40
4.0
 10
259.0558375492818
 20
24.55588552599577
 10
259.0558375492818
 20
24.55588552599577
 10
257.3642395480845
 20
24.55588552599577
 10
257.3642395480845
 20
24.55588552599577
 97
        0
 72
     4
 94
        3
 73
     0
 74
     0
 95
        8
 96
        4
 40
2.0
 40
2.0
 40
2.0
 40
2.0
 40
3.0
 40
3.0
 40
3.0
 40
3.0
 10
257.3642395480845
 20
24.55588552599577
 10
257.3642395480845
 20
24.55588552599577
 10
255.9245728221407
 20
19.1772107521471
 10
255.9245728221407
 20
19.1772107521471
 97
        0
 72
     4
 94
        3
 73
     0
 74
     0
 95
        8
 96
        4
 40
1.0
 40
1.0
 40
1.0
 40
1.0
 40
2.0
 40
2.0
 40
2.0
 40
2.0
 10
255.9245728221407
 20
19.1772107521471
 10
255.9245728221407
 20
19.1772107521471
 10
259.406438888509
 20
19.1772107521471
 10
259.406438888509
 20
19.1772107521471
 97
        0
 72
     4
 94
        3
 73
     0
 74
     0
 95
        8
 96
        4
 40
0.0
 40
0.0
 40
0.0
 40
0.0
 40
1.0
 40
1.0
 40
1.0
 40
1.0
 10
259.406438888509
 20
19.1772107521471
 10
259.406438888509
 20
19.1772107521471
 10
259.8197150493218
 20
20.42649506104808
 10
259.8197150493218
 20
20.42649506104808
 97
        0
 72
     4
 94
        3
 73
     0
 74
     0
 95
        8
 96
        4
 40
5.0
 40
5.0
 40
5.0
 40
5.0
 40
6.0
 40
6.0
 40
6.0
 40
6.0
 10
259.8197150493218
 20
20.42649506104808
 10
259.8197150493218
 20
20.42649506104808
 10
257.9510802874918
 20
20.42649506104808
 10
257.9510802874918
 20
20.42649506104808
 97
        0
 97
        6
330
29111
330
29110
330
2910F
330
2910E
330
2910D
330
29112
 75
     1
 76
     1
 47
0.0168242271866721
 98
        1
 10
257.4330670291712
 20
20.77735750736971
450
        0
451
        0
460
0.0
461
0.0
452
        0
462
1.0
453
        2
463
0.0
 63
     5
421
      255
463
1.0
 63
     2
421
 16776960
470
LINEAR
1001
GRADIENTCOLOR1ACI
1070
     5
1001
GRADIENTCOLOR2ACI
1070
     2
1001
ACAD
1010
0.0
1020
0.0
1030
0.0
  0
SPLINE
  5
29215
102
{ACAD_REACTORS
330
29234
102
}
330
2
100
AcDbEntity
  8
Layer 1
100
AcDbSpline
210
0.0
220
0.0
230
1.0
 70
     8
 71
     3
 72
     8
 73
     4
 74
     0
 42
0.000000001
 43
0.0000000001
 40
0.0
 40
0.0
 40
0.0
 40
0.0
 40
1.0
 40
1.0
 40
1.0
 40
1.0
 10
237.4978373015881
 20
23.24838093064673
 30
0.0
 10
237.4978373015881
 20
24.33617007029818
 30
0.0
 10
236.5402190933521
 20
24.71928273625215
 30
0.0
 10
235.7052241792785
 20
24.71928273625215
 30
0.0
  0
SPLINE
  5
29216
102
{ACAD_REACTORS
330
29234
102
}
330
2
100
AcDbEntity
  8
Layer 1
100
AcDbSpline
210
0.0
220
0.0
230
1.0
 70
    24
 71
     3
 72
     8
 73
     4
 74
     0
 42
0.000000001
 43
0.0000000001
 40
1.0
 40
1.0
 40
1.0
 40
1.0
 40
2.0
 40
2.0
 40
2.0
 40
2.0
 10
235.7052241792785
 20
24.71928273625215
 30
0.0
 10
235.7052241792785
 20
24.71928273625215
 30
0.0
 10
233.3148935221454
 20
24.71928273625215
 30
0.0
 10
233.3148935221454
 20
24.71928273625215
 30
0.0
  0
SPLINE
  5
29217
102
{ACAD_REACTORS
330
29234
102
}
330
2
100
AcDbEntity
  8
Layer 1
100
AcDbSpline
210
0.0
220
0.0
230
1.0
 70
    24
 71
     3
 72
     8
 73
     4
 74
     0
 42
0.000000001
 43
0.0000000001
 40
2.0
 40
2.0
 40
2.0
 40
2.0
 40
3.0
 40
3.0
 40
3.0
 40
3.0
 10
233.3148935221454
 20
24.71928273625215
 30
0.0
 10
233.3148935221454
 20
24.71928273625215
 30
0.0
 10
231.8592664557693
 20
19.31044597505541
 30
0.0
 10
231.8592664557693
 20
19.31044597505541
 30
0.0
  0
SPLINE
  5
29218
102
{ACAD_REACTORS
330
29234
102
}
330
2
100
AcDbEntity
  8
Layer 1
100
AcDbSpline
210
0.0
220
0.0
230
1.0
 70
    24
 71
     3
 72
     8
 73
     4
 74
     0
 42
0.000000001
 43
0.0000000001
 40
3.0
 40
3.0
 40
3.0
 40
3.0
 40
4.0
 40
4.0
 40
4.0
 40
4.0
 10
231.8592664557693
 20
19.31044597505541
 30
0.0
 10
231.8592664557693
 20
19.31044597505541
 30
0.0
 10
233.5756801482296
 20
19.31044597505541
 30
0.0
 10
233.5756801482296
 20
19.31044597505541
 30
0.0
  0
SPLINE
  5
29219
102
{ACAD_REACTORS
330
29234
102
}
330
2
100
AcDbEntity
  8
Layer 1
100
AcDbSpline
210
0.0
220
0.0
230
1.0
 70
    24
 71
     3
 72
     8
 73
     4
 74
     0
 42
0.000000001
 43
0.0000000001
 40
4.0
 40
4.0
 40
4.0
 40
4.0
 40
5.0
 40
5.0
 40
5.0
 40
5.0
 10
233.5756801482296
 20
19.31044597505541
 30
0.0
 10
233.5756801482296
 20
19.31044597505541
 30
0.0
 10
234.7014803886299
 20
23.50872279347789
 30
0.0
 10
234.7014803886299
 20
23.50872279347789
 30
0.0
  0
SPLINE
  5
2921A
102
{ACAD_REACTORS
330
29234
102
}
330
2
100
AcDbEntity
  8
Layer 1
100
AcDbSpline
210
0.0
220
0.0
230
1.0
 70
    24
 71
     3
 72
     8
 73
     4
 74
     0
 42
0.000000001
 43
0.0000000001
 40
5.0
 40
5.0
 40
5.0
 40
5.0
 40
6.0
 40
6.0
 40
6.0
 40
6.0
 10
234.7014803886299
 20
23.50872279347789
 30
0.0
 10
234.7014803886299
 20
23.50872279347789
 30
0.0
 10
235.2071855413623
 20
23.50872279347789
 30
0.0
 10
235.2071855413623
 20
23.50872279347789
 30
0.0
  0
SPLINE
  5
2921B
102
{ACAD_REACTORS
330
29234
102
}
330
2
100
AcDbEntity
  8
Layer 1
100
AcDbSpline
210
0.0
220
0.0
230
1.0
 70
     8
 71
     3
 72
    11
 73
     7
 74
     0
 42
0.000000001
 43
0.0000000001
 40
6.0
 40
6.0
 40
6.0
 40
6.0
 40
7.0
 40
7.0
 40
7.0
 40
8.0
 40
8.0
 40
8.0
 40
8.0
 10
235.2071855413623
 20
23.50872279347789
 30
0.0
 10
235.5058356988499
 20
23.50872279347789
 30
0.0
 10
235.812480372445
 20
23.43980352636535
 30
0.0
 10
235.812480372445
 20
23.07223410176534
 30
0.0
 10
235.812480372445
 20
22.8731439032373
 30
0.0
 10
235.6593660713825
 20
22.55113430463269
 30
0.0
 10
235.1536609186504
 20
22.56664782659588
 30
0.0
  0
SPLINE
  5
2921C
102
{ACAD_REACTORS
330
29234
102
}
330
2
100
AcDbEntity
  8
Layer 1
100
AcDbSpline
210
0.0
220
0.0
230
1.0
 70
    24
 71
     3
 72
     8
 73
     4
 74
     0
 42
0.000000001
 43
0.0000000001
 40
8.0
 40
8.0
 40
8.0
 40
8.0
 40
9.0
 40
9.0
 40
9.0
 40
9.0
 10
235.1536609186504
 20
22.56664782659588
 30
0.0
 10
235.1536609186504
 20
22.56664782659588
 30
0.0
 10
234.8297492790387
 20
21.38093329447545
 30
0.0
 10
234.8297492790387
 20
21.38093329447545
 30
0.0
  0
SPLINE
  5
2921D
102
{ACAD_REACTORS
330
29234
102
}
330
2
100
AcDbEntity
  8
Layer 1
100
AcDbSpline
210
0.0
220
0.0
230
1.0
 70
    24
 71
     3
 72
     8
 73
     4
 74
     0
 42
0.000000001
 43
0.0000000001
 40
9.0
 40
9.0
 40
9.0
 40
9.0
 40
10.0
 40
10.0
 40
10.0
 40
10.0
 10
234.8297492790387
 20
21.38093329447545
 30
0.0
 10
234.8297492790387
 20
21.38093329447545
 30
0.0
 10
235.4483881165608
 20
19.22713932858048
 30
0.0
 10
235.4483881165608
 20
19.22713932858048
 30
0.0
  0
SPLINE
  5
2921E
102
{ACAD_REACTORS
330
29234
102
}
330
2
100
AcDbEntity
  8
Layer 1
100
AcDbSpline
210
0.0
220
0.0
230
1.0
 70
    24
 71
     3
 72
     8
 73
     4
 74
     0
 42
0.000000001
 43
0.0000000001
 40
10.0
 40
10.0
 40
10.0
 40
10.0
 40
11.0
 40
11.0
 40
11.0
 40
11.0
 10
235.4483881165608
 20
19.22713932858048
 30
0.0
 10
235.4483881165608
 20
19.22713932858048
 30
0.0
 10
236.8636860593611
 20
19.22713932858048
 30
0.0
 10
236.8636860593611
 20
19.22713932858048
 30
0.0
  0
SPLINE
  5
2921F
102
{ACAD_REACTORS
330
29234
102
}
330
2
100
AcDbEntity
  8
Layer 1
100
AcDbSpline
210
0.0
220
0.0
230
1.0
 70
    24
 71
     3
 72
     8
 73
     4
 74
     0
 42
0.000000001
 43
0.0000000001
 40
11.0
 40
11.0
 40
11.0
 40
11.0
 40
12.0
 40
12.0
 40
12.0
 40
12.0
 10
236.8636860593611
 20
19.22713932858048
 30
0.0
 10
236.8636860593611
 20
19.22713932858048
 30
0.0
 10
236.0934177730549
 20
21.52676634480784
 30
0.0
 10
236.0934177730549
 20
21.52676634480784
 30
0.0
  0
SPLINE
  5
29220
102
{ACAD_REACTORS
330
29234
102
}
330
2
100
AcDbEntity
  8
Layer 1
100
AcDbSpline
210
0.0
220
0.0
230
1.0
 70
     8
 71
     3
 72
     8
 73
     4
 74
     0
 42
0.000000001
 43
0.0000000001
 40
12.0
 40
12.0
 40
12.0
 40
12.0
 40
13.0
 40
13.0
 40
13.0
 40
13.0
 10
236.0934177730549
 20
21.52676634480784
 30
0.0
 10
236.3344420319088
 20
21.60005436235835
 30
0.0
 10
236.5735939691466
 20
21.70772771498819
 30
0.0
 10
236.785166311783
 20
21.86937148119124
 30
0.0
  0
SPLINE
  5
29221
102
{ACAD_REACTORS
330
29234
102
}
330
2
100
AcDbEntity
  8
Layer 1
100
AcDbSpline
210
0.0
220
0.0
230
1.0
 70
     8
 71
     3
 72
     8
 73
     4
 74
     0
 42
0.000000001
 43
0.0000000001
 40
13.0
 40
13.0
 40
13.0
 40
13.0
 40
14.0
 40
14.0
 40
14.0
 40
14.0
 10
236.785166311783
 20
21.86937148119124
 30
0.0
 10
237.2525928892498
 20
22.2295407774984
 30
0.0
 10
237.4978373015881
 20
22.74297297182171
 30
0.0
 10
237.4978373015881
 20
23.24838093064673
 30
0.0
  0
HATCH
  5
29234
330
2
100
AcDbEntity
  8
0
  6
Continuous
 62
     0
100
AcDbHatch
 10
0.0
 20
0.0
 30
0.0
210
0.0
220
0.0
230
0.9999999999999998
  2
SOLID
 70
     1
 71
     1
 91
        1
 92
        5
 93
       14
 72
     4
 94
        3
 73
     0
 74
     0
 95
        8
 96
        4
 40
11.0
 40
11.0
 40
11.0
 40
11.0
 40
12.0
 40
12.0
 40
12.0
 40
12.0
 10
236.8636860593611
 20
19.22713932858048
 10
236.8636860593611
 20
19.22713932858048
 10
236.0934177730549
 20
21.52676634480784
 10
236.0934177730549
 20
21.52676634480784
 97
        0
 72
     4
 94
        3
 73
     0
 74
     0
 95
        8
 96
        4
 40
12.0
 40
12.0
 40
12.0
 40
12.0
 40
13.0
 40
13.0
 40
13.0
 40
13.0
 10
236.0934177730549
 20
21.52676634480784
 10
236.3344420319088
 20
21.60005436235835
 10
236.5735939691466
 20
21.70772771498819
 10
236.785166311783
 20
21.86937148119124
 97
        0
 72
     4
 94
        3
 73
     0
 74
     0
 95
        8
 96
        4
 40
13.0
 40
13.0
 40
13.0
 40
13.0
 40
14.0
 40
14.0
 40
14.0
 40
14.0
 10
236.785166311783
 20
21.86937148119124
 10
237.2525928892498
 20
22.2295407774984
 10
237.4978373015881
 20
22.74297297182171
 10
237.4978373015881
 20
23.24838093064673
 97
        0
 72
     4
 94
        3
 73
     0
 74
     0
 95
        8
 96
        4
 40
0.0
 40
0.0
 40
0.0
 40
0.0
 40
1.0
 40
1.0
 40
1.0
 40
1.0
 10
237.4978373015881
 20
23.24838093064673
 10
237.4978373015881
 20
24.33617007029818
 10
236.5402190933521
 20
24.71928273625215
 10
235.7052241792785
 20
24.71928273625215
 97
        0
 72
     4
 94
        3
 73
     0
 74
     0
 95
        8
 96
        4
 40
1.0
 40
1.0
 40
1.0
 40
1.0
 40
2.0
 40
2.0
 40
2.0
 40
2.0
 10
235.7052241792785
 20
24.71928273625215
 10
235.7052241792785
 20
24.71928273625215
 10
233.3148935221454
 20
24.71928273625215
 10
233.3148935221454
 20
24.71928273625215
 97
        0
 72
     4
 94
        3
 73
     0
 74
     0
 95
        8
 96
        4
 40
2.0
 40
2.0
 40
2.0
 40
2.0
 40
3.0
 40
3.0
 40
3.0
 40
3.0
 10
233.3148935221454
 20
24.71928273625215
 10
233.3148935221454
 20
24.71928273625215
 10
231.8592664557693
 20
19.31044597505541
 10
231.8592664557693
 20
19.31044597505541
 97
        0
 72
     4
 94
        3
 73
     0
 74
     0
 95
        8
 96
        4
 40
3.0
 40
3.0
 40
3.0
 40
3.0
 40
4.0
 40
4.0
 40
4.0
 40
4.0
 10
231.8592664557693
 20
19.31044597505541
 10
231.8592664557693
 20
19.31044597505541
 10
233.5756801482296
 20
19.31044597505541
 10
233.5756801482296
 20
19.31044597505541
 97
        0
 72
     4
 94
        3
 73
     0
 74
     0
 95
        8
 96
        4
 40
4.0
 40
4.0
 40
4.0
 40
4.0
 40
5.0
 40
5.0
 40
5.0
 40
5.0
 10
233.5756801482296
 20
19.31044597505541
 10
233.5756801482296
 20
19.31044597505541
 10
234.7014803886299
 20
23.50872279347789
 10
234.7014803886299
 20
23.50872279347789
 97
        0
 72
     4
 94
        3
 73
     0
 74
     0
 95
        8
 96
        4
 40
5.0
 40
5.0
 40
5.0
 40
5.0
 40
6.0
 40
6.0
 40
6.0
 40
6.0
 10
234.7014803886299
 20
23.50872279347789
 10
234.7014803886299
 20
23.50872279347789
 10
235.2071855413623
 20
23.50872279347789
 10
235.2071855413623
 20
23.50872279347789
 97
        0
 72
     4
 94
        3
 73
     0
 74
     0
 95
        8
 96
        4
 40
6.0
 40
6.0
 40
6.0
 40
6.0
 40
7.0
 40
7.0
 40
7.0
 40
7.0
 10
235.812480372445
 20
23.07223410176534
 10
235.812480372445
 20
23.43980352636535
 10
235.5058356988499
 20
23.50872279347789
 10
235.2071855413623
 20
23.50872279347789
 97
        0
 72
     4
 94
        3
 73
     0
 74
     0
 95
        8
 96
        4
 40
7.0
 40
7.0
 40
7.0
 40
7.0
 40
8.0
 40
8.0
 40
8.0
 40
8.0
 10
235.812480372445
 20
23.07223410176534
 10
235.812480372445
 20
22.8731439032373
 10
235.6593660713825
 20
22.55113430463269
 10
235.1536609186504
 20
22.56664782659588
 97
        0
 72
     4
 94
        3
 73
     0
 74
     0
 95
        8
 96
        4
 40
8.0
 40
8.0
 40
8.0
 40
8.0
 40
9.0
 40
9.0
 40
9.0
 40
9.0
 10
235.1536609186504
 20
22.56664782659588
 10
235.1536609186504
 20
22.56664782659588
 10
234.8297492790387
 20
21.38093329447545
 10
234.8297492790387
 20
21.38093329447545
 97
        0
 72
     4
 94
        3
 73
     0
 74
     0
 95
        8
 96
        4
 40
9.0
 40
9.0
 40
9.0
 40
9.0
 40
10.0
 40
10.0
 40
10.0
 40
10.0
 10
234.8297492790387
 20
21.38093329447545
 10
234.8297492790387
 20
21.38093329447545
 10
235.4483881165608
 20
19.22713932858048
 10
235.4483881165608
 20
19.22713932858048
 97
        0
 72
     4
 94
        3
 73
     0
 74
     0
 95
        8
 96
        4
 40
10.0
 40
10.0
 40
10.0
 40
10.0
 40
11.0
 40
11.0
 40
11.0
 40
11.0
 10
235.4483881165608
 20
19.22713932858048
 10
235.4483881165608
 20
19.22713932858048
 10
236.8636860593611
 20
19.22713932858048
 10
236.8636860593611
 20
19.22713932858048
 97
        0
 97
       13
330
2921F
330
29220
330
29221
330
29215
330
29216
330
29217
330
29218
330
29219
330
2921A
330
2921B
330
2921C
330
2921D
330
2921E
 75
     1
 76
     1
 47
0.0269459378258844
 98
        1
 10
235.7150328296965
 20
21.24708010342791
450
        0
451
        0
460
0.0
461
0.0
452
        0
462
1.0
453
        2
463
0.0
 63
     5
421
      255
463
1.0
 63
     2
421
 16776960
470
LINEAR
1001
GRADIENTCOLOR1ACI
1070
     5
1001
GRADIENTCOLOR2ACI
1070
     2
1001
ACAD
1010
0.0
1020
0.0
1030
0.0
  0
HATCH
  5
2923A
330
2
100
AcDbEntity
  8
0
  6
Continuous
 62
     0
100
AcDbHatch
 10
0.0
 20
0.0
 30
0.0
210
0.0
220
0.0
230
0.9999999999999998
  2
SOLID
 70
     1
 71
     1
 91
        1
 92
        5
 93
        1
 72
     4
 94
        3
 73
     0
 74
     0
 95
       17
 96
       13
 40
0.0
 40
0.0
 40
0.0
 40
0.0
 40
1.0
 40
1.0
 40
1.0
 40
2.0
 40
2.0
 40
2.0
 40
3.0
 40
3.0
 40
3.0
 40
4.0
 40
4.0
 40
4.0
 40
4.0
 10
239.0302296986123
 20
19.29998155526998
 10
239.0302296986123
 20
19.29998155526998
 10
237.360117644926
 20
19.29998155526998
 10
237.360117644926
 20
19.29998155526998
 10
237.360117644926
 20
19.29998155526998
 10
238.8081949584476
 20
24.70867624437805
 10
238.8081949584476
 20
24.70867624437805
 10
238.8081949584476
 20
24.70867624437805
 10
240.478186962581
 20
24.70867624437805
 10
240.478186962581
 20
24.70867624437805
 10
240.478186962581
 20
24.70867624437805
 10
239.0302296986123
 20
19.29998155526998
 10
239.0302296986123
 20
19.29998155526998
 97
        0
 97
        1
330
283D7
 75
     1
 76
     1
 47
0.0269459378258844
 98
        1
 10
238.335837961352
 20
20.77745769381764
450
        0
451
        0
460
0.0
461
0.0
452
        0
462
1.0
453
        2
463
0.0
 63
     5
421
      255
463
1.0
 63
     2
421
 16776960
470
LINEAR
1001
GRADIENTCOLOR1ACI
1070
     5
1001
GRADIENTCOLOR2ACI
1070
     2
1001
ACAD
1010
0.0
1020
0.0
1030
0.0
  0
HATCH
  5
2924F
330
2
100
AcDbEntity
  8
0
  6
Continuous
 62
     0
100
AcDbHatch
 10
0.0
 20
0.0
 30
0.0
210
0.0
220
0.0
230
0.9999999999999998
  2
SOLID
 70
     1
 71
     1
 91
        2
 92
        5
 93
        4
 72
     4
 94
        3
 73
     0
 74
     0
 95
        8
 96
        4
 40
0.0
 40
0.0
 40
0.0
 40
0.0
 40
1.0
 40
1.0
 40
1.0
 40
1.0
 10
244.2016699888815
 20
21.49309427510605
 10
244.2016699888815
 20
20.09143864991123
 10
245.1616063095947
 20
19.01714211365301
 10
246.8222961444286
 20
19.01714211365301
 97
        0
 72
     4
 94
        3
 73
     0
 74
     0
 95
        8
 96
        4
 40
3.0
 40
3.0
 40
3.0
 40
3.0
 40
4.0
 40
4.0
 40
4.0
 40
4.0
 10
246.8222961444286
 20
19.01714211365301
 10
249.0240869263591
 20
19.01714211365301
 10
250.1591893360593
 20
20.70077531813356
 10
250.1591893360593
 20
22.22445876168296
 97
        0
 72
     4
 94
        3
 73
     0
 74
     0
 95
        8
 96
        4
 40
2.0
 40
2.0
 40
2.0
 40
2.0
 40
3.0
 40
3.0
 40
3.0
 40
3.0
 10
250.1591893360593
 20
22.22445876168296
 10
250.1591893360593
 20
23.58825518539628
 10
249.1994016122998
 20
24.7157758481455
 10
247.47005998487
 20
24.7157758481455
 97
        0
 72
     4
 94
        3
 73
     0
 74
     0
 95
        8
 96
        4
 40
1.0
 40
1.0
 40
1.0
 40
1.0
 40
2.0
 40
2.0
 40
2.0
 40
2.0
 10
247.47005998487
 20
24.7157758481455
 10
245.3444400013912
 20
24.7157758481455
 10
244.2016699888815
 20
23.02432644390192
 10
244.2016699888815
 20
21.49309427510605
 97
        0
 97
        1
330
283DE
 92
       20
 93
        4
 72
     4
 94
        3
 73
     0
 74
     0
 95
        8
 96
        4
 40
2.0
 40
2.0
 40
2.0
 40
2.0
 40
3.0
 40
3.0
 40
3.0
 40
3.0
 10
246.9215291900898
 20
20.31231316184737
 10
246.3577820672537
 20
20.31231316184737
 10
245.8700571459155
 20
20.68567786764069
 10
245.8700571459155
 20
21.47799682461318
 97
        0
 72
     4
 94
        3
 73
     0
 74
     0
 95
        8
 96
        4
 40
1.0
 40
1.0
 40
1.0
 40
1.0
 40
2.0
 40
2.0
 40
2.0
 40
2.0
 10
245.8700571459155
 20
21.47799682461318
 10
245.8700571459155
 20
22.30081114626944
 10
246.4416515471238
 20
23.48158898973764
 10
247.4853060323167
 20
23.48158898973764
 97
        0
 72
     4
 94
        3
 73
     0
 74
     0
 95
        8
 96
        4
 40
0.0
 40
0.0
 40
0.0
 40
0.0
 40
1.0
 40
1.0
 40
1.0
 40
1.0
 10
247.4853060323167
 20
23.48158898973764
 10
248.0338368270969
 20
23.48158898973764
 10
248.5061968234257
 20
23.10837288089808
 10
248.5061968234257
 20
22.32357292978132
 97
        0
 72
     4
 94
        3
 73
     0
 74
     0
 95
        8
 96
        4
 40
3.0
 40
3.0
 40
3.0
 40
3.0
 40
4.0
 40
4.0
 40
4.0
 40
4.0
 10
248.5061968234257
 20
22.32357292978132
 10
248.5061968234257
 20
21.53895129500892
 10
248.0492314714974
 20
20.31231316184737
 10
246.9215291900898
 20
20.31231316184737
 97
        0
 97
        1
330
283DD
 75
     1
 76
     1
 47
0.0269459378258844
 98
        2
 10
245.3487519412343
 20
20.66908413451475
 10
245.3487519412343
 20
20.66908413451475
450
        0
451
        0
460
0.0
461
0.0
452
        0
462
1.0
453
        2
463
0.0
 63
     5
421
      255
463
1.0
 63
     2
421
 16776960
470
LINEAR
1001
GRADIENTCOLOR1ACI
1070
     5
1001
GRADIENTCOLOR2ACI
1070
     2
1001
ACAD
1010
0.0
1020
0.0
1030
0.0
  0
HATCH
  5
29296
330
2
100
AcDbEntity
  8
0
  6
Continuous
 62
     0
100
AcDbHatch
 10
0.0
 20
0.0
 30
0.0
210
0.0
220
0.0
230
0.9999999999999998
  2
SOLID
 70
     1
 71
     1
 91
        2
 92
        5
 93
        4
 72
     4
 94
        3
 73
     0
 74
     0
 95
        8
 96
        4
 40
0.0
 40
0.0
 40
0.0
 40
0.0
 40
1.0
 40
1.0
 40
1.0
 40
1.0
 10
250.3452327220549
 20
21.49309427510605
 10
250.3452327220549
 20
20.09143864991123
 10
251.3052879203311
 20
19.01714211365301
 10
252.9658291582113
 20
19.01714211365301
 97
        0
 72
     4
 94
        3
 73
     0
 74
     0
 95
        8
 96
        4
 40
3.0
 40
3.0
 40
3.0
 40
3.0
 40
4.0
 40
4.0
 40
4.0
 40
4.0
 10
252.9658291582113
 20
19.01714211365301
 10
255.1676496595326
 20
19.01714211365301
 10
256.3027520692327
 20
20.70077531813356
 10
256.3027520692327
 20
22.22445876168296
 97
        0
 72
     4
 94
        3
 73
     0
 74
     0
 95
        8
 96
        4
 40
2.0
 40
2.0
 40
2.0
 40
2.0
 40
3.0
 40
3.0
 40
3.0
 40
3.0
 10
256.3027520692327
 20
22.22445876168296
 10
256.3027520692327
 20
23.58825518539628
 10
255.3428157485197
 20
24.7157758481455
 10
253.6136227180437
 20
24.7157758481455
 97
        0
 72
     4
 94
        3
 73
     0
 74
     0
 95
        8
 96
        4
 40
1.0
 40
1.0
 40
1.0
 40
1.0
 40
2.0
 40
2.0
 40
2.0
 40
2.0
 10
253.6136227180437
 20
24.7157758481455
 10
251.487854137611
 20
24.7157758481455
 10
250.3452327220549
 20
23.02432644390192
 10
250.3452327220549
 20
21.49309427510605
 97
        0
 97
        1
330
283E1
 92
       20
 93
        4
 72
     4
 94
        3
 73
     0
 74
     0
 95
        8
 96
        4
 40
2.0
 40
2.0
 40
2.0
 40
2.0
 40
3.0
 40
3.0
 40
3.0
 40
3.0
 10
253.0647947293561
 20
20.31231316184737
 10
252.5010476065198
 20
20.31231316184737
 10
252.0137402566331
 20
20.68567786764069
 10
252.0137402566331
 20
21.47799682461318
 97
        0
 72
     4
 94
        3
 73
     0
 74
     0
 95
        8
 96
        4
 40
1.0
 40
1.0
 40
1.0
 40
1.0
 40
2.0
 40
2.0
 40
2.0
 40
2.0
 10
252.0137402566331
 20
21.47799682461318
 10
252.0137402566331
 20
22.30081114626944
 10
252.5850643241252
 20
23.48158898973764
 10
253.6284229746292
 20
23.48158898973764
 97
        0
 72
     4
 94
        3
 73
     0
 74
     0
 95
        8
 96
        4
 40
0.0
 40
0.0
 40
0.0
 40
0.0
 40
1.0
 40
1.0
 40
1.0
 40
1.0
 10
253.6284229746292
 20
23.48158898973764
 10
254.1772509633169
 20
23.48158898973764
 10
254.6496109596456
 20
23.10837288089808
 10
254.6496109596456
 20
22.32357292978132
 97
        0
 72
     4
 94
        3
 73
     0
 74
     0
 95
        8
 96
        4
 40
3.0
 40
3.0
 40
3.0
 40
3.0
 40
4.0
 40
4.0
 40
4.0
 40
4.0
 10
254.6496109596456
 20
22.32357292978132
 10
254.6496109596456
 20
21.53895129500892
 10
254.1923484138098
 20
20.31231316184737
 10
253.0647947293561
 20
20.31231316184737
 97
        0
 97
        1
330
283E0
 75
     1
 76
     1
 47
0.0269459378258844
 98
        2
 10
251.9098027589528
 20
21.10258150255277
 10
251.9098027589528
 20
21.10258150255277
450
        0
451
        0
460
0.0
461
0.0
452
        0
462
1.0
453
        2
463
0.0
 63
     5
421
      255
463
1.0
 63
     2
421
 16776960
470
LINEAR
1001
GRADIENTCOLOR1ACI
1070
     5
1001
GRADIENTCOLOR2ACI
1070
     2
1001
ACAD
1010
0.0
1020
0.0
1030
0.0
  0
HATCH
  5
2929D
330
2
100
AcDbEntity
  8
0
  6
Continuous
 62
     0
100
AcDbHatch
 10
0.0
 20
0.0
 30
0.0
210
0.0
220
0.0
230
0.9999999999999998
  2
SOLID
 70
     1
 71
     0
 91
        1
 92
        5
 93
        1
 72
     4
 94
        3
 73
     0
 74
     0
 95
       41
 96
       37
 40
0.0
 40
0.0
 40
0.0
 40
0.0
 40
1.0
 40
1.0
 40
1.0
 40
2.0
 40
2.0
 40
2.0
 40
3.0
 40
3.0
 40
3.0
 40
4.0
 40
4.0
 40
4.0
 40
5.0
 40
5.0
 40
5.0
 40
6.0
 40
6.0
 40
6.0
 40
7.0
 40
7.0
 40
7.0
 40
8.0
 40
8.0
 40
8.0
 40
9.0
 40
9.0
 40
9.0
 40
10.0
 40
10.0
 40
10.0
 40
11.0
 40
11.0
 40
11.0
 40
12.0
 40
12.0
 40
12.0
 40
12.0
 10
227.5923346505039
 20
19.29998155526998
 10
227.5923346505039
 20
19.29998155526998
 10
225.8380287348576
 20
19.29998155526998
 10
225.8380287348576
 20
19.29998155526998
 10
225.8380287348576
 20
19.29998155526998
 10
229.3467603710779
 20
24.71622163900658
 10
229.3467603710779
 20
24.71622163900658
 10
229.3467603710779
 20
24.71622163900658
 10
231.1548881490208
 20
24.71622163900658
 10
231.1548881490208
 20
24.71622163900658
 10
231.1548881490208
 20
24.71622163900658
 10
231.5610620891428
 20
19.29998155526998
 10
231.5610620891428
 20
19.29998155526998
 10
231.5610620891428
 20
19.29998155526998
 10
229.9291109051489
 20
19.29998155526998
 10
229.9291109051489
 20
19.29998155526998
 10
229.9291109051489
 20
19.29998155526998
 10
229.8754079660923
 20
20.17343444894676
 10
229.8754079660923
 20
20.17343444894676
 10
229.8754079660923
 20
20.17343444894676
 10
228.6924276179193
 20
20.17343444894676
 10
228.6924276179193
 20
20.17343444894676
 10
228.6924276179193
 20
20.17343444894676
 10
229.2797124982168
 20
21.29935356691016
 10
229.2797124982168
 20
21.29935356691016
 10
229.2797124982168
 20
21.29935356691016
 10
229.8218536239894
 20
21.29935356691016
 10
229.8218536239894
 20
21.29935356691016
 10
229.8218536239894
 20
21.29935356691016
 10
229.7527857599232
 20
22.88532885343829
 10
229.7527857599232
 20
22.88532885343829
 10
229.7527857599232
 20
22.88532885343829
 10
227.6010433152532
 20
19.31216650547105
 10
227.6010433152532
 20
19.31216650547105
 10
227.6010433152532
 20
19.31216650547105
 10
227.5923346505039
 20
19.29998155526998
 10
227.5923346505039
 20
19.29998155526998
 97
        0
 97
        0
 75
     1
 76
     1
 47
0.0269459378258844
 98
        1
 10
230.8891337742314
 20
21.5360788705908
450
        0
451
        0
460
0.0
461
0.0
452
        0
462
1.0
453
        2
463
0.0
 63
     5
421
      255
463
1.0
 63
     2
421
 16776960
470
LINEAR
1001
GRADIENTCOLOR1ACI
1070
     5
1001
GRADIENTCOLOR2ACI
1070
     2
1001
ACAD
1010
0.0
1020
0.0
1030
0.0
  0
SPLINE
  5
2942D
102
{ACAD_REACTORS
330
2944B
102
}
330
2
100
AcDbEntity
  8
Layer 1
100
AcDbSpline
210
0.0
220
0.0
230
1.0
 70
    24
 71
     3
 72
     8
 73
     4
 74
     0
 42
0.000000001
 43
0.0000000001
 40
0.0
 40
0.0
 40
0.0
 40
0.0
 40
1.0
 40
1.0
 40
1.0
 40
1.0
 10
225.6696981057393
 20
19.29998155526998
 30
0.0
 10
225.6696981057393
 20
19.29998155526998
 30
0.0
 10
223.9843411765961
 20
19.29998155526998
 30
0.0
 10
223.9843411765961
 20
19.29998155526998
 30
0.0
  0
SPLINE
  5
2942E
102
{ACAD_REACTORS
330
2944B
102
}
330
2
100
AcDbEntity
  8
Layer 1
100
AcDbSpline
210
0.0
220
0.0
230
1.0
 70
    24
 71
     3
 72
     8
 73
     4
 74
     0
 42
0.000000001
 43
0.0000000001
 40
1.0
 40
1.0
 40
1.0
 40
1.0
 40
2.0
 40
2.0
 40
2.0
 40
2.0
 10
223.9843411765961
 20
19.29998155526998
 30
0.0
 10
223.9843411765961
 20
19.29998155526998
 30
0.0
 10
224.7505665085042
 20
22.80883114168853
 30
0.0
 10
224.7505665085042
 20
22.80883114168853
 30
0.0
  0
SPLINE
  5
2942F
102
{ACAD_REACTORS
330
2944B
102
}
330
2
100
AcDbEntity
  8
Layer 1
100
AcDbSpline
210
0.0
220
0.0
230
1.0
 70
    24
 71
     3
 72
     8
 73
     4
 74
     0
 42
0.000000001
 43
0.0000000001
 40
2.0
 40
2.0
 40
2.0
 40
2.0
 40
3.0
 40
3.0
 40
3.0
 40
3.0
 10
224.7505665085042
 20
22.80883114168853
 30
0.0
 10
224.7505665085042
 20
22.80883114168853
 30
0.0
 10
222.4828581179253
 20
19.29998155526998
 30
0.0
 10
222.4828581179253
 20
19.29998155526998
 30
0.0
  0
SPLINE
  5
29430
102
{ACAD_REACTORS
330
2944B
102
}
330
2
100
AcDbEntity
  8
Layer 1
100
AcDbSpline
210
0.0
220
0.0
230
1.0
 70
    24
 71
     3
 72
     8
 73
     4
 74
     0
 42
0.000000001
 43
0.0000000001
 40
3.0
 40
3.0
 40
3.0
 40
3.0
 40
4.0
 40
4.0
 40
4.0
 40
4.0
 10
222.4828581179253
 20
19.29998155526998
 30
0.0
 10
222.4828581179253
 20
19.29998155526998
 30
0.0
 10
221.9465130137648
 20
19.29998155526998
 30
0.0
 10
221.9465130137648
 20
19.29998155526998
 30
0.0
  0
SPLINE
  5
29431
102
{ACAD_REACTORS
330
2944B
102
}
330
2
100
AcDbEntity
  8
Layer 1
100
AcDbSpline
210
0.0
220
0.0
230
1.0
 70
    24
 71
     3
 72
     8
 73
     4
 74
     0
 42
0.000000001
 43
0.0000000001
 40
4.0
 40
4.0
 40
4.0
 40
4.0
 40
5.0
 40
5.0
 40
5.0
 40
5.0
 10
221.9465130137648
 20
19.29998155526998
 30
0.0
 10
221.9465130137648
 20
19.29998155526998
 30
0.0
 10
221.5404866872975
 20
22.8853288534383
 30
0.0
 10
221.5404866872975
 20
22.8853288534383
 30
0.0
  0
SPLINE
  5
29432
102
{ACAD_REACTORS
330
2944B
102
}
330
2
100
AcDbEntity
  8
Layer 1
100
AcDbSpline
210
0.0
220
0.0
230
1.0
 70
    24
 71
     3
 72
     8
 73
     4
 74
     0
 42
0.000000001
 43
0.0000000001
 40
5.0
 40
5.0
 40
5.0
 40
5.0
 40
6.0
 40
6.0
 40
6.0
 40
6.0
 10
221.5404866872975
 20
22.8853288534383
 30
0.0
 10
221.5404866872975
 20
22.8853288534383
 30
0.0
 10
220.4294866754165
 20
19.29998155526998
 30
0.0
 10
220.4294866754165
 20
19.29998155526998
 30
0.0
  0
SPLINE
  5
29433
102
{ACAD_REACTORS
330
2944B
102
}
330
2
100
AcDbEntity
  8
Layer 1
100
AcDbSpline
210
0.0
220
0.0
230
1.0
 70
    24
 71
     3
 72
     8
 73
     4
 74
     0
 42
0.000000001
 43
0.0000000001
 40
6.0
 40
6.0
 40
6.0
 40
6.0
 40
7.0
 40
7.0
 40
7.0
 40
7.0
 10
220.4294866754165
 20
19.29998155526998
 30
0.0
 10
220.4294866754165
 20
19.29998155526998
 30
0.0
 10
218.7824379993219
 20
19.29998155526998
 30
0.0
 10
218.7824379993219
 20
19.29998155526998
 30
0.0
  0
SPLINE
  5
29434
102
{ACAD_REACTORS
330
2944B
102
}
330
2
100
AcDbEntity
  8
Layer 1
100
AcDbSpline
210
0.0
220
0.0
230
1.0
 70
    24
 71
     3
 72
     8
 73
     4
 74
     0
 42
0.000000001
 43
0.0000000001
 40
7.0
 40
7.0
 40
7.0
 40
7.0
 40
8.0
 40
8.0
 40
8.0
 40
8.0
 10
218.7824379993219
 20
19.29998155526998
 30
0.0
 10
218.7824379993219
 20
19.29998155526998
 30
0.0
 10
220.7511990882409
 20
24.70867624437805
 30
0.0
 10
220.7511990882409
 20
24.70867624437805
 30
0.0
  0
SPLINE
  5
29435
102
{ACAD_REACTORS
330
2944B
102
}
330
2
100
AcDbEntity
  8
Layer 1
100
AcDbSpline
210
0.0
220
0.0
230
1.0
 70
    24
 71
     3
 72
     8
 73
     4
 74
     0
 42
0.000000001
 43
0.0000000001
 40
8.0
 40
8.0
 40
8.0
 40
8.0
 40
9.0
 40
9.0
 40
9.0
 40
9.0
 10
220.7511990882409
 20
24.70867624437805
 30
0.0
 10
220.7511990882409
 20
24.70867624437805
 30
0.0
 10
222.5365618123065
 20
24.70867624437805
 30
0.0
 10
222.5365618123065
 20
24.70867624437805
 30
0.0
  0
SPLINE
  5
29436
102
{ACAD_REACTORS
330
2944B
102
}
330
2
100
AcDbEntity
  8
Layer 1
100
AcDbSpline
210
0.0
220
0.0
230
1.0
 70
    24
 71
     3
 72
     8
 73
     4
 74
     0
 42
0.000000001
 43
0.0000000001
 40
9.0
 40
9.0
 40
9.0
 40
9.0
 40
10.0
 40
10.0
 40
10.0
 40
10.0
 10
222.5365618123065
 20
24.70867624437805
 30
0.0
 10
222.5365618123065
 20
24.70867624437805
 30
0.0
 10
222.8656735899718
 20
21.73631776887439
 30
0.0
 10
222.8656735899718
 20
21.73631776887439
 30
0.0
  0
SPLINE
  5
29437
102
{ACAD_REACTORS
330
2944B
102
}
330
2
100
AcDbEntity
  8
Layer 1
100
AcDbSpline
210
0.0
220
0.0
230
1.0
 70
    24
 71
     3
 72
     8
 73
     4
 74
     0
 42
0.000000001
 43
0.0000000001
 40
10.0
 40
10.0
 40
10.0
 40
10.0
 40
11.0
 40
11.0
 40
11.0
 40
11.0
 10
222.8656735899718
 20
21.73631776887439
 30
0.0
 10
222.8656735899718
 20
21.73631776887439
 30
0.0
 10
224.7350232671501
 20
24.70867624437805
 30
0.0
 10
224.7350232671501
 20
24.70867624437805
 30
0.0
  0
SPLINE
  5
29438
102
{ACAD_REACTORS
330
2944B
102
}
330
2
100
AcDbEntity
  8
Layer 1
100
AcDbSpline
210
0.0
220
0.0
230
1.0
 70
    24
 71
     3
 72
     8
 73
     4
 74
     0
 42
0.000000001
 43
0.0000000001
 40
11.0
 40
11.0
 40
11.0
 40
11.0
 40
12.0
 40
12.0
 40
12.0
 40
12.0
 10
224.7350232671501
 20
24.70867624437805
 30
0.0
 10
224.7350232671501
 20
24.70867624437805
 30
0.0
 10
226.55099691857
 20
24.70867624437805
 30
0.0
 10
226.55099691857
 20
24.70867624437805
 30
0.0
  0
SPLINE
  5
29439
102
{ACAD_REACTORS
330
2944B
102
}
330
2
100
AcDbEntity
  8
Layer 1
100
AcDbSpline
210
0.0
220
0.0
230
1.0
 70
    24
 71
     3
 72
     8
 73
     4
 74
     0
 42
0.000000001
 43
0.0000000001
 40
12.0
 40
12.0
 40
12.0
 40
12.0
 40
13.0
 40
13.0
 40
13.0
 40
13.0
 10
226.55099691857
 20
24.70867624437805
 30
0.0
 10
226.55099691857
 20
24.70867624437805
 30
0.0
 10
225.6696981057393
 20
19.29998155526998
 30
0.0
 10
225.6696981057393
 20
19.29998155526998
 30
0.0
  0
HATCH
  5
2944B
330
2
100
AcDbEntity
  8
0
  6
Continuous
 62
     0
100
AcDbHatch
 10
0.0
 20
0.0
 30
0.0
210
0.0
220
0.0
230
0.9999999999999998
  2
SOLID
 70
     1
 71
     1
 91
        1
 92
        5
 93
       13
 72
     4
 94
        3
 73
     0
 74
     0
 95
        8
 96
        4
 40
1.0
 40
1.0
 40
1.0
 40
1.0
 40
2.0
 40
2.0
 40
2.0
 40
2.0
 10
224.7505665085042
 20
22.80883114168853
 10
224.7505665085042
 20
22.80883114168853
 10
223.9843411765961
 20
19.29998155526998
 10
223.9843411765961
 20
19.29998155526998
 97
        0
 72
     4
 94
        3
 73
     0
 74
     0
 95
        8
 96
        4
 40
0.0
 40
0.0
 40
0.0
 40
0.0
 40
1.0
 40
1.0
 40
1.0
 40
1.0
 10
223.9843411765961
 20
19.29998155526998
 10
223.9843411765961
 20
19.29998155526998
 10
225.6696981057393
 20
19.29998155526998
 10
225.6696981057393
 20
19.29998155526998
 97
        0
 72
     4
 94
        3
 73
     0
 74
     0
 95
        8
 96
        4
 40
12.0
 40
12.0
 40
12.0
 40
12.0
 40
13.0
 40
13.0
 40
13.0
 40
13.0
 10
225.6696981057393
 20
19.29998155526998
 10
225.6696981057393
 20
19.29998155526998
 10
226.55099691857
 20
24.70867624437805
 10
226.55099691857
 20
24.70867624437805
 97
        0
 72
     4
 94
        3
 73
     0
 74
     0
 95
        8
 96
        4
 40
11.0
 40
11.0
 40
11.0
 40
11.0
 40
12.0
 40
12.0
 40
12.0
 40
12.0
 10
226.55099691857
 20
24.70867624437805
 10
226.55099691857
 20
24.70867624437805
 10
224.7350232671501
 20
24.70867624437805
 10
224.7350232671501
 20
24.70867624437805
 97
        0
 72
     4
 94
        3
 73
     0
 74
     0
 95
        8
 96
        4
 40
10.0
 40
10.0
 40
10.0
 40
10.0
 40
11.0
 40
11.0
 40
11.0
 40
11.0
 10
224.7350232671501
 20
24.70867624437805
 10
224.7350232671501
 20
24.70867624437805
 10
222.8656735899718
 20
21.73631776887439
 10
222.8656735899718
 20
21.73631776887439
 97
        0
 72
     4
 94
        3
 73
     0
 74
     0
 95
        8
 96
        4
 40
9.0
 40
9.0
 40
9.0
 40
9.0
 40
10.0
 40
10.0
 40
10.0
 40
10.0
 10
222.8656735899718
 20
21.73631776887439
 10
222.8656735899718
 20
21.73631776887439
 10
222.5365618123065
 20
24.70867624437805
 10
222.5365618123065
 20
24.70867624437805
 97
        0
 72
     4
 94
        3
 73
     0
 74
     0
 95
        8
 96
        4
 40
8.0
 40
8.0
 40
8.0
 40
8.0
 40
9.0
 40
9.0
 40
9.0
 40
9.0
 10
222.5365618123065
 20
24.70867624437805
 10
222.5365618123065
 20
24.70867624437805
 10
220.7511990882409
 20
24.70867624437805
 10
220.7511990882409
 20
24.70867624437805
 97
        0
 72
     4
 94
        3
 73
     0
 74
     0
 95
        8
 96
        4
 40
7.0
 40
7.0
 40
7.0
 40
7.0
 40
8.0
 40
8.0
 40
8.0
 40
8.0
 10
220.7511990882409
 20
24.70867624437805
 10
220.7511990882409
 20
24.70867624437805
 10
218.7824379993219
 20
19.29998155526998
 10
218.7824379993219
 20
19.29998155526998
 97
        0
 72
     4
 94
        3
 73
     0
 74
     0
 95
        8
 96
        4
 40
6.0
 40
6.0
 40
6.0
 40
6.0
 40
7.0
 40
7.0
 40
7.0
 40
7.0
 10
218.7824379993219
 20
19.29998155526998
 10
218.7824379993219
 20
19.29998155526998
 10
220.4294866754165
 20
19.29998155526998
 10
220.4294866754165
 20
19.29998155526998
 97
        0
 72
     4
 94
        3
 73
     0
 74
     0
 95
        8
 96
        4
 40
5.0
 40
5.0
 40
5.0
 40
5.0
 40
6.0
 40
6.0
 40
6.0
 40
6.0
 10
220.4294866754165
 20
19.29998155526998
 10
220.4294866754165
 20
19.29998155526998
 10
221.5404866872975
 20
22.8853288534383
 10
221.5404866872975
 20
22.8853288534383
 97
        0
 72
     4
 94
        3
 73
     0
 74
     0
 95
        8
 96
        4
 40
4.0
 40
4.0
 40
4.0
 40
4.0
 40
5.0
 40
5.0
 40
5.0
 40
5.0
 10
221.5404866872975
 20
22.8853288534383
 10
221.5404866872975
 20
22.8853288534383
 10
221.9465130137648
 20
19.29998155526998
 10
221.9465130137648
 20
19.29998155526998
 97
        0
 72
     4
 94
        3
 73
     0
 74
     0
 95
        8
 96
        4
 40
3.0
 40
3.0
 40
3.0
 40
3.0
 40
4.0
 40
4.0
 40
4.0
 40
4.0
 10
221.9465130137648
 20
19.29998155526998
 10
221.9465130137648
 20
19.29998155526998
 10
222.4828581179253
 20
19.29998155526998
 10
222.4828581179253
 20
19.29998155526998
 97
        0
 72
     4
 94
        3
 73
     0
 74
     0
 95
        8
 96
        4
 40
2.0
 40
2.0
 40
2.0
 40
2.0
 40
3.0
 40
3.0
 40
3.0
 40
3.0
 10
222.4828581179253
 20
19.29998155526998
 10
222.4828581179253
 20
19.29998155526998
 10
224.7505665085042
 20
22.80883114168853
 10
224.7505665085042
 20
22.80883114168853
 97
        0
 97
       13
330
29439
330
29438
330
29437
330
29436
330
29435
330
29434
330
29433
330
29432
330
29431
330
29430
330
2942F
330
2942E
330
2942D
 75
     1
 76
     1
 47
0.0269459378258844
 98
        1
 10
224.8483211240657
 20
21.13885995462337
450
        0
451
        0
460
0.0
461
0.0
452
        0
462
1.0
453
        2
463
0.0
 63
     5
421
      255
463
1.0
 63
     2
421
 16776960
470
LINEAR
1001
GRADIENTCOLOR1ACI
1070
     5
1001
GRADIENTCOLOR2ACI
1070
     2
1001
ACAD
1010
0.0
1020
0.0
1030
0.0
  0
MULTILEADER
  5
3731F
330
2
100
AcDbEntity
  8
0
  6
Continuous
 62
     7
160
               688
310
B0020000180000000C00000016000000020000C30C00000033000000000000000C00000013000000993A00000C00000016000000020000C3D400000026000000B0BD99F2F1E13A40165AF517190F6140000000000000000000000000000000000000000000000000000000000000F03F000000000000F03F00000000000000
310
0000000000000000004400530046003100360020005400610070006500720000000B000000010000000000000000000440000000000000F03F0000000000000000000000000000F03F0000000000000000000000000000000000000000000000000000000001000000000000000000000072006F006D0061006E0073002E00
310
73006800780000002E00000078000C00000033000000000000000C00000010000000000000000C00000016000000030000C30C00000012000000000000000C00000013000000010000000C00000014000000010000005400000007000000030000000095709FB1784A40E6A82FD2910D5D400000000000000000E0FF76813D
310
F54940D0BEE69046795C40000000000000000044E77FC665114A40F1DD6FDADE1A5D4000000000000000000C0000001300000089130000540000000600000003000000223EF8B20B454A406BC34F5638145D40000000000000000040CF0BB9EDF84C40C004A0C2C32961400000000000000000207171428B154A40C004A0C2
310
C329614000000000000000000C00000013000000122700003C0000000600000002000000207171428B154A40C004A0C2C32961400000000000000000207171428BD54940C004A0C2C329614000000000000000000C00000016000000030000C30C00000012000000000000000C00000017000000000000000C000000130000
310
009A3A00000C00000016000000070000C30C00000012000000000000000C00000017000000FFFFFFFF0C0000003300000000000000
100
AcDbMLeader
270
     2
300
CONTEXT_DATA{
 40
1.0
 10
26.85878855447418
 20
137.3051465154039
 30
0.0
 41
2.5
140
2.5
145
0.5
174
     2
175
     2
176
     2
177
     1
290
     1
304
DSF16 Taper
 11
0.0
 21
0.0
 31
1.0
340
35
 12
51.16831236399798
 22
138.9718131820706
 32
0.0
 13
1.0
 23
0.0
 33
0.0
 42
0.0
 43
24.31071428571428
 44
0.0
 45
1.0
170
     1
 90
-1023410174
171
     3
172
     5
 91
-1073741824
141
0.0
 92
 14025060
291
     0
292
     0
173
     0
293
     0
142
0.0
143
0.0
294
     0
295
     0
296
     0
110
14.07248074834228
120
173.0687458679736
130
0.0
111
1.0
121
0.0
131
0.0
112
0.0
122
1.0
132
0.0
297
     0
302
LEADER{
290
     1
291
     1
 10
52.16831236399798
 20
137.3051465154039
 30
0.0
 11
-1.0
 21
0.0
 31
0.0
 90
        1
 40
0.5
304
LEADER_LINE{
 10
51.91593950567744
 20
113.8949320081112
 30
0.0
 10
57.94475472523345
 20
137.3051465154039
 30
0.0
 91
        0
305
}
271
     0
303
}
272
     9
273
     9
301
}
340
BD9
 90
   279552
170
     1
 91
-1023410173
341
28
171
    -1
290
     1
291
     1
 41
0.5
 42
2.5
172
     2
343
35
173
     2
 95
        2
174
     1
175
     0
 92
-1023410174
292
     0
 93
-1023410174
 10
1.0
 20
1.0
 30
1.0
 43
0.0
176
     1
293
     0
294
     0
178
     0
179
     1
 45
1.0
271
     0
272
     9
273
     9
295
     0
  0
DIMENSION
  5
37320
330
2
100
AcDbEntity
  8
0
  6
Continuous
 62
     7
100
AcDbDimension
280
     0
  2
*D0
 10
58.12815368425551
 20
80.40772645204265
 30
0.0
 11
58.1281536842555
 21
93.98243117645121
 31
0.0
 70
   160
  1
%%c1.551
 71
     5
 42
39.5
 73
     0
 74
     0
 75
     0
  3
Standard$0
100
AcDbAlignedDimension
 13
69.68472006855268
 23
119.9077264520426
 33
0.0
 14
69.68472006855268
 24
80.40772645204265
 34
0.0
 50
90.0
100
AcDbRotatedDimension
1001
ACAD
1000
DSTYLE
1002
{
1070
    42
1040
0.625
1070
    43
1040
3.75
1070
    44
1040
1.25
1070
    48
1040
0.000000001
1070
    74
1070
     0
1070
    75
1070
     1
1070
    77
1070
     1
1070
    90
1070
     1
1070
   140
1040
3.0
1070
   141
1040
-0.5
1070
   143
1040
0.03937007874016
1070
   146
1040
0.7
1070
   147
1040
0.625
1070
   171
1070
     3
1070
   172
1070
     1
1070
   175
1070
     0
1070
   274
1070
     3
1070
   281
1070
     1
1070
   283
1070
     0
1070
   284
1070
     8
1070
   340
1005
25
1070
   371
1070
    -1
1070
   372
1070
    -1
1002
}
  0
MULTILEADER
  5
37321
330
2
100
AcDbEntity
  8
0
  6
Continuous
 62
     7
160
               680
310
A8020000180000000C00000016000000020000C30C00000033000000000000000C00000013000000993A00000C00000016000000020000C3CC00000026000000239D31C44F782940B8769E38C5005F40000000000000000000000000000000000000000000000000000000000000F03F000000000000F03F00000000000000
310
0000000000000000004D0031003000780031002E003500000007000000010000000000000000000440000000000000F03F0000000000000000000000000000F03F0000000000000000000000000000000000000000000000000000000001000000000000000000000072006F006D0061006E0073002E007300680078000000
310
2D0000002E000C00000033000000000000000C00000010000000000000000C00000016000000030000C30C00000012000000000000000C00000013000000010000000C0000001400000001000000540000000700000003000000E457C10246684140103BEDF826EB5A40000000000000000040AFF4A9D28E4140F04EB03018
310
4A5A400000000000000000D44D0B29E3014140008195F531DC5A4000000000000000000C0000001300000089130000540000000600000003000000DC52E69514354140085E4177ACE35A400000000000000000A04D7CDBEE3D3D40B8769E38C5505F40000000000000000060C255B11BF93C40B8769E38C5505F4000000000
310
000000000C00000013000000112700003C000000060000000200000060C255B11BF93C40B8769E38C5505F40000000000000000060C255B11B793C40B8769E38C5505F4000000000000000000C00000016000000030000C30C00000012000000000000000C00000017000000000000000C000000130000009A3A00000C0000
310
0016000000070000C30C00000012000000000000000C00000017000000FFFFFFFF0C0000003300000000000000
100
AcDbMLeader
270
     2
300
CONTEXT_DATA{
 40
1.0
 10
12.71117404538944
 20
125.2620374248025
 30
0.0
 41
2.5
140
2.5
145
0.5
174
     2
175
     2
176
     2
177
     1
290
     1
304
M10x1.5
 11
0.0
 21
0.0
 31
1.0
340
35
 12
27.9730788072942
 22
126.5120374248025
 32
0.0
 13
1.0
 23
0.0
 33
0.0
 42
0.0
 43
16.19047619047619
 44
0.0
 45
1.0
170
     1
 90
-1023410174
171
     3
172
     5
 91
-939524096
141
1.5
 92
        0
291
     0
292
     0
173
     0
293
     0
142
0.0
143
0.0
294
     0
295
     0
296
     0
110
-2.959086750899075
120
101.6177798342253
130
0.0
111
1.0
121
0.0
131
0.0
112
0.0
122
1.0
132
0.0
297
     0
302
LEADER{
290
     1
291
     1
 10
28.9730788072942
 20
125.2620374248025
 30
0.0
 11
-1.0
 21
0.0
 31
0.0
 90
        0
 40
0.5
304
LEADER_LINE{
 10
35.11580395171632
 20
105.1577264520417
 30
0.0
 10
29.24192592415568
 20
125.2620374248025
 30
0.0
 91
        0
305
}
271
     0
303
}
272
     9
273
     9
301
}
340
BD9
 90
   314368
170
     1
 91
-1023410173
341
28
171
    -1
290
     1
291
     1
 41
0.5
 42
2.5
172
     2
343
35
173
     2
 95
        2
174
     1
175
     0
 92
-1023410174
292
     0
 93
-1023410174
 10
1.0
 20
1.0
 30
1.0
 43
0.0
176
     1
293
     0
294
     0
178
     0
179
     1
 45
1.0
271
     0
272
     9
273
     9
295
     0
  0
LINE
  5
37322
330
2
100
AcDbEntity
  8
0
  6
Continuous
 62
     3
100
AcDbLine
 10
69.184720068552
 20
80.2827264520422
 30
0.0
 11
69.184720068552
 21
60.79058795828029
 31
0.0
  0
MTEXT
  5
37323
330
2
100
AcDbEntity
  8
0
  6
Continuous
 62
     2
100
AcDbMText
 10
69.18525423769961
 20
58.34177285448425
 30
0.0
 40
3.0
 41
0.0
 46
0.0
 71
     5
 72
     1
  1
0.00
 73
     1
 44
1.0
  0
LINE
  5
37324
330
2
100
AcDbEntity
  8
0
  6
Continuous
 62
     3
100
AcDbLine
 10
22.18472006855268
 20
87.70654005121571
 30
0.0
 11
22.18472006855268
 21
60.79058795828029
 31
0.0
  0
MTEXT
  5
37327
330
2
100
AcDbEntity
  8
0
  6
Continuous
 62
     2
100
AcDbMText
 10
22.09648674603932
 20
58.27739565151955
 30
0.0
 40
3.0
 41
0.0
 46
0.0
 71
     5
 72
     1
  1
1.85
 73
     1
 44
1.0
  0
LINE
  5
37328
330
2
100
AcDbEntity
  8
0
  6
Continuous
 62
     3
100
AcDbLine
 10
74.68472006855302
 20
80.2827264520422
 30
0.0
 11
74.68472006855302
 21
66.09440608755789
 31
0.0
  0
MTEXT
  5
37329
330
2
100
AcDbEntity
  8
0
  6
Continuous
 62
     2
100
AcDbMText
 10
74.68525423770064
 20
63.83399424057756
 30
0.0
 40
3.0
 41
0.0
 46
0.0
 71
     5
 72
     1
  1
0.216
 73
     1
 44
1.0
  0
LINE
  5
374FF
330
2
100
AcDbEntity
  8
0
  6
Continuous
 62
     3
100
AcDbLine
 10
132.6847200685516
 20
77.86406146534242
 30
0.0
 11
132.6847200685516
 21
60.79058795828029
 31
0.0
  0
MTEXT
  5
37500
330
2
100
AcDbEntity
  8
0
  6
Continuous
 62
     2
100
AcDbMText
 10
132.6852542376992
 20
58.34177285448425
 30
0.0
 40
3.0
 41
0.0
 46
0.0
 71
     5
 72
     1
  1
2.50
 73
     1
 44
1.0
  0
LINE
  5
37501
330
2
100
AcDbEntity
  8
0
  6
Continuous
 62
     3
100
AcDbLine
 10
148.6847200685525
 20
90.74159626821865
 30
0.0
 11
148.6847200685525
 21
60.79058795828013
 31
0.0
  0
MTEXT
  5
37502
330
2
100
AcDbEntity
  8
0
  6
Continuous
 62
     2
100
AcDbMText
 10
148.6852542377001
 20
58.34177285448408
 30
0.0
 40
3.0
 41
0.0
 46
0.0
 71
     5
 72
     1
  1
3.13
 73
     1
 44
1.0
  0
DIMENSION
  5
38150
330
2
100
AcDbEntity
  8
0
  6
Continuous
 62
     7
100
AcDbDimension
280
     0
  2
*D1
 10
226.1366691295263
 20
129.4582678461463
 30
0.0
 11
239.6497596807074
 21
131.5835631217369
 31
0.0
 70
    32
  1
2-.3125%%P.001
 71
     5
 42
7.937500000000227
 73
     0
 74
     0
 75
     0
  3
Standard$0
100
AcDbAlignedDimension
 13
218.199169129526
 23
122.0266363185367
 33
0.0
 14
226.1366691295263
 24
122.0255029379211
 34
0.0
100
AcDbRotatedDimension
1001
ACAD
1000
DSTYLE
1002
{
1070
    42
1040
0.625
1070
    43
1040
3.75
1070
    44
1040
1.25
1070
    48
1040
0.000000001
1070
    74
1070
     0
1070
    77
1070
     1
1070
    90
1070
     1
1070
   140
1040
3.0
1070
   141
1040
-0.5
1070
   143
1040
0.03937007874016
1070
   146
1040
0.7
1070
   147
1040
0.625
1070
   171
1070
     3
1070
   172
1070
     1
1070
   175
1070
     0
1070
   274
1070
     3
1070
   283
1070
     0
1070
   284
1070
     8
1070
   340
1005
25
1070
   371
1070
    -1
1070
   372
1070
    -1
1002
}
  0
MULTILEADER
  5
38151
330
2
100
AcDbEntity
  8
0
  6
Continuous
 62
     7
160
               700
310
BC020000180000000C00000016000000020000C30C00000033000000000000000C00000013000000993A00000C00000016000000020000C3E0000000260000009E9FE12148D16A402A9841B4649A4F40000000000000000000000000000000000000000000000000000000000000F03F000000000000F03F00000000000000
310
00000000000000000055004E00460033002F0038002D0032003400000009000000010000000000000000000840000000000000F03F0000000000000000000000000000F03F00000000000000000000000000000000000000000000000000000000010000000000000000000000690073006F00630070002E00730068007800
310
00007700680067007400780074002E00730068007800000000000C00000033000000000000000C00000010000000000000000C00000016000000030000C30C00000012000000000000000C00000013000000010000000C00000014000000010000005400000007000000030000006629E0D50E656B40B602B0195761574000
310
0000000000000038B64E15A98B6B4010541CD1FEEF574000000000000000002DEB8F20477E6B4016904B080350574000000000000000000C0000001300000089130000540000000600000003000000490A38FBAA716B4066C9FD10AD585740000000000000000084FFF79E62366A40708C9A30372D50400000000000000000
310
04064888AEBF6A40608C9A30372D504000000000000000000C00000013000000112700003C000000060000000200000004064888AEBF6A40608C9A30372D5040000000000000000004064888AECF6A40608C9A30372D504000000000000000000C00000016000000030000C30C00000012000000000000000C000000170000
310
00000000000C000000130000009A3A00000C00000016000000070000C30C00000012000000000000000C00000017000000FFFFFFFF0C0000003300000000000000
100
AcDbMLeader
270
     2
300
CONTEXT_DATA{
 40
1.0
 10
214.4900552183827
 20
64.7064935216199
 30
0.0
 41
3.0
140
2.5
145
0.5
174
     2
175
     2
176
     0
177
     1
290
     1
304
UNF3/8-24
 11
0.0
 21
0.0
 31
1.0
340
25
 12
214.9900552183827
 22
66.20678879721049
 32
0.0
 13
1.0
 23
0.0
 33
0.0
 42
0.0
 43
0.0
 44
0.0
 45
1.0
170
     1
 90
-1023410174
171
     1
172
     5
 91
-1073741824
141
0.0
 92
     2047
291
     0
292
     0
173
     0
293
     0
142
0.0
143
0.0
294
     0
295
     0
296
     0
110
260.364390043005
120
95.74992778555339
130
0.0
111
1.0
121
0.0
131
0.0
112
0.0
122
1.0
132
0.0
297
     0
302
LEADER{
290
     1
291
     1
 10
213.9900552183827
 20
64.7064935216199
 30
0.0
 11
1.0
 21
0.0
 31
0.0
 90
        0
 40
0.5
304
LEADER_LINE{
 10
220.364390043005
 20
95.74992778555339
 30
0.0
 10
209.6995386928285
 20
64.70649352162013
 30
0.0
 91
        0
305
}
271
     0
303
}
272
     9
273
     9
301
}
340
BD9
 90
   347136
170
     1
 91
-1023410173
341
28
171
    -1
290
     1
291
     1
 41
0.5
 42
2.5
172
     2
343
25
173
     2
 95
        2
174
     1
175
     0
 92
-1023410174
292
     0
 93
-1023410174
 10
1.0
 20
1.0
 30
1.0
 43
0.0
176
     1
293
     0
294
     0
178
     0
179
     1
 45
1.0
271
     0
272
     9
273
     9
295
     0
  0
DIMENSION
  5
38152
330
2
100
AcDbEntity
  8
0
  6
Continuous
 62
     7
100
AcDbDimension
280
     0
  2
*D2
 10
252.0747172837183
 20
100.1577264520163
 30
0.0
 11
249.9494220081277
 21
106.7617264520163
 31
0.0
 70
    32
  1
.52
 71
     5
 42
13.20800000000008
 73
     0
 74
     0
 75
     0
  3
Standard$0
100
AcDbAlignedDimension
 13
226.130419129526
 23
113.3657264520163
 33
0.0
 14
244.8929191295261
 24
100.1577264520163
 34
0.0
 50
90.0
100
AcDbRotatedDimension
1001
ACAD
1000
DSTYLE
1002
{
1070
    42
1040
0.625
1070
    43
1040
3.75
1070
    44
1040
1.25
1070
    48
1040
0.000000001
1070
    74
1070
     0
1070
    77
1070
     1
1070
    90
1070
     1
1070
   140
1040
3.0
1070
   141
1040
-0.5
1070
   143
1040
0.03937007874016
1070
   146
1040
0.7
1070
   147
1040
0.625
1070
   171
1070
     3
1070
   172
1070
     1
1070
   175
1070
     0
1070
   274
1070
     3
1070
   283
1070
     0
1070
   284
1070
     8
1070
   340
1005
25
1070
   371
1070
    -1
1070
   372
1070
    -1
1002
}
  0
DIMENSION
  5
38153
330
2
100
AcDbEntity
  8
0
  6
Continuous
 62
     7
100
AcDbDimension
280
     0
  2
*D3
 10
252.0747172837183
 20
100.1577264520163
 30
0.0
 11
249.9494220081277
 21
93.55372645201628
 31
0.0
 70
    32
  1
.52
 71
     5
 42
13.20800000000008
 73
     0
 74
     0
 75
     0
  3
Standard$0
100
AcDbAlignedDimension
 13
226.130419129526
 23
86.9497264520162
 33
0.0
 14
244.8929191295261
 24
100.1577264520163
 34
0.0
 50
270.0
100
AcDbRotatedDimension
1001
ACAD
1000
DSTYLE
1002
{
1070
    42
1040
0.625
1070
    43
1040
3.75
1070
    44
1040
1.25
1070
    48
1040
0.000000001
1070
    74
1070
     0
1070
    77
1070
     1
1070
    90
1070
     1
1070
   140
1040
3.0
1070
   141
1040
-0.5
1070
   143
1040
0.03937007874016
1070
   146
1040
0.7
1070
   147
1040
0.625
1070
   171
1070
     3
1070
   172
1070
     1
1070
   175
1070
     0
1070
   274
1070
     3
1070
   283
1070
     0
1070
   284
1070
     8
1070
   340
1005
25
1070
   371
1070
    -1
1070
   372
1070
    -1
1002
}
  0
DIMENSION
  5
38154
330
2
100
AcDbEntity
  8
0
  6
Continuous
 62
     7
100
AcDbDimension
280
     0
  2
*D4
 10
171.230202817992
 20
90.63272645201481
 30
0.0
 11
169.1052028179919
 21
100.1577264520156
 31
0.0
 70
    32
  1
%%C.75
 71
     5
 42
19.05000000000154
 73
     0
 74
     0
 75
     0
  3
Standard$0
100
AcDbAlignedDimension
 13
148.4347200685529
 23
109.6827264520164
 33
0.0
 14
148.1767200685642
 24
90.63272645201482
 34
0.0
 50
90.0
100
AcDbRotatedDimension
1001
ACAD
1000
DSTYLE
1002
{
1070
    76
1070
     0
1070
   282
1070
     0
1070
    42
1040
0.625
1070
    43
1040
3.75
1070
    44
1040
1.25
1070
    48
1040
0.000000001
1070
    74
1070
     0
1070
    77
1070
     1
1070
    90
1070
     1
1070
   140
1040
3.0
1070
   141
1040
-0.5
1070
   143
1040
0.03937007874016
1070
   146
1040
0.7
1070
   147
1040
0.625
1070
   171
1070
     3
1070
   172
1070
     1
1070
   175
1070
     0
1070
   274
1070
     3
1070
   283
1070
     0
1070
   284
1070
     8
1070
   340
1005
25
1070
   371
1070
    -1
1070
   372
1070
    -1
1002
}
  0
DIMENSION
  5
38155
330
2
100
AcDbEntity
  8
0
  6
Continuous
 62
     7
100
AcDbDimension
280
     0
  2
*D5
 10
179.230202817992
 20
78.05972645200812
 30
0.0
 11
179.230202817992
 21
100.1577264520163
 31
0.0
 70
   160
  1
%%C1.74
 71
     5
 42
44.17809373612726
 73
     0
 74
     0
 75
     0
  3
Standard$0
100
AcDbAlignedDimension
 13
132.3833421685397
 23
122.2378201881354
 33
0.0
 14
132.4347200685517
 24
78.05972645200814
 34
0.0
 50
90.0
100
AcDbRotatedDimension
1001
ACAD
1000
DSTYLE
1002
{
1070
    76
1070
     1
1070
   282
1070
     1
1070
    42
1040
0.625
1070
    43
1040
3.75
1070
    44
1040
1.25
1070
    48
1040
0.000000001
1070
    74
1070
     0
1070
    77
1070
     1
1070
    90
1070
     1
1070
   140
1040
3.0
1070
   141
1040
-0.5
1070
   143
1040
0.03937007874016
1070
   146
1040
0.7
1070
   147
1040
0.625
1070
   171
1070
     3
1070
   172
1070
     1
1070
   175
1070
     0
1070
   274
1070
     3
1070
   283
1070
     0
1070
   284
1070
     8
1070
   340
1005
25
1070
   371
1070
    -1
1070
   372
1070
    -1
1002
}
  0
DIMENSION
  5
381E6
330
2
100
AcDbEntity
  8
0
  6
Continuous
 62
     7
100
AcDbDimension
280
     0
  2
*D6
 10
102.5961769417385
 20
119.2077264519982
 30
0.0
 11
102.5961769417384
 21
94.29581700319227
 31
0.0
 70
   160
  1
%%c1.50
 71
     5
 42
38.09999999998309
 73
     0
 74
     0
 75
     0
  3
Standard$0
100
AcDbAlignedDimension
 13
98.71746377339071
 23
81.10772645201519
 33
0.0
 14
98.71746377339071
 24
119.2077264519982
 34
0.0
 50
90.0
100
AcDbRotatedDimension
1001
ACAD
1000
DSTYLE
1002
{
1070
    76
1070
     1
1070
   282
1070
     1
1070
   171
1070
     3
1070
   143
1040
0.03937007874016
1070
   274
1070
     3
1070
   141
1040
-0.5
1070
    43
1040
3.75
1070
    44
1040
1.25
1070
    42
1040
0.625
1070
   147
1040
0.625
1070
   371
1070
    -1
1070
   372
1070
    -1
1070
   175
1070
     0
1070
    77
1070
     1
1070
   146
1040
0.7
1070
    48
1040
0.000000001
1070
   172
1070
     1
1070
    74
1070
     0
1070
   283
1070
     0
1070
   340
1005
25
1070
   140
1040
3.0
1070
   284
1070
     8
1070
    90
1070
     1
1002
}
  0
HATCH
  5
38349
330
2
100
AcDbEntity
  8
0
  6
Continuous
 62
     4
100
AcDbHatch
 10
0.0
 20
0.0
 30
0.0
210
0.0
220
0.0
230
1.0
  2
ANSI31
 70
     0
 71
     0
 91
       15
 92
        7
 72
     1
 73
     1
 93
       36
 10
22.18472006855268
 20
111.6577264520426
 42
0.0
 10
22.18472006855268
 20
106.9464015865717
 42
0.0
 10
22.68472006840193
 20
106.657726452064
 42
0.0
 10
26.18472006840216
 20
106.6577264520631
 42
0.0
 10
27.68472006840057
 20
105.1577264520631
 42
0.0
 10
46.18472006840216
 20
105.1577264520631
 42
0.0
 10
47.39715563374534
 20
104.4577264520364
 42
0.0
 10
56.18472006855268
 20
104.4577264520364
 42
0.0
 10
56.27484917765594
 20
104.3077264520159
 42
0.0
 10
120.9538389489148
 20
104.3077264520159
 42
0.0
 10
122.014720068553
 20
104.9202264520152
 42
0.0
 10
122.3567200685524
 20
104.9202264520152
 42
0.0
 10
122.3567200685524
 20
113.1657264520156
 42
0.0
 10
122.1567200685521
 20
113.3657264520159
 42
0.0
 10
118.7847200685516
 20
113.3657264520159
 42
0.0
 10
118.7847200685516
 20
122.0017264520086
 42
0.0
 10
118.530720068551
 20
122.2557264520094
 42
0.0
 10
114.1427200685523
 20
122.2557264520294
 42
0.0
 10
113.6347200685522
 20
121.7477264520291
 42
0.0
 10
113.634720068552
 20
120.223726452012
 42
0.0
 10
112.6187200685385
 20
119.2077264519982
 42
0.0
 10
77.29715563379432
 20
119.2077264519982
 42
0.0
 10
74.6847200684399
 20
119.9077264520135
 42
0.0
 10
69.68472006855268
 20
119.9077264520426
 42
0.4142135623730951
 10
69.18472006855267
 20
119.4077264520426
 42
0.0
 10
69.18472006855267
 20
117.1773416943122
 42
0.0
 10
69.48472006855286
 20
116.6577264520426
 42
0.0
 10
69.48472006855286
 20
114.9077264520426
 42
0.0
 10
69.18472006855267
 20
114.9077264520426
 42
0.0
 10
67.64214197215756
 20
114.9077264520426
 42
0.0
 10
67.18472006855177
 20
115.3651483556475
 42
0.0
 10
36.64715894280312
 20
112.4247156605749
 42
0.0
 10
36.18472006855177
 20
112.1577264520426
 42
0.0
 10
33.68472006855268
 20
112.1577264520426
 42
0.0
 10
32.31098135882553
 20
112.6577264520426
 42
0.0
 10
23.18472006855268
 20
112.6577264520426
 42
0.4142135623730951
 97
        0
 92
        7
 72
     0
 73
     1
 93
        4
 10
46.18472006840216
 20
105.1577264520631
 10
27.68472006840057
 20
105.1577264520631
 10
28.38472006840516
 20
104.4577264520364
 10
46.18472006840216
 20
104.4577264520364
 97
        0
 92
        7
 72
     0
 73
     1
 93
        3
 10
47.39715563370987
 20
104.4577264520569
 10
46.18472006840216
 20
105.1577264520631
 10
46.18472006840216
 20
104.4577264520364
 97
        0
 92
        7
 72
     0
 73
     1
 93
        3
 10
122.0147200685519
 20
104.920226452017
 10
120.9538389489148
 20
104.3077264520159
 10
122.014720068553
 20
104.3077264520159
 97
        0
 92
        7
 72
     0
 73
     1
 93
        4
 10
122.3567200685524
 20
104.9202264520152
 10
122.014720068553
 20
104.9202264520152
 10
122.014720068553
 20
104.3077264520159
 10
122.3567200685524
 20
104.3077264520159
 97
        0
 92
        7
 72
     0
 73
     1
 93
        4
 10
122.3567200685524
 20
104.3077264520159
 10
122.6567200685524
 20
104.3077264520159
 10
122.6567200685524
 20
104.9202264520152
 10
122.3567200685524
 20
104.9202264520152
 97
        0
 92
        7
 72
     0
 73
     1
 93
        4
 10
122.3567200685524
 20
113.1657264520161
 10
122.3567200685524
 20
104.9202264520152
 10
122.6567200685524
 20
104.9202264520152
 10
122.6567200685524
 20
112.8657264520159
 97
        0
 92
        7
 72
     0
 73
     1
 93
        4
 10
126.3567200685524
 20
104.3077264520159
 10
126.3567200685524
 20
104.9202264520152
 10
126.0567200685523
 20
104.9202264520152
 10
126.0567200685523
 20
104.3077264520159
 97
        0
 92
        7
 72
     0
 73
     1
 93
        4
 10
126.3567200685524
 20
104.9202264520152
 10
126.3567200685524
 20
113.1657264520161
 10
126.0567200685523
 20
112.8657264520159
 10
126.0567200685523
 20
104.9202264520152
 97
        0
 92
        7
 72
     1
 73
     1
 93
       20
 10
148.1767200685528
 20
105.5794325152681
 42
0.0
 10
148.684720068553
 20
106.0874325152679
 42
0.0
 10
148.6847200685527
 20
109.1747264520038
 42
0.0
 10
148.1767200685403
 20
109.6827264520164
 42
0.0
 10
133.8847200685527
 20
109.6827264520159
 42
0.0
 10
133.3249124474177
 20
109.5327264520163
 42
0.0
 10
132.7847200685523
 20
109.5327264520163
 42
-0.0613213552368997
 10
132.6877058185379
 20
109.544669451958
 42
0.0
 10
132.6847200685524
 20
109.5327264520163
 42
0.0
 10
132.6847200685524
 20
109.5454281173954
 42
-0.3419987131197458
 10
132.3847200685525
 20
109.9327264520163
 42
0.0
 10
132.3847200685525
 20
110.05848322618
 42
0.0
 10
132.6847200685524
 20
110.8827264520162
 42
0.0
 10
132.6847200685524
 20
113.3657264520163
 42
0.0
 10
126.5567200685523
 20
113.3657264520159
 42
0.0
 10
126.3567200685524
 20
113.1657264520161
 42
0.0
 10
126.3567200685524
 20
104.9202264520152
 42
0.0
 10
143.7389113580849
 20
104.9202264520161
 42
0.0
 10
143.9222200685526
 20
105.2377264520162
 42
0.0
 10
147.5848678057461
 20
105.2377264520162
 42
0.0
 97
        0
 92
        7
 72
     0
 73
     1
 93
        4
 10
126.3567200685524
 20
104.3077264520159
 10
143.3852843182062
 20
104.3077264520159
 10
143.7389113580848
 20
104.9202264520161
 10
126.3567200685524
 20
104.9202264520152
 97
        0
 92
        9
 93
        4
 72
     1
 10
98.22117694173858
 20
89.3446359008301
 11
98.22117694173858
 21
99.24699810555445
 72
     1
 10
98.22117694173858
 20
99.24699810555445
 11
102.7211769417385
 21
99.24699810555445
 72
     1
 10
102.7211769417385
 20
99.24699810555445
 11
102.7211769417385
 21
89.3446359008301
 72
     1
 10
102.7211769417385
 20
89.3446359008301
 11
98.22117694173858
 21
89.3446359008301
 97
        0
 92
        9
 93
        4
 72
     1
 10
53.75315368425572
 20
88.28243117645092
 11
53.75315368425572
 21
99.68243117645101
 72
     1
 10
53.75315368425572
 20
99.68243117645101
 11
58.25315368425572
 21
99.68243117645101
 72
     1
 10
58.25315368425572
 20
99.68243117645101
 11
58.25315368425572
 21
88.28243117645092
 72
     1
 10
58.25315368425572
 20
88.28243117645092
 11
53.75315368425572
 21
88.28243117645092
 97
        0
 92
        9
 93
        4
 72
     1
 10
22.68472006847765
 20
126.4199242496968
 11
25.68472006847765
 21
126.4199242496968
 72
     1
 10
25.68472006847765
 20
126.4199242496968
 11
25.68472006847765
 21
121.9199242496968
 72
     1
 10
25.68472006847765
 20
121.9199242496968
 11
22.68472006847765
 21
121.9199242496968
 72
     1
 10
22.68472006847765
 20
121.9199242496968
 11
22.68472006847765
 21
126.4199242496968
 97
        0
 92
        9
 93
        4
 72
     1
 10
6.685066778046802
 20
96.64559441768483
 11
6.685066778046802
 21
103.6698584863968
 72
     1
 10
6.685066778046802
 20
103.6698584863968
 11
11.1850667780468
 21
103.6698584863968
 72
     1
 10
11.1850667780468
 20
103.6698584863968
 11
11.1850667780468
 21
96.64559441768483
 72
     1
 10
11.1850667780468
 20
96.64559441768483
 11
6.685066778046802
 21
96.64559441768483
 97
        0
 75
     1
 76
     1
 52
0.0
 41
1.0
 77
     0
 78
     1
 53
45.0
 43
-644.4452680315948
 44
3088.411984061311
 45
-2.245064030267288
 46
2.245064030267288
 79
     0
 47
0.0
 98
       11
 10
93.08983352670963
 20
109.4175279163435
 10
41.47202717781101
 20
104.8061603165563
 10
46.50592652329556
 20
104.7223669376692
 10
121.8385247161811
 20
104.5225303848322
 10
122.2169268968468
 20
104.5073942976053
 10
122.4439682052464
 20
104.6890273443248
 10
122.4439682052464
 20
105.3096069206169
 10
126.2582621863575
 20
104.6738912570984
 10
126.3339426224908
 20
105.2793347461636
 10
128.1136437585982
 20
105.7621759286933
 10
128.0361469919978
 20
104.5609760463878
1001
ACAD
1010
0.0
1020
0.0
1030
0.0
1001
HATCHBACKGROUNDCOLOR
1071
-939524096
1000
없음
1000

  0
LINE
  5
3834E
330
2
100
AcDbEntity
  8
30-D10-105
  6
CENTER2
 62
     3
100
AcDbLine
 10
19.18472006855268
 20
100.1577264520426
 30
0.0
 11
150.6847200685525
 21
100.1577264520113
 31
0.0
  0
ARC
  5
3834F
330
2
100
AcDbEntity
  8
36-D16-105
  6
Continuous
 62
     7
100
AcDbCircle
 10
69.68472006855268
 20
119.4077264520426
 30
0.0
 40
0.5
100
AcDbArc
 50
90.0
 51
180.0
  0
ARC
  5
38350
330
2
100
AcDbEntity
  8
06-D06-75
  6
Continuous
 62
     7
100
AcDbCircle
 10
23.18472006855268
 20
111.6577264520426
 30
0.0
 40
1.0
100
AcDbArc
 50
90.0
 51
180.0
  0
LINE
  5
38351
330
2
100
AcDbEntity
  8
06-D06-75
  6
Continuous
 62
     7
100
AcDbLine
 10
22.18472006855268
 20
100.1577264520426
 30
0.0
 11
22.18472006855268
 21
111.6577264520426
 31
0.0
  0
LINE
  5
38352
330
2
100
AcDbEntity
  8
32-D12-105
  6
Continuous
 62
     7
100
AcDbLine
 10
23.18472006855268
 20
112.6577264520426
 30
0.0
 11
32.31098135882553
 21
112.6577264520426
 31
0.0
  0
LINE
  5
38353
330
2
100
AcDbEntity
  8
32-D12-105
  6
Continuous
 62
     7
100
AcDbLine
 10
33.68472006855268
 20
112.1577264520426
 30
0.0
 11
36.18472006855177
 21
112.1577264520426
 31
0.0
  0
LINE
  5
38354
330
2
100
AcDbEntity
  8
32-D12-105
  6
Continuous
 62
     7
100
AcDbLine
 10
32.31098135882462
 20
112.6577264520426
 30
0.0
 11
33.68472006855268
 21
112.1577264520426
 31
0.0
  0
LINE
  5
38355
330
2
100
AcDbEntity
  8
32-D12-105
  6
Continuous
 62
     7
100
AcDbLine
 10
36.64715894280312
 20
112.4247156605749
 30
0.0
 11
36.18472006855268
 21
112.1577264520426
 31
0.0
  0
LINE
  5
38356
330
2
100
AcDbEntity
  8
36-D16-105
  6
Continuous
 62
     7
100
AcDbLine
 10
69.18472006855267
 20
114.9077264520426
 30
0.0
 11
69.18472006855267
 21
119.4077264520426
 31
0.0
  0
LINE
  5
38357
330
2
100
AcDbEntity
  8
28-D08-105
  6
Continuous
 62
     7
100
AcDbLine
 10
67.64214197215756
 20
114.9077264520426
 30
0.0
 11
67.18472006855268
 21
115.3651483556475
 31
0.0
  0
LINE
  5
38358
330
2
100
AcDbEntity
  8
30-D10-105
  6
Continuous
 62
     7
100
AcDbLine
 10
67.64214197215756
 20
114.9077264520426
 30
0.0
 11
69.48472006855286
 21
114.9077264520426
 31
0.0
  0
LINE
  5
38359
330
2
100
AcDbEntity
  8
30-D10-105
  6
Continuous
 62
     7
100
AcDbLine
 10
69.48472006855286
 20
114.9077264520426
 30
0.0
 11
69.48472006855286
 21
116.6577264520426
 31
0.0
  0
LINE
  5
3835A
330
2
100
AcDbEntity
  8
30-D10-105
  6
Continuous
 62
     7
100
AcDbLine
 10
69.18472006855267
 20
117.1773416943122
 30
0.0
 11
69.48472006855286
 21
116.6577264520426
 31
0.0
  0
LINE
  5
3835B
330
2
100
AcDbEntity
  8
06-D06-75
  6
Continuous
 62
     7
100
AcDbLine
 10
36.64715894280312
 20
112.4247156605749
 30
0.0
 11
67.18472006855177
 21
115.3651483556475
 31
0.0
  0
LINE
  5
3835C
330
2
100
AcDbEntity
  8
36-D16-105
  6
Continuous
 62
     7
100
AcDbLine
 10
69.68472006855268
 20
80.40772645204265
 30
0.0
 11
74.68472006855359
 21
80.40772645204265
 31
0.0
  0
ARC
  5
3835D
330
2
100
AcDbEntity
  8
36-D16-105
  6
Continuous
 62
     7
100
AcDbCircle
 10
69.68472006855268
 20
80.90772645204266
 30
0.0
 40
0.5
100
AcDbArc
 50
180.0
 51
270.0
  0
ARC
  5
3835E
330
2
100
AcDbEntity
  8
06-D06-75
  6
Continuous
 62
     7
100
AcDbCircle
 10
23.18472006855268
 20
88.65772645204264
 30
0.0
 40
1.0
100
AcDbArc
 50
180.0
 51
270.0
  0
LINE
  5
3835F
330
2
100
AcDbEntity
  8
06-D06-75
  6
Continuous
 62
     7
100
AcDbLine
 10
22.18472006855268
 20
100.1577264520426
 30
0.0
 11
22.18472006855268
 21
88.65772645204264
 31
0.0
  0
LINE
  5
38360
330
2
100
AcDbEntity
  8
32-D12-105
  6
Continuous
 62
     7
100
AcDbLine
 10
23.18472006855268
 20
87.65772645204265
 30
0.0
 11
32.31098135882553
 21
87.65772645204265
 31
0.0
  0
LINE
  5
38361
330
2
100
AcDbEntity
  8
32-D12-105
  6
Continuous
 62
     7
100
AcDbLine
 10
33.68472006855268
 20
88.15772645204265
 30
0.0
 11
36.18472006855177
 21
88.15772645204265
 31
0.0
  0
LINE
  5
38362
330
2
100
AcDbEntity
  8
32-D12-105
  6
Continuous
 62
     7
100
AcDbLine
 10
32.31098135882462
 20
87.65772645204265
 30
0.0
 11
33.68472006855268
 21
88.15772645204265
 31
0.0
  0
LINE
  5
38363
330
2
100
AcDbEntity
  8
32-D12-105
  6
Continuous
 62
     7
100
AcDbLine
 10
36.64715894280312
 20
87.89073724351032
 30
0.0
 11
36.18472006855268
 21
88.15772645204265
 31
0.0
  0
LINE
  5
38364
330
2
100
AcDbEntity
  8
28-D08-105
  6
Continuous
 62
     7
100
AcDbLine
 10
67.64214197215756
 20
85.40772645204265
 30
0.0
 11
67.18472006855268
 21
84.95030454843776
 31
0.0
  0
LINE
  5
38365
330
2
100
AcDbEntity
  8
30-D10-105
  6
Continuous
 62
     7
100
AcDbLine
 10
67.64214197215756
 20
85.40772645204265
 30
0.0
 11
69.18472006855314
 21
85.40772645204265
 31
0.0
  0
LINE
  5
38366
330
2
100
AcDbEntity
  8
06-D06-75
  6
Continuous
 62
     7
100
AcDbLine
 10
36.64715894280312
 20
87.89073724351032
 30
0.0
 11
67.18472006855177
 21
84.95030454843776
 31
0.0
  0
LINE
  5
38367
330
2
100
AcDbEntity
  8
36-D16-105
  6
Continuous
 62
     7
100
AcDbLine
 10
69.18472006855267
 20
100.1577264520426
 30
0.0
 11
69.18472006855267
 21
80.90772645204266
 31
0.0
  0
LINE
  5
38368
330
2
100
AcDbEntity
  8
0
  6
Continuous
 62
     7
100
AcDbLine
 10
67.18472006855268
 20
84.95030454843776
 30
0.0
 11
67.18472006855268
 21
100.1577264520426
 31
0.0
  0
LINE
  5
38369
330
2
100
AcDbEntity
  8
0
  6
Continuous
 62
     7
100
AcDbLine
 10
67.64214197215665
 20
85.40772645204265
 30
0.0
 11
67.64214197215665
 21
100.1577264520426
 31
0.0
  0
LINE
  5
3836A
330
2
100
AcDbEntity
  8
0
  6
Continuous
 62
     7
100
AcDbLine
 10
32.31098135882462
 20
87.65772645204265
 30
0.0
 11
32.31098135882462
 21
100.1577264520426
 31
0.0
  0
LINE
  5
3836B
330
2
100
AcDbEntity
  8
0
  6
Continuous
 62
     7
100
AcDbLine
 10
33.68472006855268
 20
88.15772645204265
 30
0.0
 11
33.68472006855268
 21
100.1577264520426
 31
0.0
  0
LINE
  5
3836C
330
2
100
AcDbEntity
  8
0
  6
Continuous
 62
     7
100
AcDbLine
 10
36.18472006855268
 20
88.15772645204265
 30
0.0
 11
36.18472006855268
 21
100.1577264520426
 31
0.0
  0
LINE
  5
3836D
330
2
100
AcDbEntity
  8
0
  6
Continuous
 62
     7
100
AcDbLine
 10
36.64715894280312
 20
87.89073724351032
 30
0.0
 11
36.64715894280312
 21
100.1577264520426
 31
0.0
  0
LINE
  5
3836E
330
2
100
AcDbEntity
  8
36-D16-105
  6
Continuous
 62
     7
100
AcDbLine
 10
69.68472006855268
 20
119.9077264520135
 30
0.0
 11
74.6847200684399
 21
119.9077264520135
 31
0.0
  0
LINE
  5
3836F
330
2
100
AcDbEntity
  8
28-D08-105
  6
Continuous
 62
     7
100
AcDbLine
 10
56.18472006855268
 20
104.4577264520364
 30
0.0
 11
56.27484917765594
 21
104.3077264520159
 31
0.0
  0
LINE
  5
38370
330
2
100
AcDbEntity
  8
0
  6
Continuous
 62
     7
100
AcDbLine
 10
56.18472006855268
 20
104.4577264520364
 30
0.0
 11
28.38472006840516
 21
104.4577264520364
 31
0.0
  0
LINE
  5
38371
330
2
100
AcDbEntity
  8
0
  6
Continuous
 62
     7
100
AcDbLine
 10
56.18472006855268
 20
104.4577264520364
 30
0.0
 11
56.18472006855165
 21
100.1577264520335
 31
0.0
  0
LINE
  5
38372
330
2
100
AcDbEntity
  8
0
  6
Continuous
 62
     7
100
AcDbLine
 10
132.4347200685517
 20
122.2557264520089
 30
0.0
 11
114.1427200685323
 21
122.2557264520094
 31
0.0
  0
LINE
  5
38373
330
2
100
AcDbEntity
  8
0
  6
Continuous
 62
     7
100
AcDbLine
 10
132.6847200685524
 20
113.3657264520163
 30
0.0
 11
118.7847200685516
 21
113.3657264520159
 31
0.0
  0
LINE
  5
38374
330
2
100
AcDbEntity
  8
0
  6
Continuous
100
AcDbLine
 10
132.6847200685524
 20
122.0057264520085
 30
0.0
 11
132.6847200685524
 21
109.5327264520163
 31
0.0
  0
LINE
  5
38375
330
2
100
AcDbEntity
  8
0
  6
CENTER
 62
     3
100
AcDbLine
 10
124.3547200685523
 20
115.2875964196025
 30
0.0
 11
124.3547200685523
 21
103.0718814172976
 31
0.0
  0
LINE
  5
38376
330
2
100
AcDbEntity
  8
0
  6
Continuous
100
AcDbLine
 10
118.7847200685516
 20
122.0017264520086
 30
0.0
 11
118.7847200685516
 21
113.3657264520159
 31
0.0
  0
LINE
  5
38377
330
2
100
AcDbEntity
  8
0
  6
Continuous
 62
     7
100
AcDbLine
 10
118.5307200685517
 20
122.2557264520085
 30
0.0
 11
118.7847200685516
 21
122.0017264520086
 31
0.0
  0
LINE
  5
38378
330
2
100
AcDbEntity
  8
0
  6
Continuous
100
AcDbLine
 10
148.6847200685529
 20
109.1747264520038
 30
0.0
 11
148.6847200685531
 21
100.1577264520163
 31
0.0
  0
LINE
  5
38379
330
2
100
AcDbEntity
  8
0
  6
Continuous
100
AcDbLine
 10
148.1767200685531
 20
105.5794325152681
 30
0.0
 11
148.1767200685531
 21
100.1577264520163
 31
0.0
  0
LINE
  5
3837A
330
2
100
AcDbEntity
  8
0
  6
Continuous
100
AcDbLine
 10
147.5848678057461
 20
105.2377264520162
 30
0.0
 11
147.5848678057459
 21
100.1577264520163
 31
0.0
  0
LINE
  5
3837B
330
2
100
AcDbEntity
  8
0
  6
Continuous
 62
     2
100
AcDbLine
 10
122.014720068553
 20
104.9202264520152
 30
0.0
 11
122.0147200685533
 21
100.1577264520163
 31
0.0
  0
LINE
  5
3837C
330
2
100
AcDbEntity
  8
0
  6
Continuous
100
AcDbLine
 10
143.9222200685526
 20
105.2377264520162
 30
0.0
 11
143.3852843182062
 21
104.3077264520159
 31
0.0
  0
LINE
  5
3837D
330
2
100
AcDbEntity
  8
0
  6
Continuous
 62
     7
100
AcDbLine
 10
133.8847200685527
 20
109.6827264520159
 30
0.0
 11
148.1767200685403
 21
109.6827264520164
 31
0.0
  0
LINE
  5
3837E
330
2
100
AcDbEntity
  8
0
  6
Continuous
 62
     7
100
AcDbLine
 10
132.7847200685523
 20
109.5327264520163
 30
0.0
 11
133.3249124474177
 21
109.5327264520163
 31
0.0
  0
LINE
  5
3837F
330
2
100
AcDbEntity
  8
0
  6
Continuous
 62
     7
100
AcDbLine
 10
133.8847200685527
 20
109.6827264520159
 30
0.0
 11
133.3249124474177
 21
109.5327264520163
 31
0.0
  0
LINE
  5
38380
330
2
100
AcDbEntity
  8
0
  6
Continuous
 62
     7
100
AcDbLine
 10
132.3847200685525
 20
109.9327264520163
 30
0.0
 11
132.3847200685525
 21
110.05848322618
 31
0.0
  0
ARC
  5
38381
330
2
100
AcDbEntity
  8
0
  6
Continuous
 62
     7
100
AcDbCircle
 10
132.7847200685523
 20
109.9327264520163
 30
0.0
 40
0.4
100
AcDbArc
 50
180.0
 51
270.0
  0
LINE
  5
38382
330
2
100
AcDbEntity
  8
0
  6
Continuous
 62
     7
100
AcDbLine
 10
132.3847200685525
 20
110.05848322618
 30
0.0
 11
132.6847200685524
 21
110.8827264520162
 31
0.0
  0
LINE
  5
38383
330
2
100
AcDbEntity
  8
0
  6
Continuous
 62
     7
100
AcDbLine
 10
132.4347200685508
 20
78.05972645200859
 30
0.0
 11
114.1427200685527
 21
78.05972645200995
 31
0.0
  0
LINE
  5
38384
330
2
100
AcDbEntity
  8
0
  6
Continuous
100
AcDbLine
 10
132.6847200685517
 20
78.30972645200813
 30
0.0
 11
132.6847200685526
 21
100.1577264520153
 31
0.0
  0
LINE
  5
38385
330
2
100
AcDbEntity
  8
0
  6
Continuous
 62
     7
100
AcDbLine
 10
132.4347200685517
 20
78.05972645200814
 30
0.0
 11
132.6847200685517
 21
78.30972645200813
 31
0.0
  0
LINE
  5
38386
330
2
100
AcDbEntity
  8
0
  6
Continuous
100
AcDbLine
 10
133.8847200685522
 20
90.63272645201527
 30
0.0
 11
133.8847200685527
 21
100.1577264520153
 31
0.0
  0
LINE
  5
38387
330
2
100
AcDbEntity
  8
0
  6
Continuous
100
AcDbLine
 10
148.6847200685524
 20
91.1407264520028
 30
0.0
 11
148.6847200685527
 21
100.1577264520149
 31
0.0
  0
LINE
  5
38388
330
2
100
AcDbEntity
  8
0
  6
Continuous
 62
     7
100
AcDbLine
 10
133.8847200685522
 20
90.63272645201573
 30
0.0
 11
148.1767200685644
 21
90.63272645201482
 31
0.0
  0
LINE
  5
38389
330
2
100
AcDbEntity
  8
0
  6
Continuous
 62
     7
100
AcDbLine
 10
132.6847200685524
 20
90.78272645201536
 30
0.0
 11
133.3249124474173
 21
90.78272645201536
 31
0.0
  0
LINE
  5
3838A
330
2
100
AcDbEntity
  8
0
  6
Continuous
 62
     7
100
AcDbLine
 10
133.8847200685522
 20
90.63272645201573
 30
0.0
 11
133.3249124474173
 21
90.78272645201536
 31
0.0
  0
LINE
  5
3838B
330
2
100
AcDbEntity
  8
0
  6
Continuous
 62
     7
100
AcDbLine
 10
133.3249124474173
 20
90.78272645201536
 30
0.0
 11
133.3249124474177
 21
100.1577264520153
 31
0.0
  0
LINE
  5
3838C
330
2
100
AcDbEntity
  8
0
  6
Continuous
 62
     7
100
AcDbLine
 10
147.5848678057461
 20
105.2377264520162
 30
0.0
 11
143.9222200685526
 21
105.2377264520162
 31
0.0
  0
LINE
  5
3838D
330
2
100
AcDbEntity
  8
0
  6
Continuous
 62
     4
100
AcDbLine
 10
132.4347200685517
 20
78.05972645200814
 30
0.0
 11
132.4347200685517
 21
100.1577264520163
 31
0.0
  0
LINE
  5
3838E
330
2
100
AcDbEntity
  8
0
  6
Continuous
 62
     3
100
AcDbLine
 10
143.7389113580848
 20
104.9202264520161
 30
0.0
 11
122.014720068553
 21
104.9202264520152
 31
0.0
  0
LINE
  5
3838F
330
2
100
AcDbEntity
  8
0
  6
Continuous
 62
     7
100
AcDbLine
 10
143.3852843182062
 20
104.3077264520159
 30
0.0
 11
56.27484917765594
 21
104.3077264520159
 31
0.0
  0
LINE
  5
38390
330
2
100
AcDbEntity
  8
0
  6
Continuous
 62
     3
100
AcDbLine
 10
122.0147200685519
 20
104.920226452017
 30
0.0
 11
120.9538389489148
 21
104.3077264520159
 31
0.0
  0
LINE
  5
38391
330
2
100
AcDbEntity
  8
0
  6
Continuous
100
AcDbLine
 10
143.9222200685526
 20
105.2377264520162
 30
0.0
 11
143.9222200685526
 21
100.1577264520163
 31
0.0
  0
LINE
  5
38392
330
2
100
AcDbEntity
  8
0
  6
Continuous
 62
     7
100
AcDbLine
 10
143.3852843182062
 20
104.3077264520159
 30
0.0
 11
143.3852843182062
 21
100.1577264520158
 31
0.0
  0
LINE
  5
38393
330
2
100
AcDbEntity
  8
0
  6
Continuous
 62
     7
100
AcDbLine
 10
147.5848678057461
 20
105.2377264520162
 30
0.0
 11
148.1767200685531
 21
105.5794325152681
 31
0.0
  0
LINE
  5
38394
330
2
100
AcDbEntity
  8
0
  6
Continuous
 62
     7
100
AcDbLine
 10
132.4347200685517
 20
122.2557264520089
 30
0.0
 11
132.6847200685517
 21
122.0057264520089
 31
0.0
  0
LINE
  5
38395
330
2
100
AcDbEntity
  8
0
  6
CENTER
 62
     3
100
AcDbLine
 10
124.3547200685523
 20
85.02785648442999
 30
0.0
 11
124.3547200685523
 21
97.24357148673494
 31
0.0
  0
LINE
  5
38396
330
2
100
AcDbEntity
  8
0
  6
Continuous
 62
     7
100
AcDbLine
 10
148.1767200685528
 20
105.5794325152681
 30
0.0
 11
148.6847200685529
 21
106.0874325152679
 31
0.0
  0
LINE
  5
38397
330
2
100
AcDbEntity
  8
0
  6
Continuous
 62
     7
100
AcDbLine
 10
148.1767200685526
 20
109.6827264520041
 30
0.0
 11
148.6847200685527
 21
109.1747264520038
 31
0.0
  0
LINE
  5
38398
330
2
100
AcDbEntity
  8
0
  6
Continuous
 62
     7
100
AcDbLine
 10
148.1767200685522
 20
90.63272645200255
 30
0.0
 11
148.6847200685522
 21
91.1407264520028
 31
0.0
  0
LINE
  5
38399
330
2
100
AcDbEntity
  8
0
  6
Continuous
 62
     4
100
AcDbLine
 10
148.1767200685522
 20
90.63272645200255
 30
0.0
 11
148.1767200685522
 21
100.157726452004
 31
0.0
  0
LINE
  5
3839A
330
2
100
AcDbEntity
  8
0
  6
HIDDEN
 62
     2
 48
0.05
100
AcDbLine
 10
132.6847200685524
 20
86.9497264520162
 30
0.0
 11
118.7847200685516
 21
86.9497264520162
 31
0.0
  0
LINE
  5
3839B
330
2
100
AcDbEntity
  8
0
  6
HIDDEN
 62
     2
 48
0.05
100
AcDbLine
 10
118.7847200685516
 20
78.3137264520085
 30
0.0
 11
118.7847200685516
 21
86.9497264520162
 31
0.0
  0
LINE
  5
3839C
330
2
100
AcDbEntity
  8
0
  6
HIDDEN
 62
     2
 48
0.05
100
AcDbLine
 10
118.5307200685517
 20
78.05972645200859
 30
0.0
 11
118.7847200685516
 21
78.3137264520085
 31
0.0
  0
LINE
  5
3839D
330
2
100
AcDbEntity
  8
0
  6
Continuous
 62
     4
100
AcDbLine
 10
118.7847200685516
 20
122.0017264520086
 30
0.0
 11
132.6847200685524
 21
122.0017264520086
 31
0.0
  0
LINE
  5
3839E
330
2
100
AcDbEntity
  8
0
  6
ByBlock
 62
     0
100
AcDbLine
 10
126.0567200685523
 20
112.8657264520159
 30
0.0
 11
126.0567200685523
 21
104.3077264520159
 31
0.0
  0
LINE
  5
3839F
330
2
100
AcDbEntity
  8
0
  6
ByBlock
 62
     3
100
AcDbLine
 10
126.3567200685524
 20
113.1657264520161
 30
0.0
 11
126.3567200685524
 21
104.3077264520159
 31
0.0
  0
LINE
  5
383A0
330
2
100
AcDbEntity
  8
0
  6
Continuous
 62
     7
100
AcDbLine
 10
126.0567200685523
 20
112.8657264520159
 30
0.0
 11
124.3567200685524
 21
112.8657264520159
 31
0.0
  0
LINE
  5
383A1
330
2
100
AcDbEntity
  8
0
  6
Continuous
 62
     7
100
AcDbLine
 10
126.0567200685523
 20
112.8657264520159
 30
0.0
 11
126.5567200685523
 21
113.3657264520159
 31
0.0
  0
LINE
  5
383A2
330
2
100
AcDbEntity
  8
0
  6
ByBlock
 62
     0
100
AcDbLine
 10
122.6567200685524
 20
112.8657264520159
 30
0.0
 11
122.6567200685524
 21
104.3077264520159
 31
0.0
  0
LINE
  5
383A3
330
2
100
AcDbEntity
  8
0
  6
ByBlock
 62
     3
100
AcDbLine
 10
122.3567200685524
 20
113.1657264520161
 30
0.0
 11
122.3567200685524
 21
104.3077264520159
 31
0.0
  0
LINE
  5
383A4
330
2
100
AcDbEntity
  8
0
  6
Continuous
 62
     7
100
AcDbLine
 10
122.6567200685524
 20
112.8657264520159
 30
0.0
 11
124.3567200685524
 21
112.8657264520159
 31
0.0
  0
LINE
  5
383A5
330
2
100
AcDbEntity
  8
0
  6
Continuous
 62
     7
100
AcDbLine
 10
122.6567200685524
 20
112.8657264520159
 30
0.0
 11
122.1567200685522
 21
113.3657264520159
 31
0.0
  0
LINE
  5
383A6
330
2
100
AcDbEntity
  8
0
  6
Continuous
 62
     7
100
AcDbLine
 10
113.6347200685517
 20
79.05972645204497
 30
0.0
 11
113.6347200685518
 21
100.1577264520267
 31
0.0
  0
LINE
  5
383A7
330
2
100
AcDbEntity
  8
0
  6
Continuous
 62
     7
100
AcDbLine
 10
56.27484917765594
 20
104.3077264520159
 30
0.0
 11
56.27484917765503
 21
100.1577264520349
 31
0.0
  0
CIRCLE
  5
383A8
330
2
100
AcDbEntity
  8
0
  6
Continuous
 62
     7
100
AcDbCircle
 10
222.1679191295261
 20
100.1577264520163
 30
0.0
 40
22.22500000000002
  0
ARC
  5
383A9
330
2
100
AcDbEntity
  8
0
  6
Continuous
 62
     4
100
AcDbCircle
 10
222.1679191295261
 20
100.1577264520163
 30
0.0
 40
21.97100000000002
100
AcDbArc
 50
79.59320223932881
 51
100.4067977606776
  0
LINE
  5
383AA
330
2
100
AcDbEntity
  8
0
  6
Continuous
 62
     3
100
AcDbLine
 10
221.6679191295261
 20
100.1577264520163
 30
0.0
 11
222.6679191295261
 21
100.1577264520163
 31
0.0
  0
LINE
  5
383AB
330
2
100
AcDbEntity
  8
0
  6
Continuous
 62
     3
100
AcDbLine
 10
222.1679191295261
 20
99.65772645201628
 30
0.0
 11
222.1679191295261
 21
100.6577264520162
 31
0.0
  0
LINE
  5
383AC
330
2
100
AcDbEntity
  8
0
  6
Continuous
 62
     3
100
AcDbLine
 10
221.1679191295261
 20
100.1577264520163
 30
0.0
 11
199.442919129526
 21
100.1577264520163
 31
0.0
  0
LINE
  5
383AD
330
2
100
AcDbEntity
  8
0
  6
Continuous
 62
     3
100
AcDbLine
 10
223.1679191295261
 20
100.1577264520163
 30
0.0
 11
244.892919129526
 21
100.1577264520163
 31
0.0
  0
LINE
  5
383AE
330
2
100
AcDbEntity
  8
0
  6
Continuous
 62
     3
100
AcDbLine
 10
222.1679191295261
 20
99.15772645201627
 30
0.0
 11
222.1679191295261
 21
77.43272645201591
 31
0.0
  0
LINE
  5
383AF
330
2
100
AcDbEntity
  8
0
  6
Continuous
 62
     3
100
AcDbLine
 10
222.1679191295261
 20
101.1577264520163
 30
0.0
 11
222.1679191295261
 21
122.8827264520162
 31
0.0
  0
CIRCLE
  5
383B0
330
2
100
AcDbEntity
  8
0
  6
Continuous
 62
     7
100
AcDbCircle
 10
222.1679191295261
 20
100.1577264520163
 30
0.0
 40
9.52499999999992
  0
ARC
  5
383B1
330
2
100
AcDbEntity
  8
0
  6
Continuous
 62
     3
100
AcDbCircle
 10
222.1679191295261
 20
100.1577264520163
 30
0.0
 40
4.762499999999761
100
AcDbArc
 50
351.6033984742261
 51
279.6392801592154
  0
CIRCLE
  5
383B2
330
2
100
AcDbEntity
  8
0
  6
Continuous
 62
     7
100
AcDbCircle
 10
222.1679191295261
 20
100.1577264520163
 30
0.0
 40
5.079999999999927
  0
CIRCLE
  5
383B3
330
2
100
AcDbEntity
  8
0
  6
Continuous
 62
     7
100
AcDbCircle
 10
222.1679191295261
 20
100.1577264520163
 30
0.0
 40
4.14999999999992
  0
LINE
  5
383B4
330
2
100
AcDbEntity
  8
0
  6
Continuous
 62
     7
100
AcDbLine
 10
222.1679191295264
 20
113.3657264520163
 30
0.0
 11
226.1366691295259
 21
113.3657264520163
 31
0.0
  0
LINE
  5
383B5
330
2
100
AcDbEntity
  8
0
  6
Continuous
 62
     7
100
AcDbLine
 10
222.1679191295259
 20
113.3657264520163
 30
0.0
 11
218.1991691295264
 21
113.3657264520163
 31
0.0
  0
LINE
  5
383B6
330
2
100
AcDbEntity
  8
0
  6
Continuous
 62
     7
100
AcDbLine
 10
218.1991691295261
 20
121.76730452373
 30
0.0
 11
218.1991691295264
 21
113.3657264520163
 31
0.0
  0
LINE
  5
383B7
330
2
100
AcDbEntity
  8
0
  6
Continuous
 62
     7
100
AcDbLine
 10
218.1991691295261
 20
121.76730452373
 30
0.0
 11
217.9815807368918
 21
121.9848929163643
 31
0.0
  0
LINE
  5
383B8
330
2
100
AcDbEntity
  8
0
  6
Continuous
 62
     7
100
AcDbLine
 10
226.1366691295257
 20
121.76730452373
 30
0.0
 11
226.1366691295255
 21
113.3657264520163
 31
0.0
  0
LINE
  5
383B9
330
2
100
AcDbEntity
  8
0
  6
Continuous
 62
     7
100
AcDbLine
 10
226.1366691295257
 20
121.76730452373
 30
0.0
 11
226.35425752216
 21
121.9848929163643
 31
0.0
  0
LINE
  5
383BA
330
2
100
AcDbEntity
  8
0
  6
Continuous
 62
     7
100
AcDbLine
 10
222.1679191295264
 20
86.94972645201573
 30
0.0
 11
226.1366691295259
 21
86.94972645201573
 31
0.0
  0
LINE
  5
383BB
330
2
100
AcDbEntity
  8
0
  6
Continuous
 62
     7
100
AcDbLine
 10
222.1679191295259
 20
86.94972645201573
 30
0.0
 11
218.1991691295264
 21
86.94972645201573
 31
0.0
  0
LINE
  5
383BC
330
2
100
AcDbEntity
  8
0
  6
Continuous
 62
     7
100
AcDbLine
 10
218.1991691295261
 20
78.54814838030211
 30
0.0
 11
218.1991691295264
 21
86.94972645201573
 31
0.0
  0
LINE
  5
383BD
330
2
100
AcDbEntity
  8
0
  6
Continuous
 62
     7
100
AcDbLine
 10
218.1991691295261
 20
78.54814838030211
 30
0.0
 11
217.9815807368918
 21
78.33055998766827
 31
0.0
  0
LINE
  5
383BE
330
2
100
AcDbEntity
  8
0
  6
Continuous
 62
     7
100
AcDbLine
 10
226.1366691295257
 20
78.54814838030211
 30
0.0
 11
226.1366691295255
 21
86.94972645201573
 31
0.0
  0
LINE
  5
383BF
330
2
100
AcDbEntity
  8
0
  6
Continuous
 62
     7
100
AcDbLine
 10
226.1366691295257
 20
78.54814838030211
 30
0.0
 11
226.35425752216
 21
78.33055998766827
 31
0.0
  0
ARC
  5
383C0
330
2
100
AcDbEntity
  8
0
  6
Continuous
 62
     4
100
AcDbCircle
 10
222.1679191295261
 20
100.1577264520163
 30
0.0
 40
21.97100000000002
100
AcDbArc
 50
259.5932022393224
 51
280.4067977606712
  0
LINE
  5
383C2
330
2
100
AcDbEntity
  8
36-D16-105
  6
Continuous
 62
     7
100
AcDbLine
 10
26.18472006840239
 20
106.6577264520622
 30
0.0
 11
22.68472006840193
 21
106.657726452064
 31
0.0
  0
LINE
  5
383C3
330
2
100
AcDbEntity
  8
26-D06-105
  6
Continuous
 62
     7
100
AcDbLine
 10
22.68472006840216
 20
106.6577264520631
 30
0.0
 11
22.18472006855268
 21
106.9464015865717
 31
0.0
  0
LINE
  5
383C4
330
2
100
AcDbEntity
  8
0
  6
Continuous
 62
     7
100
AcDbLine
 10
28.38472006840516
 20
104.4577264520578
 30
0.0
 11
28.38472006840516
 21
100.1577264520631
 31
0.0
  0
LINE
  5
383C5
330
2
100
AcDbEntity
  8
0
  6
Continuous
 62
     7
100
AcDbLine
 10
26.18472006840216
 20
106.6577264520631
 30
0.0
 11
26.18472006840216
 21
100.1577264520513
 31
0.0
  0
LINE
  5
383C6
330
2
100
AcDbEntity
  8
0
  6
Continuous
 62
     7
100
AcDbLine
 10
26.18472006840216
 20
106.6577264520631
 30
0.0
 11
28.38472006840516
 21
104.4577264520578
 31
0.0
  0
LINE
  5
383C7
330
2
100
AcDbEntity
  8
36-D16-105
  6
Continuous
 62
     3
100
AcDbLine
 10
27.68472006840057
 20
105.1577264520631
 30
0.0
 11
46.18472006840216
 21
105.1577264520631
 31
0.0
  0
LINE
  5
383C8
330
2
100
AcDbEntity
  8
0
  6
Continuous
 62
     2
100
AcDbLine
 10
46.18472006840216
 20
105.1577264520631
 30
0.0
 11
46.18472006840216
 21
100.1577264520631
 31
0.0
  0
LINE
  5
383C9
330
2
100
AcDbEntity
  8
0
  6
Continuous
 62
     7
100
AcDbLine
 10
22.68472006840216
 20
106.6577264520631
 30
0.0
 11
22.68472006840216
 21
100.1577264520531
 31
0.0
  0
LINE
  5
383CA
330
2
100
AcDbEntity
  8
0
  6
Continuous
 62
     3
100
AcDbLine
 10
46.18472006840216
 20
105.1577264520631
 30
0.0
 11
47.39715563370987
 21
104.4577264520569
 31
0.0
  0
LINE
  5
383CE
330
2
100
AcDbEntity
  8
0
  6
Continuous
 62
     7
100
AcDbLine
 10
74.68472006855359
 20
80.40772645203038
 30
0.0
 11
74.68472006855359
 21
100.1577264520176
 31
0.0
  0
LINE
  5
383CF
330
2
100
AcDbEntity
  8
0
  6
Continuous
 62
     7
100
AcDbLine
 10
112.6187200685642
 20
81.10772645201519
 30
0.0
 11
77.29715563379454
 21
81.10772645201519
 31
0.0
  0
LINE
  5
383D0
330
2
100
AcDbEntity
  8
0
  6
Continuous
 62
     7
100
AcDbLine
 10
74.68472006855359
 20
80.40772645203038
 30
0.0
 11
77.29715563379432
 21
81.10772645201519
 31
0.0
  0
LINE
  5
383D1
330
2
100
AcDbEntity
  8
0
  6
Continuous
 62
     7
100
AcDbLine
 10
77.29715563379454
 20
81.10772645201519
 30
0.0
 11
77.29715563379795
 21
100.1577264520208
 31
0.0
  0
LINE
  5
383D2
330
2
100
AcDbEntity
  8
0
  6
Continuous
 62
     7
100
AcDbLine
 10
112.6187200685385
 20
119.2077264519982
 30
0.0
 11
77.29715563379454
 21
119.2077264519982
 31
0.0
  0
LINE
  5
383D3
330
2
100
AcDbEntity
  8
0
  6
Continuous
 62
     7
100
AcDbLine
 10
74.68472006855359
 20
119.9077264519831
 30
0.0
 11
77.29715563379432
 21
119.2077264519982
 31
0.0
  0
LINE
  5
383D6
330
2
100
AcDbEntity
  8
0
  6
Continuous
 62
     7
100
AcDbLine
 10
113.6347200685522
 20
78.56772645201067
 30
0.0
 11
113.6347200685522
 21
100.157726452019
 31
0.0
  0
LINE
  5
383D7
330
2
100
AcDbEntity
  8
0
  6
Continuous
 62
     7
100
AcDbLine
 10
113.634720068552
 20
80.09172645202784
 30
0.0
 11
112.6187200685519
 21
81.10772645202791
 31
0.0
  0
LINE
  5
383D8
330
2
100
AcDbEntity
  8
0
  6
Continuous
 62
     7
100
AcDbLine
 10
114.1427200685523
 20
78.05972645201041
 30
0.0
 11
113.6347200685522
 21
78.56772645201022
 31
0.0
  0
LINE
  5
383D9
330
2
100
AcDbEntity
  8
0
  6
Continuous
 62
     4
100
AcDbLine
 10
114.1427200685525
 20
78.05972645201041
 30
0.0
 11
114.1427200685525
 21
100.157726452019
 31
0.0
  0
LINE
  5
383DA
330
2
100
AcDbEntity
  8
0
  6
Continuous
 62
     7
100
AcDbLine
 10
112.6187200685519
 20
81.10772645202791
 30
0.0
 11
112.6187200685554
 21
100.157726452019
 31
0.0
  0
LINE
  5
383DB
330
2
100
AcDbEntity
  8
0
  6
Continuous
 62
     7
100
AcDbLine
 10
113.6347200685522
 20
121.7477264520291
 30
0.0
 11
113.6347200685522
 21
120.2237264520124
 31
0.0
  0
LINE
  5
383DC
330
2
100
AcDbEntity
  8
0
  6
Continuous
 62
     7
100
AcDbLine
 10
113.634720068552
 20
120.223726452012
 30
0.0
 11
112.6187200685519
 21
119.2077264520119
 31
0.0
  0
LINE
  5
383DD
330
2
100
AcDbEntity
  8
0
  6
Continuous
 62
     7
100
AcDbLine
 10
114.1427200685523
 20
122.2557264520294
 30
0.0
 11
113.6347200685522
 21
121.7477264520296
 31
0.0
  0
DIMENSION
  5
3891E
330
2
100
AcDbEntity
  8
0
  6
Continuous
 62
     7
100
AcDbDimension
280
     0
  2
*D7
 10
77.29715563379432
 20
81.10772645201519
 30
0.0
 11
90.53349281934504
 21
72.73998010973791
 31
0.0
 70
    34
 71
     5
 42
0.2617993877992268
 73
     0
 74
     0
 75
     0
  3
STANDARD$2
100
AcDb2LineAngularDimension
 13
163.4187200685519
 23
81.10772645201519
 33
0.0
 14
77.29715563379454
 24
81.10772645201519
 34
0.0
 15
74.68472006855359
 25
80.40772645203038
 35
0.0
 16
90.36389605082613
 26
83.41174533745236
 36
0.0
1001
ACAD
1000
DSTYLE
1002
{
1070
   179
1070
     0
1070
   171
1070
     3
1070
   143
1040
0.03937007874016
1070
   274
1070
     3
1070
   141
1040
-0.5
1070
    43
1040
3.75
1070
    44
1040
1.25
1070
    42
1040
0.625
1070
   147
1040
0.625
1070
   371
1070
    -1
1070
   372
1070
    -1
1070
   175
1070
     0
1070
    77
1070
     1
1070
   146
1040
0.7
1070
    48
1040
0.000000001
1070
   172
1070
     1
1070
    74
1070
     0
1070
   283
1070
     0
1070
   340
1005
25
1070
   140
1040
3.0
1070
   284
1070
     8
1070
    90
1070
     1
1002
}
  0
VIEWPORT
  5
2C7EC
102
{ACAD_XDICTIONARY
360
2C7ED
102
}
330
1B
100
AcDbEntity
 67
     1
  8
0
  6
Continuous
 62
     7
100
AcDbViewport
 10
212.4908200734394
 20
97.5
 30
0.0
 40
464.9816401468789
 41
210.0
 68
     1
 69
     1
 12
212.4908200734394
 22
97.5
 13
0.0
 23
0.0
 14
2.0
 24
2.0
 15
2.0
 25
2.0
 16
0.0
 26
0.0
 36
1.0
 17
0.0
 27
0.0
 37
0.0
 42
50.0
 43
0.0
 44
0.0
 45
210.0
 50
0.0
 51
0.0
 72
  1000
 90
   823328
  1

281
     0
 71
     1
 74
     0
110
0.0
120
0.0
130
0.0
111
1.0
121
0.0
131
0.0
112
0.0
122
1.0
132
0.0
 79
     0
146
0.0
170
     0
 61
     5
348
2E
292
     1
282
     1
141
0.0
142
0.0
 63
   250
421
  3355443
  0
ENDSEC
  0
SECTION
  2
OBJECTS
  0
DICTIONARY
  5
B
330
0
100
AcDbDictionary
281
     1
  3
ACAD_CIP_PREVIOUS_PRODUCT_INFO
350
BE4
  3
ACAD_COLOR
350
3F
  3
ACAD_DETAILVIEWSTYLE
350
BDC
  3
ACAD_GROUP
350
3A
  3
ACAD_LAYOUT
350
17
  3
ACAD_MATERIAL
350
D
  3
ACAD_MLEADERSTYLE
350
42
  3
ACAD_MLINESTYLE
350
3B
  3
ACAD_PLOTSETTINGS
350
3C
  3
ACAD_PLOTSTYLENAME
350
A
  3
ACAD_SCALELIST
350
40
  3
ACAD_SECTIONVIEWSTYLE
350
BDA
  3
ACAD_TABLESTYLE
350
41
  3
ACAD_VISUALSTYLE
350
2F
  3
ACDB_RECOMPOSE_DATA
350
38A84
  3
AcDbVariableDictionary
350
BB8
  3
AEC_PROPERTY_SET_DEFS
350
24C9
  0
DICTIONARY
  5
31
330
2C
100
AcDbDictionary
280
     1
281
     1
  0
DICTIONARY
  5
22
330
21
100
AcDbDictionary
280
     1
281
     1
  3
ACAD_LAYERSTATES
360
23
  0
DICTIONARY
  5
7
330
6
100
AcDbDictionary
280
     1
281
     1
  3
ADSK_XREC_LAYER_RECONCILED
360
8
  0
DICTIONARY
  5
3
330
2
100
AcDbDictionary
280
     1
281
     1
  3
ACAD_SORTENTS
360
BB0
  0
DICTIONARY
  5
2C7ED
330
2C7EC
100
AcDbDictionary
280
     1
281
     1
  3
ASDK_XREC_ANNOTATION_SCALE_INFO
360
2C7EE
  0
XRECORD
  5
BE4
102
{ACAD_REACTORS
330
B
102
}
330
B
100
AcDbXrecord
280
     1
300
ACD
300
2014
300
ACD_F_S
  0
DICTIONARY
  5
3F
102
{ACAD_REACTORS
330
B
102
}
330
B
100
AcDbDictionary
281
     1
  0
DICTIONARY
  5
BDC
102
{ACAD_REACTORS
330
B
102
}
330
B
100
AcDbDictionary
281
     1
  3
Imperial24
350
283CD
  3
Metric50
350
BDD
  0
DICTIONARY
  5
3A
102
{ACAD_REACTORS
330
B
102
}
330
B
100
AcDbDictionary
281
     1
  0
DICTIONARY
  5
17
102
{ACAD_REACTORS
330
B
102
}
330
B
100
AcDbDictionary
281
     1
  3
Model
350
16
  3
배치1
350
1E
  0
DICTIONARY
  5
D
102
{ACAD_REACTORS
330
B
102
}
330
B
100
AcDbDictionary
281
     1
  3
ByBlock
350
3E
  3
ByLayer
350
3D
  3
Global
350
C
  0
DICTIONARY
  5
42
102
{ACAD_REACTORS
330
B
102
}
330
B
100
AcDbDictionary
281
     1
  3
Standard
350
BD9
  0
DICTIONARY
  5
3B
102
{ACAD_REACTORS
330
B
102
}
330
B
100
AcDbDictionary
281
     1
  3
Standard
350
43
  0
DICTIONARY
  5
3C
102
{ACAD_REACTORS
330
B
102
}
330
B
100
AcDbDictionary
281
     1
  0
ACDBDICTIONARYWDFLT
  5
A
102
{ACAD_REACTORS
330
B
102
}
330
B
100
AcDbDictionary
281
     1
  3
Normal
350
9
100
AcDbDictionaryWithDefault
340
9
  0
DICTIONARY
  5
40
102
{ACAD_REACTORS
330
B
102
}
330
B
100
AcDbDictionary
281
     1
  3
A0
350
48
  3
A1
350
49
  3
A2
350
4A
  3
A3
350
4B
  3
A4
350
4C
  3
A5
350
4D
  3
A6
350
4E
  3
A7
350
4F
  3
A8
350
50
  3
A9
350
51
  3
B0
350
52
  3
B1
350
53
  3
B2
350
54
  3
B3
350
55
  3
B4
350
56
  3
B5
350
57
  3
B6
350
58
  0
DICTIONARY
  5
BDA
102
{ACAD_REACTORS
330
B
102
}
330
B
100
AcDbDictionary
281
     1
  3
Imperial24
350
283CC
  3
Metric50
350
BDB
  0
DICTIONARY
  5
41
102
{ACAD_REACTORS
330
B
102
}
330
B
100
AcDbDictionary
281
     1
  3
Standard
350
44
  0
DICTIONARY
  5
2F
102
{ACAD_REACTORS
330
B
102
}
330
B
100
AcDbDictionary
281
     1
  3
2dWireframe
350
2E
  3
3D Hidden
350
1A64
  3
3dWireframe
350
47
  3
Basic
350
BC7
  3
Brighten
350
BCC
  3
ColorChange
350
BD0
  3
Conceptual
350
BCA
  3
Dim
350
BCB
  3
EdgeColorOff
350
BD8
  3
Facepattern
350
BCF
  3
Flat
350
BC3
  3
FlatWithEdges
350
BC4
  3
Gouraud
350
BC5
  3
GouraudWithEdges
350
BC6
  3
Hidden
350
BC9
  3
JitterOff
350
BD6
  3
Linepattern
350
BCE
  3
OverhangOff
350
BD7
  3
Realistic
350
46
  3
Shaded
350
BD5
  3
Shaded with edges
350
BD4
  3
Shades of Gray
350
BD1
  3
Sketchy
350
BD2
  3
Thicken
350
BCD
  3
Wireframe
350
BC8
  3
X-Ray
350
BD3
  0
XRECORD
  5
38A84
102
{ACAD_REACTORS
330
B
102
}
330
B
100
AcDbXrecord
280
     1
 90
        1
330
44
330
BDB
330
BDD
330
283CC
330
283CD
  0
DICTIONARY
  5
BB8
102
{ACAD_REACTORS
330
B
102
}
330
B
100
AcDbDictionary
281
     1
  3
CANNOSCALE
350
BBE
  3
CMLEADERSTYLE
350
BBA
  3
CTABLESTYLE
350
BB9
  3
CVIEWDETAILSTYLE
350
BBB
  3
CVIEWSECTIONSTYLE
350
BBC
  3
DIMASSOC
350
C3B
  3
HIDETEXT
350
C39
  3
HPCOLOR
350
FF3
  3
INDEXCTL
350
C38
  3
LAYEREVAL
350
BC0
  3
LAYERNOTIFY
350
BC1
  3
LIGHTINGUNITS
350
BBF
  3
MSLTSCALE
350
BBD
  3
SOLIDHIST
350
C3C
  3
SORTENTS
350
C37
  0
DICTIONARY
  5
24C9
102
{ACAD_REACTORS
330
B
102
}
330
B
100
AcDbDictionary
281
     1
  0
DICTIONARY
  5
23
102
{ACAD_REACTORS
330
22
102
}
330
22
100
AcDbDictionary
281
     1
  0
XRECORD
  5
8
102
{ACAD_REACTORS
330
7
102
}
330
7
100
AcDbXrecord
280
     1
290
     1
  0
SORTENTSTABLE
  5
BB0
102
{ACAD_REACTORS
330
3
102
}
330
3
100
AcDbSortentsTable
330
2
331
2942E
  5
2921D
331
29217
  5
292A0
331
28376
  5
283D4
331
283DD
  5
2943D
331
28372
  5
283AB
331
29296
  5
2948D
331
2910F
  5
2A377
331
28366
  5
28392
331
2835E
  5
2837F
331
283AD
  5
29217
331
283A9
  5
29115
331
2923A
  5
29251
331
29438
  5
2923C
331
28356
  5
2837A
331
28352
  5
28377
331
28395
  5
29110
331
2921E
  5
29436
331
29435
  5
2943B
331
29431
  5
29221
331
2921A
  5
29432
331
2837D
  5
28481
331
28379
  5
283D9
331
283E0
  5
29511
331
2942D
  5
2921C
331
29216
  5
2929F
331
2929D
  5
2923E
331
29112
  5
31D64
331
28375
  5
283AE
331
28371
  5
283AA
331
28369
  5
28394
331
2910E
  5
295E3
331
28365
  5
28380
331
28361
  5
28378
331
2835D
  5
2837E
331
283AC
  5
29216
331
2944B
  5
2921B
331
2844E
  5
31D66
331
28355
  5
28379
331
28394
  5
2910F
331
1DEB1
  5
28376
331
29221
  5
29438
331
29434
  5
29225
331
2921D
  5
29435
331
29219
  5
29431
331
29430
  5
29220
331
28380
  5
28498
331
2837C
  5
2845E
331
28378
  5
283D7
331
29215
  5
2929A
331
29111
  5
2A92C
331
28374
  5
283AD
331
283DB
  5
2910D
331
28370
  5
283A9
331
283D7
  5
29253
331
2836C
  5
28396
331
28368
  5
28393
331
2910D
  5
2951C
331
2835C
  5
2837D
331
283AB
  5
29215
331
28455
  5
31D8B
331
29234
  5
29298
331
283A7
  5
29112
331
28393
  5
2910E
331
29220
  5
29238
331
29437
  5
29237
331
2921C
  5
29434
331
29433
  5
29224
331
29218
  5
29430
331
2837F
  5
2848D
331
2837B
  5
2845A
331
2942F
  5
2921F
331
29214
  5
2951B
331
29110
  5
2A8F1
331
28377
  5
283D6
331
283DE
  5
2943C
331
28373
  5
283AC
331
2836F
  5
283A7
331
283D6
  5
2924F
331
2836B
  5
28395
331
2924F
  5
29299
331
28498
  5
29114
331
283AE
  5
29218
331
2835B
  5
2837C
331
283AA
  5
29116
331
28454
  5
31D68
331
29439
  5
2923D
331
28357
  5
2837B
331
28396
  5
29111
331
28392
  5
29004
331
29436
  5
29236
331
2921F
  5
29437
331
29432
  5
29223
331
2921B
  5
29433
331
2837E
  5
28482
331
2837A
  5
283DB
331
283E1
  5
29513
  0
XRECORD
  5
2C7EE
102
{ACAD_REACTORS
330
2C7ED
102
}
330
2C7ED
100
AcDbXrecord
280
     1
 90
        1
340
48
  0
ACDBDETAILVIEWSTYLE
  5
283CD
102
{ACAD_XDICTIONARY
360
38A82
102
}
102
{ACAD_REACTORS
330
BDC
102
}
330
BDC
100
AcDbModelDocViewStyle
 70
     0
  3
Imperial24
290
     0
100
AcDbDetailViewStyle
 70
     0
 71
     0
 90
        3
 71
     1
340
25
 62
   256
 40
0.24
340
0
 62
   256
 40
0.24
300

 40
0.36
280
     3
 71
     2
340
14
 90
       25
 62
   256
 71
     3
340
25
 62
   256
 40
0.24
 90
        1
 40
0.75
 90
        1
300
%<\AcVar ViewType \f "%tc1">% %<\AcVar ViewDetailId>%\PSCALE %<\AcVar ViewScale \f "%sn">%
 71
     4
340
14
 90
       25
 62
   256
340
14
 90
       25
 62
   256
280
     0
  0
ACDBDETAILVIEWSTYLE
  5
BDD
102
{ACAD_XDICTIONARY
360
38A7E
102
}
102
{ACAD_REACTORS
330
BDC
102
}
330
BDC
100
AcDbModelDocViewStyle
 70
     0
  3
Metric50
290
     0
100
AcDbDetailViewStyle
 70
     0
 71
     0
 90
        3
 71
     1
340
25
 62
   256
 40
5.0
340
0
 62
   256
 40
5.0
300

 40
0.0
280
     1
 71
     2
340
14
 90
       25
 62
   256
 71
     3
340
25
 62
   256
 40
5.0
 90
        0
 40
15.0
 90
        1
300
%<\AcVar ViewDetailId>% (%<\AcVar ViewScale \f "%sn">%)
 71
     4
340
14
 90
       25
 62
   256
340
14
 90
       25
 62
   256
280
     0
  0
LAYOUT
  5
16
102
{ACAD_XDICTIONARY
360
18
102
}
102
{ACAD_REACTORS
330
17
102
}
330
17
100
AcDbPlotSettings
  1

  2
DWG To PDF.pc3
  4
ISO_expand_A4_(297.00_x_210.00_MM)
  6

 40
5.793749809265136
 41
10.79374980926513
 42
5.79376220703125
 43
10.79374694824219
 44
297.0
 45
210.0
 46
10.74179700476176
 47
0.0
 48
214.2303289092835
 49
-5.650030662565313
140
426.8811481846322
141
146.1562857013982
142
1.0
143
0.8057125389846563
 70
 11956
 72
     1
 73
     0
 74
     4
  7
ksm0910.ctb
 75
     0
147
1.241137442468229
 76
     0
 77
     2
 78
   300
148
-214.2303289092835
149
5.650030662565313
100
AcDbLayout
  1
Model
 70
     1
 71
     0
 10
0.0
 20
0.0
 11
12.0
 21
9.0
 12
0.0
 22
0.0
 32
0.0
 14
0.0
 24
0.0
 34
0.0
 15
0.0
 25
0.0
 35
0.0
146
0.0
 13
0.0
 23
0.0
 33
0.0
 16
1.0
 26
0.0
 36
0.0
 17
0.0
 27
1.0
 37
0.0
 76
     0
330
2
331
2D
1001
ACAD_PSEXT
1000
DWG To PDF.pc3
1000
DWG To PDF
1000
파일
1000

1070
     0
  0
LAYOUT
  5
1E
102
{ACAD_XDICTIONARY
360
1F
102
}
102
{ACAD_REACTORS
330
17
102
}
330
17
100
AcDbPlotSettings
  1

  2
none_device
  4
ISO_A4_(210.00_x_297.00_MM)
  6

 40
7.5
 41
20.0
 42
7.5
 43
20.0
 44
210.0
 45
297.0
 46
0.0
 47
0.0
 48
0.0
 49
0.0
140
0.0
141
0.0
142
1.0
143
1.0
 70
   688
 72
     1
 73
     1
 74
     5
  7
ksm0910.ctb
 75
    16
147
1.0
 76
     0
 77
     2
 78
   300
148
0.0
149
0.0
100
AcDbLayout
  1
배치1
 70
     1
 71
     1
 10
-20.0
 20
-7.5
 11
277.0
 21
202.5
 12
0.0
 22
0.0
 32
0.0
 14
1.000000000000000E+20
 24
1.000000000000000E+20
 34
1.000000000000000E+20
 15
-1.000000000000000E+20
 25
-1.000000000000000E+20
 35
-1.000000000000000E+20
146
0.0
 13
0.0
 23
0.0
 33
0.0
 16
1.0
 26
0.0
 36
0.0
 17
0.0
 27
1.0
 37
0.0
 76
     0
330
1B
331
2C7EC
1001
ACAD_PSEXT
1000
없음
1000
없음
1000
해당 없음
1000
배치가 새로운 플로터 구성을 선택할 때까지 플롯되지 않습니다.
1070
     0
  0
MATERIAL
  5
3E
102
{ACAD_REACTORS
330
D
102
}
330
D
100
AcDbMaterial
  1
ByBlock
 94
       63
  0
MATERIAL
  5
3D
102
{ACAD_REACTORS
330
D
102
}
330
D
100
AcDbMaterial
  1
ByLayer
 94
       63
  0
MATERIAL
  5
C
102
{ACAD_XDICTIONARY
360
E
102
}
102
{ACAD_REACTORS
330
D
102
}
330
D
100
AcDbMaterial
  1
Global
 43
0.0007999999797903
 43
0.0
 43
0.0
 43
0.0
 43
0.0
 43
0.0007999999797903
 43
0.0
 43
0.0
 43
0.0
 43
0.0
 43
1.0
 43
0.0
 43
0.0
 43
0.0
 43
0.0
 43
1.0
 49
0.0007999999797903
 49
0.0
 49
0.0
 49
0.0
 49
0.0
 49
0.0007999999797903
 49
0.0
 49
0.0
 49
0.0
 49
0.0
 49
1.0
 49
0.0
 49
0.0
 49
0.0
 49
0.0
 49
1.0
142
0.0007999999797903
142
0.0
142
0.0
142
0.0
142
0.0
142
0.0007999999797903
142
0.0
142
0.0
142
0.0
142
0.0
142
1.0
142
0.0
142
0.0
142
0.0
142
0.0
142
1.0
144
0.0007999999797903
144
0.0
144
0.0
144
0.0
144
0.0
144
0.0007999999797903
144
0.0
144
0.0
144
0.0
144
0.0
144
1.0
144
0.0
144
0.0
144
0.0
144
0.0
144
1.0
 94
       63
1001
ACAD
1070
    -1
1070
     3
1070
     0
1000

1071
        0
1070
     0
  0
MLEADERSTYLE
  5
BD9
102
{ACAD_REACTORS
330
42
330
3731F
330
37321
330
38151
102
}
330
42
100
AcDbMLeaderStyle
179
     2
170
     2
171
     1
172
     0
 90
        2
 40
0.0
 41
0.0
173
     1
 91
-1023410173
340
28
 92
       -2
290
     1
 42
2.0
291
     1
 43
0.36
  3
Standard
 44
4.0
300

342
25
174
     1
178
     6
175
     1
176
     0
 93
-1023410174
 45
3.0
292
     0
297
     0
 46
4.0
 94
-1056964608
 47
1.0
 49
1.0
140
1.0
293
     1
141
0.0
294
     1
177
     0
142
1.0
295
     0
296
     0
143
0.125
271
     0
272
     9
273
     9
298
     1
  0
MLINESTYLE
  5
43
102
{ACAD_REACTORS
330
3B
102
}
330
3B
100
AcDbMlineStyle
  2
STANDARD
 70
     0
  3

 62
   256
 51
90.0
 52
90.0
 71
     2
 49
0.5
 62
   256
  6
BYLAYER
 49
-0.5
 62
   256
  6
BYLAYER
  0
ACDBPLACEHOLDER
  5
9
102
{ACAD_REACTORS
330
A
102
}
330
A
  0
SCALE
  5
48
102
{ACAD_REACTORS
330
40
102
}
330
40
100
AcDbScale
 70
     0
300
1:1
140
1.0
141
1.0
290
     1
  0
SCALE
  5
49
102
{ACAD_REACTORS
330
40
102
}
330
40
100
AcDbScale
 70
     0
300
1:2
140
1.0
141
2.0
290
     0
  0
SCALE
  5
4A
102
{ACAD_REACTORS
330
40
102
}
330
40
100
AcDbScale
 70
     0
300
1:4
140
1.0
141
4.0
290
     0
  0
SCALE
  5
4B
102
{ACAD_REACTORS
330
40
102
}
330
40
100
AcDbScale
 70
     0
300
1:5
140
1.0
141
5.0
290
     0
  0
SCALE
  5
4C
102
{ACAD_REACTORS
330
40
102
}
330
40
100
AcDbScale
 70
     0
300
1:8
140
1.0
141
8.0
290
     0
  0
SCALE
  5
4D
102
{ACAD_REACTORS
330
40
102
}
330
40
100
AcDbScale
 70
     0
300
1:10
140
1.0
141
10.0
290
     0
  0
SCALE
  5
4E
102
{ACAD_REACTORS
330
40
102
}
330
40
100
AcDbScale
 70
     0
300
1:16
140
1.0
141
16.0
290
     0
  0
SCALE
  5
4F
102
{ACAD_REACTORS
330
40
102
}
330
40
100
AcDbScale
 70
     0
300
1:20
140
1.0
141
20.0
290
     0
  0
SCALE
  5
50
102
{ACAD_REACTORS
330
40
102
}
330
40
100
AcDbScale
 70
     0
300
1:30
140
1.0
141
30.0
290
     0
  0
SCALE
  5
51
102
{ACAD_REACTORS
330
40
102
}
330
40
100
AcDbScale
 70
     0
300
1:40
140
1.0
141
40.0
290
     0
  0
SCALE
  5
52
102
{ACAD_REACTORS
330
40
102
}
330
40
100
AcDbScale
 70
     0
300
1:50
140
1.0
141
50.0
290
     0
  0
SCALE
  5
53
102
{ACAD_REACTORS
330
40
102
}
330
40
100
AcDbScale
 70
     0
300
1:100
140
1.0
141
100.0
290
     0
  0
SCALE
  5
54
102
{ACAD_REACTORS
330
40
102
}
330
40
100
AcDbScale
 70
     0
300
2:1
140
2.0
141
1.0
290
     0
  0
SCALE
  5
55
102
{ACAD_REACTORS
330
40
102
}
330
40
100
AcDbScale
 70
     0
300
4:1
140
4.0
141
1.0
290
     0
  0
SCALE
  5
56
102
{ACAD_REACTORS
330
40
102
}
330
40
100
AcDbScale
 70
     0
300
8:1
140
8.0
141
1.0
290
     0
  0
SCALE
  5
57
102
{ACAD_REACTORS
330
40
102
}
330
40
100
AcDbScale
 70
     0
300
10:1
140
10.0
141
1.0
290
     0
  0
SCALE
  5
58
102
{ACAD_REACTORS
330
40
102
}
330
40
100
AcDbScale
 70
     0
300
100:1
140
100.0
141
1.0
290
     0
  0
ACDBSECTIONVIEWSTYLE
  5
283CC
102
{ACAD_XDICTIONARY
360
38A80
102
}
102
{ACAD_REACTORS
330
BDA
102
}
330
BDA
100
AcDbModelDocViewStyle
 70
     0
  3
Imperial24
290
     0
100
AcDbSectionViewStyle
 70
     0
 71
     0
 90
       78
 71
     1
340
25
 62
   256
 40
0.24
340
0
340
0
 62
   256
 40
0.24
300
I, O, Q, S, X, Z
 40
0.48
 90
        3
 40
0.18
 90
        1
 71
     2
340
14
 90
       25
 62
   256
340
14
 90
       50
 62
   256
 40
0.24
 40
0.0
 40
0.24
 71
     3
340
25
 62
   256
 40
0.24
 90
        1
 40
0.75
 90
        1
300
%<\AcVar ViewType \f "%tc1">% %<\AcVar ViewSectionStartId>%-%<\AcVar ViewSectionEndId>%\PSCALE %<\AcVar ViewScale \f "%sn">%
 71
     4
 62
   256
 62
   257
300
ANSI31
 40
1.0
 90
        0
290
     0
290
     0
 90
        6
 40
0.0
 40
1.570796326794896
 40
0.2617993877991494
 40
1.308996938995747
 40
-0.2617993877991494
 40
1.832595714594046
  0
ACDBSECTIONVIEWSTYLE
  5
BDB
102
{ACAD_XDICTIONARY
360
38A7C
102
}
102
{ACAD_REACTORS
330
BDA
102
}
330
BDA
100
AcDbModelDocViewStyle
 70
     0
  3
Metric50
290
     0
100
AcDbSectionViewStyle
 70
     0
 71
     0
 90
      102
 71
     1
340
25
 62
   256
 40
5.0
340
0
340
0
 62
   256
 40
5.0
300
I, O, Q, S, X, Z
 40
10.0
 90
        0
 40
2.5
 90
        0
 71
     2
340
14
 90
       25
 62
   256
340
14
 90
       50
 62
   256
 40
5.0
 40
2.5
 40
5.0
 71
     3
340
25
 62
   256
 40
5.0
 90
        0
 40
15.0
 90
        1
300
%<\AcVar ViewSectionStartId>%-%<\AcVar ViewSectionEndId>% (%<\AcVar ViewScale \f "%sn">%)
 71
     4
 62
   256
 62
   257
300
ANSI31
 40
1.0
 90
        0
290
     0
290
     0
 90
        6
 40
0.0
 40
1.570796326794896
 40
0.2617993877991494
 40
1.308996938995747
 40
-0.2617993877991494
 40
1.832595714594046
  0
TABLESTYLE
  5
44
102
{ACAD_XDICTIONARY
360
45
102
}
102
{ACAD_REACTORS
330
41
102
}
330
41
100
AcDbTableStyle
280
     0
  3
Standard
 70
     0
 71
     0
 40
1.5
 41
1.5
280
     0
281
     0
  7
Standard
140
4.5
170
     2
 62
     0
 63
     7
283
     0
 90
      512
 91
        0
  1

274
    -2
284
     1
 64
     0
275
    -2
285
     1
 65
     0
276
    -2
286
     1
 66
     0
277
    -2
287
     1
 67
     0
278
    -2
288
     1
 68
     0
279
    -2
289
     1
 69
     0
  7
Standard
140
6.0
170
     5
 62
     0
 63
     7
283
     0
 90
      512
 91
        0
  1

274
    -2
284
     1
 64
     0
275
    -2
285
     1
 65
     0
276
    -2
286
     1
 66
     0
277
    -2
287
     1
 67
     0
278
    -2
288
     1
 68
     0
279
    -2
289
     1
 69
     0
  7
Standard
140
4.5
170
     5
 62
     0
 63
     7
283
     0
 90
      512
 91
        0
  1

274
    -2
284
     1
 64
     0
275
    -2
285
     1
 65
     0
276
    -2
286
     1
 66
     0
277
    -2
287
     1
 67
     0
278
    -2
288
     1
 68
     0
279
    -2
289
     1
 69
     0
  0
VISUALSTYLE
  5
2E
102
{ACAD_REACTORS
330
2F
102
}
330
2F
100
AcDbVisualStyle
  2
2dWireframe
 70
     4
177
     3
291
     0
 70
    58
 90
        0
176
     1
 90
        2
176
     1
 90
        1
176
     1
 90
        0
176
     1
 40
0.6
176
     1
 40
30.0
176
     1
 62
     7
176
     1
 90
        1
176
     1
 90
        4
176
     1
 62
     7
176
     1
 62
   257
176
     1
 90
        1
176
     1
 90
        1
176
     1
 40
1.0
176
     1
 90
        0
176
     1
 62
   257
176
     1
 40
1.0
176
     1
 90
        1
176
     1
 90
        6
176
     1
 90
        2
176
     1
 62
     7
176
     1
 90
        5
176
     1
 90
        0
176
     1
 90
        0
176
     1
290
     0
176
     1
 90
        1
176
     1
 40
0.0
176
     1
 90
        0
176
     1
290
     1
176
     1
290
     1
176
     1
290
     0
176
     1
290
     0
176
     1
290
     0
176
     1
290
     0
176
     1
290
     0
176
     1
290
     0
176
     1
290
     0
176
     1
 90
       50
176
     1
 40
0.0
176
     1
 40
1.0
176
     1
 90
        0
176
     1
 62
    18
420
        0
176
     1
 90
       50
176
     1
 90
        3
176
     1
 62
     5
420
      255
176
     1
290
     0
176
     1
 90
       50
176
     1
 90
       50
176
     1
 90
       50
176
     1
290
     0
176
     1
 90
       50
176
     1
 62
   256
176
     0
 40
1.0
176
     0
 90
        2
176
     1
  1
strokes_ogs.tif
176
     1
290
     0
176
     1
 40
1.0
176
     1
 40
1.0
176
     1
  0
VISUALSTYLE
  5
1A64
102
{ACAD_REACTORS
330
2F
102
}
330
2F
100
AcDbVisualStyle
  2
3D Hidden
 70
     6
177
     3
291
     0
 70
    58
 90
        1
176
     1
 90
        2
176
     1
 90
        2
176
     1
 90
        0
176
     1
 40
0.6
176
     1
 40
30.0
176
     1
 62
     7
176
     1
 90
        2
176
     1
 90
        2
176
     1
 62
     7
176
     1
 62
   257
176
     1
 90
        2
176
     1
 90
        1
176
     1
 40
40.0
176
     1
 90
        0
176
     1
 62
   257
176
     1
 40
1.0
176
     1
 90
        1
176
     1
 90
        6
176
     1
 90
        2
176
     1
 62
     7
176
     1
 90
        3
176
     1
 90
        0
176
     1
 90
        0
176
     1
290
     0
176
     1
 90
        1
176
     1
 40
0.0
176
     1
 90
        0
176
     1
290
     0
176
     1
290
     1
176
     1
290
     1
176
     1
290
     0
176
     1
290
     0
176
     1
290
     0
176
     1
290
     0
176
     1
290
     0
176
     1
290
     0
176
     1
 90
       50
176
     1
 40
0.0
176
     1
 40
1.0
176
     1
 90
        0
176
     1
 62
    18
420
        0
176
     1
 90
       50
176
     1
 90
        3
176
     1
 62
     5
420
      255
176
     1
290
     0
176
     1
 90
       50
176
     1
 90
       50
176
     1
 90
       50
176
     1
290
     0
176
     1
 90
       50
176
     1
 62
   256
176
     0
 40
1.0
176
     0
 90
        2
176
     1
  1
strokes_ogs.tif
176
     1
290
     0
176
     1
 40
1.0
176
     1
 40
1.0
176
     1
  0
VISUALSTYLE
  5
47
102
{ACAD_REACTORS
330
2F
102
}
330
2F
100
AcDbVisualStyle
  2
3dWireframe
 70
     5
177
     3
291
     0
 70
    58
 90
        0
176
     1
 90
        2
176
     1
 90
        1
176
     1
 90
        0
176
     1
 40
0.6
176
     1
 40
30.0
176
     1
 62
     7
176
     1
 90
        1
176
     1
 90
        4
176
     1
 62
     7
176
     1
 62
   257
176
     1
 90
        1
176
     1
 90
        1
176
     1
 40
1.0
176
     1
 90
        0
176
     1
 62
   257
176
     1
 40
1.0
176
     1
 90
        1
176
     1
 90
        6
176
     1
 90
        2
176
     1
 62
     7
176
     1
 90
        5
176
     1
 90
        0
176
     1
 90
        0
176
     1
290
     0
176
     1
 90
        1
176
     1
 40
0.0
176
     1
 90
        0
176
     1
290
     0
176
     1
290
     1
176
     1
290
     1
176
     1
290
     0
176
     1
290
     0
176
     1
290
     0
176
     1
290
     0
176
     1
290
     0
176
     1
290
     0
176
     1
 90
       50
176
     1
 40
0.0
176
     1
 40
1.0
176
     1
 90
        0
176
     1
 62
    18
420
        0
176
     1
 90
       50
176
     1
 90
        3
176
     1
 62
     5
420
      255
176
     1
290
     0
176
     1
 90
       50
176
     1
 90
       50
176
     1
 90
       50
176
     1
290
     0
176
     1
 90
       50
176
     1
 62
   256
176
     0
 40
1.0
176
     0
 90
        2
176
     1
  1
strokes_ogs.tif
176
     1
290
     0
176
     1
 40
1.0
176
     1
 40
1.0
176
     1
  0
VISUALSTYLE
  5
BC7
102
{ACAD_REACTORS
330
2F
102
}
330
2F
100
AcDbVisualStyle
  2
Basic
 70
     7
177
     3
291
     1
 70
    58
 90
        1
176
     1
 90
        0
176
     1
 90
        1
176
     1
 90
        0
176
     1
 40
0.6
176
     1
 40
30.0
176
     1
 62
     7
176
     1
 90
        0
176
     1
 90
        4
176
     1
 62
     7
176
     1
 62
   257
176
     1
 90
        1
176
     1
 90
        1
176
     1
 40
1.0
176
     1
 90
        8
176
     1
 62
     7
176
     1
 40
1.0
176
     1
 90
        1
176
     1
 90
        6
176
     1
 90
        2
176
     1
 62
     7
176
     1
 90
        5
176
     1
 90
        0
176
     1
 90
        0
176
     1
290
     0
176
     1
 90
        1
176
     1
 40
0.0
176
     1
 90
        0
176
     1
290
     0
176
     1
290
     1
176
     1
290
     1
176
     1
290
     0
176
     1
290
     0
176
     1
290
     0
176
     1
290
     0
176
     1
290
     0
176
     1
290
     0
176
     1
 90
       50
176
     1
 40
0.0
176
     1
 40
1.0
176
     1
 90
        0
176
     1
 62
    18
420
        0
176
     1
 90
       50
176
     1
 90
        3
176
     1
 62
     5
420
      255
176
     1
290
     0
176
     1
 90
       50
176
     1
 90
       50
176
     1
 90
       50
176
     1
290
     0
176
     1
 90
       50
176
     1
 62
   256
176
     0
 40
1.0
176
     0
 90
        2
176
     1
  1
strokes_ogs.tif
176
     1
290
     0
176
     1
 40
1.0
176
     1
 40
1.0
176
     1
  0
VISUALSTYLE
  5
BCC
102
{ACAD_REACTORS
330
2F
102
}
330
2F
100
AcDbVisualStyle
  2
Brighten
 70
    12
177
     3
291
     1
 70
    58
 90
        2
176
     1
 90
        2
176
     1
 90
        0
176
     1
 90
        0
176
     1
 40
0.6
176
     1
 40
30.0
176
     1
 62
     7
176
     1
 90
        1
176
     1
 90
        4
176
     1
 62
     7
176
     1
 62
   257
176
     1
 90
        1
176
     1
 90
        1
176
     1
 40
1.0
176
     1
 90
        8
176
     1
 62
     7
176
     1
 40
1.0
176
     1
 90
        1
176
     1
 90
        6
176
     1
 90
        2
176
     1
 62
     7
176
     1
 90
        5
176
     1
 90
        0
176
     1
 90
        0
176
     1
290
     0
176
     1
 90
        1
176
     1
 40
50.0
176
     1
 90
        0
176
     1
290
     0
176
     1
290
     1
176
     1
290
     1
176
     1
290
     0
176
     1
290
     0
176
     1
290
     0
176
     1
290
     0
176
     1
290
     0
176
     1
290
     0
176
     1
 90
       50
176
     1
 40
0.0
176
     1
 40
1.0
176
     1
 90
        0
176
     1
 62
    18
420
        0
176
     1
 90
       50
176
     1
 90
        3
176
     1
 62
     5
420
      255
176
     1
290
     0
176
     1
 90
       50
176
     1
 90
       50
176
     1
 90
       50
176
     1
290
     0
176
     1
 90
       50
176
     1
 62
   256
176
     0
 40
1.0
176
     0
 90
        2
176
     1
  1
strokes_ogs.tif
176
     1
290
     0
176
     1
 40
1.0
176
     1
 40
1.0
176
     1
  0
VISUALSTYLE
  5
BD0
102
{ACAD_REACTORS
330
2F
102
}
330
2F
100
AcDbVisualStyle
  2
ColorChange
 70
    16
177
     3
291
     1
 70
    58
 90
        2
176
     1
 90
        2
176
     1
 90
        3
176
     1
 90
        0
176
     1
 40
0.6
176
     1
 40
30.0
176
     1
 62
     8
176
     1
 90
        1
176
     1
 90
        4
176
     1
 62
     7
176
     1
 62
   257
176
     1
 90
        1
176
     1
 90
        1
176
     1
 40
1.0
176
     1
 90
        8
176
     1
 62
     8
176
     1
 40
1.0
176
     1
 90
        1
176
     1
 90
        6
176
     1
 90
        2
176
     1
 62
     7
176
     1
 90
        5
176
     1
 90
        0
176
     1
 90
        0
176
     1
290
     0
176
     1
 90
        1
176
     1
 40
0.0
176
     1
 90
        0
176
     1
290
     0
176
     1
290
     1
176
     1
290
     1
176
     1
290
     0
176
     1
290
     0
176
     1
290
     0
176
     1
290
     0
176
     1
290
     0
176
     1
290
     0
176
     1
 90
       50
176
     1
 40
0.0
176
     1
 40
1.0
176
     1
 90
        0
176
     1
 62
    18
420
        0
176
     1
 90
       50
176
     1
 90
        3
176
     1
 62
     5
420
      255
176
     1
290
     0
176
     1
 90
       50
176
     1
 90
       50
176
     1
 90
       50
176
     1
290
     0
176
     1
 90
       50
176
     1
 62
   256
176
     0
 40
1.0
176
     0
 90
        2
176
     1
  1
strokes_ogs.tif
176
     1
290
     0
176
     1
 40
1.0
176
     1
 40
1.0
176
     1
  0
VISUALSTYLE
  5
BCA
102
{ACAD_REACTORS
330
2F
102
}
330
2F
100
AcDbVisualStyle
  2
Conceptual
 70
     9
177
     3
291
     0
 70
    58
 90
        3
176
     1
 90
        2
176
     1
 90
        0
176
     1
 90
        0
176
     1
 40
0.6
176
     1
 40
30.0
176
     1
 62
     7
176
     1
 90
        2
176
     1
 90
        2
176
     1
 62
     7
176
     1
 62
   257
176
     1
 90
        1
176
     1
 90
        1
176
     1
 40
179.0
176
     1
 90
        8
176
     1
 62
     7
176
     1
 40
1.0
176
     1
 90
        1
176
     1
 90
        6
176
     1
 90
        2
176
     1
 62
     7
176
     1
 90
        3
176
     1
 90
        0
176
     1
 90
        0
176
     1
290
     0
176
     1
 90
        1
176
     1
 40
0.0
176
     1
 90
        0
176
     1
290
     0
176
     1
290
     1
176
     1
290
     1
176
     1
290
     0
176
     1
290
     0
176
     1
290
     0
176
     1
290
     0
176
     1
290
     0
176
     1
290
     0
176
     1
 90
       50
176
     1
 40
0.0
176
     1
 40
1.0
176
     1
 90
        0
176
     1
 62
    18
420
        0
176
     1
 90
       50
176
     1
 90
        3
176
     1
 62
     5
420
      255
176
     1
290
     0
176
     1
 90
       50
176
     1
 90
       50
176
     1
 90
       50
176
     1
290
     0
176
     1
 90
       50
176
     1
 62
   256
176
     0
 40
1.0
176
     0
 90
        2
176
     1
  1
strokes_ogs.tif
176
     1
290
     0
176
     1
 40
1.0
176
     1
 40
1.0
176
     1
  0
VISUALSTYLE
  5
BCB
102
{ACAD_REACTORS
330
2F
102
}
330
2F
100
AcDbVisualStyle
  2
Dim
 70
    11
177
     3
291
     1
 70
    58
 90
        2
176
     1
 90
        2
176
     1
 90
        0
176
     1
 90
        0
176
     1
 40
0.6
176
     1
 40
30.0
176
     1
 62
     7
176
     1
 90
        1
176
     1
 90
        4
176
     1
 62
     7
176
     1
 62
   257
176
     1
 90
        1
176
     1
 90
        1
176
     1
 40
1.0
176
     1
 90
        8
176
     1
 62
     7
176
     1
 40
1.0
176
     1
 90
        1
176
     1
 90
        6
176
     1
 90
        2
176
     1
 62
     7
176
     1
 90
        5
176
     1
 90
        0
176
     1
 90
        0
176
     1
290
     0
176
     1
 90
        1
176
     1
 40
-50.0
176
     1
 90
        0
176
     1
290
     0
176
     1
290
     1
176
     1
290
     1
176
     1
290
     0
176
     1
290
     0
176
     1
290
     0
176
     1
290
     0
176
     1
290
     0
176
     1
290
     0
176
     1
 90
       50
176
     1
 40
0.0
176
     1
 40
1.0
176
     1
 90
        0
176
     1
 62
    18
420
        0
176
     1
 90
       50
176
     1
 90
        3
176
     1
 62
     5
420
      255
176
     1
290
     0
176
     1
 90
       50
176
     1
 90
       50
176
     1
 90
       50
176
     1
290
     0
176
     1
 90
       50
176
     1
 62
   256
176
     0
 40
1.0
176
     0
 90
        2
176
     1
  1
strokes_ogs.tif
176
     1
290
     0
176
     1
 40
1.0
176
     1
 40
1.0
176
     1
  0
VISUALSTYLE
  5
BD8
102
{ACAD_REACTORS
330
2F
102
}
330
2F
100
AcDbVisualStyle
  2
EdgeColorOff
 70
    22
177
     3
291
     1
 70
    58
 90
        2
176
     0
 90
        2
176
     0
 90
        0
176
     0
 90
        0
176
     0
 40
0.6
176
     0
 40
30.0
176
     0
 62
     7
176
     0
 90
        1
176
     0
 90
        4
176
     0
 62
     7
176
     0
 62
   257
176
     0
 90
        1
176
     0
 90
        1
176
     0
 40
1.0
176
     0
 90
        8
176
     2
 62
     7
176
     0
 40
1.0
176
     0
 90
        1
176
     0
 90
        6
176
     0
 90
        2
176
     0
 62
     7
176
     0
 90
        5
176
     0
 90
        0
176
     0
 90
        0
176
     0
290
     0
176
     0
 90
        1
176
     0
 40
0.0
176
     0
 90
        0
176
     0
290
     0
176
     0
290
     1
176
     0
290
     1
176
     0
290
     0
176
     0
290
     0
176
     0
290
     0
176
     0
290
     0
176
     0
290
     0
176
     0
290
     0
176
     0
 90
       50
176
     0
 40
0.0
176
     0
 40
1.0
176
     0
 90
        0
176
     0
 62
    18
420
        0
176
     0
 90
       50
176
     0
 90
        3
176
     0
 62
     5
420
      255
176
     0
290
     0
176
     0
 90
       50
176
     0
 90
       50
176
     0
 90
       50
176
     0
290
     0
176
     0
 90
       50
176
     0
 62
   256
176
     0
 40
1.0
176
     0
 90
        2
176
     0
  1
strokes_ogs.tif
176
     0
290
     0
176
     0
 40
1.0
176
     0
 40
1.0
176
     0
  0
VISUALSTYLE
  5
BCF
102
{ACAD_REACTORS
330
2F
102
}
330
2F
100
AcDbVisualStyle
  2
Facepattern
 70
    15
177
     3
291
     1
 70
    58
 90
        2
176
     1
 90
        2
176
     1
 90
        0
176
     1
 90
        0
176
     1
 40
0.6
176
     1
 40
30.0
176
     1
 62
     7
176
     1
 90
        1
176
     1
 90
        4
176
     1
 62
     7
176
     1
 62
   257
176
     1
 90
        1
176
     1
 90
        1
176
     1
 40
1.0
176
     1
 90
        8
176
     1
 62
     7
176
     1
 40
1.0
176
     1
 90
        1
176
     1
 90
        6
176
     1
 90
        2
176
     1
 62
     7
176
     1
 90
        5
176
     1
 90
        0
176
     1
 90
        0
176
     1
290
     0
176
     1
 90
        1
176
     1
 40
0.0
176
     1
 90
        0
176
     1
290
     0
176
     1
290
     1
176
     1
290
     1
176
     1
290
     0
176
     1
290
     0
176
     1
290
     0
176
     1
290
     0
176
     1
290
     0
176
     1
290
     0
176
     1
 90
       50
176
     1
 40
0.0
176
     1
 40
1.0
176
     1
 90
        0
176
     1
 62
    18
420
        0
176
     1
 90
       50
176
     1
 90
        3
176
     1
 62
     5
420
      255
176
     1
290
     0
176
     1
 90
       50
176
     1
 90
       50
176
     1
 90
       50
176
     1
290
     0
176
     1
 90
       50
176
     1
 62
   256
176
     0
 40
1.0
176
     0
 90
        2
176
     1
  1
strokes_ogs.tif
176
     1
290
     0
176
     1
 40
1.0
176
     1
 40
1.0
176
     1
  0
VISUALSTYLE
  5
BC3
102
{ACAD_REACTORS
330
2F
102
}
330
2F
100
AcDbVisualStyle
  2
Flat
 70
     0
177
     3
291
     1
 70
    58
 90
        2
176
     1
 90
        1
176
     1
 90
        1
176
     1
 90
        2
176
     1
 40
0.6
176
     1
 40
30.0
176
     1
 62
     7
176
     1
 90
        0
176
     1
 90
        0
176
     1
 62
     7
176
     1
 62
   257
176
     1
 90
        1
176
     1
 90
        1
176
     1
 40
1.0
176
     1
 90
        8
176
     1
 62
     7
176
     1
 40
1.0
176
     1
 90
        1
176
     1
 90
        6
176
     1
 90
        2
176
     1
 62
     7
176
     1
 90
        5
176
     1
 90
        0
176
     1
 90
        0
176
     1
290
     0
176
     1
 90
       13
176
     1
 40
0.0
176
     1
 90
        0
176
     1
290
     0
176
     1
290
     1
176
     1
290
     1
176
     1
290
     0
176
     1
290
     0
176
     1
290
     0
176
     1
290
     0
176
     1
290
     0
176
     1
290
     0
176
     1
 90
       50
176
     1
 40
0.0
176
     1
 40
1.0
176
     1
 90
        0
176
     1
 62
    18
420
        0
176
     1
 90
       50
176
     1
 90
        3
176
     1
 62
     5
420
      255
176
     1
290
     0
176
     1
 90
       50
176
     1
 90
       50
176
     1
 90
       50
176
     1
290
     0
176
     1
 90
       50
176
     1
 62
   256
176
     0
 40
1.0
176
     0
 90
        2
176
     1
  1
strokes_ogs.tif
176
     1
290
     0
176
     1
 40
1.0
176
     1
 40
1.0
176
     1
  0
VISUALSTYLE
  5
BC4
102
{ACAD_REACTORS
330
2F
102
}
330
2F
100
AcDbVisualStyle
  2
FlatWithEdges
 70
     1
177
     3
291
     1
 70
    58
 90
        2
176
     1
 90
        1
176
     1
 90
        1
176
     1
 90
        2
176
     1
 40
0.6
176
     1
 40
30.0
176
     1
 62
     7
176
     1
 90
        1
176
     1
 90
        0
176
     1
 62
     7
176
     1
 62
   257
176
     1
 90
        1
176
     1
 90
        1
176
     1
 40
1.0
176
     1
 90
        0
176
     1
 62
   257
176
     1
 40
1.0
176
     1
 90
        1
176
     1
 90
        6
176
     1
 90
        2
176
     1
 62
     7
176
     1
 90
        5
176
     1
 90
        0
176
     1
 90
        0
176
     1
290
     0
176
     1
 90
       13
176
     1
 40
0.0
176
     1
 90
        0
176
     1
290
     0
176
     1
290
     1
176
     1
290
     1
176
     1
290
     0
176
     1
290
     0
176
     1
290
     0
176
     1
290
     0
176
     1
290
     0
176
     1
290
     0
176
     1
 90
       50
176
     1
 40
0.0
176
     1
 40
1.0
176
     1
 90
        0
176
     1
 62
    18
420
        0
176
     1
 90
       50
176
     1
 90
        3
176
     1
 62
     5
420
      255
176
     1
290
     0
176
     1
 90
       50
176
     1
 90
       50
176
     1
 90
       50
176
     1
290
     0
176
     1
 90
       50
176
     1
 62
   256
176
     0
 40
1.0
176
     0
 90
        2
176
     1
  1
strokes_ogs.tif
176
     1
290
     0
176
     1
 40
1.0
176
     1
 40
1.0
176
     1
  0
VISUALSTYLE
  5
BC5
102
{ACAD_REACTORS
330
2F
102
}
330
2F
100
AcDbVisualStyle
  2
Gouraud
 70
     2
177
     3
291
     1
 70
    58
 90
        2
176
     1
 90
        2
176
     1
 90
        1
176
     1
 90
        2
176
     1
 40
0.6
176
     1
 40
30.0
176
     1
 62
     7
176
     1
 90
        0
176
     1
 90
        0
176
     1
 62
     7
176
     1
 62
   257
176
     1
 90
        1
176
     1
 90
        1
176
     1
 40
1.0
176
     1
 90
        0
176
     1
 62
     7
176
     1
 40
1.0
176
     1
 90
        1
176
     1
 90
        6
176
     1
 90
        2
176
     1
 62
     7
176
     1
 90
        5
176
     1
 90
        0
176
     1
 90
        0
176
     1
290
     0
176
     1
 90
       13
176
     1
 40
0.0
176
     1
 90
        0
176
     1
290
     0
176
     1
290
     1
176
     1
290
     1
176
     1
290
     0
176
     1
290
     0
176
     1
290
     0
176
     1
290
     0
176
     1
290
     0
176
     1
290
     0
176
     1
 90
       50
176
     1
 40
0.0
176
     1
 40
1.0
176
     1
 90
        0
176
     1
 62
    18
420
        0
176
     1
 90
       50
176
     1
 90
        3
176
     1
 62
     5
420
      255
176
     1
290
     0
176
     1
 90
       50
176
     1
 90
       50
176
     1
 90
       50
176
     1
290
     0
176
     1
 90
       50
176
     1
 62
   256
176
     0
 40
1.0
176
     0
 90
        2
176
     1
  1
strokes_ogs.tif
176
     1
290
     0
176
     1
 40
1.0
176
     1
 40
1.0
176
     1
  0
VISUALSTYLE
  5
BC6
102
{ACAD_REACTORS
330
2F
102
}
330
2F
100
AcDbVisualStyle
  2
GouraudWithEdges
 70
     3
177
     3
291
     1
 70
    58
 90
        2
176
     1
 90
        2
176
     1
 90
        1
176
     1
 90
        2
176
     1
 40
0.6
176
     1
 40
30.0
176
     1
 62
     7
176
     1
 90
        1
176
     1
 90
        0
176
     1
 62
     7
176
     1
 62
   257
176
     1
 90
        1
176
     1
 90
        1
176
     1
 40
1.0
176
     1
 90
        0
176
     1
 62
   257
176
     1
 40
1.0
176
     1
 90
        1
176
     1
 90
        6
176
     1
 90
        2
176
     1
 62
     7
176
     1
 90
        5
176
     1
 90
        0
176
     1
 90
        0
176
     1
290
     0
176
     1
 90
       13
176
     1
 40
0.0
176
     1
 90
        0
176
     1
290
     0
176
     1
290
     1
176
     1
290
     1
176
     1
290
     0
176
     1
290
     0
176
     1
290
     0
176
     1
290
     0
176
     1
290
     0
176
     1
290
     0
176
     1
 90
       50
176
     1
 40
0.0
176
     1
 40
1.0
176
     1
 90
        0
176
     1
 62
    18
420
        0
176
     1
 90
       50
176
     1
 90
        3
176
     1
 62
     5
420
      255
176
     1
290
     0
176
     1
 90
       50
176
     1
 90
       50
176
     1
 90
       50
176
     1
290
     0
176
     1
 90
       50
176
     1
 62
   256
176
     0
 40
1.0
176
     0
 90
        2
176
     1
  1
strokes_ogs.tif
176
     1
290
     0
176
     1
 40
1.0
176
     1
 40
1.0
176
     1
  0
VISUALSTYLE
  5
BC9
102
{ACAD_REACTORS
330
2F
102
}
330
2F
100
AcDbVisualStyle
  2
Hidden
 70
     6
177
     3
291
     0
 70
    58
 90
        1
176
     1
 90
        2
176
     1
 90
        2
176
     1
 90
        0
176
     1
 40
0.6
176
     1
 40
30.0
176
     1
 62
     7
176
     1
 90
        2
176
     1
 90
        2
176
     1
 62
     7
176
     1
 62
   257
176
     1
 90
        2
176
     1
 90
        1
176
     1
 40
40.0
176
     1
 90
        0
176
     1
 62
   257
176
     1
 40
1.0
176
     1
 90
        1
176
     1
 90
        6
176
     1
 90
        2
176
     1
 62
     7
176
     1
 90
        3
176
     1
 90
        0
176
     1
 90
        0
176
     1
290
     0
176
     1
 90
        1
176
     1
 40
0.0
176
     1
 90
        0
176
     1
290
     0
176
     1
290
     1
176
     1
290
     1
176
     1
290
     0
176
     1
290
     0
176
     1
290
     0
176
     1
290
     0
176
     1
290
     0
176
     1
290
     0
176
     1
 90
       50
176
     1
 40
0.0
176
     1
 40
1.0
176
     1
 90
        0
176
     1
 62
    18
420
        0
176
     1
 90
       50
176
     1
 90
        3
176
     1
 62
     5
420
      255
176
     1
290
     0
176
     1
 90
       50
176
     1
 90
       50
176
     1
 90
       50
176
     1
290
     0
176
     1
 90
       50
176
     1
 62
   256
176
     0
 40
1.0
176
     0
 90
        2
176
     1
  1
strokes_ogs.tif
176
     1
290
     0
176
     1
 40
1.0
176
     1
 40
1.0
176
     1
  0
VISUALSTYLE
  5
BD6
102
{ACAD_REACTORS
330
2F
102
}
330
2F
100
AcDbVisualStyle
  2
JitterOff
 70
    20
177
     3
291
     1
 70
    58
 90
        2
176
     0
 90
        2
176
     0
 90
        0
176
     0
 90
        0
176
     0
 40
0.6
176
     0
 40
30.0
176
     0
 62
     7
176
     0
 90
        1
176
     0
 90
        4
176
     0
 62
     7
176
     0
 62
   257
176
     0
 90
        1
176
     0
 90
        1
176
     0
 40
1.0
176
     0
 90
       10
176
     2
 62
     7
176
     0
 40
1.0
176
     0
 90
        1
176
     0
 90
        6
176
     0
 90
        2
176
     0
 62
     7
176
     0
 90
        5
176
     0
 90
        0
176
     0
 90
        0
176
     0
290
     0
176
     0
 90
        1
176
     0
 40
0.0
176
     0
 90
        0
176
     0
290
     0
176
     0
290
     1
176
     0
290
     1
176
     0
290
     0
176
     0
290
     0
176
     0
290
     0
176
     0
290
     0
176
     0
290
     0
176
     0
290
     0
176
     0
 90
       50
176
     0
 40
0.0
176
     0
 40
1.0
176
     0
 90
        0
176
     0
 62
    18
420
        0
176
     0
 90
       50
176
     0
 90
        3
176
     0
 62
     5
420
      255
176
     0
290
     0
176
     0
 90
       50
176
     0
 90
       50
176
     0
 90
       50
176
     0
290
     0
176
     0
 90
       50
176
     0
 62
   256
176
     0
 40
1.0
176
     0
 90
        2
176
     0
  1
strokes_ogs.tif
176
     0
290
     0
176
     0
 40
1.0
176
     0
 40
1.0
176
     0
  0
VISUALSTYLE
  5
BCE
102
{ACAD_REACTORS
330
2F
102
}
330
2F
100
AcDbVisualStyle
  2
Linepattern
 70
    14
177
     3
291
     1
 70
    58
 90
        2
176
     1
 90
        2
176
     1
 90
        0
176
     1
 90
        0
176
     1
 40
0.6
176
     1
 40
30.0
176
     1
 62
     7
176
     1
 90
        1
176
     1
 90
        4
176
     1
 62
     7
176
     1
 62
   257
176
     1
 90
        7
176
     1
 90
        7
176
     1
 40
1.0
176
     1
 90
        8
176
     1
 62
     7
176
     1
 40
1.0
176
     1
 90
        1
176
     1
 90
        6
176
     1
 90
        2
176
     1
 62
     7
176
     1
 90
        5
176
     1
 90
        0
176
     1
 90
        0
176
     1
290
     0
176
     1
 90
        1
176
     1
 40
0.0
176
     1
 90
        0
176
     1
290
     0
176
     1
290
     1
176
     1
290
     1
176
     1
290
     0
176
     1
290
     0
176
     1
290
     0
176
     1
290
     0
176
     1
290
     0
176
     1
290
     0
176
     1
 90
       50
176
     1
 40
0.0
176
     1
 40
1.0
176
     1
 90
        0
176
     1
 62
    18
420
        0
176
     1
 90
       50
176
     1
 90
        3
176
     1
 62
     5
420
      255
176
     1
290
     0
176
     1
 90
       50
176
     1
 90
       50
176
     1
 90
       50
176
     1
290
     0
176
     1
 90
       50
176
     1
 62
   256
176
     0
 40
1.0
176
     0
 90
        2
176
     1
  1
strokes_ogs.tif
176
     1
290
     0
176
     1
 40
1.0
176
     1
 40
1.0
176
     1
  0
VISUALSTYLE
  5
BD7
102
{ACAD_REACTORS
330
2F
102
}
330
2F
100
AcDbVisualStyle
  2
OverhangOff
 70
    21
177
     3
291
     1
 70
    58
 90
        2
176
     0
 90
        2
176
     0
 90
        0
176
     0
 90
        0
176
     0
 40
0.6
176
     0
 40
30.0
176
     0
 62
     7
176
     0
 90
        1
176
     0
 90
        4
176
     0
 62
     7
176
     0
 62
   257
176
     0
 90
        1
176
     0
 90
        1
176
     0
 40
1.0
176
     0
 90
        9
176
     2
 62
     7
176
     0
 40
1.0
176
     0
 90
        1
176
     0
 90
        6
176
     0
 90
        2
176
     0
 62
     7
176
     0
 90
        5
176
     0
 90
        0
176
     0
 90
        0
176
     0
290
     0
176
     0
 90
        1
176
     0
 40
0.0
176
     0
 90
        0
176
     0
290
     0
176
     0
290
     1
176
     0
290
     1
176
     0
290
     0
176
     0
290
     0
176
     0
290
     0
176
     0
290
     0
176
     0
290
     0
176
     0
290
     0
176
     0
 90
       50
176
     0
 40
0.0
176
     0
 40
1.0
176
     0
 90
        0
176
     0
 62
    18
420
        0
176
     0
 90
       50
176
     0
 90
        3
176
     0
 62
     5
420
      255
176
     0
290
     0
176
     0
 90
       50
176
     0
 90
       50
176
     0
 90
       50
176
     0
290
     0
176
     0
 90
       50
176
     0
 62
   256
176
     0
 40
1.0
176
     0
 90
        2
176
     0
  1
strokes_ogs.tif
176
     0
290
     0
176
     0
 40
1.0
176
     0
 40
1.0
176
     0
  0
VISUALSTYLE
  5
46
102
{ACAD_REACTORS
330
2F
102
}
330
2F
100
AcDbVisualStyle
  2
Realistic
 70
     8
177
     3
291
     0
 70
    58
 90
        2
176
     1
 90
        2
176
     1
 90
        1
176
     1
 90
        0
176
     1
 40
0.6
176
     1
 40
30.0
176
     1
 62
     7
176
     1
 90
        1
176
     1
 90
        0
176
     1
 62
     7
176
     1
 62
   257
176
     1
 90
        1
176
     1
 90
        1
176
     1
 40
1.0
176
     1
 90
        8
176
     1
 62
     8
176
     1
 40
1.0
176
     1
 90
        1
176
     1
 90
        6
176
     1
 90
        2
176
     1
 62
     7
176
     1
 90
        5
176
     1
 90
        0
176
     1
 90
        0
176
     1
290
     0
176
     1
 90
       13
176
     1
 40
0.0
176
     1
 90
        0
176
     1
290
     0
176
     1
290
     1
176
     1
290
     1
176
     1
290
     0
176
     1
290
     0
176
     1
290
     0
176
     1
290
     0
176
     1
290
     0
176
     1
290
     0
176
     1
 90
       50
176
     1
 40
0.0
176
     1
 40
1.0
176
     1
 90
        0
176
     1
 62
    18
420
        0
176
     1
 90
       50
176
     1
 90
        3
176
     1
 62
     5
420
      255
176
     1
290
     0
176
     1
 90
       50
176
     1
 90
       50
176
     1
 90
       50
176
     1
290
     0
176
     1
 90
       50
176
     1
 62
   256
176
     0
 40
1.0
176
     0
 90
        2
176
     1
  1
strokes_ogs.tif
176
     1
290
     0
176
     1
 40
1.0
176
     1
 40
1.0
176
     1
  0
VISUALSTYLE
  5
BD5
102
{ACAD_REACTORS
330
2F
102
}
330
2F
100
AcDbVisualStyle
  2
Shaded
 70
    27
177
     3
291
     0
 70
    58
 90
        2
176
     1
 90
        2
176
     1
 90
        1
176
     1
 90
        2
176
     1
 40
0.6
176
     1
 40
30.0
176
     1
 62
     7
176
     1
 90
        0
176
     1
 90
        4
176
     1
 62
     7
176
     1
 62
   257
176
     1
 90
        1
176
     1
 90
        1
176
     1
 40
1.0
176
     1
 90
        8
176
     1
 62
   257
176
     1
 40
1.0
176
     1
 90
        1
176
     1
 90
        6
176
     1
 90
        2
176
     1
 62
     8
176
     1
 90
        3
176
     1
 90
        0
176
     1
 90
        0
176
     1
290
     0
176
     1
 90
        5
176
     1
 40
0.0
176
     1
 90
        0
176
     1
290
     0
176
     1
290
     1
176
     1
290
     1
176
     1
290
     0
176
     1
290
     0
176
     1
290
     0
176
     1
290
     0
176
     1
290
     0
176
     1
290
     0
176
     1
 90
       50
176
     1
 40
0.0
176
     1
 40
1.0
176
     1
 90
        0
176
     1
 62
    18
420
        0
176
     1
 90
       50
176
     1
 90
        3
176
     1
 62
     5
420
      255
176
     1
290
     0
176
     1
 90
       50
176
     1
 90
       50
176
     1
 90
       50
176
     1
290
     0
176
     1
 90
       50
176
     1
 62
   256
176
     0
 40
1.0
176
     0
 90
        2
176
     1
  1
strokes_ogs.tif
176
     1
290
     0
176
     1
 40
1.0
176
     1
 40
1.0
176
     1
  0
VISUALSTYLE
  5
BD4
102
{ACAD_REACTORS
330
2F
102
}
330
2F
100
AcDbVisualStyle
  2
Shaded with edges
 70
    26
177
     3
291
     0
 70
    58
 90
        2
176
     1
 90
        2
176
     1
 90
        1
176
     1
 90
        2
176
     1
 40
0.6
176
     1
 40
30.0
176
     1
 62
     7
176
     1
 90
        1
176
     1
 90
       10
176
     1
 62
     7
176
     1
 62
   257
176
     1
 90
        2
176
     1
 90
        1
176
     1
 40
1.0
176
     1
 90
        8
176
     1
 62
   257
176
     1
 40
1.0
176
     1
 90
        1
176
     1
 90
        6
176
     1
 90
        2
176
     1
 62
     7
176
     1
 90
        3
176
     1
 90
        0
176
     1
 90
        0
176
     1
290
     0
176
     1
 90
        5
176
     1
 40
0.0
176
     1
 90
        0
176
     1
290
     0
176
     1
290
     1
176
     1
290
     1
176
     1
290
     0
176
     1
290
     0
176
     1
290
     0
176
     1
290
     0
176
     1
290
     0
176
     1
290
     0
176
     1
 90
       50
176
     1
 40
0.0
176
     1
 40
1.0
176
     1
 90
        0
176
     1
 62
    18
420
        0
176
     1
 90
       50
176
     1
 90
        3
176
     1
 62
     5
420
      255
176
     1
290
     0
176
     1
 90
       50
176
     1
 90
       50
176
     1
 90
       50
176
     1
290
     0
176
     1
 90
       50
176
     1
 62
   256
176
     0
 40
1.0
176
     0
 90
        2
176
     1
  1
strokes_ogs.tif
176
     1
290
     0
176
     1
 40
1.0
176
     1
 40
1.0
176
     1
  0
VISUALSTYLE
  5
BD1
102
{ACAD_REACTORS
330
2F
102
}
330
2F
100
AcDbVisualStyle
  2
Shades of Gray
 70
    23
177
     3
291
     0
 70
    58
 90
        2
176
     1
 90
        2
176
     1
 90
        3
176
     1
 90
        0
176
     1
 40
0.6
176
     1
 40
30.0
176
     1
 62
     7
176
     1
 90
        2
176
     1
 90
        2
176
     1
 62
     7
176
     1
 62
     7
176
     1
 90
        1
176
     1
 90
        1
176
     1
 40
40.0
176
     1
 90
        8
176
     1
 62
     7
176
     1
 40
1.0
176
     1
 90
        1
176
     1
 90
        6
176
     1
 90
        2
176
     1
 62
     7
176
     1
 90
        3
176
     1
 90
        0
176
     1
 90
        0
176
     1
290
     0
176
     1
 90
        1
176
     1
 40
0.0
176
     1
 90
        0
176
     1
290
     0
176
     1
290
     1
176
     1
290
     1
176
     1
290
     0
176
     1
290
     0
176
     1
290
     0
176
     1
290
     0
176
     1
290
     0
176
     1
290
     0
176
     1
 90
       50
176
     1
 40
0.0
176
     1
 40
1.0
176
     1
 90
        0
176
     1
 62
    18
420
        0
176
     1
 90
       50
176
     1
 90
        3
176
     1
 62
     5
420
      255
176
     1
290
     0
176
     1
 90
       50
176
     1
 90
       50
176
     1
 90
       50
176
     1
290
     0
176
     1
 90
       50
176
     1
 62
   256
176
     0
 40
1.0
176
     0
 90
        2
176
     1
  1
strokes_ogs.tif
176
     1
290
     0
176
     1
 40
1.0
176
     1
 40
1.0
176
     1
  0
VISUALSTYLE
  5
BD2
102
{ACAD_REACTORS
330
2F
102
}
330
2F
100
AcDbVisualStyle
  2
Sketchy
 70
    24
177
     3
291
     0
 70
    58
 90
        1
176
     1
 90
        2
176
     1
 90
        2
176
     1
 90
        0
176
     1
 40
0.6
176
     1
 40
30.0
176
     1
 62
     7
176
     1
 90
        2
176
     1
 90
        2
176
     1
 62
     7
176
     1
 62
     7
176
     1
 90
        1
176
     1
 90
        1
176
     1
 40
40.0
176
     1
 90
       11
176
     1
 62
     7
176
     1
 40
1.0
176
     1
 90
        1
176
     1
 90
        6
176
     1
 90
        2
176
     1
 62
     7
176
     1
 90
        6
176
     1
 90
        0
176
     1
 90
        0
176
     1
290
     0
176
     1
 90
        1
176
     1
 40
0.0
176
     1
 90
        0
176
     1
290
     0
176
     1
290
     1
176
     1
290
     1
176
     1
290
     0
176
     1
290
     0
176
     1
290
     0
176
     1
290
     0
176
     1
290
     0
176
     1
290
     0
176
     1
 90
       50
176
     1
 40
0.0
176
     1
 40
1.0
176
     1
 90
        0
176
     1
 62
    18
420
        0
176
     1
 90
       50
176
     1
 90
        3
176
     1
 62
     5
420
      255
176
     1
290
     0
176
     1
 90
       50
176
     1
 90
       50
176
     1
 90
       50
176
     1
290
     0
176
     1
 90
       50
176
     1
 62
   256
176
     0
 40
1.0
176
     0
 90
        2
176
     1
  1
strokes_ogs.tif
176
     1
290
     0
176
     1
 40
1.0
176
     1
 40
1.0
176
     1
  0
VISUALSTYLE
  5
BCD
102
{ACAD_REACTORS
330
2F
102
}
330
2F
100
AcDbVisualStyle
  2
Thicken
 70
    13
177
     3
291
     1
 70
    58
 90
        2
176
     1
 90
        2
176
     1
 90
        0
176
     1
 90
        0
176
     1
 40
0.6
176
     1
 40
30.0
176
     1
 62
     7
176
     1
 90
        1
176
     1
 90
        4
176
     1
 62
     7
176
     1
 62
   257
176
     1
 90
        1
176
     1
 90
        1
176
     1
 40
1.0
176
     1
 90
       12
176
     1
 62
     7
176
     1
 40
1.0
176
     1
 90
        1
176
     1
 90
        6
176
     1
 90
        2
176
     1
 62
     7
176
     1
 90
        5
176
     1
 90
        0
176
     1
 90
        0
176
     1
290
     0
176
     1
 90
        1
176
     1
 40
0.0
176
     1
 90
        0
176
     1
290
     0
176
     1
290
     1
176
     1
290
     1
176
     1
290
     0
176
     1
290
     0
176
     1
290
     0
176
     1
290
     0
176
     1
290
     0
176
     1
290
     0
176
     1
 90
       50
176
     1
 40
0.0
176
     1
 40
1.0
176
     1
 90
        0
176
     1
 62
    18
420
        0
176
     1
 90
       50
176
     1
 90
        3
176
     1
 62
     5
420
      255
176
     1
290
     0
176
     1
 90
       50
176
     1
 90
       50
176
     1
 90
       50
176
     1
290
     0
176
     1
 90
       50
176
     1
 62
   256
176
     0
 40
1.0
176
     0
 90
        2
176
     1
  1
strokes_ogs.tif
176
     1
290
     0
176
     1
 40
1.0
176
     1
 40
1.0
176
     1
  0
VISUALSTYLE
  5
BC8
102
{ACAD_REACTORS
330
2F
102
}
330
2F
100
AcDbVisualStyle
  2
Wireframe
 70
     5
177
     3
291
     0
 70
    58
 90
        0
176
     1
 90
        2
176
     1
 90
        0
176
     1
 90
        0
176
     1
 40
0.6
176
     1
 40
30.0
176
     1
 62
     7
176
     1
 90
        1
176
     1
 90
        4
176
     1
 62
     7
176
     1
 62
   257
176
     1
 90
        1
176
     1
 90
        1
176
     1
 40
1.0
176
     1
 90
        0
176
     1
 62
   257
176
     1
 40
1.0
176
     1
 90
        1
176
     1
 90
        6
176
     1
 90
        2
176
     1
 62
     7
176
     1
 90
        3
176
     1
 90
        0
176
     1
 90
        0
176
     1
290
     0
176
     1
 90
        1
176
     1
 40
0.0
176
     1
 90
        0
176
     1
290
     0
176
     1
290
     1
176
     1
290
     1
176
     1
290
     0
176
     1
290
     0
176
     1
290
     0
176
     1
290
     0
176
     1
290
     0
176
     1
290
     0
176
     1
 90
       50
176
     1
 40
0.0
176
     1
 40
1.0
176
     1
 90
        0
176
     1
 62
    18
420
        0
176
     1
 90
       50
176
     1
 90
        3
176
     1
 62
     5
420
      255
176
     1
290
     0
176
     1
 90
       50
176
     1
 90
       50
176
     1
 90
       50
176
     1
290
     0
176
     1
 90
       50
176
     1
 62
   256
176
     0
 40
1.0
176
     0
 90
        2
176
     1
  1
strokes_ogs.tif
176
     1
290
     0
176
     1
 40
1.0
176
     1
 40
1.0
176
     1
  0
VISUALSTYLE
  5
BD3
102
{ACAD_REACTORS
330
2F
102
}
330
2F
100
AcDbVisualStyle
  2
X-Ray
 70
    25
177
     3
291
     0
 70
    58
 90
        2
176
     1
 90
        2
176
     1
 90
        1
176
     1
 90
        1
176
     1
 40
0.5
176
     1
 40
30.0
176
     1
 62
     7
176
     1
 90
        1
176
     1
 90
        0
176
     1
 62
     7
176
     1
 62
   257
176
     1
 90
        1
176
     1
 90
        1
176
     1
 40
1.0
176
     1
 90
        8
176
     1
 62
     7
176
     1
 40
1.0
176
     1
 90
        1
176
     1
 90
        6
176
     1
 90
        2
176
     1
 62
     7
176
     1
 90
        3
176
     1
 90
        0
176
     1
 90
        0
176
     1
290
     0
176
     1
 90
       13
176
     1
 40
0.0
176
     1
 90
        0
176
     1
290
     0
176
     1
290
     1
176
     1
290
     1
176
     1
290
     0
176
     1
290
     0
176
     1
290
     0
176
     1
290
     0
176
     1
290
     0
176
     1
290
     0
176
     1
 90
       50
176
     1
 40
0.0
176
     1
 40
1.0
176
     1
 90
        0
176
     1
 62
    18
420
        0
176
     1
 90
       50
176
     1
 90
        3
176
     1
 62
     5
420
      255
176
     1
290
     0
176
     1
 90
       50
176
     1
 90
       50
176
     1
 90
       50
176
     1
290
     0
176
     1
 90
       50
176
     1
 62
   256
176
     0
 40
1.0
176
     0
 90
        2
176
     1
  1
strokes_ogs.tif
176
     1
290
     0
176
     1
 40
1.0
176
     1
 40
1.0
176
     1
  0
DICTIONARYVAR
  5
BBE
102
{ACAD_REACTORS
330
BB8
102
}
330
BB8
100
DictionaryVariables
280
     0
  1
1:1
  0
DICTIONARYVAR
  5
BBA
102
{ACAD_REACTORS
330
BB8
102
}
330
BB8
100
DictionaryVariables
280
     0
  1
STANDARD
  0
DICTIONARYVAR
  5
BB9
102
{ACAD_REACTORS
330
BB8
102
}
330
BB8
100
DictionaryVariables
280
     0
  1
STANDARD
  0
DICTIONARYVAR
  5
BBB
102
{ACAD_REACTORS
330
BB8
102
}
330
BB8
100
DictionaryVariables
280
     0
  1
Metric50
  0
DICTIONARYVAR
  5
BBC
102
{ACAD_REACTORS
330
BB8
102
}
330
BB8
100
DictionaryVariables
280
     0
  1
Metric50
  0
DICTIONARYVAR
  5
C3B
102
{ACAD_REACTORS
330
BB8
102
}
330
BB8
100
DictionaryVariables
280
     0
  1
1
  0
DICTIONARYVAR
  5
C39
102
{ACAD_REACTORS
330
BB8
102
}
330
BB8
100
DictionaryVariables
280
     0
  1
1
  0
DICTIONARYVAR
  5
FF3
102
{ACAD_REACTORS
330
BB8
102
}
330
BB8
100
DictionaryVariables
280
     0
  1
4
  0
DICTIONARYVAR
  5
C38
102
{ACAD_REACTORS
330
BB8
102
}
330
BB8
100
DictionaryVariables
280
     0
  1
0
  0
DICTIONARYVAR
  5
BC0
102
{ACAD_REACTORS
330
BB8
102
}
330
BB8
100
DictionaryVariables
280
     0
  1
1
  0
DICTIONARYVAR
  5
BC1
102
{ACAD_REACTORS
330
BB8
102
}
330
BB8
100
DictionaryVariables
280
     0
  1
15
  0
DICTIONARYVAR
  5
BBF
102
{ACAD_REACTORS
330
BB8
102
}
330
BB8
100
DictionaryVariables
280
     0
  1
0
  0
DICTIONARYVAR
  5
BBD
102
{ACAD_REACTORS
330
BB8
102
}
330
BB8
100
DictionaryVariables
280
     0
  1
0
  0
DICTIONARYVAR
  5
C3C
102
{ACAD_REACTORS
330
BB8
102
}
330
BB8
100
DictionaryVariables
280
     0
  1
1
  0
DICTIONARYVAR
  5
C37
102
{ACAD_REACTORS
330
BB8
102
}
330
BB8
100
DictionaryVariables
280
     0
  1
127
  0
DICTIONARY
  5
38A82
330
283CD
100
AcDbDictionary
280
     1
281
     1
  3
ACAD_XREC_ROUNDTRIP
360
38A83
  0
DICTIONARY
  5
38A7E
330
BDD
100
AcDbDictionary
280
     1
281
     1
  3
ACAD_XREC_ROUNDTRIP
360
38A7F
  0
DICTIONARY
  5
18
330
16
100
AcDbDictionary
280
     1
281
     1
  0
DICTIONARY
  5
1F
330
1E
100
AcDbDictionary
280
     1
281
     1
  0
DICTIONARY
  5
E
330
C
100
AcDbDictionary
280
     1
281
     1
  3
BUMPTILE
360
F
  3
DIFFUSETILE
360
10
  3
OPACITYTILE
360
11
  3
REFLECTIONTILE
360
12
  0
DICTIONARY
  5
38A80
330
283CC
100
AcDbDictionary
280
     1
281
     1
  3
ACAD_XREC_ROUNDTRIP
360
38A81
  0
DICTIONARY
  5
38A7C
330
BDB
100
AcDbDictionary
280
     1
281
     1
  3
ACAD_XREC_ROUNDTRIP
360
38A7D
  0
DICTIONARY
  5
45
330
44
100
AcDbDictionary
280
     1
281
     1
  3
ACAD_ROUNDTRIP_2008_TABLESTYLE_CELLSTYLEMAP
360
38A7B
  0
XRECORD
  5
38A83
102
{ACAD_REACTORS
330
38A82
102
}
330
38A82
100
AcDbXrecord
280
     1
102
DISPLAYNAME
  1
Imperial24
102
FLAGS
 90
        0
  0
XRECORD
  5
38A7F
102
{ACAD_REACTORS
330
38A7E
102
}
330
38A7E
100
AcDbXrecord
280
     1
102
DISPLAYNAME
  1
Metric50
102
FLAGS
 90
        0
  0
XRECORD
  5
F
102
{ACAD_REACTORS
330
E
102
}
330
E
100
AcDbXrecord
280
     1
270
     1
271
     1
  0
XRECORD
  5
10
102
{ACAD_REACTORS
330
E
102
}
330
E
100
AcDbXrecord
280
     1
270
     1
271
     1
  0
XRECORD
  5
11
102
{ACAD_REACTORS
330
E
102
}
330
E
100
AcDbXrecord
280
     1
270
     1
271
     1
  0
XRECORD
  5
12
102
{ACAD_REACTORS
330
E
102
}
330
E
100
AcDbXrecord
280
     1
270
     1
271
     1
  0
XRECORD
  5
38A81
102
{ACAD_REACTORS
330
38A80
102
}
330
38A80
100
AcDbXrecord
280
     1
102
DISPLAYNAME
  1
Imperial24
102
FLAGS
 90
        0
  0
XRECORD
  5
38A7D
102
{ACAD_REACTORS
330
38A7C
102
}
330
38A7C
100
AcDbXrecord
280
     1
102
DISPLAYNAME
  1
Metric50
102
FLAGS
 90
        0
  0
CELLSTYLEMAP
  5
38A7B
102
{ACAD_REACTORS
330
45
102
}
330
45
100
AcDbCellStyleMap
 90
        3
300
CELLSTYLE
  1
TABLEFORMAT_BEGIN
 90
        5
170
     1
 91
        0
 92
    32768
 62
   257
 93
        1
300
CONTENTFORMAT
  1
CONTENTFORMAT_BEGIN
 90
        0
 91
        0
 92
      512
 93
        0
300

 40
0.0
140
1.0
 94
        5
 62
     0
340
25
144
6.0
309
CONTENTFORMAT_END
171
     1
301
MARGIN
  1
CELLMARGIN_BEGIN
 40
1.5
 40
1.5
 40
1.5
 40
1.5
 40
0.18
 40
0.18
309
CELLMARGIN_END
 94
        6
 95
        1
302
GRIDFORMAT
  1
GRIDFORMAT_BEGIN
 90
        0
 91
        1
 62
     0
 92
       -2
340
28
 93
        0
 40
1.125
309
GRIDFORMAT_END
 95
        2
302
GRIDFORMAT
  1
GRIDFORMAT_BEGIN
 90
        0
 91
        1
 62
     0
 92
       -2
340
28
 93
        0
 40
1.125
309
GRIDFORMAT_END
 95
        4
302
GRIDFORMAT
  1
GRIDFORMAT_BEGIN
 90
        0
 91
        1
 62
     0
 92
       -2
340
28
 93
        0
 40
1.125
309
GRIDFORMAT_END
 95
        8
302
GRIDFORMAT
  1
GRIDFORMAT_BEGIN
 90
        0
 91
        1
 62
     0
 92
       -2
340
28
 93
        0
 40
1.125
309
GRIDFORMAT_END
 95
       16
302
GRIDFORMAT
  1
GRIDFORMAT_BEGIN
 90
        0
 91
        1
 62
     0
 92
       -2
340
28
 93
        0
 40
1.125
309
GRIDFORMAT_END
 95
       32
302
GRIDFORMAT
  1
GRIDFORMAT_BEGIN
 90
        0
 91
        1
 62
     0
 92
       -2
340
28
 93
        0
 40
1.125
309
GRIDFORMAT_END
309
TABLEFORMAT_END
  1
CELLSTYLE_BEGIN
 90
        1
 91
        1
300
_TITLE
309
CELLSTYLE_END
300
CELLSTYLE
  1
TABLEFORMAT_BEGIN
 90
        5
170
     1
 91
        0
 92
        0
 62
   257
 93
        1
300
CONTENTFORMAT
  1
CONTENTFORMAT_BEGIN
 90
        0
 91
        0
 92
      512
 93
        0
300

 40
0.0
140
1.0
 94
        5
 62
     0
340
25
144
4.5
309
CONTENTFORMAT_END
171
     1
301
MARGIN
  1
CELLMARGIN_BEGIN
 40
1.5
 40
1.5
 40
1.5
 40
1.5
 40
0.18
 40
0.18
309
CELLMARGIN_END
 94
        6
 95
        1
302
GRIDFORMAT
  1
GRIDFORMAT_BEGIN
 90
        0
 91
        1
 62
     0
 92
       -2
340
28
 93
        0
 40
1.125
309
GRIDFORMAT_END
 95
        2
302
GRIDFORMAT
  1
GRIDFORMAT_BEGIN
 90
        0
 91
        1
 62
     0
 92
       -2
340
28
 93
        0
 40
1.125
309
GRIDFORMAT_END
 95
        4
302
GRIDFORMAT
  1
GRIDFORMAT_BEGIN
 90
        0
 91
        1
 62
     0
 92
       -2
340
28
 93
        0
 40
1.125
309
GRIDFORMAT_END
 95
        8
302
GRIDFORMAT
  1
GRIDFORMAT_BEGIN
 90
        0
 91
        1
 62
     0
 92
       -2
340
28
 93
        0
 40
1.125
309
GRIDFORMAT_END
 95
       16
302
GRIDFORMAT
  1
GRIDFORMAT_BEGIN
 90
        0
 91
        1
 62
     0
 92
       -2
340
28
 93
        0
 40
1.125
309
GRIDFORMAT_END
 95
       32
302
GRIDFORMAT
  1
GRIDFORMAT_BEGIN
 90
        0
 91
        1
 62
     0
 92
       -2
340
28
 93
        0
 40
1.125
309
GRIDFORMAT_END
309
TABLEFORMAT_END
  1
CELLSTYLE_BEGIN
 90
        2
 91
        1
300
_HEADER
309
CELLSTYLE_END
300
CELLSTYLE
  1
TABLEFORMAT_BEGIN
 90
        5
170
     1
 91
        0
 92
        0
 62
   257
 93
        1
300
CONTENTFORMAT
  1
CONTENTFORMAT_BEGIN
 90
        0
 91
        0
 92
      512
 93
        0
300

 40
0.0
140
1.0
 94
        2
 62
     0
340
25
144
4.5
309
CONTENTFORMAT_END
171
     1
301
MARGIN
  1
CELLMARGIN_BEGIN
 40
1.5
 40
1.5
 40
1.5
 40
1.5
 40
0.18
 40
0.18
309
CELLMARGIN_END
 94
        6
 95
        1
302
GRIDFORMAT
  1
GRIDFORMAT_BEGIN
 90
        0
 91
        1
 62
     0
 92
       -2
340
28
 93
        0
 40
1.125
309
GRIDFORMAT_END
 95
        2
302
GRIDFORMAT
  1
GRIDFORMAT_BEGIN
 90
        0
 91
        1
 62
     0
 92
       -2
340
28
 93
        0
 40
1.125
309
GRIDFORMAT_END
 95
        4
302
GRIDFORMAT
  1
GRIDFORMAT_BEGIN
 90
        0
 91
        1
 62
     0
 92
       -2
340
28
 93
        0
 40
1.125
309
GRIDFORMAT_END
 95
        8
302
GRIDFORMAT
  1
GRIDFORMAT_BEGIN
 90
        0
 91
        1
 62
     0
 92
       -2
340
28
 93
        0
 40
1.125
309
GRIDFORMAT_END
 95
       16
302
GRIDFORMAT
  1
GRIDFORMAT_BEGIN
 90
        0
 91
        1
 62
     0
 92
       -2
340
28
 93
        0
 40
1.125
309
GRIDFORMAT_END
 95
       32
302
GRIDFORMAT
  1
GRIDFORMAT_BEGIN
 90
        0
 91
        1
 62
     0
 92
       -2
340
28
 93
        0
 40
1.125
309
GRIDFORMAT_END
309
TABLEFORMAT_END
  1
CELLSTYLE_BEGIN
 90
        3
 91
        2
300
_DATA
309
CELLSTYLE_END
  0
ENDSEC
  0
SECTION
  2
ACDSDATA
 70
     2
 71
     6
  0
ACDSSCHEMA
 90
        0
  1
AcDb_Thumbnail_Schema
  2
AcDbDs::ID
280
    10
 91
        8
  2
Thumbnail_Data
280
    15
 91
        0
101
ACDSRECORD
 95
        0
 90
        1
  2
AcDbDs::TreatedAsObjectData
280
     1
291
     1
101
ACDSRECORD
 95
        0
 90
        2
  2
AcDbDs::Legacy
280
     1
291
     1
101
ACDSRECORD
  1
AcDbDs::ID
 90
        3
  2
AcDs:Indexable
280
     1
291
     1
101
ACDSRECORD
  1
AcDbDs::ID
 90
        4
  2
AcDbDs::HandleAttribute
280
     7
282
     1
  0
ACDSSCHEMA
 90
        1
  1
AcDbDs::TreatedAsObjectDataSchema
  2
AcDbDs::TreatedAsObjectData
280
     1
 91
        0
  0
ACDSSCHEMA
 90
        2
  1
AcDbDs::LegacySchema
  2
AcDbDs::Legacy
280
     1
 91
        0
  0
ACDSSCHEMA
 90
        3
  1
AcDbDs::IndexedPropertySchema
  2
AcDs:Indexable
280
     1
 91
        0
  0
ACDSSCHEMA
 90
        4
  1
AcDbDs::HandleAttributeSchema
  2
AcDbDs::HandleAttribute
280
     7
 91
        1
284
     1
  0
ACDSRECORD
 90
        0
  2
AcDbDs::ID
280
    10
320
16
  2
Thumbnail_Data
280
    15
 94
     1828
310
89504E470D0A1A0A0000000D494844520000010000000076080300000010A0BD3C00000300504C5445000000000000C8C8C80000000000000000000000000000000000000000000000000000330000660000990000CC0000FF0033000033330033660033990033CC0033FF0066000066330066660066990066CC0066FF0099
310
000099330099660099990099CC0099FF00CC0000CC3300CC6600CC9900CCCC00CCFF00FF0000FF3300FF6600FF9900FFCC00FFFF3300003300333300663300993300CC3300FF3333003333333333663333993333CC3333FF3366003366333366663366993366CC3366FF3399003399333399663399993399CC3399FF33CC00
310
33CC3333CC6633CC9933CCCC33CCFF33FF0033FF3333FF6633FF9933FFCC33FFFF6600006600336600666600996600CC6600FF6633006633336633666633996633CC6633FF6666006666336666666666996666CC6666FF6699006699336699666699996699CC6699FF66CC0066CC3366CC6666CC9966CCCC66CCFF66FF0066
310
FF3366FF6666FF9966FFCC66FFFF9900009900339900669900999900CC9900FF9933009933339933669933999933CC9933FF9966009966339966669966999966CC9966FF9999009999339999669999999999CC9999FF99CC0099CC3399CC6699CC9999CCCC99CCFF99FF0099FF3399FF6699FF9999FFCC99FFFFCC0000CC00
310
33CC0066CC0099CC00CCCC00FFCC3300CC3333CC3366CC3399CC33CCCC33FFCC6600CC6633CC6666CC6699CC66CCCC66FFCC9900CC9933CC9966CC9999CC99CCCC99FFCCCC00CCCC33CCCC66CCCC99CCCCCCCCCCFFCCFF00CCFF33CCFF66CCFF99CCFFCCCCFFFFFF0000FF0033FF0066FF0099FF00CCFF00FFFF3300FF3333
310
FF3366FF3399FF33CCFF33FFFF6600FF6633FF6666FF6699FF66CCFF66FFFF9900FF9933FF9966FF9999FF99CCFF99FFFFCC00FFCC33FFCC66FFCC99FFCCCCFFCCFFFFFF00FFFF33FFFF66FFFF99FFFFCCFFFFFF0000000D0D0D1A1A1A2828283535354343435050505D5D5D6B6B6B787878868686939393A1A1A1AEAEAEBB
310
BBBBC9C9C9D6D6D6E4E4E4F1F1F1FFFFFF00000000000000000000000000000000000000000000000000000000000008F1915C000003DF4944415478DAED9D617A83200C86739CFCF1663BB2D7C8FF898A0202465B01CB973D9B5B45252F4920C05AA26744BE5C4E5FB011510390770190888CA3E8445BF0C31B166FD87154
310
5EAC2DF8D90DA509CB7E81F3010000000000000000000000000000000000A8459DA7559447EBD83D00C40000000000000000000000000000E813C0D30B6F2FA8245C0000002048BE3DE91300ADDF93F024DDBAC0DAFCDC7B0C2802C038DBE27247C7AB0CE069FD79F9B1395D7F008CC8146DC65E019C3EA40C00CB7EEC1CC0
310
648A8543602B00521A2B00B87B1A39277100030F434B0002953500061AAC5C0D2626D3E39384AFF4DA60024066832B0DA2A82BC7D43797F07C5D1A41E9B5418EFF31B5334D4D4D743C0E740BC0A2B2059046507C6D90C3DFED96E5A4FEE62E7C1580D8033BBF373114E6D0E88D96C6D093FA0F3700EC46D31080D0B5E9A86A
310
547FD2EC6C4F0188F61EB50098787ED033ABBF3D4EC3D9A93BD30390F809C9177D1CC0AA8CC741A5FF60004CAE901A11845A496074EEEBE160ACAC0BCCFAB0A3BC4AFF058053D8B785E3684F9C9E803D20750190F8CDA6D67F7681EDA5301A6400D8EE4F5A01E004C291452D93FEE214F7FAF4759E83E3FADB0B5C1FA80B20
310
9812533E3ED04F0DC0C05B4784FB994A008C15CF5F6B081B97B98AC51DE646E668B2E3141E647D459CFC260260BF7479946CCF998F52AD1BDC02B35FFB6DD82EFE1095C35BECB16F384CF8A52CC0E602552C2008569F00E02480B31830BB8064003CB9365802C07C2E1F04F3BD80BCC2054E00503213984749D24A37581A80
310
F100267F28F86E00D1A1B070FAB1EC3DAE7A2EE0E684DE74840B80FD967501A8A7D2642FD85232E465265E8EEB590087008E4B1AAC7D7053E930C7D358D922B5D8614C08E0B205D8B0C74D4D88C4016C6ACA12B479330417005D0460BB7C078050EB00B684C70E97AD6D64009CCC773B0084DA04B025037BB0F67D74B86901
310
EB28F0745ABC3680FD1C27004C99F3614E90757A882C0B2AD516466E02389FF7D3AD29B2A6688300924B15B700D0EB007072FBD8FB00F89AE8017CC702F8461D5B00403F04E05E0C5068F445000D06C12F01E03D89A0CCAED45600642B790F80994C3DDF96DB0C80F1DB00C85A00BDC202AE39353F54C52701E49A58B7757C
310
2BF4D59DE6E52C0000F200E81A80F7B940AB0200000000CFDD1BFF380917000000000000000000000000000000283DC00FE42F908A1FB050B659C5DDA13E2BFE371FCB54B1DA9B6448DC1662EDFE9BEF29DA0A80FA2E10C481C867ABF412040F007A0982BD768300E046E28300408723C1CCFB13200600C02F0218FDC5F474
310
1C0000B8402BD1B896146F1DF5C71EC60AC6EAFBD10D2BC86700A832807F5796B8A8F335E4D00000000049454E44AE426082
  0
ACDSRECORD
 90
        0
  2
AcDbDs::ID
280
    10
320
1E
  2
Thumbnail_Data
280
    15
 94
      882
310
89504E470D0A1A0A0000000D49484452000000B80000007F08030000006B00F8F900000300504C5445FFFFFF000000C8C8C80000000000000000000000000000000000000000000000000000330000660000990000CC0000FF0033000033330033660033990033CC0033FF0066000066330066660066990066CC0066FF0099
310
000099330099660099990099CC0099FF00CC0000CC3300CC6600CC9900CCCC00CCFF00FF0000FF3300FF6600FF9900FFCC00FFFF3300003300333300663300993300CC3300FF3333003333333333663333993333CC3333FF3366003366333366663366993366CC3366FF3399003399333399663399993399CC3399FF33CC00
310
33CC3333CC6633CC9933CCCC33CCFF33FF0033FF3333FF6633FF9933FFCC33FFFF6600006600336600666600996600CC6600FF6633006633336633666633996633CC6633FF6666006666336666666666996666CC6666FF6699006699336699666699996699CC6699FF66CC0066CC3366CC6666CC9966CCCC66CCFF66FF0066
310
FF3366FF6666FF9966FFCC66FFFF9900009900339900669900999900CC9900FF9933009933339933669933999933CC9933FF9966009966339966669966999966CC9966FF9999009999339999669999999999CC9999FF99CC0099CC3399CC6699CC9999CCCC99CCFF99FF0099FF3399FF6699FF9999FFCC99FFFFCC0000CC00
310
33CC0066CC0099CC00CCCC00FFCC3300CC3333CC3366CC3399CC33CCCC33FFCC6600CC6633CC6666CC6699CC66CCCC66FFCC9900CC9933CC9966CC9999CC99CCCC99FFCCCC00CCCC33CCCC66CCCC99CCCCCCCCCCFFCCFF00CCFF33CCFF66CCFF99CCFFCCCCFFFFFF0000FF0033FF0066FF0099FF00CCFF00FFFF3300FF3333
310
FF3366FF3399FF33CCFF33FFFF6600FF6633FF6666FF6699FF66CCFF66FFFF9900FF9933FF9966FF9999FF99CCFF99FFFFCC00FFCC33FFCC66FFCC99FFCCCCFFCCFFFFFF00FFFF33FFFF66FFFF99FFFFCCFFFFFF0000000D0D0D1A1A1A2828283535354343435050505D5D5D6B6B6B787878868686939393A1A1A1AEAEAEBB
310
BBBBC9C9C9D6D6D6E4E4E4F1F1F1FFFFFF000000000000000000000000000000000000000000000000000000000000B0E2D2350000002D4944415478DAEDC13101000000C2A0F54FED6F06A00000000000000000000000000000000000000000000080335BC70001E79522D80000000049454E44AE426082
  0
ENDSEC
  0
EOF
