  0
SECTION
  2
HEADER
  9
$ACADVER
  1
AC1027
  9
$ACADMAINTVER
 70
    55
  9
$DWGCODEPAGE
  3
ANSI_949
  9
$LASTSAVEDBY
  1
DESKTOP
  9
$REQUIREDVERSIONS
160
                 0
  9
$INSBASE
 10
0.0
 20
0.0
 30
0.0
  9
$EXTMIN
 10
417.7480161435019
 20
-3.256597716427449
 30
-0.0000000000000058
  9
$EXTMAX
 10
689.4399281908826
 20
188.2922498446536
 30
0.0000000000000104
  9
$LIMMIN
 10
0.0
 20
0.0
  9
$LIMMAX
 10
420.0
 20
297.0
  9
$ORTHOMODE
 70
     0
  9
$REGENMODE
 70
     1
  9
$FILLMODE
 70
     1
  9
$QTEXTMODE
 70
     0
  9
$MIRRTEXT
 70
     0
  9
$LTSCALE
 40
5.0
  9
$ATTMODE
 70
     1
  9
$TEXTSIZE
 40
3.0
  9
$TRACEWID
 40
1.0
  9
$TEXTSTYLE
  7
Standard
  9
$CLAYER
  8
0
  9
$CELTYPE
  6
Continuous
  9
$CECOLOR
 62
     7
  9
$CELTSCALE
 40
1.0
  9
$DISPSILH
 70
     0
  9
$DIMSCALE
 40
1.0
  9
$DIMASZ
 40
2.5
  9
$DIMEXO
 40
0.625
  9
$DIMDLI
 40
3.75
  9
$DIMRND
 40
0.0
  9
$DIMDLE
 40
0.0
  9
$DIMEXE
 40
1.25
  9
$DIMTP
 40
0.0
  9
$DIMTM
 40
0.000000001
  9
$DIMTXT
 40
3.0
  9
$DIMCEN
 40
-0.5
  9
$DIMTSZ
 40
0.0
  9
$DIMTOL
 70
     0
  9
$DIMLIM
 70
     0
  9
$DIMTIH
 70
     0
  9
$DIMTOH
 70
     0
  9
$DIMSE1
 70
     0
  9
$DIMSE2
 70
     0
  9
$DIMTAD
 70
     1
  9
$DIMZIN
 70
     8
  9
$DIMBLK
  1

  9
$DIMASO
 70
     1
  9
$DIMSHO
 70
     1
  9
$DIMPOST
  1

  9
$DIMAPOST
  1

  9
$DIMALT
 70
     0
  9
$DIMALTD
 70
     3
  9
$DIMALTF
 40
0.03937007874016
  9
$DIMLFAC
 40
1.0
  9
$DIMTOFL
 70
     1
  9
$DIMTVP
 40
0.0
  9
$DIMTIX
 70
     0
  9
$DIMSOXD
 70
     0
  9
$DIMSAH
 70
     0
  9
$DIMBLK1
  1

  9
$DIMBLK2
  1

  9
$DIMSTYLE
  2
Standard
  9
$DIMCLRD
 70
     3
  9
$DIMCLRE
 70
     3
  9
$DIMCLRT
 70
     2
  9
$DIMTFAC
 40
0.7
  9
$DIMGAP
 40
0.625
  9
$DIMJUST
 70
     0
  9
$DIMSD1
 70
     0
  9
$DIMSD2
 70
     0
  9
$DIMTOLJ
 70
     0
  9
$DIMTZIN
 70
     8
  9
$DIMALTZ
 70
     0
  9
$DIMALTTZ
 70
     0
  9
$DIMUPT
 70
     0
  9
$DIMDEC
 70
     8
  9
$DIMTDEC
 70
     8
  9
$DIMALTU
 70
     2
  9
$DIMALTTD
 70
     3
  9
$DIMTXSTY
  7
Standard
  9
$DIMAUNIT
 70
     1
  9
$DIMADEC
 70
     1
  9
$DIMALTRND
 40
0.0
  9
$DIMAZIN
 70
     0
  9
$DIMDSEP
 70
    46
  9
$DIMATFIT
 70
     3
  9
$DIMFRAC
 70
     0
  9
$DIMLDRBLK
  1

  9
$DIMLUNIT
 70
     2
  9
$DIMLWD
 70
    -1
  9
$DIMLWE
 70
    -1
  9
$DIMTMOVE
 70
     0
  9
$DIMFXL
 40
1.0
  9
$DIMFXLON
 70
     0
  9
$DIMJOGANG
 40
0.7853981633974483
  9
$DIMTFILL
 70
     0
  9
$DIMTFILLCLR
 70
     0
  9
$DIMARCSYM
 70
     1
  9
$DIMLTYPE
  6

  9
$DIMLTEX1
  6

  9
$DIMLTEX2
  6

  9
$DIMTXTDIRECTION
 70
     0
  9
$LUNITS
 70
     2
  9
$LUPREC
 70
     4
  9
$SKETCHINC
 40
0.0
  9
$FILLETRAD
 40
0.0
  9
$AUNITS
 70
     0
  9
$AUPREC
 70
     0
  9
$MENU
  1
.
  9
$ELEVATION
 40
0.0
  9
$PELEVATION
 40
0.0
  9
$THICKNESS
 40
0.0
  9
$LIMCHECK
 70
     0
  9
$CHAMFERA
 40
1.5
  9
$CHAMFERB
 40
1.5
  9
$CHAMFERC
 40
0.0
  9
$CHAMFERD
 40
0.0087266462599716
  9
$SKPOLY
 70
     0
  9
$TDCREATE
 40
2455072.745932974
  9
$TDUCREATE
 40
2455072.370932974
  9
$TDUPDATE
 40
2459930.734301944
  9
$TDUUPDATE
 40
2459930.359301945
  9
$TDINDWG
 40
131.6573412153
  9
$TDUSRTIMER
 40
131.6573410301
  9
$USRTIMER
 70
     1
  9
$ANGBASE
 50
0.0
  9
$ANGDIR
 70
     0
  9
$PDMODE
 70
     0
  9
$PDSIZE
 40
0.0
  9
$PLINEWID
 40
0.0
  9
$SPLFRAME
 70
     0
  9
$SPLINETYPE
 70
     6
  9
$SPLINESEGS
 70
     8
  9
$HANDSEED
  5
23230
  9
$SURFTAB1
 70
     6
  9
$SURFTAB2
 70
     6
  9
$SURFTYPE
 70
     6
  9
$SURFU
 70
     6
  9
$SURFV
 70
     6
  9
$UCSBASE
  2

  9
$UCSNAME
  2

  9
$UCSORG
 10
0.0
 20
0.0
 30
0.0
  9
$UCSXDIR
 10
1.0
 20
0.0
 30
0.0
  9
$UCSYDIR
 10
0.0
 20
1.0
 30
0.0
  9
$UCSORTHOREF
  2

  9
$UCSORTHOVIEW
 70
     0
  9
$UCSORGTOP
 10
0.0
 20
0.0
 30
0.0
  9
$UCSORGBOTTOM
 10
0.0
 20
0.0
 30
0.0
  9
$UCSORGLEFT
 10
0.0
 20
0.0
 30
0.0
  9
$UCSORGRIGHT
 10
0.0
 20
0.0
 30
0.0
  9
$UCSORGFRONT
 10
0.0
 20
0.0
 30
0.0
  9
$UCSORGBACK
 10
0.0
 20
0.0
 30
0.0
  9
$PUCSBASE
  2

  9
$PUCSNAME
  2

  9
$PUCSORG
 10
0.0
 20
0.0
 30
0.0
  9
$PUCSXDIR
 10
1.0
 20
0.0
 30
0.0
  9
$PUCSYDIR
 10
0.0
 20
1.0
 30
0.0
  9
$PUCSORTHOREF
  2

  9
$PUCSORTHOVIEW
 70
     0
  9
$PUCSORGTOP
 10
0.0
 20
0.0
 30
0.0
  9
$PUCSORGBOTTOM
 10
0.0
 20
0.0
 30
0.0
  9
$PUCSORGLEFT
 10
0.0
 20
0.0
 30
0.0
  9
$PUCSORGRIGHT
 10
0.0
 20
0.0
 30
0.0
  9
$PUCSORGFRONT
 10
0.0
 20
0.0
 30
0.0
  9
$PUCSORGBACK
 10
0.0
 20
0.0
 30
0.0
  9
$USERI1
 70
     0
  9
$USERI2
 70
     0
  9
$USERI3
 70
     0
  9
$USERI4
 70
     0
  9
$USERI5
 70
     0
  9
$USERR1
 40
0.0
  9
$USERR2
 40
0.0
  9
$USERR3
 40
0.0
  9
$USERR4
 40
0.0
  9
$USERR5
 40
0.0
  9
$WORLDVIEW
 70
     1
  9
$SHADEDGE
 70
     3
  9
$SHADEDIF
 70
    70
  9
$TILEMODE
 70
     1
  9
$MAXACTVP
 70
    64
  9
$PINSBASE
 10
0.0
 20
0.0
 30
0.0
  9
$PLIMCHECK
 70
     0
  9
$PEXTMIN
 10
1.000000000000000E+20
 20
1.000000000000000E+20
 30
1.000000000000000E+20
  9
$PEXTMAX
 10
-1.000000000000000E+20
 20
-1.000000000000000E+20
 30
-1.000000000000000E+20
  9
$PLIMMIN
 10
-20.0
 20
-7.5
  9
$PLIMMAX
 10
277.0
 20
202.5
  9
$UNITMODE
 70
     0
  9
$VISRETAIN
 70
     1
  9
$PLINEGEN
 70
     0
  9
$PSLTSCALE
 70
     1
  9
$TREEDEPTH
 70
  3020
  9
$CMLSTYLE
  2
Standard
  9
$CMLJUST
 70
     0
  9
$CMLSCALE
 40
20.0
  9
$PROXYGRAPHICS
 70
     1
  9
$MEASUREMENT
 70
     1
  9
$CELWEIGHT
370
    -1
  9
$ENDCAPS
280
     0
  9
$JOINSTYLE
280
     0
  9
$LWDISPLAY
290
     0
  9
$INSUNITS
 70
     4
  9
$HYPERLINKBASE
  1

  9
$STYLESHEET
  1
ksm0910.ctb
  9
$XEDIT
290
     1
  9
$CEPSNTYPE
380
     0
  9
$PSTYLEMODE
290
     1
  9
$FINGERPRINTGUID
  2
{D2C70C36-9B4F-4E20-9CCB-531AA1EE4AC8}
  9
$VERSIONGUID
  2
{75A21121-1BF4-4855-9DCC-C5188F8417B9}
  9
$EXTNAMES
290
     1
  9
$PSVPSCALE
 40
0.0
  9
$OLESTARTUP
290
     0
  9
$SORTENTS
280
   127
  9
$INDEXCTL
280
     0
  9
$HIDETEXT
280
     1
  9
$XCLIPFRAME
280
     2
  9
$HALOGAP
280
     0
  9
$OBSCOLOR
 70
   257
  9
$OBSLTYPE
280
     0
  9
$INTERSECTIONDISPLAY
280
     0
  9
$INTERSECTIONCOLOR
 70
   257
  9
$DIMASSOC
280
     1
  9
$PROJECTNAME
  1

  9
$CAMERADISPLAY
290
     0
  9
$LENSLENGTH
 40
50.0
  9
$CAMERAHEIGHT
 40
0.0
  9
$STEPSPERSEC
 40
2.0
  9
$STEPSIZE
 40
6.0
  9
$3DDWFPREC
 40
2.0
  9
$PSOLWIDTH
 40
5.0
  9
$PSOLHEIGHT
 40
80.0
  9
$LOFTANG1
 40
1.570796326794896
  9
$LOFTANG2
 40
1.570796326794896
  9
$LOFTMAG1
 40
0.0
  9
$LOFTMAG2
 40
0.0
  9
$LOFTPARAM
 70
     7
  9
$LOFTNORMALS
280
     1
  9
$LATITUDE
 40
37.795
  9
$LONGITUDE
 40
-122.394
  9
$NORTHDIRECTION
 40
0.0
  9
$TIMEZONE
 70
 -8000
  9
$LIGHTGLYPHDISPLAY
280
     1
  9
$TILEMODELIGHTSYNCH
280
     1
  9
$CMATERIAL
347
3D
  9
$SOLIDHIST
280
     1
  9
$SHOWHIST
280
     1
  9
$DWFFRAME
280
     2
  9
$DGNFRAME
280
     0
  9
$REALWORLDSCALE
290
     1
  9
$INTERFERECOLOR
 62
     1
  9
$INTERFEREOBJVS
345
46
  9
$INTERFEREVPVS
346
47
  9
$CSHADOW
280
     0
  9
$SHADOWPLANELOCATION
 40
0.0
  0
ENDSEC
  0
SECTION
  2
CLASSES
  0
CLASS
  1
ACDBDICTIONARYWDFLT
  2
AcDbDictionaryWithDefault
  3
ObjectDBX Classes
 90
        0
 91
        1
280
     0
281
     0
  0
CLASS
  1
DICTIONARYVAR
  2
AcDbDictionaryVar
  3
ObjectDBX Classes
 90
        0
 91
       18
280
     0
281
     0
  0
CLASS
  1
TABLESTYLE
  2
AcDbTableStyle
  3
ObjectDBX Classes
 90
     4095
 91
        1
280
     0
281
     0
  0
CLASS
  1
MATERIAL
  2
AcDbMaterial
  3
ObjectDBX Classes
 90
     1153
 91
        3
280
     0
281
     0
  0
CLASS
  1
VISUALSTYLE
  2
AcDbVisualStyle
  3
ObjectDBX Classes
 90
     4095
 91
       26
280
     0
281
     0
  0
CLASS
  1
SCALE
  2
AcDbScale
  3
ObjectDBX Classes
 90
     1153
 91
       17
280
     0
281
     0
  0
CLASS
  1
MLEADERSTYLE
  2
AcDbMLeaderStyle
  3
ACDB_MLEADERSTYLE_CLASS
 90
     4095
 91
        1
280
     0
281
     0
  0
CLASS
  1
CELLSTYLEMAP
  2
AcDbCellStyleMap
  3
ObjectDBX Classes
 90
     1152
 91
        2
280
     0
281
     0
  0
CLASS
  1
SORTENTSTABLE
  2
AcDbSortentsTable
  3
ObjectDBX Classes
 90
        0
 91
        1
280
     0
281
     0
  0
CLASS
  1
DIMASSOC
  2
AcDbDimAssoc
  3
"AcDbDimAssoc|Product Desc:     AcDim ARX App For Dimension|Company:          Autodesk, Inc.|WEB Address:      www.autodesk.com"
 90
        0
 91
        0
280
     0
281
     0
  0
CLASS
  1
SOLID_BACKGROUND
  2
AcDbSolidBackground
  3
SCENEOE
 90
     4095
 91
        0
280
     0
281
     0
  0
CLASS
  1
NPOCOLLECTION
  2
AcDbImpNonPersistentObjectsCollection
  3
ObjectDBX Classes
 90
     1153
 91
        0
280
     0
281
     0
  0
CLASS
  1
ACAD_EVALUATION_GRAPH
  2
AcDbEvalGraph
  3
ObjectDBX Classes
 90
     1153
 91
        0
280
     0
281
     0
  0
CLASS
  1
ACAECUSTOBJ
  2
AcAeEditorObj
  3
AcAeEditorObj
 90
     1024
 91
        0
280
     1
281
     0
  0
CLASS
  1
ACDB_DYNAMICBLOCKPURGEPREVENTER_VERSION
  2
AcDbDynamicBlockPurgePreventer
  3
ObjectDBX Classes
 90
     1153
 91
        0
280
     0
281
     0
  0
CLASS
  1
HELIX
  2
AcDbHelix
  3
ObjectDBX Classes
 90
     4095
 91
        0
280
     0
281
     1
  0
CLASS
  1
MULTILEADER
  2
AcDbMLeader
  3
ACDB_MLEADER_CLASS
 90
     1025
 91
        1
280
     0
281
     1
  0
CLASS
  1
ACMDIMBREAKPERSREACTOR
  2
AcmDimBreakPersReactor
  3
amgDimApp().moduleName()
 90
     1023
 91
        0
280
     1
281
     0
  0
CLASS
  1
ACDB_MTEXTOBJECTCONTEXTDATA_CLASS
  2
AcDbMTextObjectContextData
  3
ObjectDBX Classes
 90
     1153
 91
        0
280
     0
281
     0
  0
CLASS
  1
BREAKDATA
  2
AcDbBreakData
  3
ObjectDBX Classes
 90
     1024
 91
        0
280
     0
281
     0
  0
CLASS
  1
EXACXREFPANELOBJECT
  2
ExAcXREFPanelObject
  3
EXAC_ESW
 90
     1025
 91
        0
280
     1
281
     0
  0
CLASS
  1
ACDBSECTIONVIEWSTYLE
  2
AcDbSectionViewStyle
  3
ObjectDBX Classes
 90
     1025
 91
        1
280
     0
281
     0
  0
CLASS
  1
ACDBDETAILVIEWSTYLE
  2
AcDbDetailViewStyle
  3
ObjectDBX Classes
 90
     1025
 91
        1
280
     0
281
     0
  0
ENDSEC
  0
SECTION
  2
TABLES
  0
TABLE
  2
VPORT
  5
2C
102
{ACAD_XDICTIONARY
360
31
102
}
330
0
100
AcDbSymbolTable
 70
     1
  0
VPORT
  5
2D
330
2C
100
AcDbSymbolTableRecord
100
AcDbViewportTableRecord
  2
*Active
 70
     0
 10
0.0
 20
0.0
 11
1.0
 21
1.0
 12
553.6033774939254
 22
92.52406569833738
 13
0.0
 23
0.0
 14
2.0
 24
2.0
 15
2.0
 25
2.0
 16
0.0
 26
0.0
 36
1.0
 17
0.0
 27
0.0
 37
0.0
 40
192.9811061619819
 41
2.214198286413708
 42
50.0
 43
0.0
 44
0.0
 50
0.0
 51
0.0
 71
     0
 72
  1000
 73
     1
 74
     3
 75
     0
 76
     0
 77
     0
 78
     1
281
     0
 65
     1
110
0.0
120
0.0
130
0.0
111
1.0
121
0.0
131
0.0
112
0.0
122
1.0
132
0.0
 79
     0
146
0.0
348
2E
 60
     3
 61
     5
292
     1
282
     1
141
0.0
142
0.0
 63
   250
421
  3355443
1001
ACAD_NAV_VCDISPLAY
1070
     3
  0
ENDTAB
  0
TABLE
  2
LTYPE
  5
27
330
0
100
AcDbSymbolTable
 70
     3
  0
LTYPE
  5
28
330
27
100
AcDbSymbolTableRecord
100
AcDbLinetypeTableRecord
  2
ByBlock
 70
     0
  3

 72
    65
 73
     0
 40
0.0
  0
LTYPE
  5
29
330
27
100
AcDbSymbolTableRecord
100
AcDbLinetypeTableRecord
  2
ByLayer
 70
     0
  3

 72
    65
 73
     0
 40
0.0
  0
LTYPE
  5
14
330
27
100
AcDbSymbolTableRecord
100
AcDbLinetypeTableRecord
  2
Continuous
 70
     0
  3
Solid line
 72
    65
 73
     0
 40
0.0
  0
LTYPE
  5
4DD
330
27
100
AcDbSymbolTableRecord
100
AcDbLinetypeTableRecord
  2
CENTER
 70
     0
  3
____ _ ____ _ ____ _ ____ _ ____ _ ____ _ ____ 
 72
    65
 73
     4
 40
2.0
 49
1.25
 74
     0
 49
-0.25
 74
     0
 49
0.25
 74
     0
 49
-0.25
 74
     0
  0
LTYPE
  5
2159F
330
27
100
AcDbSymbolTableRecord
100
AcDbLinetypeTableRecord
  2
HIDDEN
 70
     0
  3
Hidden __ __ __ __ __ __ __ __ __ __ __ __ __ _
 72
    65
 73
     2
 40
0.375
 49
0.25
 74
     0
 49
-0.125
 74
     0
  0
ENDTAB
  0
TABLE
  2
LAYER
  5
21
102
{ACAD_XDICTIONARY
360
22
102
}
330
0
100
AcDbSymbolTable
 70
     3
  0
LAYER
  5
6
102
{ACAD_XDICTIONARY
360
7
102
}
330
21
100
AcDbSymbolTableRecord
100
AcDbLayerTableRecord
  2
0
 70
     0
 62
     7
  6
Continuous
370
    -3
390
9
347
C
348
0
  0
LAYER
  5
1A4
330
21
100
AcDbSymbolTableRecord
100
AcDbLayerTableRecord
  2
DEFPOINTS
 70
     0
 62
     7
  6
Continuous
290
     0
370
    -3
390
9
347
C
348
0
  0
LAYER
  5
1DAC5
330
21
100
AcDbSymbolTableRecord
100
AcDbLayerTableRecord
  2
Layer 1
 70
     0
 62
     7
  6
Continuous
370
     0
390
9
347
C
348
0
  0
ENDTAB
  0
TABLE
  2
STYLE
  5
24
330
0
100
AcDbSymbolTable
 70
     4
  0
STYLE
  5
25
330
24
100
AcDbSymbolTableRecord
100
AcDbTextStyleTableRecord
  2
Standard
 70
     0
 40
3.0
 41
1.0
 50
0.0
 71
     0
 42
3.0
  3
isocp.shx
  4
whgtxt.shx
  0
STYLE
  5
35
330
24
100
AcDbSymbolTableRecord
100
AcDbTextStyleTableRecord
  2
ROMANS
 70
     0
 40
2.5
 41
1.0
 50
0.0
 71
     0
 42
2.5
  3
romans.shx
  4

  0
STYLE
  5
5C
330
24
100
AcDbSymbolTableRecord
100
AcDbTextStyleTableRecord
  2
굴림
 70
     0
 40
3.0
 41
1.0
 50
0.0
 71
     0
 42
3.0
  3

  4

1001
ACAD
1000
Gulim
1071
    33074
  0
ENDTAB
  0
TABLE
  2
VIEW
  5
2A
330
0
100
AcDbSymbolTable
 70
     0
  0
ENDTAB
  0
TABLE
  2
UCS
  5
2B
330
0
100
AcDbSymbolTable
 70
     0
  0
ENDTAB
  0
TABLE
  2
APPID
  5
32
330
0
100
AcDbSymbolTable
 70
    44
  0
APPID
  5
13
330
32
100
AcDbSymbolTableRecord
100
AcDbRegAppTableRecord
  2
ACAD
 70
     0
  0
APPID
  5
1A
330
32
100
AcDbSymbolTableRecord
100
AcDbRegAppTableRecord
  2
ACAD_PSEXT
 70
     0
  0
APPID
  5
37
330
32
100
AcDbSymbolTableRecord
100
AcDbRegAppTableRecord
  2
ACAD_DSTYLE_DIMJAG
 70
     0
  0
APPID
  5
38
330
32
100
AcDbSymbolTableRecord
100
AcDbRegAppTableRecord
  2
ACAD_DSTYLE_DIMTALN
 70
     0
  0
APPID
  5
36
330
32
100
AcDbSymbolTableRecord
100
AcDbRegAppTableRecord
  2
ACAD_DSTYLE_DIMJOGGED_JOGANGLE_SYMBOL
 70
     0
  0
APPID
  5
183
330
32
100
AcDbSymbolTableRecord
100
AcDbRegAppTableRecord
  2
AcAecLayerStandard
 70
     0
  0
APPID
  5
3DE
330
32
100
AcDbSymbolTableRecord
100
AcDbRegAppTableRecord
  2
ACAD_DSTYLE_DIMRADIAL_EXTENSION
 70
     0
  0
APPID
  5
530
330
32
100
AcDbSymbolTableRecord
100
AcDbRegAppTableRecord
  2
GRADIENTCOLOR1ACI
 70
     0
  0
APPID
  5
531
330
32
100
AcDbSymbolTableRecord
100
AcDbRegAppTableRecord
  2
GRADIENTCOLOR2ACI
 70
     0
  0
APPID
  5
30
330
32
100
AcDbSymbolTableRecord
100
AcDbRegAppTableRecord
  2
ACAD_NAV_VCDISPLAY
 70
     0
  0
APPID
  5
C34
330
32
100
AcDbSymbolTableRecord
100
AcDbRegAppTableRecord
  2
ACAD_MLEADERVER
 70
     0
  0
APPID
  5
C97
330
32
100
AcDbSymbolTableRecord
100
AcDbRegAppTableRecord
  2
ACAD_EXEMPT_FROM_CAD_STANDARDS
 70
     0
  0
APPID
  5
D79
330
32
100
AcDbSymbolTableRecord
100
AcDbRegAppTableRecord
  2
AcadAnnoMonitorAlertIconDisabled
 70
     0
  0
APPID
  5
1A45
330
32
100
AcDbSymbolTableRecord
100
AcDbRegAppTableRecord
  2
GENIUS_GENODEF_13
 70
     0
  0
APPID
  5
1A46
330
32
100
AcDbSymbolTableRecord
100
AcDbRegAppTableRecord
  2
GENIUS_GENOBJ-N-FIL_13
 70
     0
  0
APPID
  5
1A47
330
32
100
AcDbSymbolTableRecord
100
AcDbRegAppTableRecord
  2
ACAD_DSTYLE_DIMBREAK
 70
     0
  0
APPID
  5
1A48
330
32
100
AcDbSymbolTableRecord
100
AcDbRegAppTableRecord
  2
GENIUS_GENOBJ-N-HTC_13
 70
     0
  0
APPID
  5
1A49
330
32
100
AcDbSymbolTableRecord
100
AcDbRegAppTableRecord
  2
GENIUS_GENHATCH_13
 70
     0
  0
APPID
  5
1A4A
330
32
100
AcDbSymbolTableRecord
100
AcDbRegAppTableRecord
  2
GENIUS_GENREC_14
 70
     0
  0
APPID
  5
1A4B
330
32
100
AcDbSymbolTableRecord
100
AcDbRegAppTableRecord
  2
GENIUS_GENOBJ-N-REC_13
 70
     0
  0
APPID
  5
1A4C
330
32
100
AcDbSymbolTableRecord
100
AcDbRegAppTableRecord
  2
ACAUTHENVIRON
 70
     0
  0
APPID
  5
1A4D
330
32
100
AcDbSymbolTableRecord
100
AcDbRegAppTableRecord
  2
AcDbDynamicBlockTrueName
 70
     0
  0
APPID
  5
1A4E
330
32
100
AcDbSymbolTableRecord
100
AcDbRegAppTableRecord
  2
AcDbDynamicBlockGUID
 70
     0
  0
APPID
  5
1A4F
330
32
100
AcDbSymbolTableRecord
100
AcDbRegAppTableRecord
  2
AcDbBlockRepETag
 70
     0
  0
APPID
  5
1A50
330
32
100
AcDbSymbolTableRecord
100
AcDbRegAppTableRecord
  2
DCO15
 70
     0
  0
APPID
  5
1A51
330
32
100
AcDbSymbolTableRecord
100
AcDbRegAppTableRecord
  2
ACAD_DSTYLE_DIMTEXT_FILL
 70
     0
  0
APPID
  5
1A52
330
32
100
AcDbSymbolTableRecord
100
AcDbRegAppTableRecord
  2
ACAD_DSTYLE_DIM_LINETYPE
 70
     0
  0
APPID
  5
1A53
330
32
100
AcDbSymbolTableRecord
100
AcDbRegAppTableRecord
  2
ACAD_DSTYLE_DIM_EXT1_LINETYPE
 70
     0
  0
APPID
  5
1A54
330
32
100
AcDbSymbolTableRecord
100
AcDbRegAppTableRecord
  2
ACAD_DSTYLE_DIM_EXT2_LINETYPE
 70
     0
  0
APPID
  5
1A55
330
32
100
AcDbSymbolTableRecord
100
AcDbRegAppTableRecord
  2
ACAD_DSTYLE_DIMINSPECT
 70
     0
  0
APPID
  5
1A56
330
32
100
AcDbSymbolTableRecord
100
AcDbRegAppTableRecord
  2
AcadAnnotative
 70
     0
  0
APPID
  5
1A57
330
32
100
AcDbSymbolTableRecord
100
AcDbRegAppTableRecord
  2
GENIUS_GENDTOL_13
 70
     0
  0
APPID
  5
1A58
330
32
100
AcDbSymbolTableRecord
100
AcDbRegAppTableRecord
  2
GENIUS_GENFIL_13
 70
     0
  0
APPID
  5
1A59
330
32
100
AcDbSymbolTableRecord
100
AcDbRegAppTableRecord
  2
GENIUS_GENOBJ-N-CHA_13
 70
     0
  0
APPID
  5
1A5A
330
32
100
AcDbSymbolTableRecord
100
AcDbRegAppTableRecord
  2
AcadAnnotativeDecomposition
 70
     0
  0
APPID
  5
1A5B
330
32
100
AcDbSymbolTableRecord
100
AcDbRegAppTableRecord
  2
MCAD_NO_VIS
 70
     0
  0
APPID
  5
1A5C
330
32
100
AcDbSymbolTableRecord
100
AcDbRegAppTableRecord
  2
ACAD_TEMP_GRAPHIC
 70
     0
  0
APPID
  5
1A5D
330
32
100
AcDbSymbolTableRecord
100
AcDbRegAppTableRecord
  2
ACATTRIBSERVICES
 70
     0
  0
APPID
  5
1A5E
330
32
100
AcDbSymbolTableRecord
100
AcDbRegAppTableRecord
  2
DESIGNERASSEMBLIES
 70
     0
  0
APPID
  5
1A5F
330
32
100
AcDbSymbolTableRecord
100
AcDbRegAppTableRecord
  2
GENIUS_GENDIMSH_14
 70
     0
  0
APPID
  5
1A60
330
32
100
AcDbSymbolTableRecord
100
AcDbRegAppTableRecord
  2
ACAD_DSTYLE_DIMARC_LENGTH_SYMBOL
 70
     0
  0
APPID
  5
1A61
330
32
100
AcDbSymbolTableRecord
100
AcDbRegAppTableRecord
  2
ACAD_SPLINE_DATA
 70
     0
  0
APPID
  5
1A62
330
32
100
AcDbSymbolTableRecord
100
AcDbRegAppTableRecord
  2
GENIUS_GENOREF_13
 70
     0
  0
APPID
  5
1A63
330
32
100
AcDbSymbolTableRecord
100
AcDbRegAppTableRecord
  2
ACAD_DSTYLE_DIMANGULAR_EXTENSION
 70
     0
  0
ENDTAB
  0
TABLE
  2
DIMSTYLE
  5
33
330
0
100
AcDbSymbolTable
 70
     3
100
AcDbDimStyleTable
 71
     1
340
34
  0
DIMSTYLE
105
34
102
{ACAD_REACTORS
330
22FA8
330
22FA9
330
22FAA
102
}
330
33
100
AcDbSymbolTableRecord
100
AcDbDimStyleTableRecord
  2
Standard
 70
     0
 41
2.5
 73
     0
 77
     3
 78
     8
140
2.5
141
-1.0
147
1.0
175
     1
176
     3
177
     3
178
     2
179
     8
271
     8
272
     8
275
     1
340
35
1001
ACAD_DSTYLE_DIMJOGGED_JOGANGLE_SYMBOL
1070
   384
1040
0.7853981633974483
1001
ACAD_DSTYLE_DIMJAG
1070
   388
1040
1.5
1001
ACAD_DSTYLE_DIMTALN
1070
   392
1070
     0
  0
DIMSTYLE
105
1A8
102
{ACAD_REACTORS
330
22F9E
330
22F9F
330
22FA0
330
22FA1
330
22FA2
330
22FA7
330
22FAF
330
22FB0
330
22FB8
102
}
330
33
100
AcDbSymbolTableRecord
100
AcDbDimStyleTableRecord
  2
Standard$0
 70
     0
 41
2.5
 73
     0
 77
     3
 78
     8
140
2.5
141
-1.0
147
1.0
175
     1
176
     3
177
     3
178
     2
179
     8
271
     8
272
     8
275
     1
340
35
  0
ENDTAB
  0
TABLE
  2
BLOCK_RECORD
  5
1
330
0
100
AcDbSymbolTable
 70
    13
  0
BLOCK_RECORD
  5
2
102
{ACAD_XDICTIONARY
360
3
102
}
330
1
100
AcDbSymbolTableRecord
100
AcDbBlockTableRecord
  2
*Model_Space
340
16
 70
     0
280
     1
281
     0
  0
BLOCK_RECORD
  5
1B
330
1
100
AcDbSymbolTableRecord
100
AcDbBlockTableRecord
  2
*Paper_Space
340
1E
 70
     0
280
     1
281
     0
  0
BLOCK_RECORD
  5
22FB9
330
1
100
AcDbSymbolTableRecord
100
AcDbBlockTableRecord
  2
*D0
340
0
 70
     0
280
     1
281
     0
  0
BLOCK_RECORD
  5
22FC5
330
1
100
AcDbSymbolTableRecord
100
AcDbBlockTableRecord
  2
*D1
340
0
 70
     0
280
     1
281
     0
  0
BLOCK_RECORD
  5
22FCF
330
1
100
AcDbSymbolTableRecord
100
AcDbBlockTableRecord
  2
*D2
340
0
 70
     0
280
     1
281
     0
  0
BLOCK_RECORD
  5
22FDB
330
1
100
AcDbSymbolTableRecord
100
AcDbBlockTableRecord
  2
*D3
340
0
 70
     0
280
     1
281
     0
  0
BLOCK_RECORD
  5
22FE7
330
1
100
AcDbSymbolTableRecord
100
AcDbBlockTableRecord
  2
*D4
340
0
 70
     0
280
     1
281
     0
  0
BLOCK_RECORD
  5
22FF1
330
1
100
AcDbSymbolTableRecord
100
AcDbBlockTableRecord
  2
*D5
340
0
 70
     0
280
     1
281
     0
  0
BLOCK_RECORD
  5
22FFE
330
1
100
AcDbSymbolTableRecord
100
AcDbBlockTableRecord
  2
*D6
340
0
 70
     0
280
     1
281
     0
  0
BLOCK_RECORD
  5
23007
330
1
100
AcDbSymbolTableRecord
100
AcDbBlockTableRecord
  2
*D7
340
0
 70
     0
280
     1
281
     0
  0
BLOCK_RECORD
  5
2300F
330
1
100
AcDbSymbolTableRecord
100
AcDbBlockTableRecord
  2
*D8
340
0
 70
     0
280
     1
281
     0
  0
BLOCK_RECORD
  5
23018
330
1
100
AcDbSymbolTableRecord
100
AcDbBlockTableRecord
  2
*D9
340
0
 70
     0
280
     1
281
     0
  0
BLOCK_RECORD
  5
23025
330
1
100
AcDbSymbolTableRecord
100
AcDbBlockTableRecord
  2
*D10
340
0
 70
     0
280
     1
281
     0
  0
BLOCK_RECORD
  5
23032
330
1
100
AcDbSymbolTableRecord
100
AcDbBlockTableRecord
  2
*D11
340
0
 70
     0
280
     1
281
     0
  0
ENDTAB
  0
ENDSEC
  0
SECTION
  2
BLOCKS
  0
BLOCK
  5
5
330
2
100
AcDbEntity
  8
0
100
AcDbBlockBegin
  2
*Model_Space
 70
     0
 10
0.0
 20
0.0
 30
0.0
  3
*Model_Space
  1

  0
ENDBLK
  5
15
330
2
100
AcDbEntity
  8
0
100
AcDbBlockEnd
  0
BLOCK
  5
1C
330
1B
100
AcDbEntity
 67
     1
  8
0
100
AcDbBlockBegin
  2
*Paper_Space
 70
     0
 10
0.0
 20
0.0
 30
0.0
  3
*Paper_Space
  1

  0
ENDBLK
  5
1D
330
1B
100
AcDbEntity
 67
     1
  8
0
100
AcDbBlockEnd
  0
BLOCK
  5
22FBA
330
22FB9
100
AcDbEntity
  8
0
 62
     7
100
AcDbBlockBegin
  2
*D0
 70
     1
 10
0.0
 20
0.0
 30
0.0
  3
*D0
  1

  0
LINE
  5
230A1
330
22FB9
100
AcDbEntity
  8
0
  6
Continuous
 62
     3
440
 16777216
100
AcDbLine
 10
640.9447135650337
 20
91.84671083536159
 30
0.0
 11
665.2334729660908
 21
91.84671083536159
 31
0.0
  0
LINE
  5
230A2
330
22FB9
100
AcDbEntity
  8
0
  6
Continuous
 62
     3
440
 16777216
100
AcDbLine
 10
640.9447135650337
 20
105.3467108353599
 30
0.0
 11
665.2334729660908
 21
105.3467108353599
 31
0.0
  0
LINE
  5
230A3
330
22FB9
100
AcDbEntity
  8
0
  6
Continuous
 62
     3
440
 16777216
100
AcDbLine
 10
663.9834729660909
 20
94.34671083536159
 30
0.0
 11
663.9834729660909
 21
102.8467108353599
 31
0.0
  0
SOLID
  5
230A4
330
22FB9
100
AcDbEntity
  8
0
  6
Continuous
 62
     3
440
 16777216
100
AcDbTrace
 10
663.5668062994242
 20
94.34671083536159
 30
0.0
 11
664.4001396327574
 21
94.34671083536159
 31
0.0
 12
663.9834729660909
 22
91.84671083536159
 32
0.0
 13
663.9834729660909
 23
91.84671083536159
 33
0.0
  0
SOLID
  5
230A5
330
22FB9
100
AcDbEntity
  8
0
  6
Continuous
 62
     3
440
 16777216
100
AcDbTrace
 10
663.5668062994242
 20
102.8467108353599
 30
0.0
 11
664.4001396327574
 21
102.8467108353599
 31
0.0
 12
663.9834729660909
 22
105.3467108353599
 32
0.0
 13
663.9834729660909
 23
105.3467108353599
 33
0.0
  0
MTEXT
  5
230A6
330
22FB9
100
AcDbEntity
  8
0
  6
Continuous
 62
     2
440
 16777216
100
AcDbMText
 10
661.8584729660908
 20
98.59671083536085
 30
0.0
 40
3.0
 41
0.0
 46
0.0
 71
     5
 72
     1
  1
%%C.53
 11
0.0000000000000001
 21
1.0
 31
0.0
 73
     1
 44
1.0
  0
POINT
  5
230A7
330
22FB9
100
AcDbEntity
  8
DEFPOINTS
  6
Continuous
 62
     0
440
 16777216
100
AcDbPoint
 10
640.3197135650336
 20
91.84671083536159
 30
0.0
  0
POINT
  5
230A8
330
22FB9
100
AcDbEntity
  8
DEFPOINTS
  6
Continuous
 62
     0
440
 16777216
100
AcDbPoint
 10
640.3197135650336
 20
105.3467108353599
 30
0.0
  0
POINT
  5
230A9
330
22FB9
100
AcDbEntity
  8
DEFPOINTS
  6
Continuous
 62
     0
440
 16777216
100
AcDbPoint
 10
663.9834729660909
 20
105.3467108353599
 30
0.0
  0
ENDBLK
  5
22FBB
330
22FB9
100
AcDbEntity
  8
0
 62
     7
100
AcDbBlockEnd
  0
BLOCK
  5
22FC6
330
22FC5
100
AcDbEntity
  8
0
 62
     7
100
AcDbBlockBegin
  2
*D1
 70
     1
 10
0.0
 20
0.0
 30
0.0
  3
*D1
  1

  0
LINE
  5
230AA
330
22FC5
100
AcDbEntity
  8
0
  6
Continuous
 62
     3
440
 16777216
100
AcDbLine
 10
640.5117008631219
 20
101.7717108353612
 30
0.0
 11
657.2334729660909
 21
101.7717108353612
 31
0.0
  0
LINE
  5
230AB
330
22FC5
100
AcDbEntity
  8
0
  6
Continuous
 62
     3
440
 16777216
100
AcDbLine
 10
655.9834729660908
 20
99.27171083536121
 30
0.0
 11
655.9834729660908
 21
93.4705297329987
 31
0.0
  0
SOLID
  5
230AC
330
22FC5
100
AcDbEntity
  8
0
  6
Continuous
 62
     3
440
 16777216
100
AcDbTrace
 10
655.5668062994242
 20
99.27171083536121
 30
0.0
 11
656.4001396327575
 21
99.27171083536121
 31
0.0
 12
655.9834729660908
 22
101.7717108353612
 32
0.0
 13
655.9834729660908
 23
101.7717108353612
 33
0.0
  0
MTEXT
  5
230AD
330
22FC5
100
AcDbEntity
  8
0
  6
Continuous
 62
     2
440
 16777216
100
AcDbMText
 10
653.8581776905003
 20
98.59671083536101
 30
0.0
 40
3.0
 41
0.0
 46
0.0
 71
     5
 72
     1
  1
%%C.250
 11
0.0000000000000001
 21
1.0
 31
0.0
 73
     1
 44
1.0
  0
POINT
  5
230AE
330
22FC5
100
AcDbEntity
  8
DEFPOINTS
  6
Continuous
 62
     0
440
 16777216
100
AcDbPoint
 10
639.8867008631218
 20
95.42171083536061
 30
0.0
  0
POINT
  5
230AF
330
22FC5
100
AcDbEntity
  8
DEFPOINTS
  6
Continuous
 62
     0
440
 16777216
100
AcDbPoint
 10
639.8867008631218
 20
101.7717108353612
 30
0.0
  0
POINT
  5
230B0
330
22FC5
100
AcDbEntity
  8
DEFPOINTS
  6
Continuous
 62
     0
440
 16777216
100
AcDbPoint
 10
655.9834729660908
 20
101.7717108353612
 30
0.0
  0
ENDBLK
  5
22FC7
330
22FC5
100
AcDbEntity
  8
0
 62
     7
100
AcDbBlockEnd
  0
BLOCK
  5
22FD0
330
22FCF
100
AcDbEntity
  8
0
 62
     7
100
AcDbBlockBegin
  2
*D2
 70
     1
 10
0.0
 20
0.0
 30
0.0
  3
*D2
  1

  0
LINE
  5
230B1
330
22FCF
100
AcDbEntity
  8
0
  6
Continuous
 62
     3
440
 16777216
100
AcDbLine
 10
600.3197135650363
 20
102.5967108353619
 30
0.0
 11
600.3197135650363
 21
129.6289185046171
 31
0.0
  0
LINE
  5
230B2
330
22FCF
100
AcDbEntity
  8
0
  6
Continuous
 62
     3
440
 16777216
100
AcDbLine
 10
640.3197135650336
 20
105.4972285520024
 30
0.0
 11
640.3197135650336
 21
129.6289185046171
 31
0.0
  0
LINE
  5
230B3
330
22FCF
100
AcDbEntity
  8
0
  6
Continuous
 62
     3
440
 16777216
100
AcDbLine
 10
602.8197135650364
 20
128.3789185046171
 30
0.0
 11
637.8197135650337
 21
128.3789185046171
 31
0.0
  0
SOLID
  5
230B4
330
22FCF
100
AcDbEntity
  8
0
  6
Continuous
 62
     3
440
 16777216
100
AcDbTrace
 10
602.8197135650364
 20
128.7955851712837
 30
0.0
 11
602.8197135650364
 21
127.9622518379504
 31
0.0
 12
600.3197135650363
 22
128.3789185046171
 32
0.0
 13
600.3197135650363
 23
128.3789185046171
 33
0.0
  0
SOLID
  5
230B5
330
22FCF
100
AcDbEntity
  8
0
  6
Continuous
 62
     3
440
 16777216
100
AcDbTrace
 10
637.8197135650337
 20
128.7955851712837
 30
0.0
 11
637.8197135650337
 21
127.9622518379504
 31
0.0
 12
640.3197135650336
 22
128.3789185046171
 32
0.0
 13
640.3197135650336
 23
128.3789185046171
 33
0.0
  0
MTEXT
  5
230B6
330
22FCF
100
AcDbEntity
  8
0
  6
Continuous
 62
     2
440
 16777216
100
AcDbMText
 10
620.319713565035
 20
130.5039185046171
 30
0.0
 40
3.0
 41
0.0
 46
0.0
 71
     5
 72
     1
  1
1.54
 73
     1
 44
1.0
  0
POINT
  5
230B7
330
22FCF
100
AcDbEntity
  8
DEFPOINTS
  6
Continuous
 62
     0
440
 16777216
100
AcDbPoint
 10
600.3197135650363
 20
101.9717108353619
 30
0.0
  0
POINT
  5
230B8
330
22FCF
100
AcDbEntity
  8
DEFPOINTS
  6
Continuous
 62
     0
440
 16777216
100
AcDbPoint
 10
640.3197135650336
 20
104.8722285520024
 30
0.0
  0
POINT
  5
230B9
330
22FCF
100
AcDbEntity
  8
DEFPOINTS
  6
Continuous
 62
     0
440
 16777216
100
AcDbPoint
 10
640.3197135650336
 20
128.3789185046171
 30
0.0
  0
ENDBLK
  5
22FD1
330
22FCF
100
AcDbEntity
  8
0
 62
     7
100
AcDbBlockEnd
  0
BLOCK
  5
22FDC
330
22FDB
100
AcDbEntity
  8
0
 62
     7
100
AcDbBlockBegin
  2
*D3
 70
     1
 10
0.0
 20
0.0
 30
0.0
  3
*D3
  1

  0
LINE
  5
230BA
330
22FDB
100
AcDbEntity
  8
0
  6
Continuous
 62
     3
440
 16777216
100
AcDbLine
 10
566.9447135650337
 20
87.96853516841656
 30
0.0
 11
673.2334729660908
 21
87.96853516841654
 31
0.0
  0
LINE
  5
230BB
330
22FDB
100
AcDbEntity
  8
0
  6
Continuous
 62
     3
440
 16777216
100
AcDbLine
 10
566.9447135650336
 20
109.2248865023049
 30
0.0
 11
673.2334729660908
 21
109.2248865023049
 31
0.0
  0
LINE
  5
230BC
330
22FDB
100
AcDbEntity
  8
0
  6
Continuous
 62
     3
440
 16777216
100
AcDbLine
 10
671.9834729660909
 20
90.46853516841656
 30
0.0
 11
671.9834729660909
 21
106.7248865023049
 31
0.0
  0
SOLID
  5
230BD
330
22FDB
100
AcDbEntity
  8
0
  6
Continuous
 62
     3
440
 16777216
100
AcDbTrace
 10
671.5668062994242
 20
90.46853516841656
 30
0.0
 11
672.4001396327574
 21
90.46853516841654
 31
0.0
 12
671.9834729660909
 22
87.96853516841656
 32
0.0
 13
671.9834729660909
 23
87.96853516841656
 33
0.0
  0
SOLID
  5
230BE
330
22FDB
100
AcDbEntity
  8
0
  6
Continuous
 62
     3
440
 16777216
100
AcDbTrace
 10
671.5668062994242
 20
106.7248865023049
 30
0.0
 11
672.4001396327574
 21
106.7248865023049
 31
0.0
 12
671.9834729660909
 22
109.2248865023049
 32
0.0
 13
671.9834729660909
 23
109.2248865023049
 33
0.0
  0
MTEXT
  5
230BF
330
22FDB
100
AcDbEntity
  8
0
  6
Continuous
 62
     2
440
 16777216
100
AcDbMText
 10
669.8584729660908
 20
98.59671083534955
 30
0.0
 40
3.0
 41
0.0
 46
0.0
 71
     5
 72
     1
  1
%%C.84
 11
0.0000000000000001
 21
1.0
 31
0.0
 73
     1
 44
1.0
  0
POINT
  5
230C0
330
22FDB
100
AcDbEntity
  8
DEFPOINTS
  6
Continuous
 62
     0
440
 16777216
100
AcDbPoint
 10
566.3197135650336
 20
87.96853516841656
 30
0.0
  0
POINT
  5
230C1
330
22FDB
100
AcDbEntity
  8
DEFPOINTS
  6
Continuous
 62
     0
440
 16777216
100
AcDbPoint
 10
566.3197135650335
 20
109.2248865023049
 30
0.0
  0
POINT
  5
230C2
330
22FDB
100
AcDbEntity
  8
DEFPOINTS
  6
Continuous
 62
     0
440
 16777216
100
AcDbPoint
 10
671.9834729660909
 20
109.2248865023049
 30
0.0
  0
ENDBLK
  5
22FDD
330
22FDB
100
AcDbEntity
  8
0
 62
     7
100
AcDbBlockEnd
  0
BLOCK
  5
22FE8
330
22FE7
100
AcDbEntity
  8
0
 62
     7
100
AcDbBlockBegin
  2
*D4
 70
     1
 10
0.0
 20
0.0
 30
0.0
  3
*D4
  1

  0
LINE
  5
230C3
330
22FE7
100
AcDbEntity
  8
0
  6
Continuous
 62
     3
440
 16777216
100
AcDbLine
 10
594.680279808307
 20
101.096710835363
 30
0.0
 11
583.9082063151977
 21
101.096710835363
 31
0.0
  0
LINE
  5
230C4
330
22FE7
100
AcDbEntity
  8
0
  6
Continuous
 62
     3
440
 16777216
100
AcDbLine
 10
585.1582063151977
 20
103.5967108353631
 30
0.0
 11
585.1582063151977
 21
145.4520139784552
 31
0.0
  0
SOLID
  5
230C5
330
22FE7
100
AcDbEntity
  8
0
  6
Continuous
 62
     3
440
 16777216
100
AcDbTrace
 10
584.7415396485311
 20
103.5967108353631
 30
0.0
 11
585.5748729818643
 21
103.5967108353631
 31
0.0
 12
585.1582063151977
 22
101.096710835363
 32
0.0
 13
585.1582063151977
 23
101.096710835363
 33
0.0
  0
MTEXT
  5
230C6
330
22FE7
100
AcDbEntity
  8
0
  6
Continuous
 62
     2
440
 16777216
100
AcDbMText
 10
583.0332063151977
 20
139.2770139784553
 30
0.0
 40
3.0
 41
0.0
 46
0.0
 71
     5
 72
     1
  1
M5*0.8
 11
0.0000000000000001
 21
1.0
 31
0.0
 73
     1
 44
1.0
  0
POINT
  5
230C7
330
22FE7
100
AcDbEntity
  8
DEFPOINTS
  6
Continuous
 62
     0
440
 16777216
100
AcDbPoint
 10
590.4640511323291
 20
96.09671083535886
 30
0.0
  0
POINT
  5
230C8
330
22FE7
100
AcDbEntity
  8
DEFPOINTS
  6
Continuous
 62
     0
440
 16777216
100
AcDbPoint
 10
595.3052798083071
 20
101.096710835363
 30
0.0
  0
POINT
  5
230C9
330
22FE7
100
AcDbEntity
  8
DEFPOINTS
  6
Continuous
 62
     0
440
 16777216
100
AcDbPoint
 10
585.1582063151977
 20
101.096710835363
 30
0.0
  0
ENDBLK
  5
22FE9
330
22FE7
100
AcDbEntity
  8
0
 62
     7
100
AcDbBlockEnd
  0
BLOCK
  5
22FF2
330
22FF1
100
AcDbEntity
  8
0
 62
     7
100
AcDbBlockBegin
  2
*D5
 70
     1
 10
0.0
 20
0.0
 30
0.0
  3
*D5
  1

  0
LINE
  5
230CA
330
22FF1
100
AcDbEntity
  8
0
  6
Continuous
 62
     3
440
 16777216
100
AcDbLine
 10
547.5364920814001
 20
75.59671083536034
 30
0.0
 11
552.3495648235163
 21
75.59671083536034
 31
0.0
  0
LINE
  5
230CB
330
22FF1
100
AcDbEntity
  8
0
  6
Continuous
 62
     3
440
 16777216
100
AcDbLine
 10
547.5364920814
 20
121.5967108353624
 30
0.0
 11
552.3495648235163
 21
121.5967108353624
 31
0.0
  0
LINE
  5
230CC
330
22FF1
100
AcDbEntity
  8
0
  6
Continuous
 62
     3
440
 16777216
100
AcDbLine
 10
551.0995648235164
 20
78.09671083536034
 30
0.0
 11
551.0995648235164
 21
119.0967108353624
 31
0.0
  0
LINE
  5
230CD
330
22FF1
100
AcDbEntity
  8
0
  6
Continuous
 62
     3
440
 16777216
100
AcDbLine
 10
551.0995648235164
 20
121.5967108353624
 30
0.0
 11
551.0995648235164
 21
135.0703661334548
 31
0.0
  0
SOLID
  5
230CE
330
22FF1
100
AcDbEntity
  8
0
  6
Continuous
 62
     3
440
 16777216
100
AcDbTrace
 10
550.6828981568498
 20
78.09671083536034
 30
0.0
 11
551.516231490183
 21
78.09671083536034
 31
0.0
 12
551.0995648235164
 22
75.59671083536034
 32
0.0
 13
551.0995648235164
 23
75.59671083536034
 33
0.0
  0
SOLID
  5
230CF
330
22FF1
100
AcDbEntity
  8
0
  6
Continuous
 62
     3
440
 16777216
100
AcDbTrace
 10
550.6828981568498
 20
119.0967108353624
 30
0.0
 11
551.516231490183
 21
119.0967108353624
 31
0.0
 12
551.0995648235164
 22
121.5967108353624
 32
0.0
 13
551.0995648235164
 23
121.5967108353624
 33
0.0
  0
MTEXT
  5
230D0
330
22FF1
100
AcDbEntity
  8
0
  6
Continuous
 62
     2
440
 16777216
100
AcDbMText
 10
548.9745648235164
 20
130.5453661334549
 30
0.0
 40
3.0
 41
0.0
 46
0.0
 71
     5
 72
     1
  1
%%C1.81
 11
0.0000000000000001
 21
1.0
 31
0.0
 73
     1
 44
1.0
  0
POINT
  5
230D1
330
22FF1
100
AcDbEntity
  8
DEFPOINTS
  6
Continuous
 62
     0
440
 16777216
100
AcDbPoint
 10
546.9114920814002
 20
75.59671083536034
 30
0.0
  0
POINT
  5
230D2
330
22FF1
100
AcDbEntity
  8
DEFPOINTS
  6
Continuous
 62
     0
440
 16777216
100
AcDbPoint
 10
546.9114920813999
 20
121.5967108353624
 30
0.0
  0
POINT
  5
230D3
330
22FF1
100
AcDbEntity
  8
DEFPOINTS
  6
Continuous
 62
     0
440
 16777216
100
AcDbPoint
 10
551.0995648235164
 20
121.5967108353624
 30
0.0
  0
ENDBLK
  5
22FF3
330
22FF1
100
AcDbEntity
  8
0
 62
     7
100
AcDbBlockEnd
  0
BLOCK
  5
22FFF
330
22FFE
100
AcDbEntity
  8
0
 62
     7
100
AcDbBlockBegin
  2
*D6
 70
     1
 10
0.0
 20
0.0
 30
0.0
  3
*D6
  1

  0
LINE
  5
230D4
330
22FFE
100
AcDbEntity
  8
0
  6
Continuous
 62
     3
440
 16777216
100
AcDbLine
 10
651.1370703422897
 20
81.54066229189124
 30
0.0
 11
641.9924703670468
 21
90.25258897437799
 31
0.0
  0
MTEXT
  5
230D5
330
22FFE
100
AcDbEntity
  8
0
  6
Continuous
 62
     2
440
 16777216
100
AcDbMText
 10
648.9357716634051
 20
86.57318516666839
 30
0.0
 40
3.0
 41
0.0
 46
0.0
 71
     5
 72
     1
  1
R0.02
 11
0.7240278466027657
 21
-0.6897707425976851
 31
0.0
 73
     1
 44
1.0
  0
LINE
  5
230D6
330
22FFE
100
AcDbEntity
  8
0
  6
Continuous
 62
     3
440
 16777216
100
AcDbLine
 10
639.8203868272387
 20
92.32190120217092
 30
0.0
 11
640.1824007505399
 21
91.97701583087223
 31
0.0
  0
SOLID
  5
230D7
330
22FFE
100
AcDbEntity
  8
0
  6
Continuous
 62
     3
440
 16777216
100
AcDbTrace
 10
642.2798748431291
 20
90.55426724379584
 30
0.0
 11
641.7050658909645
 21
89.95091070496016
 31
0.0
 12
640.1824007505399
 22
91.97701583087223
 32
0.0
 13
640.1824007505399
 23
91.97701583087223
 33
0.0
  0
POINT
  5
230D8
330
22FFE
100
AcDbEntity
  8
DEFPOINTS
  6
Continuous
 62
     0
440
 16777216
100
AcDbPoint
 10
640.1824007505399
 20
91.97701583087223
 30
0.0
  0
POINT
  5
230D9
330
22FFE
100
AcDbEntity
  8
DEFPOINTS
  6
Continuous
 62
     0
440
 16777216
100
AcDbPoint
 10
639.8203868272387
 20
92.32190120217092
 30
0.0
  0
ENDBLK
  5
23000
330
22FFE
100
AcDbEntity
  8
0
 62
     7
100
AcDbBlockEnd
  0
BLOCK
  5
23008
330
23007
100
AcDbEntity
  8
0
 62
     7
100
AcDbBlockBegin
  2
*D7
 70
     1
 10
0.0
 20
0.0
 30
0.0
  3
*D7
  1

  0
LINE
  5
230DA
330
23007
100
AcDbEntity
  8
0
  6
Continuous
 62
     3
440
 16777216
100
AcDbLine
 10
576.4038341017883
 20
75.63116106266318
 30
0.0
 11
568.0872381627684
 21
84.89914662937241
 31
0.0
  0
MTEXT
  5
230DB
330
23007
100
AcDbEntity
  8
0
  6
Continuous
 62
     2
440
 16777216
100
AcDbMText
 10
574.6621820961682
 20
80.75423696130787
 30
0.0
 40
3.0
 41
0.0
 46
0.0
 71
     5
 72
     1
  1
R0.20
 11
0.6678729547285853
 21
-0.744275296071359
 31
0.0
 73
     1
 44
1.0
  0
SOLID
  5
230DC
330
23007
100
AcDbEntity
  8
0
  6
Continuous
 62
     3
440
 16777216
100
AcDbTrace
 10
568.3973528694648
 20
85.17742702717601
 30
0.0
 11
567.7771234560719
 21
84.62086623156881
 31
0.0
 12
566.4175557759469
 22
86.75983486955081
 32
0.0
 13
566.4175557759469
 23
86.75983486955081
 33
0.0
  0
POINT
  5
230DD
330
23007
100
AcDbEntity
  8
DEFPOINTS
  6
Continuous
 62
     0
440
 16777216
100
AcDbPoint
 10
566.4175557759469
 20
86.75983486955081
 30
0.0
  0
POINT
  5
230DE
330
23007
100
AcDbEntity
  8
DEFPOINTS
  6
Continuous
 62
     0
440
 16777216
100
AcDbPoint
 10
569.7569205495901
 20
83.03845838919361
 30
0.0
  0
ENDBLK
  5
23009
330
23007
100
AcDbEntity
  8
0
 62
     7
100
AcDbBlockEnd
  0
BLOCK
  5
23010
330
2300F
100
AcDbEntity
  8
0
 62
     7
100
AcDbBlockBegin
  2
*D8
 70
     1
 10
0.0
 20
0.0
 30
0.0
  3
*D8
  1

  0
LINE
  5
230DF
330
2300F
100
AcDbEntity
  8
0
  6
Continuous
 62
     3
440
 16777216
100
AcDbLine
 10
571.4044968247979
 20
64.70421639491971
 30
0.0
 11
563.2091312903255
 21
74.07643511603277
 31
0.0
  0
MTEXT
  5
230E0
330
2300F
100
AcDbEntity
  8
0
  6
Continuous
 62
     2
440
 16777216
100
AcDbMText
 10
569.7293178086024
 20
69.84814731044503
 30
0.0
 40
3.0
 41
0.0
 46
0.0
 71
     5
 72
     1
  1
R0.08
 11
0.6582622919254985
 21
-0.752788652298233
 31
0.0
 73
     1
 44
1.0
  0
LINE
  5
230E1
330
2300F
100
AcDbEntity
  8
0
  6
Continuous
 62
     3
440
 16777216
100
AcDbLine
 10
560.2469509766608
 20
77.46398405137458
 30
0.0
 11
561.5634755605117
 21
75.95840674677834
 31
0.0
  0
SOLID
  5
230E2
330
2300F
100
AcDbEntity
  8
0
  6
Continuous
 62
     3
440
 16777216
100
AcDbTrace
 10
563.5227932287831
 20
74.35071107100174
 30
0.0
 11
562.8954693518678
 21
73.80215916106379
 31
0.0
 12
561.5634755605117
 22
75.95840674677834
 32
0.0
 13
561.5634755605117
 23
75.95840674677834
 33
0.0
  0
POINT
  5
230E3
330
2300F
100
AcDbEntity
  8
DEFPOINTS
  6
Continuous
 62
     0
440
 16777216
100
AcDbPoint
 10
561.5634755605117
 20
75.95840674677834
 30
0.0
  0
POINT
  5
230E4
330
2300F
100
AcDbEntity
  8
DEFPOINTS
  6
Continuous
 62
     0
440
 16777216
100
AcDbPoint
 10
560.2469509766608
 20
77.46398405137458
 30
0.0
  0
ENDBLK
  5
23011
330
2300F
100
AcDbEntity
  8
0
 62
     7
100
AcDbBlockEnd
  0
BLOCK
  5
23019
330
23018
100
AcDbEntity
  8
0
 62
     7
100
AcDbBlockBegin
  2
*D9
 70
     1
 10
0.0
 20
0.0
 30
0.0
  3
*D9
  1

  0
LINE
  5
230E5
330
23018
100
AcDbEntity
  8
0
  6
Continuous
 62
     3
440
 16777216
100
AcDbLine
 10
512.6947135650246
 20
76.37171083536134
 30
0.0
 11
499.2939107926395
 21
76.37171083536134
 31
0.0
  0
LINE
  5
230E6
330
23018
100
AcDbEntity
  8
0
  6
Continuous
 62
     3
440
 16777216
100
AcDbLine
 10
512.6947135650246
 20
120.8217108353611
 30
0.0
 11
499.2939107926395
 21
120.8217108353611
 31
0.0
  0
LINE
  5
230E7
330
23018
100
AcDbEntity
  8
0
  6
Continuous
 62
     3
440
 16777216
100
AcDbLine
 10
500.5439107926394
 20
78.87171083536134
 30
0.0
 11
500.5439107926394
 21
118.3217108353611
 31
0.0
  0
LINE
  5
230E8
330
23018
100
AcDbEntity
  8
0
  6
Continuous
 62
     3
440
 16777216
100
AcDbLine
 10
500.5439107926394
 20
120.8217108353611
 30
0.0
 11
500.5439107926395
 21
146.2031950808172
 31
0.0
  0
SOLID
  5
230E9
330
23018
100
AcDbEntity
  8
0
  6
Continuous
 62
     3
440
 16777216
100
AcDbTrace
 10
500.1272441259728
 20
78.87171083536134
 30
0.0
 11
500.9605774593062
 21
78.87171083536134
 31
0.0
 12
500.5439107926394
 22
76.37171083536134
 32
0.0
 13
500.5439107926394
 23
76.37171083536134
 33
0.0
  0
SOLID
  5
230EA
330
23018
100
AcDbEntity
  8
0
  6
Continuous
 62
     3
440
 16777216
100
AcDbTrace
 10
500.1272441259728
 20
118.3217108353611
 30
0.0
 11
500.9605774593062
 21
118.3217108353611
 31
0.0
 12
500.5439107926394
 22
120.8217108353611
 32
0.0
 13
500.5439107926394
 23
120.8217108353611
 33
0.0
  0
MTEXT
  5
230EB
330
23018
100
AcDbEntity
  8
0
  6
Continuous
 62
     2
440
 16777216
100
AcDbMText
 10
498.4189107926395
 20
139.2770139784551
 30
0.0
 40
3.0
 41
0.0
 46
0.0
 71
     5
 72
     1
  1
%%C1.7500
 11
0.0000000000000001
 21
1.0
 31
0.0
 73
     1
 44
1.0
  0
POINT
  5
230EC
330
23018
100
AcDbEntity
  8
DEFPOINTS
  6
Continuous
 62
     0
440
 16777216
100
AcDbPoint
 10
513.3197135650245
 20
76.37171083536134
 30
0.0
  0
POINT
  5
230ED
330
23018
100
AcDbEntity
  8
DEFPOINTS
  6
Continuous
 62
     0
440
 16777216
100
AcDbPoint
 10
513.3197135650245
 20
120.8217108353611
 30
0.0
  0
POINT
  5
230EE
330
23018
100
AcDbEntity
  8
DEFPOINTS
  6
Continuous
 62
     0
440
 16777216
100
AcDbPoint
 10
500.5439107926394
 20
120.8217108353611
 30
0.0
  0
ENDBLK
  5
2301A
330
23018
100
AcDbEntity
  8
0
 62
     7
100
AcDbBlockEnd
  0
BLOCK
  5
23026
330
23025
100
AcDbEntity
  8
0
 62
     7
100
AcDbBlockBegin
  2
*D10
 70
     1
 10
0.0
 20
0.0
 30
0.0
  3
*D10
  1

  0
LINE
  5
230EF
330
23025
100
AcDbEntity
  8
0
  6
Continuous
 62
     3
440
 16777216
100
AcDbLine
 10
516.3697135650245
 20
66.84671083536125
 30
0.0
 11
491.2939107926392
 21
66.84671083536125
 31
0.0
  0
LINE
  5
230F0
330
23025
100
AcDbEntity
  8
0
  6
Continuous
 62
     3
440
 16777216
100
AcDbLine
 10
516.3697135650245
 20
130.3467108353612
 30
0.0
 11
491.2939107926393
 21
130.3467108353612
 31
0.0
  0
LINE
  5
230F1
330
23025
100
AcDbEntity
  8
0
  6
Continuous
 62
     3
440
 16777216
100
AcDbLine
 10
492.5439107926393
 20
69.34671083536125
 30
0.0
 11
492.5439107926393
 21
127.8467108353612
 31
0.0
  0
LINE
  5
230F2
330
23025
100
AcDbEntity
  8
0
  6
Continuous
 62
     3
440
 16777216
100
AcDbLine
 10
492.5439107926393
 20
130.3467108353612
 30
0.0
 11
492.5439107926393
 21
145.1990730400857
 31
0.0
  0
SOLID
  5
230F3
330
23025
100
AcDbEntity
  8
0
  6
Continuous
 62
     3
440
 16777216
100
AcDbTrace
 10
492.1272441259725
 20
69.34671083536125
 30
0.0
 11
492.9605774593059
 21
69.34671083536125
 31
0.0
 12
492.5439107926393
 22
66.84671083536125
 32
0.0
 13
492.5439107926393
 23
66.84671083536125
 33
0.0
  0
SOLID
  5
230F4
330
23025
100
AcDbEntity
  8
0
  6
Continuous
 62
     3
440
 16777216
100
AcDbTrace
 10
492.1272441259725
 20
127.8467108353612
 30
0.0
 11
492.9605774593059
 21
127.8467108353612
 31
0.0
 12
492.5439107926393
 22
130.3467108353612
 32
0.0
 13
492.5439107926393
 23
130.3467108353612
 33
0.0
  0
MTEXT
  5
230F5
330
23025
100
AcDbEntity
  8
0
  6
Continuous
 62
     2
440
 16777216
100
AcDbMText
 10
490.4186155170487
 20
139.0228919377236
 30
0.0
 40
3.0
 41
0.0
 46
0.0
 71
     5
 72
     1
  1
%%C2.500
 11
0.0000000000000001
 21
1.0
 31
0.0
 73
     1
 44
1.0
  0
POINT
  5
230F6
330
23025
100
AcDbEntity
  8
DEFPOINTS
  6
Continuous
 62
     0
440
 16777216
100
AcDbPoint
 10
516.9947135650245
 20
66.84671083536125
 30
0.0
  0
POINT
  5
230F7
330
23025
100
AcDbEntity
  8
DEFPOINTS
  6
Continuous
 62
     0
440
 16777216
100
AcDbPoint
 10
516.9947135650245
 20
130.3467108353612
 30
0.0
  0
POINT
  5
230F8
330
23025
100
AcDbEntity
  8
DEFPOINTS
  6
Continuous
 62
     0
440
 16777216
100
AcDbPoint
 10
492.5439107926393
 20
130.3467108353612
 30
0.0
  0
ENDBLK
  5
23027
330
23025
100
AcDbEntity
  8
0
 62
     7
100
AcDbBlockEnd
  0
BLOCK
  5
23033
330
23032
100
AcDbEntity
  8
0
 62
     7
100
AcDbBlockBegin
  2
*D11
 70
     1
 10
0.0
 20
0.0
 30
0.0
  3
*D11
  1

  0
LINE
  5
230F9
330
23032
100
AcDbEntity
  8
0
  6
Continuous
 62
     3
440
 16777216
100
AcDbLine
 10
452.4697135650251
 20
107.3717108353613
 30
0.0
 11
452.4697135650251
 21
121.062488863096
 31
0.0
  0
LINE
  5
230FA
330
23032
100
AcDbEntity
  8
0
  6
Continuous
 62
     3
440
 16777216
100
AcDbLine
 10
445.0697135650245
 20
109.9560709214585
 30
0.0
 11
445.0697135650245
 21
121.062488863096
 31
0.0
  0
LINE
  5
230FB
330
23032
100
AcDbEntity
  8
0
  6
Continuous
 62
     3
440
 16777216
100
AcDbLine
 10
449.9697135650251
 20
119.812488863096
 30
0.0
 11
447.5697135650245
 21
119.812488863096
 31
0.0
  0
LINE
  5
230FC
330
23032
100
AcDbEntity
  8
0
  6
Continuous
 62
     3
440
 16777216
100
AcDbLine
 10
445.0697135650245
 20
119.812488863096
 30
0.0
 11
434.8025709232949
 21
119.812488863096
 31
0.0
  0
SOLID
  5
230FD
330
23032
100
AcDbEntity
  8
0
  6
Continuous
 62
     3
440
 16777216
100
AcDbTrace
 10
449.9697135650251
 20
120.2291555297627
 30
0.0
 11
449.9697135650251
 21
119.3958221964294
 31
0.0
 12
452.4697135650251
 22
119.812488863096
 32
0.0
 13
452.4697135650251
 23
119.812488863096
 33
0.0
  0
SOLID
  5
230FE
330
23032
100
AcDbEntity
  8
0
  6
Continuous
 62
     3
440
 16777216
100
AcDbTrace
 10
447.5697135650245
 20
120.2291555297627
 30
0.0
 11
447.5697135650245
 21
119.3958221964294
 31
0.0
 12
445.0697135650245
 22
119.812488863096
 32
0.0
 13
445.0697135650245
 23
119.812488863096
 33
0.0
  0
MTEXT
  5
230FF
330
23032
100
AcDbEntity
  8
0
  6
Continuous
 62
     2
440
 16777216
100
AcDbMText
 10
438.6861422441596
 20
121.9377841386866
 30
0.0
 40
3.0
 41
0.0
 46
0.0
 71
     5
 72
     1
  1
0.29
 73
     1
 44
1.0
  0
POINT
  5
23100
330
23032
100
AcDbEntity
  8
DEFPOINTS
  6
Continuous
 62
     0
440
 16777216
100
AcDbPoint
 10
452.4697135650251
 20
106.7467108353613
 30
0.0
  0
POINT
  5
23101
330
23032
100
AcDbEntity
  8
DEFPOINTS
  6
Continuous
 62
     0
440
 16777216
100
AcDbPoint
 10
445.0697135650245
 20
109.3310709214585
 30
0.0
  0
POINT
  5
23102
330
23032
100
AcDbEntity
  8
DEFPOINTS
  6
Continuous
 62
     0
440
 16777216
100
AcDbPoint
 10
445.0697135650245
 20
119.812488863096
 30
0.0
  0
ENDBLK
  5
23034
330
23032
100
AcDbEntity
  8
0
 62
     7
100
AcDbBlockEnd
  0
ENDSEC
  0
SECTION
  2
ENTITIES
  0
LWPOLYLINE
  5
1DBC8
330
2
100
AcDbEntity
  8
0
 62
     0
100
AcDbPolyline
 90
        4
 70
     1
 43
0.0
 10
421.0
 20
0.0
 10
421.0
 20
185.0575962927926
 10
686.1880000000001
 20
185.0575962927926
 10
686.1880000000001
 20
0.0
  0
LINE
  5
1DC5A
330
2
100
AcDbEntity
  8
0
  6
Continuous
 62
     7
100
AcDbLine
 10
619.8909999999999
 20
-3.233999999999999
 30
0.0
 11
619.8909999999999
 21
0.0
 31
0.0
  0
LINE
  5
1DC5B
330
2
100
AcDbEntity
  8
0
  6
Continuous
 62
     7
100
AcDbLine
 10
616.6570000000001
 20
-0.0000000000000006
 30
0.0
 11
616.6570000000001
 21
26.02372447867397
 31
0.0
  0
LINE
  5
1DC5C
330
2
100
AcDbEntity
  8
0
  6
Continuous
 62
     7
100
AcDbLine
 10
487.297
 20
-3.233999999999999
 30
0.0
 11
487.297
 21
0.0
 31
0.0
  0
LINE
  5
1DC5D
330
2
100
AcDbEntity
  8
0
  6
Continuous
 62
     7
100
AcDbLine
 10
619.8909999999999
 20
188.2915962927926
 30
0.0
 11
619.8909999999999
 21
185.0575962927926
 31
0.0
  0
LINE
  5
1DC5E
330
2
100
AcDbEntity
  8
0
  6
Continuous
 62
     7
100
AcDbLine
 10
487.297
 20
188.2915962927926
 30
0.0
 11
487.297
 21
185.0575962927926
 31
0.0
  0
LINE
  5
1DC5F
330
2
100
AcDbEntity
  8
0
  6
Continuous
 62
     7
100
AcDbLine
 10
417.766
 20
46.26439907319816
 30
0.0
 11
421.0
 21
46.26439907319816
 31
0.0
  0
LINE
  5
1DC60
330
2
100
AcDbEntity
  8
0
  6
Continuous
 62
     7
100
AcDbLine
 10
417.766
 20
138.7931972195945
 30
0.0
 11
421.0
 21
138.7931972195945
 31
0.0
  0
LINE
  5
1DC61
330
2
100
AcDbEntity
  8
0
  6
Continuous
 62
     7
100
AcDbLine
 10
689.422
 20
46.26439907319816
 30
0.0
 11
686.1880000000001
 21
46.26439907319816
 31
0.0
  0
LINE
  5
1DC62
330
2
100
AcDbEntity
  8
0
  6
Continuous
 62
     7
100
AcDbLine
 10
689.422
 20
138.7931972195945
 30
0.0
 11
686.1880000000001
 21
138.7931972195945
 31
0.0
  0
LINE
  5
1DC63
330
2
100
AcDbEntity
  8
0
  6
Continuous
 62
     7
100
AcDbLine
 10
686.1880000000001
 20
26.02372447867397
 30
0.0
 11
616.6569999999999
 21
26.02372447867397
 31
0.0
  0
LINE
  5
1DC64
330
2
100
AcDbEntity
  8
0
  6
Continuous
 62
     7
100
AcDbLine
 10
616.6570000000001
 20
8.674574826224658
 30
0.0
 11
686.1880000000001
 21
8.674574826224658
 31
0.0
  0
LINE
  5
1DC65
330
2
100
AcDbEntity
  8
0
  6
Continuous
 62
     7
100
AcDbLine
 10
616.6570000000001
 20
17.34914965244931
 30
0.0
 11
686.1880000000001
 21
17.34914965244931
 31
0.0
  0
LINE
  5
1DC66
330
2
100
AcDbEntity
  8
0
  6
Continuous
 62
     7
100
AcDbLine
 10
616.6570000000001
 20
-0.0000000000000012
 30
0.0
 11
686.1880000000001
 21
0.0000000000000035
 31
0.0
  0
LINE
  5
1DC67
330
2
100
AcDbEntity
  8
0
  6
Continuous
 62
     7
100
AcDbLine
 10
686.1880000000001
 20
92.52879814639632
 30
0.0
 11
689.422
 21
92.52879814639632
 31
0.0
  0
LINE
  5
1DC68
330
2
100
AcDbEntity
  8
0
  6
Continuous
 62
     7
100
AcDbLine
 10
687.805
 20
91.4292381463963
 30
0.0
 11
687.805
 21
93.62835814639632
 31
0.0
  0
LINE
  5
1DC69
330
2
100
AcDbEntity
  8
0
  6
Continuous
 62
     7
100
AcDbLine
 10
687.805
 20
91.4292381463963
 30
0.0
 11
686.1880000000001
 21
92.52879814639632
 31
0.0
  0
LINE
  5
1DC6A
330
2
100
AcDbEntity
  8
0
  6
Continuous
 62
     7
100
AcDbLine
 10
686.1880000000001
 20
92.52879814639632
 30
0.0
 11
687.805
 21
93.62835814639632
 31
0.0
  0
LINE
  5
1DC6B
330
2
100
AcDbEntity
  8
0
  6
Continuous
 62
     7
100
AcDbLine
 10
421.0
 20
92.52879814639632
 30
0.0
 11
417.766
 21
92.52879814639632
 31
0.0
  0
LINE
  5
1DC6C
330
2
100
AcDbEntity
  8
0
  6
Continuous
 62
     7
100
AcDbLine
 10
419.383
 20
91.4292381463963
 30
0.0
 11
419.383
 21
93.62835814639632
 31
0.0
  0
LINE
  5
1DC6D
330
2
100
AcDbEntity
  8
0
  6
Continuous
 62
     7
100
AcDbLine
 10
419.383
 20
91.4292381463963
 30
0.0
 11
421.0
 21
92.52879814639632
 31
0.0
  0
LINE
  5
1DC6E
330
2
100
AcDbEntity
  8
0
  6
Continuous
 62
     7
100
AcDbLine
 10
421.0
 20
92.52879814639632
 30
0.0
 11
419.383
 21
93.62835814639632
 31
0.0
  0
LINE
  5
1DC6F
330
2
100
AcDbEntity
  8
0
  6
Continuous
 62
     7
100
AcDbLine
 10
553.5940000000001
 20
185.0575962927926
 30
0.0
 11
553.5940000000001
 21
188.2915962927926
 31
0.0
  0
LINE
  5
1DC70
330
2
100
AcDbEntity
  8
0
  6
Continuous
 62
     7
100
AcDbLine
 10
552.49444
 20
186.6745962927926
 30
0.0
 11
554.69356
 21
186.6745962927926
 31
0.0
  0
LINE
  5
1DC71
330
2
100
AcDbEntity
  8
0
  6
Continuous
 62
     7
100
AcDbLine
 10
552.49444
 20
186.6745962927926
 30
0.0
 11
553.5940000000001
 21
185.0575962927926
 31
0.0
  0
LINE
  5
1DC72
330
2
100
AcDbEntity
  8
0
  6
Continuous
 62
     7
100
AcDbLine
 10
553.5940000000001
 20
185.0575962927926
 30
0.0
 11
554.69356
 21
186.6745962927926
 31
0.0
  0
LINE
  5
1DC73
330
2
100
AcDbEntity
  8
0
  6
Continuous
 62
     7
100
AcDbLine
 10
553.5940000000001
 20
0.0
 30
0.0
 11
553.5940000000001
 21
-3.233999999999999
 31
0.0
  0
LINE
  5
1DC74
330
2
100
AcDbEntity
  8
0
  6
Continuous
 62
     7
100
AcDbLine
 10
552.49444
 20
-1.616999999999999
 30
0.0
 11
554.69356
 21
-1.616999999999999
 31
0.0
  0
LINE
  5
1DC75
330
2
100
AcDbEntity
  8
0
  6
Continuous
 62
     7
100
AcDbLine
 10
552.49444
 20
-1.616999999999999
 30
0.0
 11
553.5940000000001
 21
0.0
 31
0.0
  0
LINE
  5
1DC76
330
2
100
AcDbEntity
  8
0
  6
Continuous
 62
     7
100
AcDbLine
 10
553.5940000000001
 20
0.0
 30
0.0
 11
554.69356
 21
-1.616999999999999
 31
0.0
  0
TEXT
  5
1DC77
330
2
100
AcDbEntity
  8
0
 62
     2
100
AcDbText
 10
453.4712721368002
 20
-2.620310394522521
 30
0.0
 40
1.81104
  1
4
  7
굴림
100
AcDbText
  0
TEXT
  5
1DC78
330
2
100
AcDbEntity
  8
0
 62
     2
100
AcDbText
 10
519.8297382438149
 20
-2.620310394522521
 30
0.0
 40
1.81104
  1
3
  7
굴림
100
AcDbText
  0
TEXT
  5
1DC79
330
2
100
AcDbEntity
  8
0
 62
     2
100
AcDbText
 10
586.0409804990502
 20
-2.620310394522521
 30
0.0
 40
1.81104
  1
2
  7
굴림
100
AcDbText
  0
TEXT
  5
1DC7A
330
2
100
AcDbEntity
  8
0
 62
     2
100
AcDbText
 10
652.5401790189191
 20
-2.620310394522521
 30
0.0
 40
1.81104
  1
1
  7
굴림
100
AcDbText
  0
TEXT
  5
1DC7B
330
2
100
AcDbEntity
  8
0
 62
     2
100
AcDbText
 10
453.4712721368002
 20
186.0887141464059
 30
0.0
 40
1.81104
  1
4
  7
굴림
100
AcDbText
  0
LWPOLYLINE
  5
1DC7C
102
{ACAD_REACTORS
330
1DC82
102
}
330
2
100
AcDbEntity
  8
Layer 1
 62
   103
100
AcDbPolyline
 90
        8
 70
     1
 43
0.0
 10
671.0145355353315
 20
25.05982582928472
 10
646.2152942157813
 20
25.06080083385792
 10
645.8453660100643
 20
23.84402380309918
 10
654.4395151440023
 20
23.84359688001262
 10
652.7947971354206
 20
18.14033307964649
 10
654.4064796949337
 20
18.14033307964649
 10
656.0508822608595
 20
23.84359688001262
 10
670.6427736499133
 20
23.8428767388954
  0
TEXT
  5
1DC7D
330
2
100
AcDbEntity
  8
0
 62
     2
100
AcDbText
 10
519.8297382438149
 20
186.0887141464059
 30
0.0
 40
1.81104
  1
3
  7
굴림
100
AcDbText
  0
TEXT
  5
1DC7E
330
2
100
AcDbEntity
  8
0
 62
     2
100
AcDbText
 10
586.0409804990502
 20
186.0887141464059
 30
0.0
 40
1.81104
  1
2
  7
굴림
100
AcDbText
  0
TEXT
  5
1DC7F
330
2
100
AcDbEntity
  8
0
 62
     2
100
AcDbText
 10
652.5401790189191
 20
186.0887141464059
 30
0.0
 40
1.81104
  1
1
  7
굴림
100
AcDbText
  0
TEXT
  5
1DC80
330
2
100
AcDbEntity
  8
0
 62
     2
100
AcDbText
 10
418.385514261335
 20
22.52916999211228
 30
0.0
 40
1.81104
  1
A
  7
굴림
100
AcDbText
  0
TEXT
  5
1DC81
330
2
100
AcDbEntity
  8
0
 62
     2
100
AcDbText
 10
418.385514261335
 20
68.4097584582514
 30
0.0
 40
1.81104
  1
B
  7
굴림
100
AcDbText
  0
HATCH
  5
1DC82
330
2
100
AcDbEntity
  8
0
  6
Continuous
 62
    93
100
AcDbHatch
 10
0.0
 20
0.0
 30
0.0
210
0.0
220
0.0
230
1.0
  2
SOLID
 70
     1
 71
     1
 91
        1
 92
        7
 72
     0
 73
     1
 93
        8
 10
646.2152942157813
 20
25.06080083385792
 10
645.8453660100643
 20
23.84402380309918
 10
654.4395151440023
 20
23.84359688001262
 10
652.7947971354206
 20
18.14033307964649
 10
654.4064796949337
 20
18.14033307964649
 10
656.0508822608595
 20
23.84359688001262
 10
670.6427736499133
 20
23.8428767388954
 10
671.0145355353315
 20
25.05982582928472
 97
        1
330
1DC7C
 75
     1
 76
     1
 47
0.0428322549537331
 98
        1
 10
657.1280771621619
 20
24.45956648932724
450
        0
451
        0
460
0.0
461
0.0
452
        0
462
1.0
453
        2
463
0.0
 63
     5
421
      255
463
1.0
 63
     2
421
 16776960
470
LINEAR
1001
GRADIENTCOLOR1ACI
1070
     5
1001
GRADIENTCOLOR2ACI
1070
     2
1001
ACAD
1010
0.0
1020
0.0
1030
0.0
  0
TEXT
  5
1DC83
330
2
100
AcDbEntity
  8
0
 62
     2
100
AcDbText
 10
418.385514261335
 20
114.728153875106
 30
0.0
 40
1.81104
  1
C
  7
굴림
100
AcDbText
  0
TEXT
  5
1DC84
330
2
100
AcDbEntity
  8
0
 62
     2
100
AcDbText
 10
418.385514261335
 20
161.3317684100266
 30
0.0
 40
1.81104
  1
D
  7
굴림
100
AcDbText
  0
TEXT
  5
1DC85
330
2
100
AcDbEntity
  8
0
 62
     2
100
AcDbText
 10
687.1567919131296
 20
22.52916999211228
 30
0.0
 40
1.81104
  1
A
  7
굴림
100
AcDbText
  0
TEXT
  5
1DC86
330
2
100
AcDbEntity
  8
0
 62
     2
100
AcDbText
 10
687.1567919131296
 20
68.4097584582514
 30
0.0
 40
1.81104
  1
B
  7
굴림
100
AcDbText
  0
TEXT
  5
1DC87
330
2
100
AcDbEntity
  8
0
 62
     2
100
AcDbText
 10
687.1567919131296
 20
114.728153875106
 30
0.0
 40
1.81104
  1
C
  7
굴림
100
AcDbText
  0
TEXT
  5
1DC88
330
2
100
AcDbEntity
  8
0
 62
     2
100
AcDbText
 10
687.1567919131296
 20
161.3317684100266
 30
0.0
 40
1.81104
  1
D
  7
굴림
100
AcDbText
  0
HATCH
  5
1DC89
330
2
100
AcDbEntity
  8
0
  6
Continuous
 62
     0
100
AcDbHatch
 10
0.0
 20
0.0
 30
0.0
210
0.0
220
0.0
230
1.0
  2
SOLID
 70
     1
 71
     1
 91
        1
 92
        5
 93
       13
 72
     4
 94
        3
 73
     0
 74
     0
 95
        8
 96
        4
 40
1.0
 40
1.0
 40
1.0
 40
1.0
 40
2.0
 40
2.0
 40
2.0
 40
2.0
 10
637.3821255783812
 20
21.52606513671701
 10
637.3821255783812
 20
21.52606513671701
 10
636.6427853458384
 20
18.14033307964647
 10
636.6427853458384
 20
18.14033307964647
 97
        0
 72
     4
 94
        3
 73
     0
 74
     0
 95
        8
 96
        4
 40
0.0
 40
0.0
 40
0.0
 40
0.0
 40
1.0
 40
1.0
 40
1.0
 40
1.0
 10
636.6427853458384
 20
18.14033307964647
 10
636.6427853458384
 20
18.14033307964647
 10
638.2690069441345
 20
18.14033307964647
 10
638.2690069441345
 20
18.14033307964647
 97
        0
 72
     4
 94
        3
 73
     0
 74
     0
 95
        8
 96
        4
 40
12.0
 40
12.0
 40
12.0
 40
12.0
 40
13.0
 40
13.0
 40
13.0
 40
13.0
 10
638.2690069441345
 20
18.14033307964647
 10
638.2690069441345
 20
18.14033307964647
 10
639.1193829916026
 20
23.35924900773321
 10
639.1193829916026
 20
23.35924900773321
 97
        0
 72
     4
 94
        3
 73
     0
 74
     0
 95
        8
 96
        4
 40
11.0
 40
11.0
 40
11.0
 40
11.0
 40
12.0
 40
12.0
 40
12.0
 40
12.0
 10
639.1193829916026
 20
23.35924900773321
 10
639.1193829916026
 20
23.35924900773321
 10
637.3671277139168
 20
23.35924900773321
 10
637.3671277139168
 20
23.35924900773321
 97
        0
 72
     4
 94
        3
 73
     0
 74
     0
 95
        8
 96
        4
 40
10.0
 40
10.0
 40
10.0
 40
10.0
 40
11.0
 40
11.0
 40
11.0
 40
11.0
 10
637.3671277139168
 20
23.35924900773321
 10
637.3671277139168
 20
23.35924900773321
 10
635.5633692534816
 20
20.49118381207179
 10
635.5633692534816
 20
20.49118381207179
 97
        0
 72
     4
 94
        3
 73
     0
 74
     0
 95
        8
 96
        4
 40
9.0
 40
9.0
 40
9.0
 40
9.0
 40
10.0
 40
10.0
 40
10.0
 40
10.0
 10
635.5633692534816
 20
20.49118381207179
 10
635.5633692534816
 20
20.49118381207179
 10
635.2458052574887
 20
23.35924900773321
 10
635.2458052574887
 20
23.35924900773321
 97
        0
 72
     4
 94
        3
 73
     0
 74
     0
 95
        8
 96
        4
 40
8.0
 40
8.0
 40
8.0
 40
8.0
 40
9.0
 40
9.0
 40
9.0
 40
9.0
 10
635.2458052574887
 20
23.35924900773321
 10
635.2458052574887
 20
23.35924900773321
 10
633.5230868395306
 20
23.35924900773321
 10
633.5230868395306
 20
23.35924900773321
 97
        0
 72
     4
 94
        3
 73
     0
 74
     0
 95
        8
 96
        4
 40
7.0
 40
7.0
 40
7.0
 40
7.0
 40
8.0
 40
8.0
 40
8.0
 40
8.0
 10
633.5230868395306
 20
23.35924900773321
 10
633.5230868395306
 20
23.35924900773321
 10
631.6234050870652
 20
18.14033307964647
 10
631.6234050870652
 20
18.14033307964647
 97
        0
 72
     4
 94
        3
 73
     0
 74
     0
 95
        8
 96
        4
 40
6.0
 40
6.0
 40
6.0
 40
6.0
 40
7.0
 40
7.0
 40
7.0
 40
7.0
 10
631.6234050870652
 20
18.14033307964647
 10
631.6234050870652
 20
18.14033307964647
 10
633.2126625815423
 20
18.14033307964647
 10
633.2126625815423
 20
18.14033307964647
 97
        0
 72
     4
 94
        3
 73
     0
 74
     0
 95
        8
 96
        4
 40
5.0
 40
5.0
 40
5.0
 40
5.0
 40
6.0
 40
6.0
 40
6.0
 40
6.0
 10
633.2126625815423
 20
18.14033307964647
 10
633.2126625815423
 20
18.14033307964647
 10
634.284680136866
 20
21.59987871822994
 10
634.284680136866
 20
21.59987871822994
 97
        0
 72
     4
 94
        3
 73
     0
 74
     0
 95
        8
 96
        4
 40
4.0
 40
4.0
 40
4.0
 40
4.0
 40
5.0
 40
5.0
 40
5.0
 40
5.0
 10
634.284680136866
 20
21.59987871822994
 10
634.284680136866
 20
21.59987871822994
 10
634.6764599255626
 20
18.14033307964647
 10
634.6764599255626
 20
18.14033307964647
 97
        0
 72
     4
 94
        3
 73
     0
 74
     0
 95
        8
 96
        4
 40
3.0
 40
3.0
 40
3.0
 40
3.0
 40
4.0
 40
4.0
 40
4.0
 40
4.0
 10
634.6764599255626
 20
18.14033307964647
 10
634.6764599255626
 20
18.14033307964647
 10
635.1939859032613
 20
18.14033307964647
 10
635.1939859032613
 20
18.14033307964647
 97
        0
 72
     4
 94
        3
 73
     0
 74
     0
 95
        8
 96
        4
 40
2.0
 40
2.0
 40
2.0
 40
2.0
 40
3.0
 40
3.0
 40
3.0
 40
3.0
 10
635.1939859032613
 20
18.14033307964647
 10
635.1939859032613
 20
18.14033307964647
 10
637.3821255783812
 20
21.52606513671701
 10
637.3821255783812
 20
21.52606513671701
 97
        0
 97
       13
330
1DC97
330
1DC95
330
1DC94
330
1DC93
330
1DC92
330
1DC91
330
1DC90
330
1DC8F
330
1DC8E
330
1DC8D
330
1DC8C
330
1DC8B
330
1DC8A
 75
     1
 76
     1
 47
0.0269459378258844
 98
        1
 10
637.4764502074318
 20
19.91468942989974
450
        0
451
        0
460
0.0
461
0.0
452
        0
462
1.0
453
        2
463
0.0
 63
     5
421
      255
463
1.0
 63
     2
421
 16776960
470
LINEAR
1001
GRADIENTCOLOR1ACI
1070
     5
1001
GRADIENTCOLOR2ACI
1070
     2
1001
ACAD
1010
0.0
1020
0.0
1030
0.0
  0
SPLINE
  5
1DC8A
102
{ACAD_REACTORS
330
1DC89
102
}
330
2
100
AcDbEntity
  8
Layer 1
100
AcDbSpline
210
0.0
220
0.0
230
1.0
 70
    24
 71
     3
 72
     8
 73
     4
 74
     0
 42
0.000000001
 43
0.0000000001
 40
0.0
 40
0.0
 40
0.0
 40
0.0
 40
1.0
 40
1.0
 40
1.0
 40
1.0
 10
638.2690069441345
 20
18.14033307964647
 30
0.0
 10
638.2690069441345
 20
18.14033307964647
 30
0.0
 10
636.6427853458384
 20
18.14033307964647
 30
0.0
 10
636.6427853458384
 20
18.14033307964647
 30
0.0
  0
SPLINE
  5
1DC8B
102
{ACAD_REACTORS
330
1DC89
102
}
330
2
100
AcDbEntity
  8
Layer 1
100
AcDbSpline
210
0.0
220
0.0
230
1.0
 70
    24
 71
     3
 72
     8
 73
     4
 74
     0
 42
0.000000001
 43
0.0000000001
 40
1.0
 40
1.0
 40
1.0
 40
1.0
 40
2.0
 40
2.0
 40
2.0
 40
2.0
 10
636.6427853458384
 20
18.14033307964647
 30
0.0
 10
636.6427853458384
 20
18.14033307964647
 30
0.0
 10
637.3821255783812
 20
21.52606513671701
 30
0.0
 10
637.3821255783812
 20
21.52606513671701
 30
0.0
  0
SPLINE
  5
1DC8C
102
{ACAD_REACTORS
330
1DC89
102
}
330
2
100
AcDbEntity
  8
Layer 1
100
AcDbSpline
210
0.0
220
0.0
230
1.0
 70
    24
 71
     3
 72
     8
 73
     4
 74
     0
 42
0.000000001
 43
0.0000000001
 40
2.0
 40
2.0
 40
2.0
 40
2.0
 40
3.0
 40
3.0
 40
3.0
 40
3.0
 10
637.3821255783812
 20
21.52606513671701
 30
0.0
 10
637.3821255783812
 20
21.52606513671701
 30
0.0
 10
635.1939859032613
 20
18.14033307964647
 30
0.0
 10
635.1939859032613
 20
18.14033307964647
 30
0.0
  0
SPLINE
  5
1DC8D
102
{ACAD_REACTORS
330
1DC89
102
}
330
2
100
AcDbEntity
  8
Layer 1
100
AcDbSpline
210
0.0
220
0.0
230
1.0
 70
    24
 71
     3
 72
     8
 73
     4
 74
     0
 42
0.000000001
 43
0.0000000001
 40
3.0
 40
3.0
 40
3.0
 40
3.0
 40
4.0
 40
4.0
 40
4.0
 40
4.0
 10
635.1939859032613
 20
18.14033307964647
 30
0.0
 10
635.1939859032613
 20
18.14033307964647
 30
0.0
 10
634.6764599255626
 20
18.14033307964647
 30
0.0
 10
634.6764599255626
 20
18.14033307964647
 30
0.0
  0
SPLINE
  5
1DC8E
102
{ACAD_REACTORS
330
1DC89
102
}
330
2
100
AcDbEntity
  8
Layer 1
100
AcDbSpline
210
0.0
220
0.0
230
1.0
 70
    24
 71
     3
 72
     8
 73
     4
 74
     0
 42
0.000000001
 43
0.0000000001
 40
4.0
 40
4.0
 40
4.0
 40
4.0
 40
5.0
 40
5.0
 40
5.0
 40
5.0
 10
634.6764599255626
 20
18.14033307964647
 30
0.0
 10
634.6764599255626
 20
18.14033307964647
 30
0.0
 10
634.284680136866
 20
21.59987871822994
 30
0.0
 10
634.284680136866
 20
21.59987871822994
 30
0.0
  0
SPLINE
  5
1DC8F
102
{ACAD_REACTORS
330
1DC89
102
}
330
2
100
AcDbEntity
  8
Layer 1
100
AcDbSpline
210
0.0
220
0.0
230
1.0
 70
    24
 71
     3
 72
     8
 73
     4
 74
     0
 42
0.000000001
 43
0.0000000001
 40
5.0
 40
5.0
 40
5.0
 40
5.0
 40
6.0
 40
6.0
 40
6.0
 40
6.0
 10
634.284680136866
 20
21.59987871822994
 30
0.0
 10
634.284680136866
 20
21.59987871822994
 30
0.0
 10
633.2126625815423
 20
18.14033307964647
 30
0.0
 10
633.2126625815423
 20
18.14033307964647
 30
0.0
  0
SPLINE
  5
1DC90
102
{ACAD_REACTORS
330
1DC89
102
}
330
2
100
AcDbEntity
  8
Layer 1
100
AcDbSpline
210
0.0
220
0.0
230
1.0
 70
    24
 71
     3
 72
     8
 73
     4
 74
     0
 42
0.000000001
 43
0.0000000001
 40
6.0
 40
6.0
 40
6.0
 40
6.0
 40
7.0
 40
7.0
 40
7.0
 40
7.0
 10
633.2126625815423
 20
18.14033307964647
 30
0.0
 10
633.2126625815423
 20
18.14033307964647
 30
0.0
 10
631.6234050870652
 20
18.14033307964647
 30
0.0
 10
631.6234050870652
 20
18.14033307964647
 30
0.0
  0
SPLINE
  5
1DC91
102
{ACAD_REACTORS
330
1DC89
102
}
330
2
100
AcDbEntity
  8
Layer 1
100
AcDbSpline
210
0.0
220
0.0
230
1.0
 70
    24
 71
     3
 72
     8
 73
     4
 74
     0
 42
0.000000001
 43
0.0000000001
 40
7.0
 40
7.0
 40
7.0
 40
7.0
 40
8.0
 40
8.0
 40
8.0
 40
8.0
 10
631.6234050870652
 20
18.14033307964647
 30
0.0
 10
631.6234050870652
 20
18.14033307964647
 30
0.0
 10
633.5230868395306
 20
23.35924900773321
 30
0.0
 10
633.5230868395306
 20
23.35924900773321
 30
0.0
  0
SPLINE
  5
1DC92
102
{ACAD_REACTORS
330
1DC89
102
}
330
2
100
AcDbEntity
  8
Layer 1
100
AcDbSpline
210
0.0
220
0.0
230
1.0
 70
    24
 71
     3
 72
     8
 73
     4
 74
     0
 42
0.000000001
 43
0.0000000001
 40
8.0
 40
8.0
 40
8.0
 40
8.0
 40
9.0
 40
9.0
 40
9.0
 40
9.0
 10
633.5230868395306
 20
23.35924900773321
 30
0.0
 10
633.5230868395306
 20
23.35924900773321
 30
0.0
 10
635.2458052574887
 20
23.35924900773321
 30
0.0
 10
635.2458052574887
 20
23.35924900773321
 30
0.0
  0
SPLINE
  5
1DC93
102
{ACAD_REACTORS
330
1DC89
102
}
330
2
100
AcDbEntity
  8
Layer 1
100
AcDbSpline
210
0.0
220
0.0
230
1.0
 70
    24
 71
     3
 72
     8
 73
     4
 74
     0
 42
0.000000001
 43
0.0000000001
 40
9.0
 40
9.0
 40
9.0
 40
9.0
 40
10.0
 40
10.0
 40
10.0
 40
10.0
 10
635.2458052574887
 20
23.35924900773321
 30
0.0
 10
635.2458052574887
 20
23.35924900773321
 30
0.0
 10
635.5633692534816
 20
20.49118381207179
 30
0.0
 10
635.5633692534816
 20
20.49118381207179
 30
0.0
  0
SPLINE
  5
1DC94
102
{ACAD_REACTORS
330
1DC89
102
}
330
2
100
AcDbEntity
  8
Layer 1
100
AcDbSpline
210
0.0
220
0.0
230
1.0
 70
    24
 71
     3
 72
     8
 73
     4
 74
     0
 42
0.000000001
 43
0.0000000001
 40
10.0
 40
10.0
 40
10.0
 40
10.0
 40
11.0
 40
11.0
 40
11.0
 40
11.0
 10
635.5633692534816
 20
20.49118381207179
 30
0.0
 10
635.5633692534816
 20
20.49118381207179
 30
0.0
 10
637.3671277139168
 20
23.35924900773321
 30
0.0
 10
637.3671277139168
 20
23.35924900773321
 30
0.0
  0
SPLINE
  5
1DC95
102
{ACAD_REACTORS
330
1DC89
102
}
330
2
100
AcDbEntity
  8
Layer 1
100
AcDbSpline
210
0.0
220
0.0
230
1.0
 70
    24
 71
     3
 72
     8
 73
     4
 74
     0
 42
0.000000001
 43
0.0000000001
 40
11.0
 40
11.0
 40
11.0
 40
11.0
 40
12.0
 40
12.0
 40
12.0
 40
12.0
 10
637.3671277139168
 20
23.35924900773321
 30
0.0
 10
637.3671277139168
 20
23.35924900773321
 30
0.0
 10
639.1193829916026
 20
23.35924900773321
 30
0.0
 10
639.1193829916026
 20
23.35924900773321
 30
0.0
  0
SPLINE
  5
1DC96
102
{ACAD_REACTORS
330
1DC9C
102
}
330
2
100
AcDbEntity
  8
Layer 1
100
AcDbSpline
210
0.0
220
0.0
230
1.0
 70
     8
 71
     3
 72
     8
 73
     4
 74
     0
 42
0.000000001
 43
0.0000000001
 40
12.0
 40
12.0
 40
12.0
 40
12.0
 40
13.0
 40
13.0
 40
13.0
 40
13.0
 10
648.3269820617197
 20
20.28898506955143
 30
0.0
 10
648.5595493290349
 20
20.3597015777142
 30
0.0
 10
648.7903099702293
 20
20.46359691797107
 30
0.0
 10
648.994458721896
 20
20.61956897307928
 30
0.0
  0
SPLINE
  5
1DC97
102
{ACAD_REACTORS
330
1DC89
102
}
330
2
100
AcDbEntity
  8
Layer 1
100
AcDbSpline
210
0.0
220
0.0
230
1.0
 70
    24
 71
     3
 72
     8
 73
     4
 74
     0
 42
0.000000001
 43
0.0000000001
 40
12.0
 40
12.0
 40
12.0
 40
12.0
 40
13.0
 40
13.0
 40
13.0
 40
13.0
 10
639.1193829916026
 20
23.35924900773321
 30
0.0
 10
639.1193829916026
 20
23.35924900773321
 30
0.0
 10
638.2690069441345
 20
18.14033307964647
 30
0.0
 10
638.2690069441345
 20
18.14033307964647
 30
0.0
  0
HATCH
  5
1DC98
330
2
100
AcDbEntity
  8
0
  6
Continuous
 62
     0
100
AcDbHatch
 10
0.0
 20
0.0
 30
0.0
210
0.0
220
0.0
230
1.0
  2
SOLID
 70
     1
 71
     0
 91
        1
 92
        5
 93
        2
 72
     4
 94
        3
 73
     0
 74
     0
 95
       35
 96
       31
 40
0.9999994039535522
 40
0.9999994039535522
 40
0.9999994039535522
 40
0.9999994039535522
 40
1.999998807907104
 40
1.999998807907104
 40
1.999998807907104
 40
2.999998807907104
 40
2.999998807907104
 40
2.999998807907104
 40
3.999998807907104
 40
3.999998807907104
 40
3.999998807907104
 40
4.999998807907104
 40
4.999998807907104
 40
4.999998807907104
 40
5.999998807907104
 40
5.999998807907104
 40
5.999998807907104
 40
6.999998807907104
 40
6.999998807907104
 40
6.999998807907104
 40
7.999998807907104
 40
7.999998807907104
 40
7.999998807907104
 40
8.999998807907104
 40
8.999998807907104
 40
8.999998807907104
 40
9.999998807907104
 40
9.999998807907104
 40
9.999998807907104
 40
9.999999403953552
 40
9.999999403953552
 40
9.999999403953552
 40
9.999999403953552
 10
642.2088283648382
 20
21.5998787182283
 10
642.2088284442845
 20
21.5998768939385
 10
642.2754727950777
 20
20.06955168736945
 10
642.2754727950777
 20
20.06955168736945
 10
642.2754727950777
 20
20.06955168736945
 10
641.7523541649461
 20
20.06955168736945
 10
641.7523541649461
 20
20.06955168736945
 10
641.7523541649461
 20
20.06955168736945
 10
641.1856757716765
 20
18.98313850336968
 10
641.1856757716765
 20
18.98313850336968
 10
641.1856757716765
 20
18.98313850336968
 10
642.3271480374576
 20
18.98313850336968
 10
642.3271480374576
 20
18.98313850336968
 10
642.3271480374576
 20
18.98313850336968
 10
642.378966662863
 20
18.14033307964647
 10
642.378966662863
 20
18.14033307964647
 10
642.378966662863
 20
18.14033307964647
 10
643.9536564018045
 20
18.14033307964647
 10
643.9536564018045
 20
18.14033307964647
 10
643.9536564018045
 20
18.14033307964647
 10
643.5617341788798
 20
23.36652965167302
 10
643.5617341788798
 20
23.36652965167302
 10
643.5617341788798
 20
23.36652965167302
 10
641.8170494808646
 20
23.36652965167302
 10
641.8170494808646
 20
23.36652965167302
 10
641.8170494808646
 20
23.36652965167302
 10
638.431431235389
 20
18.14033307964647
 10
638.431431235389
 20
18.14033307964647
 10
638.431431235389
 20
18.14033307964647
 10
638.4314312353896
 20
18.14033307964647
 10
638.4314312353908
 20
18.14033307964647
 97
        0
 72
     4
 94
        3
 73
     0
 74
     0
 95
       17
 96
       13
 40
9.999999403953552
 40
9.999999403953552
 40
9.999999403953552
 40
9.999999403953552
 40
10.9999988079071
 40
10.9999988079071
 40
10.9999988079071
 40
11.9999988079071
 40
11.9999988079071
 40
11.9999988079071
 40
12.9999988079071
 40
12.9999988079071
 40
12.9999988079071
 40
12.99999940395355
 40
12.99999940395355
 40
12.99999940395355
 40
12.99999940395355
 10
638.4314312353908
 20
18.14033307964647
 10
638.4314332533052
 20
18.14033307964647
 10
640.1241825575039
 20
18.14033307964647
 10
640.1241825575039
 20
18.14033307964647
 10
640.1241825575039
 20
18.14033307964647
 10
640.1325856550689
 20
18.15209048773523
 10
640.1325856550689
 20
18.15209048773523
 10
640.1325856550689
 20
18.15209048773523
 10
642.2088283648382
 20
21.59987871822993
 10
642.2088283648382
 20
21.59987871822993
 10
642.2088283648382
 20
21.59987871822993
 10
642.2088283648382
 20
21.59987871822939
 10
642.2088283648382
 20
21.5998787182283
 97
        0
 97
        0
 75
     1
 76
     1
 47
0.0269459378258844
 98
        1
 10
643.3053045189953
 20
20.29797084004375
450
        0
451
        0
460
0.0
461
0.0
452
        0
462
1.0
453
        2
463
0.0
 63
     5
421
      255
463
1.0
 63
     2
421
 16776960
470
LINEAR
1001
GRADIENTCOLOR1ACI
1070
     5
1001
GRADIENTCOLOR2ACI
1070
     2
1001
ACAD
1010
0.0
1020
0.0
1030
0.0
  0
SPLINE
  5
1DC99
330
2
100
AcDbEntity
  8
Layer 1
100
AcDbSpline
210
0.0
220
0.0
230
1.0
 70
    11
 71
     3
 72
    41
 73
    37
 74
     0
 42
0.000000001
 43
0.0000000001
 40
0.0
 40
0.0
 40
0.0
 40
0.0
 40
1.0
 40
1.0
 40
1.0
 40
2.0
 40
2.0
 40
2.0
 40
3.0
 40
3.0
 40
3.0
 40
4.0
 40
4.0
 40
4.0
 40
5.0
 40
5.0
 40
5.0
 40
6.0
 40
6.0
 40
6.0
 40
7.0
 40
7.0
 40
7.0
 40
8.0
 40
8.0
 40
8.0
 40
9.0
 40
9.0
 40
9.0
 40
10.0
 40
10.0
 40
10.0
 40
11.0
 40
11.0
 40
11.0
 40
12.0
 40
12.0
 40
12.0
 40
12.0
 10
640.1241825575039
 20
18.14033307964647
 30
0.0
 10
640.1241825575039
 20
18.14033307964647
 30
0.0
 10
638.431431235389
 20
18.14033307964647
 30
0.0
 10
638.431431235389
 20
18.14033307964647
 30
0.0
 10
638.431431235389
 20
18.14033307964647
 30
0.0
 10
641.8170494808646
 20
23.36652965167302
 30
0.0
 10
641.8170494808646
 20
23.36652965167302
 30
0.0
 10
641.8170494808646
 20
23.36652965167302
 30
0.0
 10
643.5617341788798
 20
23.36652965167302
 30
0.0
 10
643.5617341788798
 20
23.36652965167302
 30
0.0
 10
643.5617341788798
 20
23.36652965167302
 30
0.0
 10
643.9536564018045
 20
18.14033307964647
 30
0.0
 10
643.9536564018045
 20
18.14033307964647
 30
0.0
 10
643.9536564018045
 20
18.14033307964647
 30
0.0
 10
642.378966662863
 20
18.14033307964647
 30
0.0
 10
642.378966662863
 20
18.14033307964647
 30
0.0
 10
642.378966662863
 20
18.14033307964647
 30
0.0
 10
642.3271480374576
 20
18.98313850336968
 30
0.0
 10
642.3271480374576
 20
18.98313850336968
 30
0.0
 10
642.3271480374576
 20
18.98313850336968
 30
0.0
 10
641.1856757716765
 20
18.98313850336968
 30
0.0
 10
641.1856757716765
 20
18.98313850336968
 30
0.0
 10
641.1856757716765
 20
18.98313850336968
 30
0.0
 10
641.7523541649461
 20
20.06955168736946
 30
0.0
 10
641.7523541649461
 20
20.06955168736946
 30
0.0
 10
641.7523541649461
 20
20.06955168736946
 30
0.0
 10
642.2754727950777
 20
20.06955168736946
 30
0.0
 10
642.2754727950777
 20
20.06955168736946
 30
0.0
 10
642.2754727950777
 20
20.06955168736946
 30
0.0
 10
642.2088283648382
 20
21.59987871822994
 30
0.0
 10
642.2088283648382
 20
21.59987871822994
 30
0.0
 10
642.2088283648382
 20
21.59987871822994
 30
0.0
 10
640.1325856550689
 20
18.15209048773523
 30
0.0
 10
640.1325856550689
 20
18.15209048773523
 30
0.0
 10
640.1325856550689
 20
18.15209048773523
 30
0.0
 10
640.1241825575039
 20
18.14033307964647
 30
0.0
 10
640.1241825575039
 20
18.14033307964647
 30
0.0
  0
HATCH
  5
1DC9A
330
2
100
AcDbEntity
  8
0
  6
Continuous
 62
     0
100
AcDbHatch
 10
0.0
 20
0.0
 30
0.0
210
0.0
220
0.0
230
1.0
  2
SOLID
 70
     1
 71
     1
 91
        1
 92
        5
 93
        1
 72
     4
 94
        3
 73
     0
 74
     0
 95
       17
 96
       13
 40
0.0
 40
0.0
 40
0.0
 40
0.0
 40
1.0
 40
1.0
 40
1.0
 40
2.0
 40
2.0
 40
2.0
 40
3.0
 40
3.0
 40
3.0
 40
4.0
 40
4.0
 40
4.0
 40
4.0
 10
651.1607479548014
 20
18.14033307964647
 10
651.1607479548014
 20
18.14033307964647
 10
649.5492363240515
 20
18.14033307964647
 10
649.5492363240515
 20
18.14033307964647
 10
649.5492363240515
 20
18.14033307964647
 10
650.9465039072741
 20
23.35924900773321
 10
650.9465039072741
 20
23.35924900773321
 10
650.9465039072741
 20
23.35924900773321
 10
652.5578997007361
 20
23.35924900773321
 10
652.5578997007361
 20
23.35924900773321
 10
652.5578997007361
 20
23.35924900773321
 10
651.1607479548014
 20
18.14033307964647
 10
651.1607479548014
 20
18.14033307964647
 97
        0
 97
        1
330
1DC9B
 75
     1
 76
     1
 47
0.0269459378258844
 98
        1
 10
650.4907208399012
 20
19.56596795017491
450
        0
451
        0
460
0.0
461
0.0
452
        0
462
1.0
453
        2
463
0.0
 63
     5
421
      255
463
1.0
 63
     2
421
 16776960
470
LINEAR
1001
GRADIENTCOLOR1ACI
1070
     5
1001
GRADIENTCOLOR2ACI
1070
     2
1001
ACAD
1010
0.0
1020
0.0
1030
0.0
  0
SPLINE
  5
1DC9B
102
{ACAD_REACTORS
330
1DC9A
102
}
330
2
100
AcDbEntity
  8
Layer 1
100
AcDbSpline
210
0.0
220
0.0
230
1.0
 70
    11
 71
     3
 72
    17
 73
    13
 74
     0
 42
0.000000001
 43
0.0000000001
 40
0.0
 40
0.0
 40
0.0
 40
0.0
 40
1.0
 40
1.0
 40
1.0
 40
2.0
 40
2.0
 40
2.0
 40
3.0
 40
3.0
 40
3.0
 40
4.0
 40
4.0
 40
4.0
 40
4.0
 10
651.1607479548014
 20
18.14033307964647
 30
0.0
 10
651.1607479548014
 20
18.14033307964647
 30
0.0
 10
649.5492363240515
 20
18.14033307964647
 30
0.0
 10
649.5492363240515
 20
18.14033307964647
 30
0.0
 10
649.5492363240515
 20
18.14033307964647
 30
0.0
 10
650.9465039072741
 20
23.35924900773321
 30
0.0
 10
650.9465039072741
 20
23.35924900773321
 30
0.0
 10
650.9465039072741
 20
23.35924900773321
 30
0.0
 10
652.5578997007361
 20
23.35924900773321
 30
0.0
 10
652.5578997007361
 20
23.35924900773321
 30
0.0
 10
652.5578997007361
 20
23.35924900773321
 30
0.0
 10
651.1607479548014
 20
18.14033307964647
 30
0.0
 10
651.1607479548014
 20
18.14033307964647
 30
0.0
  0
HATCH
  5
1DC9C
330
2
100
AcDbEntity
  8
0
  6
Continuous
 62
     0
100
AcDbHatch
 10
0.0
 20
0.0
 30
0.0
210
0.0
220
0.0
230
1.0
  2
SOLID
 70
     1
 71
     1
 91
        1
 92
        5
 93
       14
 72
     4
 94
        3
 73
     0
 74
     0
 95
        8
 96
        4
 40
12.0
 40
12.0
 40
12.0
 40
12.0
 40
13.0
 40
13.0
 40
13.0
 40
13.0
 10
648.3269820617197
 20
20.28898506955143
 10
648.5595493290349
 20
20.3597015777142
 10
648.7903099702293
 20
20.46359691797107
 10
648.994458721896
 20
20.61956897307928
 97
        0
 72
     4
 94
        3
 73
     0
 74
     0
 95
        8
 96
        4
 40
13.0
 40
13.0
 40
13.0
 40
13.0
 40
14.0
 40
14.0
 40
14.0
 40
14.0
 10
648.994458721896
 20
20.61956897307928
 10
649.44548436682
 20
20.96710075021776
 10
649.6821237120587
 20
21.46251777982798
 10
649.6821237120587
 20
21.95019212606263
 97
        0
 72
     4
 94
        3
 73
     0
 74
     0
 95
        8
 96
        4
 40
0.0
 40
0.0
 40
0.0
 40
0.0
 40
1.0
 40
1.0
 40
1.0
 40
1.0
 10
649.6821237120587
 20
21.95019212606263
 10
649.6821237120587
 20
22.99981322572632
 10
648.7581061427081
 20
23.36948334199769
 10
647.9524092957952
 20
23.36948334199769
 97
        0
 72
     4
 94
        3
 73
     0
 74
     0
 95
        8
 96
        4
 40
1.0
 40
1.0
 40
1.0
 40
1.0
 40
2.0
 40
2.0
 40
2.0
 40
2.0
 10
647.9524092957952
 20
23.36948334199769
 10
647.9524092957952
 20
23.36948334199769
 10
645.6459498897896
 20
23.36948334199769
 10
645.6459498897896
 20
23.36948334199769
 97
        0
 72
     4
 94
        3
 73
     0
 74
     0
 95
        8
 96
        4
 40
2.0
 40
2.0
 40
2.0
 40
2.0
 40
3.0
 40
3.0
 40
3.0
 40
3.0
 10
645.6459498897896
 20
23.36948334199769
 10
645.6459498897896
 20
23.36948334199769
 10
644.2413974573213
 20
18.15043032680785
 10
644.2413974573213
 20
18.15043032680785
 97
        0
 72
     4
 94
        3
 73
     0
 74
     0
 95
        8
 96
        4
 40
3.0
 40
3.0
 40
3.0
 40
3.0
 40
4.0
 40
4.0
 40
4.0
 40
4.0
 10
644.2413974573213
 20
18.15043032680785
 10
644.2413974573213
 20
18.15043032680785
 10
645.8975861079409
 20
18.15043032680785
 10
645.8975861079409
 20
18.15043032680785
 97
        0
 72
     4
 94
        3
 73
     0
 74
     0
 95
        8
 96
        4
 40
4.0
 40
4.0
 40
4.0
 40
4.0
 40
5.0
 40
5.0
 40
5.0
 40
5.0
 10
645.8975861079409
 20
18.15043032680785
 10
645.8975861079409
 20
18.15043032680785
 10
646.9838845855203
 20
22.2013991866892
 10
646.9838845855203
 20
22.2013991866892
 97
        0
 72
     4
 94
        3
 73
     0
 74
     0
 95
        8
 96
        4
 40
5.0
 40
5.0
 40
5.0
 40
5.0
 40
6.0
 40
6.0
 40
6.0
 40
6.0
 10
646.9838845855203
 20
22.2013991866892
 10
646.9838845855203
 20
22.2013991866892
 10
647.4718456978059
 20
22.2013991866892
 10
647.4718456978059
 20
22.2013991866892
 97
        0
 72
     4
 94
        3
 73
     0
 74
     0
 95
        8
 96
        4
 40
6.0
 40
6.0
 40
6.0
 40
6.0
 40
7.0
 40
7.0
 40
7.0
 40
7.0
 10
647.4718456978059
 20
22.2013991866892
 10
647.7600169023991
 20
22.2013991866892
 10
648.0559021137628
 20
22.13489813947534
 10
648.0559021137628
 20
21.78022588766832
 97
        0
 72
     4
 94
        3
 73
     0
 74
     0
 95
        8
 96
        4
 40
7.0
 40
7.0
 40
7.0
 40
7.0
 40
8.0
 40
8.0
 40
8.0
 40
8.0
 10
648.0559021137628
 20
21.78022588766832
 10
648.0559021137628
 20
21.58812131014126
 10
647.9081602443166
 20
21.27741029394382
 10
647.4201991320311
 20
21.29237948180305
 97
        0
 72
     4
 94
        3
 73
     0
 74
     0
 95
        8
 96
        4
 40
8.0
 40
8.0
 40
8.0
 40
8.0
 40
9.0
 40
9.0
 40
9.0
 40
9.0
 10
647.4201991320311
 20
21.29237948180305
 10
647.4201991320311
 20
21.29237948180305
 10
647.1076528131076
 20
20.14826896835351
 10
647.1076528131076
 20
20.14826896835351
 97
        0
 72
     4
 94
        3
 73
     0
 74
     0
 95
        8
 96
        4
 40
9.0
 40
9.0
 40
9.0
 40
9.0
 40
10.0
 40
10.0
 40
10.0
 40
10.0
 10
647.1076528131076
 20
20.14826896835351
 10
647.1076528131076
 20
20.14826896835351
 10
647.7045850247516
 20
18.07004672056011
 10
647.7045850247516
 20
18.07004672056011
 97
        0
 72
     4
 94
        3
 73
     0
 74
     0
 95
        8
 96
        4
 40
10.0
 40
10.0
 40
10.0
 40
10.0
 40
11.0
 40
11.0
 40
11.0
 40
11.0
 10
647.7045850247516
 20
18.07004672056011
 10
647.7045850247516
 20
18.07004672056011
 10
649.0702233906118
 20
18.07004672056011
 10
649.0702233906118
 20
18.07004672056011
 97
        0
 72
     4
 94
        3
 73
     0
 74
     0
 95
        8
 96
        4
 40
11.0
 40
11.0
 40
11.0
 40
11.0
 40
12.0
 40
12.0
 40
12.0
 40
12.0
 10
649.0702233906118
 20
18.07004672056011
 10
649.0702233906118
 20
18.07004672056011
 10
648.3269820617197
 20
20.28898506955143
 10
648.3269820617197
 20
20.28898506955143
 97
        0
 97
       13
330
1DCA7
330
1DC96
330
1DCA8
330
1DC9D
330
1DC9E
330
1DC9F
330
1DCA0
330
1DCA1
330
1DCA2
330
1DCA3
330
1DCA4
330
1DCA5
330
1DCA6
 75
     1
 76
     1
 47
0.0269459378258844
 98
        1
 10
647.9618737830405
 20
20.01911238050062
450
        0
451
        0
460
0.0
461
0.0
452
        0
462
1.0
453
        2
463
0.0
 63
     5
421
      255
463
1.0
 63
     2
421
 16776960
470
LINEAR
1001
GRADIENTCOLOR1ACI
1070
     5
1001
GRADIENTCOLOR2ACI
1070
     2
1001
ACAD
1010
0.0
1020
0.0
1030
0.0
  0
SPLINE
  5
1DC9D
102
{ACAD_REACTORS
330
1DC9C
102
}
330
2
100
AcDbEntity
  8
Layer 1
100
AcDbSpline
210
0.0
220
0.0
230
1.0
 70
     8
 71
     3
 72
     8
 73
     4
 74
     0
 42
0.000000001
 43
0.0000000001
 40
0.0
 40
0.0
 40
0.0
 40
0.0
 40
1.0
 40
1.0
 40
1.0
 40
1.0
 10
649.6821237120587
 20
21.95019212606263
 30
0.0
 10
649.6821237120587
 20
22.99981322572632
 30
0.0
 10
648.7581061427081
 20
23.36948334199769
 30
0.0
 10
647.9524092957952
 20
23.36948334199769
 30
0.0
  0
SPLINE
  5
1DC9E
102
{ACAD_REACTORS
330
1DC9C
102
}
330
2
100
AcDbEntity
  8
Layer 1
100
AcDbSpline
210
0.0
220
0.0
230
1.0
 70
    24
 71
     3
 72
     8
 73
     4
 74
     0
 42
0.000000001
 43
0.0000000001
 40
1.0
 40
1.0
 40
1.0
 40
1.0
 40
2.0
 40
2.0
 40
2.0
 40
2.0
 10
647.9524092957952
 20
23.36948334199769
 30
0.0
 10
647.9524092957952
 20
23.36948334199769
 30
0.0
 10
645.6459498897896
 20
23.36948334199769
 30
0.0
 10
645.6459498897896
 20
23.36948334199769
 30
0.0
  0
SPLINE
  5
1DC9F
102
{ACAD_REACTORS
330
1DC9C
102
}
330
2
100
AcDbEntity
  8
Layer 1
100
AcDbSpline
210
0.0
220
0.0
230
1.0
 70
    24
 71
     3
 72
     8
 73
     4
 74
     0
 42
0.000000001
 43
0.0000000001
 40
2.0
 40
2.0
 40
2.0
 40
2.0
 40
3.0
 40
3.0
 40
3.0
 40
3.0
 10
645.6459498897896
 20
23.36948334199769
 30
0.0
 10
645.6459498897896
 20
23.36948334199769
 30
0.0
 10
644.2413974573213
 20
18.15043032680785
 30
0.0
 10
644.2413974573213
 20
18.15043032680785
 30
0.0
  0
SPLINE
  5
1DCA0
102
{ACAD_REACTORS
330
1DC9C
102
}
330
2
100
AcDbEntity
  8
Layer 1
100
AcDbSpline
210
0.0
220
0.0
230
1.0
 70
    24
 71
     3
 72
     8
 73
     4
 74
     0
 42
0.000000001
 43
0.0000000001
 40
3.0
 40
3.0
 40
3.0
 40
3.0
 40
4.0
 40
4.0
 40
4.0
 40
4.0
 10
644.2413974573213
 20
18.15043032680785
 30
0.0
 10
644.2413974573213
 20
18.15043032680785
 30
0.0
 10
645.8975861079409
 20
18.15043032680785
 30
0.0
 10
645.8975861079409
 20
18.15043032680785
 30
0.0
  0
SPLINE
  5
1DCA1
102
{ACAD_REACTORS
330
1DC9C
102
}
330
2
100
AcDbEntity
  8
Layer 1
100
AcDbSpline
210
0.0
220
0.0
230
1.0
 70
    24
 71
     3
 72
     8
 73
     4
 74
     0
 42
0.000000001
 43
0.0000000001
 40
4.0
 40
4.0
 40
4.0
 40
4.0
 40
5.0
 40
5.0
 40
5.0
 40
5.0
 10
645.8975861079409
 20
18.15043032680785
 30
0.0
 10
645.8975861079409
 20
18.15043032680785
 30
0.0
 10
646.9838845855203
 20
22.2013991866892
 30
0.0
 10
646.9838845855203
 20
22.2013991866892
 30
0.0
  0
SPLINE
  5
1DCA2
102
{ACAD_REACTORS
330
1DC9C
102
}
330
2
100
AcDbEntity
  8
Layer 1
100
AcDbSpline
210
0.0
220
0.0
230
1.0
 70
    24
 71
     3
 72
     8
 73
     4
 74
     0
 42
0.000000001
 43
0.0000000001
 40
5.0
 40
5.0
 40
5.0
 40
5.0
 40
6.0
 40
6.0
 40
6.0
 40
6.0
 10
646.9838845855203
 20
22.2013991866892
 30
0.0
 10
646.9838845855203
 20
22.2013991866892
 30
0.0
 10
647.4718456978059
 20
22.2013991866892
 30
0.0
 10
647.4718456978059
 20
22.2013991866892
 30
0.0
  0
SPLINE
  5
1DCA3
102
{ACAD_REACTORS
330
1DC9C
102
}
330
2
100
AcDbEntity
  8
Layer 1
100
AcDbSpline
210
0.0
220
0.0
230
1.0
 70
     8
 71
     3
 72
    11
 73
     7
 74
     0
 42
0.000000001
 43
0.0000000001
 40
6.0
 40
6.0
 40
6.0
 40
6.0
 40
7.0
 40
7.0
 40
7.0
 40
8.0
 40
8.0
 40
8.0
 40
8.0
 10
647.4718456978059
 20
22.2013991866892
 30
0.0
 10
647.7600169023991
 20
22.2013991866892
 30
0.0
 10
648.0559021137628
 20
22.13489813947534
 30
0.0
 10
648.0559021137628
 20
21.78022588766832
 30
0.0
 10
648.0559021137628
 20
21.58812131014126
 30
0.0
 10
647.9081602443166
 20
21.27741029394382
 30
0.0
 10
647.4201991320311
 20
21.29237948180305
 30
0.0
  0
SPLINE
  5
1DCA4
102
{ACAD_REACTORS
330
1DC9C
102
}
330
2
100
AcDbEntity
  8
Layer 1
100
AcDbSpline
210
0.0
220
0.0
230
1.0
 70
    24
 71
     3
 72
     8
 73
     4
 74
     0
 42
0.000000001
 43
0.0000000001
 40
8.0
 40
8.0
 40
8.0
 40
8.0
 40
9.0
 40
9.0
 40
9.0
 40
9.0
 10
647.4201991320311
 20
21.29237948180305
 30
0.0
 10
647.4201991320311
 20
21.29237948180305
 30
0.0
 10
647.1076528131076
 20
20.14826896835351
 30
0.0
 10
647.1076528131076
 20
20.14826896835351
 30
0.0
  0
SPLINE
  5
1DCA5
102
{ACAD_REACTORS
330
1DC9C
102
}
330
2
100
AcDbEntity
  8
Layer 1
100
AcDbSpline
210
0.0
220
0.0
230
1.0
 70
    24
 71
     3
 72
     8
 73
     4
 74
     0
 42
0.000000001
 43
0.0000000001
 40
9.0
 40
9.0
 40
9.0
 40
9.0
 40
10.0
 40
10.0
 40
10.0
 40
10.0
 10
647.1076528131076
 20
20.14826896835351
 30
0.0
 10
647.1076528131076
 20
20.14826896835351
 30
0.0
 10
647.7045850247516
 20
18.07004672056011
 30
0.0
 10
647.7045850247516
 20
18.07004672056011
 30
0.0
  0
SPLINE
  5
1DCA6
102
{ACAD_REACTORS
330
1DC9C
102
}
330
2
100
AcDbEntity
  8
Layer 1
100
AcDbSpline
210
0.0
220
0.0
230
1.0
 70
    24
 71
     3
 72
     8
 73
     4
 74
     0
 42
0.000000001
 43
0.0000000001
 40
10.0
 40
10.0
 40
10.0
 40
10.0
 40
11.0
 40
11.0
 40
11.0
 40
11.0
 10
647.7045850247516
 20
18.07004672056011
 30
0.0
 10
647.7045850247516
 20
18.07004672056011
 30
0.0
 10
649.0702233906118
 20
18.07004672056011
 30
0.0
 10
649.0702233906118
 20
18.07004672056011
 30
0.0
  0
SPLINE
  5
1DCA7
102
{ACAD_REACTORS
330
1DC9C
102
}
330
2
100
AcDbEntity
  8
Layer 1
100
AcDbSpline
210
0.0
220
0.0
230
1.0
 70
    24
 71
     3
 72
     8
 73
     4
 74
     0
 42
0.000000001
 43
0.0000000001
 40
11.0
 40
11.0
 40
11.0
 40
11.0
 40
12.0
 40
12.0
 40
12.0
 40
12.0
 10
649.0702233906118
 20
18.07004672056011
 30
0.0
 10
649.0702233906118
 20
18.07004672056011
 30
0.0
 10
648.3269820617197
 20
20.28898506955143
 30
0.0
 10
648.3269820617197
 20
20.28898506955143
 30
0.0
  0
SPLINE
  5
1DCA8
102
{ACAD_REACTORS
330
1DC9C
102
}
330
2
100
AcDbEntity
  8
Layer 1
100
AcDbSpline
210
0.0
220
0.0
230
1.0
 70
     8
 71
     3
 72
     8
 73
     4
 74
     0
 42
0.000000001
 43
0.0000000001
 40
13.0
 40
13.0
 40
13.0
 40
13.0
 40
14.0
 40
14.0
 40
14.0
 40
14.0
 10
648.994458721896
 20
20.61956897307928
 30
0.0
 10
649.44548436682
 20
20.96710075021776
 30
0.0
 10
649.6821237120587
 20
21.46251777982798
 30
0.0
 10
649.6821237120587
 20
21.95019212606263
 30
0.0
  0
HATCH
  5
1DCA9
330
2
100
AcDbEntity
  8
0
  6
Continuous
 62
     0
100
AcDbHatch
 10
0.0
 20
0.0
 30
0.0
210
0.0
220
0.0
230
1.0
  2
SOLID
 70
     1
 71
     1
 91
        2
 92
        5
 93
        4
 72
     4
 94
        3
 73
     0
 74
     0
 95
        8
 96
        4
 40
0.0
 40
0.0
 40
0.0
 40
0.0
 40
1.0
 40
1.0
 40
1.0
 40
1.0
 10
656.150734199798
 20
20.25649447597952
 10
656.150734199798
 20
18.90401974991435
 10
657.0769885443458
 20
17.86741782896343
 10
658.6794085604136
 20
17.86741782896343
 97
        0
 72
     4
 94
        3
 73
     0
 74
     0
 95
        8
 96
        4
 40
3.0
 40
3.0
 40
3.0
 40
3.0
 40
4.0
 40
4.0
 40
4.0
 40
4.0
 10
658.6794085604136
 20
17.86741782896343
 10
660.8039435254344
 20
17.86741782896343
 10
661.8992177804082
 20
19.49197618416397
 10
661.8992177804082
 20
20.96219705074672
 97
        0
 72
     4
 94
        3
 73
     0
 74
     0
 95
        8
 96
        4
 40
2.0
 40
2.0
 40
2.0
 40
2.0
 40
3.0
 40
3.0
 40
3.0
 40
3.0
 10
661.8992177804082
 20
20.96219705074672
 10
661.8992177804082
 20
22.27814096836484
 10
660.9731068188859
 20
23.36609950259654
 10
659.3044438450501
 20
23.36609950259654
 97
        0
 72
     4
 94
        3
 73
     0
 74
     0
 95
        8
 96
        4
 40
1.0
 40
1.0
 40
1.0
 40
1.0
 40
2.0
 40
2.0
 40
2.0
 40
2.0
 10
659.3044438450501
 20
23.36609950259654
 10
657.2534070188863
 20
23.36609950259654
 10
656.150734199798
 20
21.73399920025624
 10
656.150734199798
 20
20.25649447597952
 97
        0
 97
        1
330
1DCAA
 92
       20
 93
        4
 72
     4
 94
        3
 73
     0
 74
     0
 95
        8
 96
        4
 40
2.0
 40
2.0
 40
2.0
 40
2.0
 40
3.0
 40
3.0
 40
3.0
 40
3.0
 10
658.7751597448236
 20
19.11714427897553
 10
658.2311932227886
 20
19.11714427897553
 10
657.7605814565853
 20
19.47740846877611
 10
657.7605814565853
 20
20.24192676059167
 97
        0
 72
     4
 94
        3
 73
     0
 74
     0
 95
        8
 96
        4
 40
1.0
 40
1.0
 40
1.0
 40
1.0
 40
2.0
 40
2.0
 40
2.0
 40
2.0
 10
657.7605814565853
 20
20.24192676059167
 10
657.7605814565853
 20
21.03587040429507
 10
658.3121199138915
 20
22.17521744623807
 10
659.3191549434635
 20
22.17521744623807
 97
        0
 72
     4
 94
        3
 73
     0
 74
     0
 95
        8
 96
        4
 40
0.0
 40
0.0
 40
0.0
 40
0.0
 40
1.0
 40
1.0
 40
1.0
 40
1.0
 10
659.3191549434635
 20
22.17521744623807
 10
659.8484390436901
 20
22.17521744623807
 10
660.30422500506
 20
21.81509663946307
 10
660.30422500506
 20
21.05783352873636
 97
        0
 72
     4
 94
        3
 73
     0
 74
     0
 95
        8
 96
        4
 40
3.0
 40
3.0
 40
3.0
 40
3.0
 40
4.0
 40
4.0
 40
4.0
 40
4.0
 10
660.30422500506
 20
21.05783352873636
 10
660.30422500506
 20
20.30074247764019
 10
659.8632935251291
 20
19.11714427897553
 10
658.7751597448236
 20
19.11714427897553
 97
        0
 97
        1
330
1DCAB
 75
     1
 76
     1
 47
0.0269459378258844
 98
        2
 10
657.2575676625945
 20
19.4613969719002
 10
657.2575676625945
 20
19.4613969719002
450
        0
451
        0
460
0.0
461
0.0
452
        0
462
1.0
453
        2
463
0.0
 63
     5
421
      255
463
1.0
 63
     2
421
 16776960
470
LINEAR
1001
GRADIENTCOLOR1ACI
1070
     5
1001
GRADIENTCOLOR2ACI
1070
     2
1001
ACAD
1010
0.0
1020
0.0
1030
0.0
  0
SPLINE
  5
1DCAA
102
{ACAD_REACTORS
330
1DCA9
102
}
330
2
100
AcDbEntity
  8
Layer 1
100
AcDbSpline
210
0.0
220
0.0
230
1.0
 70
     9
 71
     3
 72
    17
 73
    13
 74
     0
 42
0.000000001
 43
0.0000000001
 40
0.0
 40
0.0
 40
0.0
 40
0.0
 40
1.0
 40
1.0
 40
1.0
 40
2.0
 40
2.0
 40
2.0
 40
3.0
 40
3.0
 40
3.0
 40
4.0
 40
4.0
 40
4.0
 40
4.0
 10
658.6794085604136
 20
17.86741782896343
 30
0.0
 10
657.0769885443458
 20
17.86741782896343
 30
0.0
 10
656.150734199798
 20
18.90401974991435
 30
0.0
 10
656.150734199798
 20
20.25649447597952
 30
0.0
 10
656.150734199798
 20
21.73399920025624
 30
0.0
 10
657.2534070188863
 20
23.36609950259654
 30
0.0
 10
659.3044438450501
 20
23.36609950259654
 30
0.0
 10
660.9731068188859
 20
23.36609950259654
 30
0.0
 10
661.8992177804082
 20
22.27814096836484
 30
0.0
 10
661.8992177804082
 20
20.96219705074672
 30
0.0
 10
661.8992177804082
 20
19.49197618416397
 30
0.0
 10
660.8039435254344
 20
17.86741782896343
 30
0.0
 10
658.6794085604136
 20
17.86741782896343
 30
0.0
  0
SPLINE
  5
1DCAB
102
{ACAD_REACTORS
330
1DCA9
102
}
330
2
100
AcDbEntity
  8
Layer 1
100
AcDbSpline
210
0.0
220
0.0
230
1.0
 70
     9
 71
     3
 72
    17
 73
    13
 74
     0
 42
0.000000001
 43
0.0000000001
 40
0.0
 40
0.0
 40
0.0
 40
0.0
 40
1.0
 40
1.0
 40
1.0
 40
2.0
 40
2.0
 40
2.0
 40
3.0
 40
3.0
 40
3.0
 40
4.0
 40
4.0
 40
4.0
 40
4.0
 10
660.30422500506
 20
21.05783352873636
 30
0.0
 10
660.30422500506
 20
21.81509663946307
 30
0.0
 10
659.8484390436901
 20
22.17521744623807
 30
0.0
 10
659.3191549434635
 20
22.17521744623807
 30
0.0
 10
658.3121199138915
 20
22.17521744623807
 30
0.0
 10
657.7605814565853
 20
21.03587040429507
 30
0.0
 10
657.7605814565853
 20
20.24192676059167
 30
0.0
 10
657.7605814565853
 20
19.47740846877611
 30
0.0
 10
658.2311932227886
 20
19.11714427897553
 30
0.0
 10
658.7751597448236
 20
19.11714427897553
 30
0.0
 10
659.8632935251291
 20
19.11714427897553
 30
0.0
 10
660.30422500506
 20
20.30074247764019
 30
0.0
 10
660.30422500506
 20
21.05783352873636
 30
0.0
  0
HATCH
  5
1DCAC
330
2
100
AcDbEntity
  8
0
  6
Continuous
 62
     0
100
AcDbHatch
 10
0.0
 20
0.0
 30
0.0
210
0.0
220
0.0
230
1.0
  2
SOLID
 70
     1
 71
     1
 91
        2
 92
        5
 93
        4
 72
     4
 94
        3
 73
     0
 74
     0
 95
        8
 96
        4
 40
0.0
 40
0.0
 40
0.0
 40
0.0
 40
1.0
 40
1.0
 40
1.0
 40
1.0
 10
662.0787333282987
 20
20.25649447597952
 10
662.0787333282987
 20
18.90401974991435
 10
663.0051023792669
 20
17.86741782896343
 10
664.6073790123092
 20
17.86741782896343
 97
        0
 72
     4
 94
        3
 73
     0
 74
     0
 95
        8
 96
        4
 40
3.0
 40
3.0
 40
3.0
 40
3.0
 40
4.0
 40
4.0
 40
4.0
 40
4.0
 10
664.6073790123092
 20
17.86741782896343
 10
666.7319426539351
 20
17.86741782896343
 10
667.8272169089089
 20
19.49197618416397
 10
667.8272169089089
 20
20.96219705074672
 97
        0
 72
     4
 94
        3
 73
     0
 74
     0
 95
        8
 96
        4
 40
2.0
 40
2.0
 40
2.0
 40
2.0
 40
3.0
 40
3.0
 40
3.0
 40
3.0
 10
667.8272169089089
 20
20.96219705074672
 10
667.8272169089089
 20
22.27814096836484
 10
666.9009625643611
 20
23.36609950259654
 10
665.2324429735509
 20
23.36609950259654
 97
        0
 72
     4
 94
        3
 73
     0
 74
     0
 95
        8
 96
        4
 40
1.0
 40
1.0
 40
1.0
 40
1.0
 40
2.0
 40
2.0
 40
2.0
 40
2.0
 10
665.2324429735509
 20
23.36609950259654
 10
663.1812627643616
 20
23.36609950259654
 10
662.0787333282987
 20
21.73399920025624
 10
662.0787333282987
 20
20.25649447597952
 97
        0
 97
        1
330
1DCAE
 92
       20
 93
        4
 72
     4
 94
        3
 73
     0
 74
     0
 95
        8
 96
        4
 40
3.0
 40
3.0
 40
3.0
 40
3.0
 40
4.0
 40
4.0
 40
4.0
 40
4.0
 10
664.7028721072736
 20
19.11714427897553
 10
665.7908625045535
 20
19.11714427897553
 10
666.2320807505352
 20
20.30074247764019
 10
666.2320807505352
 20
21.05783352873636
 97
        0
 72
     4
 94
        3
 73
     0
 74
     0
 95
        8
 96
        4
 40
0.0
 40
0.0
 40
0.0
 40
0.0
 40
1.0
 40
1.0
 40
1.0
 40
1.0
 10
666.2320807505352
 20
21.05783352873636
 10
666.2320807505352
 20
21.81509663946307
 10
665.7762947891654
 20
22.17521744623807
 10
665.2467239228879
 20
22.17521744623807
 97
        0
 72
     4
 94
        3
 73
     0
 74
     0
 95
        8
 96
        4
 40
1.0
 40
1.0
 40
1.0
 40
1.0
 40
2.0
 40
2.0
 40
2.0
 40
2.0
 10
665.2467239228879
 20
22.17521744623807
 10
664.2399743478404
 20
22.17521744623807
 10
663.6886967388566
 20
21.03587040429507
 10
663.6886967388566
 20
20.24192676059167
 97
        0
 72
     4
 94
        3
 73
     0
 74
     0
 95
        8
 96
        4
 40
2.0
 40
2.0
 40
2.0
 40
2.0
 40
3.0
 40
3.0
 40
3.0
 40
3.0
 10
663.6886967388566
 20
20.24192676059167
 10
663.6886967388566
 20
19.47740846877611
 10
664.1589055852385
 20
19.11714427897553
 10
664.7028721072736
 20
19.11714427897553
 97
        0
 97
        1
330
1DCAD
 75
     1
 76
     1
 47
0.0269459378258844
 98
        2
 10
663.5884061709194
 20
19.87968390597197
 10
663.5884061709194
 20
19.87968390597197
450
        0
451
        0
460
0.0
461
0.0
452
        0
462
1.0
453
        2
463
0.0
 63
     5
421
      255
463
1.0
 63
     2
421
 16776960
470
LINEAR
1001
GRADIENTCOLOR1ACI
1070
     5
1001
GRADIENTCOLOR2ACI
1070
     2
1001
ACAD
1010
0.0
1020
0.0
1030
0.0
  0
SPLINE
  5
1DCAD
102
{ACAD_REACTORS
330
1DCAC
102
}
330
2
100
AcDbEntity
  8
Layer 1
100
AcDbSpline
210
0.0
220
0.0
230
1.0
 70
     9
 71
     3
 72
    17
 73
    13
 74
     0
 42
0.000000001
 43
0.0000000001
 40
0.0
 40
0.0
 40
0.0
 40
0.0
 40
1.0
 40
1.0
 40
1.0
 40
2.0
 40
2.0
 40
2.0
 40
3.0
 40
3.0
 40
3.0
 40
4.0
 40
4.0
 40
4.0
 40
4.0
 10
666.2320807505352
 20
21.05783352873636
 30
0.0
 10
666.2320807505352
 20
21.81509663946307
 30
0.0
 10
665.7762947891654
 20
22.17521744623807
 30
0.0
 10
665.2467239228879
 20
22.17521744623807
 30
0.0
 10
664.2399743478404
 20
22.17521744623807
 30
0.0
 10
663.6886967388566
 20
21.03587040429507
 30
0.0
 10
663.6886967388566
 20
20.24192676059167
 30
0.0
 10
663.6886967388566
 20
19.47740846877611
 30
0.0
 10
664.1589055852385
 20
19.11714427897553
 30
0.0
 10
664.7028721072736
 20
19.11714427897553
 30
0.0
 10
665.7908625045535
 20
19.11714427897553
 30
0.0
 10
666.2320807505352
 20
20.30074247764019
 30
0.0
 10
666.2320807505352
 20
21.05783352873636
 30
0.0
  0
SPLINE
  5
1DCAE
102
{ACAD_REACTORS
330
1DCAC
102
}
330
2
100
AcDbEntity
  8
Layer 1
100
AcDbSpline
210
0.0
220
0.0
230
1.0
 70
     9
 71
     3
 72
    17
 73
    13
 74
     0
 42
0.000000001
 43
0.0000000001
 40
0.0
 40
0.0
 40
0.0
 40
0.0
 40
1.0
 40
1.0
 40
1.0
 40
2.0
 40
2.0
 40
2.0
 40
3.0
 40
3.0
 40
3.0
 40
4.0
 40
4.0
 40
4.0
 40
4.0
 10
664.6073790123092
 20
17.86741782896343
 30
0.0
 10
663.0051023792669
 20
17.86741782896343
 30
0.0
 10
662.0787333282987
 20
18.90401974991435
 30
0.0
 10
662.0787333282987
 20
20.25649447597952
 30
0.0
 10
662.0787333282987
 20
21.73399920025624
 30
0.0
 10
663.1812627643616
 20
23.36609950259654
 30
0.0
 10
665.2324429735509
 20
23.36609950259654
 30
0.0
 10
666.9009625643611
 20
23.36609950259654
 30
0.0
 10
667.8272169089089
 20
22.27814096836484
 30
0.0
 10
667.8272169089089
 20
20.96219705074672
 30
0.0
 10
667.8272169089089
 20
19.49197618416397
 30
0.0
 10
666.7319426539351
 20
17.86741782896343
 30
0.0
 10
664.6073790123092
 20
17.86741782896343
 30
0.0
  0
HATCH
  5
1DCAF
330
2
100
AcDbEntity
  8
0
  6
Continuous
 62
     0
100
AcDbHatch
 10
0.0
 20
0.0
 30
0.0
210
0.0
220
0.0
230
1.0
  2
SOLID
 70
     1
 71
     1
 91
        1
 92
        5
 93
        6
 72
     4
 94
        3
 73
     0
 74
     0
 95
        8
 96
        4
 40
4.0
 40
4.0
 40
4.0
 40
4.0
 40
5.0
 40
5.0
 40
5.0
 40
5.0
 10
669.4177090493345
 20
19.22731979574815
 10
669.4177090493345
 20
19.22731979574815
 10
670.4837028984298
 20
23.21181936718891
 10
670.4837028984298
 20
23.21181936718891
 97
        0
 72
     4
 94
        3
 73
     0
 74
     0
 95
        8
 96
        4
 40
3.0
 40
3.0
 40
3.0
 40
3.0
 40
4.0
 40
4.0
 40
4.0
 40
4.0
 10
670.4837028984298
 20
23.21181936718891
 10
670.4837028984298
 20
23.21181936718891
 10
668.8514592130642
 20
23.21181936718891
 10
668.8514592130642
 20
23.21181936718891
 97
        0
 72
     4
 94
        3
 73
     0
 74
     0
 95
        8
 96
        4
 40
2.0
 40
2.0
 40
2.0
 40
2.0
 40
3.0
 40
3.0
 40
3.0
 40
3.0
 10
668.8514592130642
 20
23.21181936718891
 10
668.8514592130642
 20
23.21181936718891
 10
667.4623071090832
 20
18.0218700240016
 10
667.4623071090832
 20
18.0218700240016
 97
        0
 72
     4
 94
        3
 73
     0
 74
     0
 95
        8
 96
        4
 40
1.0
 40
1.0
 40
1.0
 40
1.0
 40
2.0
 40
2.0
 40
2.0
 40
2.0
 10
667.4623071090832
 20
18.0218700240016
 10
667.4623071090832
 20
18.0218700240016
 10
670.8220024362807
 20
18.0218700240016
 10
670.8220024362807
 20
18.0218700240016
 97
        0
 72
     4
 94
        3
 73
     0
 74
     0
 95
        8
 96
        4
 40
0.0
 40
0.0
 40
0.0
 40
0.0
 40
1.0
 40
1.0
 40
1.0
 40
1.0
 10
670.8220024362807
 20
18.0218700240016
 10
670.8220024362807
 20
18.0218700240016
 10
671.2207776791703
 20
19.22731979574815
 10
671.2207776791703
 20
19.22731979574815
 97
        0
 72
     4
 94
        3
 73
     0
 74
     0
 95
        8
 96
        4
 40
5.0
 40
5.0
 40
5.0
 40
5.0
 40
6.0
 40
6.0
 40
6.0
 40
6.0
 10
671.2207776791703
 20
19.22731979574815
 10
671.2207776791703
 20
19.22731979574815
 10
669.4177090493345
 20
19.22731979574815
 10
669.4177090493345
 20
19.22731979574815
 97
        0
 97
        6
330
1DCB4
330
1DCB3
330
1DCB2
330
1DCB1
330
1DCB0
330
1DCB5
 75
     1
 76
     1
 47
0.0168242271866721
 98
        1
 10
668.9178716948143
 20
19.56587127904095
450
        0
451
        0
460
0.0
461
0.0
452
        0
462
1.0
453
        2
463
0.0
 63
     5
421
      255
463
1.0
 63
     2
421
 16776960
470
LINEAR
1001
GRADIENTCOLOR1ACI
1070
     5
1001
GRADIENTCOLOR2ACI
1070
     2
1001
ACAD
1010
0.0
1020
0.0
1030
0.0
  0
SPLINE
  5
1DCB0
102
{ACAD_REACTORS
330
1DCAF
102
}
330
2
100
AcDbEntity
  8
Layer 1
100
AcDbSpline
210
0.0
220
0.0
230
1.0
 70
    24
 71
     3
 72
     8
 73
     4
 74
     0
 42
0.000000001
 43
0.0000000001
 40
0.0
 40
0.0
 40
0.0
 40
0.0
 40
1.0
 40
1.0
 40
1.0
 40
1.0
 10
671.2207776791703
 20
19.22731979574815
 30
0.0
 10
671.2207776791703
 20
19.22731979574815
 30
0.0
 10
670.8220024362807
 20
18.0218700240016
 30
0.0
 10
670.8220024362807
 20
18.0218700240016
 30
0.0
  0
SPLINE
  5
1DCB1
102
{ACAD_REACTORS
330
1DCAF
102
}
330
2
100
AcDbEntity
  8
Layer 1
100
AcDbSpline
210
0.0
220
0.0
230
1.0
 70
    24
 71
     3
 72
     8
 73
     4
 74
     0
 42
0.000000001
 43
0.0000000001
 40
1.0
 40
1.0
 40
1.0
 40
1.0
 40
2.0
 40
2.0
 40
2.0
 40
2.0
 10
670.8220024362807
 20
18.0218700240016
 30
0.0
 10
670.8220024362807
 20
18.0218700240016
 30
0.0
 10
667.4623071090832
 20
18.0218700240016
 30
0.0
 10
667.4623071090832
 20
18.0218700240016
 30
0.0
  0
SPLINE
  5
1DCB2
102
{ACAD_REACTORS
330
1DCAF
102
}
330
2
100
AcDbEntity
  8
Layer 1
100
AcDbSpline
210
0.0
220
0.0
230
1.0
 70
    24
 71
     3
 72
     8
 73
     4
 74
     0
 42
0.000000001
 43
0.0000000001
 40
2.0
 40
2.0
 40
2.0
 40
2.0
 40
3.0
 40
3.0
 40
3.0
 40
3.0
 10
667.4623071090832
 20
18.0218700240016
 30
0.0
 10
667.4623071090832
 20
18.0218700240016
 30
0.0
 10
668.8514592130642
 20
23.21181936718891
 30
0.0
 10
668.8514592130642
 20
23.21181936718891
 30
0.0
  0
SPLINE
  5
1DCB3
102
{ACAD_REACTORS
330
1DCAF
102
}
330
2
100
AcDbEntity
  8
Layer 1
100
AcDbSpline
210
0.0
220
0.0
230
1.0
 70
    24
 71
     3
 72
     8
 73
     4
 74
     0
 42
0.000000001
 43
0.0000000001
 40
3.0
 40
3.0
 40
3.0
 40
3.0
 40
4.0
 40
4.0
 40
4.0
 40
4.0
 10
668.8514592130642
 20
23.21181936718891
 30
0.0
 10
668.8514592130642
 20
23.21181936718891
 30
0.0
 10
670.4837028984298
 20
23.21181936718891
 30
0.0
 10
670.4837028984298
 20
23.21181936718891
 30
0.0
  0
SPLINE
  5
1DCB4
102
{ACAD_REACTORS
330
1DCAF
102
}
330
2
100
AcDbEntity
  8
Layer 1
100
AcDbSpline
210
0.0
220
0.0
230
1.0
 70
    24
 71
     3
 72
     8
 73
     4
 74
     0
 42
0.000000001
 43
0.0000000001
 40
4.0
 40
4.0
 40
4.0
 40
4.0
 40
5.0
 40
5.0
 40
5.0
 40
5.0
 10
670.4837028984298
 20
23.21181936718891
 30
0.0
 10
670.4837028984298
 20
23.21181936718891
 30
0.0
 10
669.4177090493345
 20
19.22731979574815
 30
0.0
 10
669.4177090493345
 20
19.22731979574815
 30
0.0
  0
SPLINE
  5
1DCB5
102
{ACAD_REACTORS
330
1DCAF
102
}
330
2
100
AcDbEntity
  8
Layer 1
100
AcDbSpline
210
0.0
220
0.0
230
1.0
 70
    24
 71
     3
 72
     8
 73
     4
 74
     0
 42
0.000000001
 43
0.0000000001
 40
5.0
 40
5.0
 40
5.0
 40
5.0
 40
6.0
 40
6.0
 40
6.0
 40
6.0
 10
669.4177090493345
 20
19.22731979574815
 30
0.0
 10
669.4177090493345
 20
19.22731979574815
 30
0.0
 10
671.2207776791703
 20
19.22731979574815
 30
0.0
 10
671.2207776791703
 20
19.22731979574815
 30
0.0
  0
TEXT
  5
1DCB6
330
2
100
AcDbEntity
  8
0
 62
     2
100
AcDbText
 10
636.602414775904
 20
11.92002032937522
 30
0.0
 40
2.535455999999999
  1
www.maritool.com
  7
굴림
100
AcDbText
  0
TEXT
  5
1DCB7
330
2
100
AcDbEntity
  8
0
 62
     2
100
AcDbText
 10
619.2677755846469
 20
3.427181975296476
 30
0.0
 40
2.028364799999999
  1
ITEM#
  7
굴림
100
AcDbText
  0
TEXT
  5
1DCB8
330
2
100
AcDbEntity
  8
0
 62
     2
100
AcDbText
 10
632.3088054400001
 20
2.945248156510893
 30
0.0
 40
3.042547199999999
  1
CAT40-SHC.25-5.0
  7
굴림
100
AcDbText
  0
TEXT
  5
1DCC0
330
2
100
AcDbEntity
  8
0
 62
     2
100
AcDbText
 10
514.4829947229044
 20
14.25575655529788
 30
0.0
 40
4.563820799999999
  1
T.I.R. ACCURACY .0001"
  7
굴림
100
AcDbText
  0
LINE
  5
22F29
330
2
100
AcDbEntity
  8
0
  6
CENTER
 62
     3
100
AcDbLine
 10
443.0697135650246
 20
98.59671083536149
 30
0.0
 11
549.8197135650245
 21
98.59671083536149
 31
0.0
  0
HATCH
  5
22F2A
330
2
100
AcDbEntity
  8
0
  6
Continuous
 62
     4
100
AcDbHatch
 10
0.0
 20
0.0
 30
0.0
210
0.0
220
0.0
230
1.0
  2
ANSI31
 70
     0
 71
     0
 91
        4
 92
        7
 72
     1
 73
     1
 93
       50
 10
565.187822592507
 20
112.3347313906065
 42
0.0
 10
562.2957079293819
 20
120.2807511220162
 42
0.3152987888790598
 10
560.4163226878094
 20
121.5967108353649
 42
0.0
 10
532.7697135650246
 20
121.5967108353613
 42
-0.4142135623731627
 10
532.3697135650245
 20
121.9967108353613
 42
0.0
 10
532.3697135650245
 20
129.5467108353615
 42
0.4142135623730964
 10
531.5697135650245
 20
130.3467108353615
 42
0.0
 10
528.310497733668
 20
130.3467108353615
 42
0.2679491924311083
 10
527.8774850317758
 20
130.0967108353614
 42
0.0
 10
526.4134135650245
 20
127.5608646690365
 42
0.0
 10
526.4134135650246
 20
126.7467108353613
 42
0.0
 10
522.5780135650246
 20
126.7467108353613
 42
0.0
 10
522.5780135650246
 20
127.5608646690365
 42
0.0
 10
521.1139420982733
 20
130.0967108353614
 42
0.2679491924311209
 10
520.6809293963811
 20
130.3467108353615
 42
0.0
 10
517.2947135650245
 20
130.3467108353615
 42
0.4142135623730951
 10
516.4947135650244
 20
129.5467108353615
 42
0.0
 10
516.4947135650245
 20
122.2974385949957
 42
0.0
 10
516.8947135650241
 20
121.6046182719702
 42
0.0
 10
516.8947135650248
 20
120.6974385949971
 42
-0.4142135623730951
 10
516.5947135650249
 20
120.3974385949972
 42
0.0
 10
514.9031191223031
 20
120.3974385949976
 42
0.0
 10
513.3197135650245
 20
120.8217108353614
 42
0.0
 10
446.5911359255261
 20
111.0904605641787
 42
0.3724076148657618
 10
445.0697135650245
 20
109.3310709214589
 42
0.0
 10
445.0697135650245
 20
108.2467108353613
 42
0.0
 10
445.0697135650245
 20
107.7467108353613
 42
0.0
 10
446.8017643725935
 20
106.7467108353613
 42
0.0
 10
452.4697135650245
 20
106.7467108353618
 42
0.0
 10
452.5570754340231
 20
106.5967108353612
 42
0.0
 10
475.0697135650246
 20
106.5967108353615
 42
0.0
 10
476.889316626255
 20
105.5967108353615
 42
0.0
 10
490.0697135650246
 20
105.5967108353615
 42
0.0
 10
490.0697135650246
 20
105.3467108353615
 42
0.0
 10
520.0697135650244
 20
105.3467108353615
 42
0.0
 10
522.0904395071849
 20
101.8467108353671
 42
0.0
 10
535.8197135650336
 20
101.8467108353612
 42
0.0
 10
535.8197135650336
 20
101.3467108353621
 42
0.0
 10
590.3197135650339
 20
101.3467108353617
 42
0.0
 10
590.4640511323292
 20
101.0967108353632
 42
0.0
 10
600.1465084842849
 20
101.096710835363
 42
0.0
 10
600.3197135650368
 20
101.3967108353553
 42
0.0
 10
600.3197135650363
 20
101.9717108353619
 42
0.0
 10
609.5733034035024
 20
101.9717108353619
 42
0.0
 10
610.3197135650341
 20
101.7717108353568
 42
0.0
 10
639.8867008631429
 20
101.7717108353612
 42
0.0
 10
640.3197135650336
 20
102.0217108353612
 42
0.0
 10
640.3197135650336
 20
104.8722285520024
 42
0.3989595459737148
 10
639.8458815431552
 20
105.3715433193797
 42
0.0
 10
569.6246059152217
 20
109.0516844334619
 42
-0.3009658391327306
 97
        0
 92
       22
 72
     0
 73
     1
 93
        8
 10
612.8197135650368
 20
103.7217108353605
 10
634.7697135650325
 20
103.7217108353608
 10
633.519713565033
 20
102.4717108353621
 10
627.5197135650334
 20
102.4717108353621
 10
626.5697135650341
 20
103.4217108353624
 10
621.0197135650332
 20
103.4217108353624
 10
620.0697135650337
 20
102.4717108353621
 10
614.0697135650359
 20
102.4717108353621
 97
        0
 92
       23
 72
     0
 73
     1
 93
        4
 10
475.0697135650246
 20
106.5967108353615
 10
452.5570754340231
 20
106.5967108353612
 10
453.1394878940109
 20
105.5967108353615
 10
475.0697135650246
 20
105.5967108353615
 97
        0
 92
        7
 72
     0
 73
     1
 93
        4
 10
600.1465084842849
 20
101.096710835363
 10
590.4640511323292
 20
101.0967108353632
 10
590.6661237265441
 20
100.746710835363
 10
599.944435890068
 20
100.746710835361
 97
        0
 75
     1
 76
     1
 52
0.0
 41
1.0
 77
     0
 78
     1
 53
45.0
 43
360.5893139407263
 44
-359.3951070139859
 45
-2.245064030267287
 46
2.245064030267288
 79
     0
 47
0.0242706578331343
 98
        4
 10
528.7173072143215
 20
109.5601486227957
 10
528.7173072143215
 20
109.5601486227957
 10
471.7865866422735
 20
106.0792369834058
 10
597.7879316285426
 20
100.9907566226558
1001
GRADIENTCOLOR1ACI
1070
     5
1001
GRADIENTCOLOR2ACI
1070
     2
1001
ACAD
1010
0.0
1020
0.0
1030
0.0
  0
LINE
  5
22F2B
330
2
100
AcDbEntity
  8
0
  6
Continuous
 62
     7
100
AcDbLine
 10
513.3197135650245
 20
120.8217108353614
 30
0.0
 11
446.5911359255261
 21
111.0904605641787
 31
0.0
1001
ACAD
1000
ASC_BOUNDS
1002
{
1070
    19
1002
}
  0
ARC
  5
22F2C
330
2
100
AcDbEntity
  8
0
  6
Continuous
 62
     7
100
AcDbCircle
 10
446.8477135650245
 20
109.3310709214589
 30
0.0
 40
1.778
100
AcDbArc
 50
98.29714443631255
 51
180.0
1001
ACAD
1000
ASC_BOUNDS
1002
{
1070
    19
1002
}
  0
LINE
  5
22F2D
330
2
100
AcDbEntity
  8
0
  6
Continuous
100
AcDbLine
 10
446.8017643725935
 20
106.7467108353613
 30
0.0
 11
452.4697135650245
 21
106.7467108353618
 31
0.0
  0
LINE
  5
22F2E
330
2
100
AcDbEntity
  8
0
  6
Continuous
 62
     7
100
AcDbLine
 10
513.3197135650245
 20
76.37171083536134
 30
0.0
 11
446.5911359255263
 21
86.10296110654429
 31
0.0
1001
ACAD
1000
ASC_BOUNDS
1002
{
1070
    19
1002
}
  0
ARC
  5
22F2F
330
2
100
AcDbEntity
  8
0
  6
Continuous
 62
     7
100
AcDbCircle
 10
446.8477135650247
 20
87.862350749264
 30
0.0
 40
1.778
100
AcDbArc
 50
180.0
 51
261.7028555636874
1001
ACAD
1000
ASC_BOUNDS
1002
{
1070
    19
1002
}
  0
LINE
  5
22F30
330
2
100
AcDbEntity
  8
0
  6
Continuous
100
AcDbLine
 10
445.0697135650245
 20
98.59671083536149
 30
0.0
 11
445.0697135650247
 21
87.862350749264
 31
0.0
  0
LINE
  5
22F31
330
2
100
AcDbEntity
  8
0
  6
Continuous
100
AcDbLine
 10
445.0697135650245
 20
98.59671083536149
 30
0.0
 11
445.0697135650245
 21
109.3310709214589
 31
0.0
  0
POINT
  5
22F32
330
2
100
AcDbEntity
  8
DEFPOINTS
  6
ByBlock
 62
     0
100
AcDbPoint
 10
445.0697135650245
 20
98.59671083536149
 30
0.0
  0
LINE
  5
22F33
330
2
100
AcDbEntity
  8
0
  6
Continuous
100
AcDbLine
 10
445.0697135650245
 20
108.2467108353613
 30
0.0
 11
445.0697135650245
 21
109.3310709214589
 31
0.0
  0
LINE
  5
22F34
330
2
100
AcDbEntity
  8
0
  6
Continuous
100
AcDbLine
 10
520.6809293963812
 20
66.84671083536148
 30
0.0
 11
517.2947135650245
 21
66.84671083536148
 31
0.0
  0
LINE
  5
22F35
330
2
100
AcDbEntity
  8
0
  6
Continuous
100
AcDbLine
 10
490.0697135650246
 20
105.5967108353615
 30
0.0
 11
453.1394878940107
 21
105.5967108353615
 31
0.0
  0
LINE
  5
22F36
330
2
100
AcDbEntity
  8
0
  6
Continuous
 62
     3
100
AcDbLine
 10
475.0697135650246
 20
106.5967108353615
 30
0.0
 11
452.5570754340229
 21
106.5967108353612
 31
0.0
  0
LINE
  5
22F37
330
2
100
AcDbEntity
  8
0
  6
Continuous
100
AcDbLine
 10
452.4697135650245
 20
106.7467108353618
 30
0.0
 11
453.1394878940107
 21
105.5967108353617
 31
0.0
  0
POINT
  5
22F38
330
2
100
AcDbEntity
  8
DEFPOINTS
  6
ByBlock
 62
     0
100
AcDbPoint
 10
452.3197135650247
 20
106.7467108353613
 30
0.0
  0
LINE
  5
22F39
330
2
100
AcDbEntity
  8
0
  6
Continuous
100
AcDbLine
 10
452.4697135650245
 20
98.59671083536149
 30
0.0
 11
452.4697135650245
 21
106.7467108353616
 31
0.0
1001
ACAD
1000
ASC_BOUNDS
1002
{
1070
    19
1005
0
1002
}
  0
LINE
  5
22F3A
330
2
100
AcDbEntity
  8
0
  6
Continuous
100
AcDbLine
 10
453.1394878940107
 20
105.5967108353617
 30
0.0
 11
453.1394878940107
 21
98.5967108353617
 31
0.0
  0
LINE
  5
22F3B
330
2
100
AcDbEntity
  8
0
  6
Continuous
 62
     3
100
AcDbLine
 10
475.0697135650246
 20
106.5967108353615
 30
0.0
 11
476.889316626255
 21
105.5967108353615
 31
0.0
  0
LINE
  5
22F3C
330
2
100
AcDbEntity
  8
0
  6
Continuous
 62
     2
100
AcDbLine
 10
475.0697135650246
 20
106.5967108353615
 30
0.0
 11
475.0697135650246
 21
98.59671083536149
 31
0.0
  0
LINE
  5
22F3D
330
2
100
AcDbEntity
  8
0
  6
Continuous
100
AcDbLine
 10
490.0697135650246
 20
105.5967108353615
 30
0.0
 11
490.0697135650246
 21
98.59671083536149
 31
0.0
  0
LINE
  5
22F3E
330
2
100
AcDbEntity
  8
0
  6
Continuous
100
AcDbLine
 10
520.9696045309762
 20
66.93846254489779
 30
0.0
 11
520.9696045309759
 21
90.40521083536134
 31
0.0
  0
LINE
  5
22F3F
330
2
100
AcDbEntity
  8
0
  6
Continuous
100
AcDbLine
 10
522.5780135650244
 20
90.40521083536134
 30
0.0
 11
522.5780135650244
 21
69.63255700168622
 31
0.0
  0
LINE
  5
22F40
330
2
100
AcDbEntity
  8
0
  6
Continuous
100
AcDbLine
 10
528.0218225990728
 20
66.93846254489779
 30
0.0
 11
528.021822599073
 21
90.40521083536134
 31
0.0
  0
LINE
  5
22F41
330
2
100
AcDbEntity
  8
0
  6
Continuous
100
AcDbLine
 10
526.4134135650246
 20
90.40521083536134
 30
0.0
 11
526.4134135650246
 21
69.63255700168622
 31
0.0
  0
LINE
  5
22F42
330
2
100
AcDbEntity
  8
0
  6
Continuous
100
AcDbLine
 10
531.5697135650245
 20
66.84671083536148
 30
0.0
 11
528.310497733668
 21
66.84671083536148
 31
0.0
  0
LINE
  5
22F43
330
2
100
AcDbEntity
  8
0
  6
Continuous
100
AcDbLine
 10
522.5957135650247
 20
70.44671083536162
 30
0.0
 11
526.3957135650245
 21
70.44671083536162
 31
0.0
  0
LINE
  5
22F44
330
2
100
AcDbEntity
  8
0
  6
Continuous
100
AcDbLine
 10
522.5780135650244
 20
69.63255700168622
 30
0.0
 11
521.1139420982735
 21
67.09671083536147
 31
0.0
  0
ARC
  5
22F45
330
2
100
AcDbEntity
  8
0
  6
Continuous
100
AcDbCircle
 10
520.6809293963812
 20
67.34671083536148
 30
0.0
 40
0.5
100
AcDbArc
 50
270.0
 51
330.0000000000133
  0
LINE
  5
22F46
330
2
100
AcDbEntity
  8
0
  6
Continuous
100
AcDbLine
 10
526.4134135650246
 20
69.63255700168622
 30
0.0
 11
527.8774850317757
 21
67.09671083536147
 31
0.0
  0
POINT
  5
22F47
330
2
100
AcDbEntity
  8
DEFPOINTS
  6
ByBlock
 62
     0
100
AcDbPoint
 10
526.3957135650245
 20
70.44671083536162
 30
0.0
  0
ARC
  5
22F48
330
2
100
AcDbEntity
  8
0
  6
Continuous
100
AcDbCircle
 10
528.310497733668
 20
67.34671083536148
 30
0.0
 40
0.5
100
AcDbArc
 50
209.9999999999867
 51
270.0
  0
LINE
  5
22F49
330
2
100
AcDbEntity
  8
0
  6
Continuous
100
AcDbLine
 10
520.6809293963812
 20
130.3467108353615
 30
0.0
 11
517.2947135650245
 21
130.3467108353615
 31
0.0
  0
LINE
  5
22F4A
330
2
100
AcDbEntity
  8
0
  6
Continuous
100
AcDbLine
 10
522.5957135650247
 20
126.7467108353613
 30
0.0
 11
526.3957135650245
 21
126.7467108353613
 31
0.0
  0
ARC
  5
22F4B
330
2
100
AcDbEntity
  8
0
  6
Continuous
100
AcDbCircle
 10
520.6809293963812
 20
129.8467108353615
 30
0.0
 40
0.5
100
AcDbArc
 50
29.99999999998671
 51
90.0
  0
LINE
  5
22F4C
330
2
100
AcDbEntity
  8
0
  6
Continuous
100
AcDbLine
 10
522.5780135650246
 20
126.7467108353613
 30
0.0
 11
522.5780135650246
 21
127.5608646690365
 31
0.0
  0
POINT
  5
22F4D
330
2
100
AcDbEntity
  8
DEFPOINTS
  6
ByBlock
 62
     0
100
AcDbPoint
 10
522.5957135650247
 20
127.538588131856
 30
0.0
  0
LINE
  5
22F4E
330
2
100
AcDbEntity
  8
0
  6
Continuous
100
AcDbLine
 10
522.5780135650246
 20
127.5608646690367
 30
0.0
 11
521.1139420982735
 21
130.0967108353614
 31
0.0
  0
LINE
  5
22F4F
330
2
100
AcDbEntity
  8
0
  6
Continuous
100
AcDbLine
 10
526.4134135650246
 20
126.7467108353613
 30
0.0
 11
526.4134135650245
 21
127.5608646690365
 31
0.0
  0
POINT
  5
22F50
330
2
100
AcDbEntity
  8
DEFPOINTS
  6
ByBlock
 62
     0
100
AcDbPoint
 10
526.3957135650245
 20
127.538588131856
 30
0.0
  0
POINT
  5
22F51
330
2
100
AcDbEntity
  8
DEFPOINTS
  6
ByBlock
 62
     0
100
AcDbPoint
 10
526.3957135650245
 20
126.7467108353613
 30
0.0
  0
LINE
  5
22F52
330
2
100
AcDbEntity
  8
0
  6
Continuous
100
AcDbLine
 10
526.4134135650246
 20
127.5608646690367
 30
0.0
 11
527.8774850317757
 21
130.0967108353614
 31
0.0
  0
ARC
  5
22F53
330
2
100
AcDbEntity
  8
0
  6
Continuous
100
AcDbCircle
 10
528.310497733668
 20
129.8467108353615
 30
0.0
 40
0.5
100
AcDbArc
 50
90.0
 51
150.0000000000133
  0
LINE
  5
22F54
330
2
100
AcDbEntity
  8
0
  6
Continuous
100
AcDbLine
 10
531.5697135650245
 20
130.3467108353615
 30
0.0
 11
528.310497733668
 21
130.3467108353615
 31
0.0
  0
LINE
  5
22F55
330
2
100
AcDbEntity
  8
0
  6
ByBlock
 62
     0
100
AcDbLine
 10
490.0697135650246
 20
105.3467108353615
 30
0.0
 11
520.0697135650244
 21
105.3467108353615
 31
0.0
  0
LINE
  5
22F56
330
2
100
AcDbEntity
  8
0
  6
Continuous
100
AcDbLine
 10
445.0697135650245
 20
107.7467108353613
 30
0.0
 11
446.8017643725935
 21
106.7467108353613
 31
0.0
  0
LINE
  5
22F57
330
2
100
AcDbEntity
  8
0
  6
Continuous
100
AcDbLine
 10
446.8017643725935
 20
106.7467108353613
 30
0.0
 11
446.8017643725935
 21
98.59671083536149
 31
0.0
  0
LINE
  5
22F58
330
2
100
AcDbEntity
  8
0
  6
Continuous
100
AcDbLine
 10
532.3697135650245
 20
67.64671083536143
 30
0.0
 11
532.3697135650247
 21
98.59671083536149
 31
0.0
  0
ARC
  5
22F59
330
2
100
AcDbEntity
  8
0
  6
Continuous
100
AcDbCircle
 10
531.5697135650245
 20
67.64671083536143
 30
0.0
 40
0.8
100
AcDbArc
 50
270.0
 51
0.0
  0
LINE
  5
22F5A
330
2
100
AcDbEntity
  8
0
  6
Continuous
100
AcDbLine
 10
516.4947135650245
 20
90.40521083536134
 30
0.0
 11
532.3697135650246
 21
90.40521083536134
 31
0.0
  0
LINE
  5
22F5B
330
2
100
AcDbEntity
  8
0
  6
Continuous
100
AcDbLine
 10
532.3697135650245
 20
129.5467108353615
 30
0.0
 11
532.3697135650245
 21
121.9967108353613
 31
0.0
  0
ARC
  5
22F5C
330
2
100
AcDbEntity
  8
0
  6
Continuous
100
AcDbCircle
 10
531.5697135650245
 20
129.5467108353615
 30
0.0
 40
0.8
100
AcDbArc
 50
0.0
 51
90.0
  0
ARC
  5
22F5D
330
2
100
AcDbEntity
  8
0
  6
Continuous
100
AcDbCircle
 10
524.4957135650245
 20
98.59671083536149
 30
0.0
 40
4.7625
100
AcDbArc
 50
180.0
 51
0.0
  0
ARC
  5
22F5E
330
2
100
AcDbEntity
  8
0
  6
Continuous
100
AcDbCircle
 10
517.2947135650245
 20
67.64671083536143
 30
0.0
 40
0.8
100
AcDbArc
 50
180.0
 51
270.0
  0
ARC
  5
22F5F
330
2
100
AcDbEntity
  8
0
  6
Continuous
100
AcDbCircle
 10
517.2947135650245
 20
129.5467108353615
 30
0.0
 40
0.8
100
AcDbArc
 50
90.0
 51
180.0
  0
LINE
  5
22F60
330
2
100
AcDbEntity
  8
0
  6
Continuous
100
AcDbLine
 10
513.3197135650245
 20
76.37171083536134
 30
0.0
 11
513.3197135650245
 21
98.59671083536149
 31
0.0
  0
LINE
  5
22F61
330
2
100
AcDbEntity
  8
0
  6
Continuous
100
AcDbLine
 10
516.4947135650245
 20
120.3974385949976
 30
0.0
 11
516.4947135650245
 21
129.5467108353615
 31
0.0
  0
LINE
  5
22F62
330
2
100
AcDbEntity
  8
0
  6
Continuous
100
AcDbLine
 10
516.4947135650245
 20
98.59671083536149
 30
0.0
 11
516.4947135650245
 21
67.64671083536143
 31
0.0
  0
ARC
  5
22F63
330
2
100
AcDbEntity
  8
0
  6
Continuous
100
AcDbCircle
 10
515.9947135650245
 20
76.29598307572507
 30
0.0
 40
0.5
100
AcDbArc
 50
0.0
 51
90.0
  0
LINE
  5
22F64
330
2
100
AcDbEntity
  8
0
  6
Continuous
100
AcDbLine
 10
513.3197135650245
 20
76.37171083536134
 30
0.0
 11
514.9031191223031
 21
76.7959830757253
 31
0.0
  0
LINE
  5
22F65
330
2
100
AcDbEntity
  8
0
  6
Continuous
100
AcDbLine
 10
514.9031191223031
 20
76.7959830757253
 30
0.0
 11
515.9947135650245
 21
76.79598307572508
 31
0.0
  0
LINE
  5
22F66
330
2
100
AcDbEntity
  8
0
  6
Continuous
100
AcDbLine
 10
514.9031191223031
 20
120.3974385949976
 30
0.0
 11
516.5947135650249
 21
120.3974385949976
 31
0.0
  0
LINE
  5
22F67
330
2
100
AcDbEntity
  8
0
  6
Continuous
100
AcDbLine
 10
513.3197135650245
 20
120.8217108353614
 30
0.0
 11
514.9031191223031
 21
120.3974385949976
 31
0.0
  0
LINE
  5
22F68
330
2
100
AcDbEntity
  8
0
  6
Continuous
 62
     0
100
AcDbLine
 10
514.9031191223031
 20
76.7959830757253
 30
0.0
 11
514.9031191223031
 21
98.59671083536149
 31
0.0
  0
ARC
  5
22F69
330
2
100
AcDbEntity
  8
0
  6
Continuous
100
AcDbCircle
 10
516.5947135650249
 20
120.6974385949971
 30
0.0
 40
0.3
100
AcDbArc
 50
270.0
 51
0.0
1001
ACAD
1000
ASC_BOUNDS
1002
{
1070
    19
1002
}
  0
LINE
  5
22F6A
330
2
100
AcDbEntity
  8
0
  6
Continuous
100
AcDbLine
 10
516.8947135650241
 20
120.6974385949971
 30
0.0
 11
516.8947135650241
 21
121.604618271972
 31
0.0
  0
LINE
  5
22F6B
330
2
100
AcDbEntity
  8
0
  6
Continuous
100
AcDbLine
 10
516.4947135650245
 20
122.2974385949957
 30
0.0
 11
516.8947135650241
 21
121.6046182719702
 31
0.0
  0
ARC
  5
22F6C
330
2
100
AcDbEntity
  8
0
  6
Continuous
 62
     7
100
AcDbCircle
 10
532.7697135650245
 20
121.9967108353613
 30
0.0
 40
0.4
100
AcDbArc
 50
180.0
 51
270.0
  0
LINE
  5
22F6D
330
2
100
AcDbEntity
  8
0
  6
Continuous
 62
     7
100
AcDbLine
 10
520.0697135650244
 20
105.3467108353615
 30
0.0
 11
520.0697135650244
 21
98.59671083536149
 31
0.0
  0
ARC
  5
22F6E
330
2
100
AcDbEntity
  8
0
  6
Continuous
 62
     7
100
AcDbCircle
 10
532.7697135650246
 20
75.19671083536161
 30
0.0
 40
0.4
100
AcDbArc
 50
90.0
 51
180.0
  0
LINE
  5
22F6F
330
2
100
AcDbEntity
  8
0
100
AcDbLine
 10
522.0904395071849
 20
101.8467108353671
 30
0.0
 11
535.8197135650336
 21
101.8467108353612
 31
0.0
  0
LINE
  5
22F70
330
2
100
AcDbEntity
  8
0
  6
Continuous
 62
     7
100
AcDbLine
 10
520.0697135650244
 20
105.3467108353615
 30
0.0
 11
522.0904395071849
 21
101.8467108353671
 31
0.0
  0
LINE
  5
22F71
330
2
100
AcDbEntity
  8
0
  6
Continuous
 62
     7
100
AcDbLine
 10
522.0904395071849
 20
101.8467108353671
 30
0.0
 11
522.0904395071849
 21
98.59671083536149
 31
0.0
  0
LINE
  5
22F72
330
2
100
AcDbEntity
  8
0
  6
HIDDEN
 62
     2
100
AcDbLine
 10
540.2932544983807
 20
94.32587953454833
 30
0.0
 11
532.3697135650247
 21
94.32587953454833
 31
0.0
  0
ARC
  5
22F73
330
2
100
AcDbEntity
  8
0
  6
HIDDEN
 62
     2
100
AcDbCircle
 10
533.3032135650245
 20
98.59671083536149
 30
0.0
 40
8.191500000000019
100
AcDbArc
 50
328.575569407625
 51
0.0
  0
LINE
  5
22F74
330
2
100
AcDbEntity
  8
0
  6
CENTER
 62
     3
100
AcDbLine
 10
533.8197135650337
 20
98.5967108353617
 30
0.0
 11
642.3197135650337
 21
98.59671083536069
 31
0.0
  0
LINE
  5
22F75
330
2
100
AcDbEntity
  8
0
  6
ByBlock
 62
     0
100
AcDbLine
 10
612.8197135650368
 20
103.7217108353605
 30
0.0
 11
634.7697135650325
 21
103.7217108353608
 31
0.0
  0
LINE
  5
22F76
330
2
100
AcDbEntity
  8
0
  6
Continuous
 62
     7
100
AcDbLine
 10
532.7697135650247
 20
75.59671083536421
 30
0.0
 11
560.4163226878094
 21
75.59671083535647
 31
0.0
  0
LINE
  5
22F77
330
2
100
AcDbEntity
  8
0
  6
Continuous
 62
     7
100
AcDbLine
 10
532.7697135650246
 20
121.5967108353585
 30
0.0
 11
560.4163226878094
 21
121.596710835366
 31
0.0
  0
LINE
  5
22F78
330
2
100
AcDbEntity
  8
0
  6
Continuous
 62
     7
100
AcDbLine
 10
640.3197135650336
 20
98.59671083536092
 30
0.0
 11
640.3197135650336
 21
92.32119311871917
 31
0.0
  0
ARC
  5
22F79
330
2
100
AcDbEntity
  8
0
  6
Continuous
 62
     0
100
AcDbCircle
 10
639.8197135650336
 20
92.32119311871917
 30
0.0
 40
0.5
100
AcDbArc
 50
273.0000000000056
 51
0.0
  0
LINE
  5
22F7A
330
2
100
AcDbEntity
  8
0
  6
Continuous
 62
     7
100
AcDbLine
 10
566.3197135650336
 20
98.59671083536092
 30
0.0
 11
566.3197135650336
 21
86.65281033728218
 31
0.0
  0
LINE
  5
22F7B
330
2
100
AcDbEntity
  8
0
  6
Continuous
 62
     7
100
AcDbLine
 10
565.1878225925068
 20
84.85869028011483
 30
0.0
 11
562.2957079293819
 21
76.91267054870525
 31
0.0
  0
ARC
  5
22F7C
330
2
100
AcDbEntity
  8
0
  6
Continuous
 62
     7
100
AcDbCircle
 10
560.41632268781
 20
77.59671083535647
 30
0.0
 40
2.0
100
AcDbArc
 50
269.9999999999804
 51
339.9999999999963
  0
LINE
  5
22F7D
330
2
100
AcDbEntity
  8
0
  6
Continuous
 62
     7
100
AcDbLine
 10
561.8167377642294
 20
76.16883212421282
 30
0.0
 11
561.8167377642294
 21
98.59671083536149
 31
0.0
  0
LINE
  5
22F7E
330
2
100
AcDbEntity
  8
0
  6
Continuous
 62
     7
100
AcDbLine
 10
639.8458815431552
 20
91.82187835134175
 30
0.0
 11
569.6246059152217
 21
88.14173723725934
 31
0.0
  0
ARC
  5
22F7F
330
2
100
AcDbEntity
  8
0
  6
Continuous
 62
     7
100
AcDbCircle
 10
569.8862856964365
 20
83.14858956348656
 30
0.0
 40
5.0
100
AcDbArc
 50
92.99999999999908
 51
159.9999999999959
  0
LINE
  5
22F80
330
2
100
AcDbEntity
  8
0
  6
Continuous
 62
     7
100
AcDbLine
 10
565.187822592507
 20
112.3347313906065
 30
0.0
 11
562.2957079293819
 21
120.2807511220163
 31
0.0
  0
ARC
  5
22F81
330
2
100
AcDbEntity
  8
0
  6
Continuous
 62
     7
100
AcDbCircle
 10
560.41632268781
 20
119.5967108353649
 30
0.0
 40
2.0
100
AcDbArc
 50
19.99999999999724
 51
90.00000000001303
  0
LINE
  5
22F82
330
2
100
AcDbEntity
  8
0
  6
Continuous
 62
     7
100
AcDbLine
 10
639.8458815431552
 20
105.3715433193797
 30
0.0
 11
569.6246059152217
 21
109.0516844334621
 31
0.0
  0
ARC
  5
22F83
330
2
100
AcDbEntity
  8
0
  6
Continuous
 62
     7
100
AcDbCircle
 10
569.8862856964365
 20
114.0448321072348
 30
0.0
 40
5.0
100
AcDbArc
 50
199.9999999999972
 51
267.0000000000009
  0
LINE
  5
22F84
330
2
100
AcDbEntity
  8
0
 62
     0
100
AcDbLine
 10
535.8197135650336
 20
101.3467108353621
 30
0.0
 11
590.3197135650339
 21
101.3467108353617
 31
0.0
  0
LINE
  5
22F85
330
2
100
AcDbEntity
  8
0
  6
Continuous
 62
     7
100
AcDbLine
 10
535.8197135650336
 20
98.59671083536126
 30
0.0
 11
535.8197135650336
 21
101.8467108353612
 31
0.0
  0
LINE
  5
22F86
330
2
100
AcDbEntity
  8
0
  6
Continuous
 62
     7
100
AcDbLine
 10
600.3197135650363
 20
101.9717108353619
 30
0.0
 11
609.5733034035024
 21
101.9717108353619
 31
0.0
1001
ACAD
1000
ASC_BOUNDS
1002
{
1070
    19
1005
0
1002
}
  0
LINE
  5
22F87
330
2
100
AcDbEntity
  8
0
  6
Continuous
 62
     7
100
AcDbLine
 10
627.5197135650334
 20
102.4717108353621
 30
0.0
 11
633.5197135650332
 21
102.4717108353621
 31
0.0
1001
ACAD
1000
ASC_BOUNDS
1002
{
1070
    19
1005
0
1002
}
  0
LINE
  5
22F88
330
2
100
AcDbEntity
  8
0
  6
Continuous
 62
     7
100
AcDbLine
 10
614.0697135650359
 20
102.4717108353621
 30
0.0
 11
620.0697135650338
 21
102.4717108353621
 31
0.0
1001
ACAD
1000
ASC_BOUNDS
1002
{
1070
    19
1005
0
1002
}
  0
LINE
  5
22F89
330
2
100
AcDbEntity
  8
0
  6
Continuous
 62
     7
100
AcDbLine
 10
612.8197135650368
 20
103.7217108353605
 30
0.0
 11
614.0697135650359
 21
102.4717108353621
 31
0.0
1001
ACAD
1000
ASC_BOUNDS
1002
{
1070
    19
1005
0
1002
}
  0
LINE
  5
22F8A
330
2
100
AcDbEntity
  8
0
  6
Continuous
 62
     7
100
AcDbLine
 10
626.5697135650341
 20
103.4217108353624
 30
0.0
 11
627.5197135650334
 21
102.4717108353621
 31
0.0
1001
ACAD
1000
ASC_BOUNDS
1002
{
1070
    19
1005
0
1002
}
  0
LINE
  5
22F8B
330
2
100
AcDbEntity
  8
0
  6
Continuous
 62
     7
100
AcDbLine
 10
621.0197135650332
 20
103.4217108353624
 30
0.0
 11
620.0697135650338
 21
102.4717108353623
 31
0.0
1001
ACAD
1000
ASC_BOUNDS
1002
{
1070
    19
1005
0
1002
}
  0
LINE
  5
22F8C
330
2
100
AcDbEntity
  8
0
 62
     7
100
AcDbLine
 10
621.0197135650332
 20
103.4217108353624
 30
0.0
 11
626.5697135650341
 21
103.4217108353624
 31
0.0
  0
LINE
  5
22F8D
330
2
100
AcDbEntity
  8
0
  6
Continuous
 62
     0
100
AcDbLine
 10
640.3197135650336
 20
98.59671083536126
 30
0.0
 11
640.3197135650336
 21
104.8722285520024
 31
0.0
  0
ARC
  5
22F8E
330
2
100
AcDbEntity
  8
0
  6
Continuous
 62
     0
100
AcDbCircle
 10
639.8197135650336
 20
104.8722285520024
 30
0.0
 40
0.5
100
AcDbArc
 50
0.0
 51
87.00000000000093
  0
LINE
  5
22F8F
330
2
100
AcDbEntity
  8
0
  6
Continuous
 62
     0
100
AcDbLine
 10
610.3197135650341
 20
101.7717108353568
 30
0.0
 11
639.8867008631429
 21
101.7717108353612
 31
0.0
1001
ACAD
1000
ASC_BOUNDS
1002
{
1070
    19
1005
0
1002
}
  0
LINE
  5
22F90
330
2
100
AcDbEntity
  8
0
  6
Continuous
 62
     0
100
AcDbLine
 10
640.3197135650336
 20
102.0217108353612
 30
0.0
 11
639.8867008631429
 21
101.7717108353612
 31
0.0
  0
LINE
  5
22F91
330
2
100
AcDbEntity
  8
0
  6
Continuous
 62
     0
100
AcDbLine
 10
639.8867008631429
 20
101.7717108353612
 30
0.0
 11
639.8867008631429
 21
98.59671083536126
 31
0.0
  0
LINE
  5
22F92
330
2
100
AcDbEntity
  8
0
  6
Continuous
 62
     7
100
AcDbLine
 10
634.7697135650325
 20
103.7217108353608
 30
0.0
 11
633.5197135650332
 21
102.4717108353623
 31
0.0
1001
ACAD
1000
ASC_BOUNDS
1002
{
1070
    19
1005
0
1002
}
  0
LINE
  5
22F93
330
2
100
AcDbEntity
  8
0
 62
     3
100
AcDbLine
 10
590.4640511323291
 20
101.0967108353632
 30
0.0
 11
600.146508484285
 21
101.096710835363
 31
0.0
1001
ACAD
1000
ASC_BOUNDS
1002
{
1070
    19
1002
}
  0
LINE
  5
22F94
330
2
100
AcDbEntity
  8
0
 62
     0
100
AcDbLine
 10
590.6661237265441
 20
100.746710835363
 30
0.0
 11
599.944435890068
 21
100.746710835361
 31
0.0
1001
ACAD
1000
ASC_BOUNDS
1002
{
1070
    19
1002
}
  0
LINE
  5
22F95
330
2
100
AcDbEntity
  8
0
  6
Continuous
 62
     0
100
AcDbLine
 10
599.944435890068
 20
100.746710835361
 30
0.0
 11
599.944435890068
 21
98.59671083536136
 31
0.0
  0
LINE
  5
22F96
330
2
100
AcDbEntity
  8
0
  6
Continuous
 62
     0
100
AcDbLine
 10
600.3197135650368
 20
101.3967108353553
 30
0.0
 11
599.944435890068
 21
100.746710835361
 31
0.0
  0
LINE
  5
22F97
330
2
100
AcDbEntity
  8
0
  6
Continuous
 62
     0
100
AcDbLine
 10
600.3197135650365
 20
101.9717108353619
 30
0.0
 11
600.3197135650384
 21
98.59671083536206
 31
0.0
  0
LINE
  5
22F98
330
2
100
AcDbEntity
  8
0
  6
Continuous
 62
     7
100
AcDbLine
 10
590.6661237265441
 20
100.746710835363
 30
0.0
 11
590.3197135650339
 21
101.3467108353617
 31
0.0
  0
LINE
  5
22F99
330
2
100
AcDbEntity
  8
0
  6
Continuous
 62
     7
100
AcDbLine
 10
590.6661237265441
 20
100.746710835363
 30
0.0
 11
590.6661237265441
 21
98.59671083536523
 31
0.0
  0
LINE
  5
22F9A
330
2
100
AcDbEntity
  8
0
  6
Continuous
 62
     7
100
AcDbLine
 10
590.3197135650339
 20
101.3467108353617
 30
0.0
 11
590.3197135650339
 21
98.5967108353633
 31
0.0
  0
LINE
  5
22F9B
330
2
100
AcDbEntity
  8
0
  6
Continuous
 62
     7
100
AcDbLine
 10
609.5733034035017
 20
101.9717108353619
 30
0.0
 11
609.5733034035017
 21
98.59671083536149
 31
0.0
  0
LINE
  5
22F9C
330
2
100
AcDbEntity
  8
0
  6
Continuous
 62
     0
100
AcDbLine
 10
610.3197135650348
 20
98.59671083536149
 30
0.0
 11
610.3197135650344
 21
101.7717108353568
 31
0.0
  0
LINE
  5
22F9D
330
2
100
AcDbEntity
  8
0
  6
Continuous
 62
     0
100
AcDbLine
 10
610.3197135650341
 20
101.7717108353568
 30
0.0
 11
609.5733034035024
 21
101.9717108353619
 31
0.0
  0
DIMENSION
  5
22F9E
330
2
100
AcDbEntity
  8
0
  6
Continuous
 62
     7
100
AcDbDimension
280
     0
  2
*D0
 10
663.9834729660909
 20
105.3467108353599
 30
0.0
 11
661.8584729660908
 21
98.59671083536085
 31
0.0
 70
    32
  1
%%C.53
 71
     5
 42
13.49999999999829
 73
     0
 74
     0
 75
     0
  3
Standard$0
100
AcDbAlignedDimension
 13
640.3197135650336
 23
91.84671083536159
 33
0.0
 14
640.3197135650336
 24
105.3467108353599
 34
0.0
 50
90.0
100
AcDbRotatedDimension
1001
ACAD
1000
DSTYLE
1002
{
1070
    42
1040
0.625
1070
    43
1040
3.75
1070
    44
1040
1.25
1070
    48
1040
0.000000001
1070
    74
1070
     0
1070
    77
1070
     1
1070
    90
1070
     1
1070
   140
1040
3.0
1070
   141
1040
-0.5
1070
   143
1040
0.03937007874016
1070
   146
1040
0.7
1070
   147
1040
0.625
1070
   171
1070
     3
1070
   172
1070
     1
1070
   175
1070
     0
1070
   179
1070
     0
1070
   274
1070
     3
1070
   283
1070
     0
1070
   284
1070
     8
1070
   340
1005
25
1070
   371
1070
    -1
1070
   372
1070
    -1
1002
}
  0
DIMENSION
  5
22F9F
330
2
100
AcDbEntity
  8
0
  6
Continuous
 62
     7
100
AcDbDimension
280
     0
  2
*D1
 10
655.9834729660908
 20
101.7717108353612
 30
0.0
 11
655.9834729660908
 21
98.59671083536101
 31
0.0
 70
   160
  1
%%C.250
 71
     5
 42
6.350000000000591
 73
     0
 74
     0
 75
     0
  3
Standard$0
100
AcDbAlignedDimension
 13
639.8867008631218
 23
95.42171083536061
 33
0.0
 14
639.8867008631218
 24
101.7717108353612
 34
0.0
 50
90.0
100
AcDbRotatedDimension
1001
ACAD
1000
DSTYLE
1002
{
1070
    42
1040
0.625
1070
    43
1040
3.75
1070
    44
1040
1.25
1070
    48
1040
0.000000001
1070
    74
1070
     0
1070
    75
1070
     1
1070
    77
1070
     1
1070
    90
1070
     1
1070
   140
1040
3.0
1070
   141
1040
-0.5
1070
   143
1040
0.03937007874016
1070
   146
1040
0.7
1070
   147
1040
0.625
1070
   171
1070
     3
1070
   172
1070
     1
1070
   175
1070
     0
1070
   179
1070
     0
1070
   274
1070
     3
1070
   281
1070
     1
1070
   283
1070
     0
1070
   284
1070
     8
1070
   340
1005
25
1070
   371
1070
    -1
1070
   372
1070
    -1
1002
}
  0
DIMENSION
  5
22FA0
330
2
100
AcDbEntity
  8
0
  6
Continuous
 62
     7
100
AcDbDimension
280
     0
  2
*D2
 10
640.3197135650336
 20
128.3789185046171
 30
0.0
 11
620.319713565035
 21
130.5039185046171
 31
0.0
 70
    32
  1
1.54
 71
     5
 42
39.99999999999727
 73
     0
 74
     0
 75
     0
  3
Standard$0
100
AcDbAlignedDimension
 13
600.3197135650363
 23
101.9717108353619
 33
0.0
 14
640.3197135650336
 24
104.8722285520024
 34
0.0
100
AcDbRotatedDimension
1001
ACAD
1000
DSTYLE
1002
{
1070
    42
1040
0.625
1070
    43
1040
3.75
1070
    44
1040
1.25
1070
    48
1040
0.000000001
1070
    74
1070
     0
1070
    77
1070
     1
1070
    90
1070
     1
1070
   140
1040
3.0
1070
   141
1040
-0.5
1070
   143
1040
0.03937007874016
1070
   146
1040
0.7
1070
   147
1040
0.625
1070
   171
1070
     3
1070
   172
1070
     1
1070
   175
1070
     0
1070
   179
1070
     0
1070
   274
1070
     3
1070
   283
1070
     0
1070
   284
1070
     8
1070
   340
1005
25
1070
   371
1070
    -1
1070
   372
1070
    -1
1002
}
  0
DIMENSION
  5
22FA1
330
2
100
AcDbEntity
  8
0
  6
Continuous
 62
     7
100
AcDbDimension
280
     0
  2
*D3
 10
671.9834729660909
 20
109.2248865023049
 30
0.0
 11
671.9834729660909
 21
98.59671083534955
 31
0.0
 70
   160
  1
%%C.84
 71
     5
 42
21.25635133388835
 73
     0
 74
     0
 75
     0
  3
Standard$0
100
AcDbAlignedDimension
 13
566.3197135650336
 23
87.96853516841656
 33
0.0
 14
566.3197135650335
 24
109.2248865023049
 34
0.0
 50
90.0
100
AcDbRotatedDimension
1001
ACAD
1000
DSTYLE
1002
{
1070
    42
1040
0.625
1070
    43
1040
3.75
1070
    44
1040
1.25
1070
    48
1040
0.000000001
1070
    74
1070
     0
1070
    77
1070
     1
1070
    90
1070
     1
1070
   140
1040
3.0
1070
   141
1040
-0.5
1070
   143
1040
0.03937007874016
1070
   146
1040
0.7
1070
   147
1040
0.625
1070
   171
1070
     3
1070
   172
1070
     1
1070
   175
1070
     0
1070
   179
1070
     0
1070
   274
1070
     3
1070
   283
1070
     0
1070
   284
1070
     8
1070
   340
1005
25
1070
   371
1070
    -1
1070
   372
1070
    -1
1002
}
  0
DIMENSION
  5
22FA2
330
2
100
AcDbEntity
  8
0
  6
Continuous
 62
     7
100
AcDbDimension
280
     0
  2
*D4
 10
585.1582063151977
 20
101.096710835363
 30
0.0
 11
585.1582063151977
 21
139.2770139784553
 31
0.0
 70
   160
  1
M<>*0.8
 71
     5
 42
5.000000000004206
 73
     0
 74
     0
 75
     0
  3
Standard$0
100
AcDbAlignedDimension
 13
590.4640511323291
 23
96.09671083535886
 33
0.0
 14
595.3052798083071
 24
101.096710835363
 34
0.0
 50
90.0
100
AcDbRotatedDimension
1001
ACAD
1000
DSTYLE
1002
{
1070
    42
1040
0.625
1070
    43
1040
3.75
1070
    44
1040
1.25
1070
    48
1040
0.000000001
1070
    74
1070
     0
1070
    75
1070
     1
1070
    77
1070
     1
1070
    90
1070
     1
1070
   140
1040
3.0
1070
   141
1040
-0.5
1070
   143
1040
0.03937007874016
1070
   146
1040
0.7
1070
   147
1040
0.625
1070
   171
1070
     3
1070
   172
1070
     1
1070
   175
1070
     0
1070
   179
1070
     0
1070
   274
1070
     3
1070
   281
1070
     1
1070
   283
1070
     0
1070
   284
1070
     8
1070
   340
1005
25
1070
   371
1070
    -1
1070
   372
1070
    -1
1002
}
  0
LINE
  5
22FA3
330
2
100
AcDbEntity
  8
0
  6
Continuous
 62
     3
100
AcDbLine
 10
566.3197135650336
 20
85.96455590744325
 30
0.0
 11
566.3197135650336
 21
48.86750508025341
 31
0.0
  0
MTEXT
  5
22FA4
330
2
100
AcDbEntity
  8
0
  6
Continuous
 62
     2
100
AcDbMText
 10
566.0258996318861
 20
46.38593135587291
 30
0.0
 40
3.0
 41
0.0
 46
0.0
 71
     5
 72
     1
  1
2.09
 73
     1
 44
1.0
  0
LINE
  5
22FA5
330
2
100
AcDbEntity
  8
0
  6
Continuous
 62
     3
100
AcDbLine
 10
640.3197135650336
 20
91.58787069376002
 30
0.0
 11
640.3197135650336
 21
48.86750508025341
 31
0.0
  0
MTEXT
  5
22FA6
330
2
100
AcDbEntity
  8
0
  6
Continuous
 62
     2
100
AcDbMText
 10
640.0258996318862
 20
46.38593135587291
 30
0.0
 40
3.0
 41
0.0
 46
0.0
 71
     5
 72
     1
  1
5.00
 73
     1
 44
1.0
  0
DIMENSION
  5
22FA7
330
2
100
AcDbEntity
  8
0
  6
Continuous
 62
     7
100
AcDbDimension
280
     0
  2
*D5
 10
551.0995648235164
 20
121.5967108353624
 30
0.0
 11
551.0995648235164
 21
130.5453661334549
 31
0.0
 70
   160
  1
%%C1.81
 71
     5
 42
46.00000000000204
 73
     0
 74
     0
 75
     0
  3
Standard$0
100
AcDbAlignedDimension
 13
546.9114920814002
 23
75.59671083536034
 33
0.0
 14
546.9114920813999
 24
121.5967108353624
 34
0.0
 50
90.0
100
AcDbRotatedDimension
1001
ACAD
1000
DSTYLE
1002
{
1070
    42
1040
0.625
1070
    43
1040
3.75
1070
    44
1040
1.25
1070
    48
1040
0.000000001
1070
    74
1070
     0
1070
    77
1070
     1
1070
    90
1070
     1
1070
   140
1040
3.0
1070
   141
1040
-0.5
1070
   143
1040
0.03937007874016
1070
   146
1040
0.7
1070
   147
1040
0.625
1070
   171
1070
     3
1070
   172
1070
     1
1070
   175
1070
     0
1070
   179
1070
     0
1070
   274
1070
     3
1070
   283
1070
     0
1070
   284
1070
     8
1070
   340
1005
25
1070
   371
1070
    -1
1070
   372
1070
    -1
1002
}
  0
DIMENSION
  5
22FA8
330
2
100
AcDbEntity
  8
0
  6
Continuous
 62
     7
100
AcDbDimension
280
     0
  2
*D6
 10
639.8203868272387
 20
92.32190120217092
 30
0.0
 11
648.9357716634051
 21
86.57318516666839
 31
0.0
 70
    36
  1
R0.02
 71
     5
 42
0.4999999999997727
 73
     0
 74
     0
 75
     0
  3
Standard
100
AcDbRadialDimension
 15
640.1824007505399
 25
91.97701583087223
 35
0.0
 40
0.0
1001
ACAD
1000
DSTYLE
1002
{
1070
    42
1040
0.625
1070
    43
1040
3.75
1070
    44
1040
1.25
1070
    48
1040
0.000000001
1070
    74
1070
     0
1070
    77
1070
     1
1070
    90
1070
     1
1070
   140
1040
3.0
1070
   141
1040
-0.5
1070
   143
1040
0.03937007874016
1070
   146
1040
0.7
1070
   147
1040
0.625
1070
   171
1070
     3
1070
   172
1070
     1
1070
   175
1070
     0
1070
   179
1070
     1
1070
   274
1070
     3
1070
   283
1070
     0
1070
   284
1070
     8
1070
   288
1070
     1
1070
   340
1005
25
1070
   371
1070
    -1
1070
   372
1070
    -1
1002
}
1001
ACAD_DSTYLE_DIMRADIAL_EXTENSION
1070
   387
1070
     1
1070
   388
1040
4.764748857944503
1070
   390
1040
0.0
  0
DIMENSION
  5
22FA9
330
2
100
AcDbEntity
  8
0
  6
Continuous
 62
     7
100
AcDbDimension
280
     0
  2
*D7
 10
569.7569205495901
 20
83.03845838919361
 30
0.0
 11
573.0803773256891
 21
79.33480972592855
 31
0.0
 70
   164
  1
R0.20
 71
     5
 42
5.000000000000568
 73
     0
 74
     0
 75
     0
  3
Standard
100
AcDbRadialDimension
 15
566.4175557759469
 25
86.75983486955081
 35
0.0
 40
0.0
1001
ACAD
1000
DSTYLE
1002
{
1070
    42
1040
0.625
1070
    43
1040
3.75
1070
    44
1040
1.25
1070
    48
1040
0.000000001
1070
    74
1070
     0
1070
    77
1070
     1
1070
    90
1070
     1
1070
   140
1040
3.0
1070
   141
1040
-0.5
1070
   143
1040
0.03937007874016
1070
   146
1040
0.7
1070
   147
1040
0.625
1070
   171
1070
     3
1070
   172
1070
     1
1070
   175
1070
     0
1070
   179
1070
     1
1070
   274
1070
     3
1070
   283
1070
     0
1070
   284
1070
     8
1070
   288
1070
     1
1070
   340
1005
25
1070
   371
1070
    -1
1070
   372
1070
    -1
1002
}
1001
ACAD_DSTYLE_DIMRADIAL_EXTENSION
1070
   387
1070
     1
1070
   388
1040
1.623156204354823
1070
   390
1040
2.792526803190916
  0
DIMENSION
  5
22FAA
330
2
100
AcDbEntity
  8
0
  6
Continuous
 62
     7
100
AcDbDimension
280
     0
  2
*D8
 10
560.2469509766608
 20
77.46398405137458
 30
0.0
 11
569.7293178086024
 21
69.84814731044503
 31
0.0
 70
    36
  1
R0.08
 71
     5
 42
1.999999999999772
 73
     0
 74
     0
 75
     0
  3
Standard
100
AcDbRadialDimension
 15
561.5634755605117
 25
75.95840674677834
 35
0.0
 40
0.0
1001
ACAD
1000
DSTYLE
1002
{
1070
    42
1040
0.625
1070
    43
1040
3.75
1070
    44
1040
1.25
1070
    48
1040
0.000000001
1070
    74
1070
     0
1070
    77
1070
     1
1070
    90
1070
     1
1070
   140
1040
3.0
1070
   141
1040
-0.5
1070
   143
1040
0.03937007874016
1070
   146
1040
0.7
1070
   147
1040
0.625
1070
   171
1070
     3
1070
   172
1070
     1
1070
   175
1070
     0
1070
   179
1070
     1
1070
   274
1070
     3
1070
   283
1070
     0
1070
   284
1070
     8
1070
   288
1070
     1
1070
   340
1005
25
1070
   371
1070
    -1
1070
   372
1070
    -1
1002
}
1001
ACAD_DSTYLE_DIMRADIAL_EXTENSION
1070
   387
1070
     1
1070
   388
1040
4.712388980384462
1070
   390
1040
5.934119456780709
  0
LINE
  5
22FAB
330
2
100
AcDbEntity
  8
0
  6
Continuous
 62
     3
100
AcDbLine
 10
513.3197135650245
 20
76.21492143741886
 30
0.0
 11
513.3197135650245
 21
49.30295706172671
 31
0.0
  0
MTEXT
  5
22FAC
330
2
100
AcDbEntity
  8
0
  6
Continuous
 62
     2
100
AcDbMText
 10
513.3202477341722
 20
46.85414195793066
 30
0.0
 40
3.0
 41
0.0
 46
0.0
 71
     5
 72
     1
  1
0.00
 73
     1
 44
1.0
  0
LINE
  5
22FAD
330
2
100
AcDbEntity
  8
0
  6
Continuous
 62
     3
100
AcDbLine
 10
532.3697135650247
 20
66.99624328816105
 30
0.0
 11
532.3697135650247
 21
48.86750508025341
 31
0.0
  0
MTEXT
  5
22FAE
330
2
100
AcDbEntity
  8
0
  6
Continuous
 62
     2
100
AcDbMText
 10
532.0758996318772
 20
46.38593135587291
 30
0.0
 40
3.0
 41
0.0
 46
0.0
 71
     5
 72
     1
  1
0.75
 73
     1
 44
1.0
  0
DIMENSION
  5
22FAF
330
2
100
AcDbEntity
  8
0
  6
Continuous
 62
     7
100
AcDbDimension
280
     0
  2
*D9
 10
500.5439107926394
 20
120.8217108353611
 30
0.0
 11
500.5439107926394
 21
139.2770139784551
 31
0.0
 70
   160
  1
%%C1.7500
 71
     5
 42
44.44999999999981
 73
     0
 74
     0
 75
     0
  3
Standard$0
100
AcDbAlignedDimension
 13
513.3197135650245
 23
76.37171083536134
 33
0.0
 14
513.3197135650245
 24
120.8217108353611
 34
0.0
 50
90.0
100
AcDbRotatedDimension
1001
ACAD
1000
DSTYLE
1002
{
1070
    42
1040
0.625
1070
    43
1040
3.75
1070
    44
1040
1.25
1070
    48
1040
0.000000001
1070
    74
1070
     0
1070
    77
1070
     1
1070
    90
1070
     1
1070
   140
1040
3.0
1070
   141
1040
-0.5
1070
   143
1040
0.03937007874016
1070
   146
1040
0.7
1070
   147
1040
0.625
1070
   171
1070
     3
1070
   172
1070
     1
1070
   175
1070
     0
1070
   179
1070
     0
1070
   274
1070
     3
1070
   283
1070
     0
1070
   284
1070
     8
1070
   340
1005
25
1070
   371
1070
    -1
1070
   372
1070
    -1
1002
}
  0
DIMENSION
  5
22FB0
330
2
100
AcDbEntity
  8
0
  6
Continuous
 62
     7
100
AcDbDimension
280
     0
  2
*D10
 10
492.5439107926393
 20
130.3467108353612
 30
0.0
 11
492.5439107926393
 21
139.0228919377236
 31
0.0
 70
   160
  1
%%C2.500
 71
     5
 42
63.5
 73
     0
 74
     0
 75
     0
  3
Standard$0
100
AcDbAlignedDimension
 13
516.9947135650245
 23
66.84671083536125
 33
0.0
 14
516.9947135650245
 24
130.3467108353612
 34
0.0
 50
90.0
100
AcDbRotatedDimension
1001
ACAD
1000
DSTYLE
1002
{
1070
    42
1040
0.625
1070
    43
1040
3.75
1070
    44
1040
1.25
1070
    48
1040
0.000000001
1070
    74
1070
     0
1070
    77
1070
     1
1070
    90
1070
     1
1070
   140
1040
3.0
1070
   141
1040
-0.5
1070
   143
1040
0.03937007874016
1070
   146
1040
0.7
1070
   147
1040
0.625
1070
   171
1070
     3
1070
   172
1070
     1
1070
   175
1070
     0
1070
   179
1070
     0
1070
   274
1070
     3
1070
   283
1070
     0
1070
   284
1070
     8
1070
   340
1005
25
1070
   371
1070
    -1
1070
   372
1070
    -1
1002
}
  0
MULTILEADER
  5
22FB1
330
2
100
AcDbEntity
  8
0
  6
Continuous
 62
     7
160
               736
310
E0020000190000000C00000016000000020000C30C00000033000000000000000C00000013000000993A00000C00000016000000020000C3E000000026000000879BE9D657227C4044B95AFEB2346040000000000000000000000000000000000000000000000000000000000000F03F000000000000F03F00000000000000
310
00000000000000000055004E00430035002F0038002D0031003100000009000000010000000000000000000840000000000000F03F0000000000000000000000000000F03F00000000000000000000000000000000000000000000000000000000010000000000000000000000690073006F00630070002E00730068007800
310
00007700680067007400780074002E00730068007800000066000C00000033000000000000000C00000010000000000000000C00000016000000030000C30C00000012000000000000000C00000013000000010000000C00000014000000010000005400000007000000030000005877893F69407D40D0C9BFBC1B9C5B4000
310
00000000000000342C7694AC2B7D40E8C2A48230A65A40000000000000000012AAB6D0592B7D407CFA4CACB7A95B4000000000000000000C00000013000000891300003C0000000600000002000000B5102088E1357D40266286B4E9A25B400000000000000000185EDFFFB3657D40148627CB7F2160400000000000000000
310
0C00000013000000112700003C0000000600000002000000185EDFFFB3657D40148627CB7F216040000000000000000022358370F15F7D40148627CB7F21604000000000000000000C00000016000000030000C30C00000012000000000000000C00000017000000000000000C000000130000009A3A00003C000000060000
310
0002000000BCCE1C0A8B297C40148627CB7F216040000000000000000022358370F15F7D40148627CB7F21604000000000000000000C00000016000000070000C30C00000012000000000000000C00000017000000FFFFFFFF0C0000003300000000000000
100
AcDbMLeader
270
     2
300
CONTEXT_DATA{
 40
1.0
 10
448.5964451909346
 20
131.1468498012493
 30
0.0
 41
3.0
140
4.0
145
2.0
174
     1
175
     6
176
     2
177
     0
290
     1
304
UNC5/8-11
 11
0.0
 21
0.0
 31
1.0
340
25
 12
467.9964451909345
 22
132.6468498012492
 32
0.0
 13
1.0
 23
0.0
 33
0.0
 42
0.0
 43
0.0
 44
0.0
 45
1.0
170
     1
 90
-1023410174
171
     3
172
     5
 91
-1073741824
141
0.0
 92
        0
291
     0
292
     0
173
     0
293
     0
142
0.0
143
0.0
294
     0
295
     0
296
     0
110
466.7296337715265
120
91.29743437139735
130
0.0
111
1.0
121
0.0
131
0.0
112
0.0
122
1.0
132
0.0
297
     0
302
LEADER{
290
     1
291
     1
 10
470.3564451909346
 20
129.0468498012493
 30
0.0
 11
-1.0
 21
0.0
 31
0.0
 90
        0
 40
0.36
304
LEADER_LINE{
 10
466.7296337715263
 20
106.5967108353612
 30
0.0
 91
        0
305
}
271
     0
303
}
272
     9
273
     9
301
}
340
BD9
 90
   279552
170
     1
 91
-1023410173
341
28
171
    -2
290
     1
291
     1
 41
0.36
 42
4.0
172
     2
343
25
173
     1
 95
        6
174
     1
175
     2
 92
-1023410174
292
     0
 93
-1056964608
 10
1.0
 20
1.0
 30
1.0
 43
0.0
176
     0
293
     0
294
     0
178
     0
179
     3
 45
1.0
271
     0
272
     9
273
     9
295
     1
  0
LINE
  5
22FB2
330
2
100
AcDbEntity
  8
0
  6
Continuous
 62
     3
100
AcDbLine
 10
445.0697135650248
 20
86.9035453009693
 30
0.0
 11
445.0697135650248
 21
49.30295706172671
 31
0.0
  0
MTEXT
  5
22FB3
330
2
100
AcDbEntity
  8
0
  6
Continuous
 62
     2
100
AcDbMText
 10
445.0702477341722
 20
46.85414195793066
 30
0.0
 40
3.0
 41
0.0
 46
0.0
 71
     5
 72
     1
  1
2.69
 73
     1
 44
1.0
  0
LINE
  5
22FB4
330
2
100
AcDbEntity
  8
0
  6
Continuous
 62
     3
100
AcDbLine
 10
516.4947135650248
 20
66.83866260586285
 30
0.0
 11
516.4947135650248
 21
58.60867324762478
 31
0.0
  0
LINE
  5
22FB5
330
2
100
AcDbEntity
  8
0
  6
Continuous
 62
     3
100
AcDbLine
 10
516.4947135650248
 20
58.60867324762478
 30
0.0
 11
522.762864355371
 21
56.85993207918079
 31
0.0
  0
LINE
  5
22FB6
330
2
100
AcDbEntity
  8
0
  6
Continuous
 62
     3
100
AcDbLine
 10
522.762864355371
 20
56.85993207918079
 30
0.0
 11
522.762864355371
 21
44.03500673483643
 31
0.0
  0
MTEXT
  5
22FB7
330
2
100
AcDbEntity
  8
0
  6
Continuous
 62
     2
100
AcDbMText
 10
522.7074075852449
 20
41.55356247432758
 30
0.0
 40
3.0
 41
0.0
 46
0.0
 71
     5
 72
     1
  1
0.13
 73
     1
 44
1.0
  0
DIMENSION
  5
22FB8
330
2
100
AcDbEntity
  8
0
  6
Continuous
 62
     7
100
AcDbDimension
280
     0
  2
*D11
 10
445.0697135650245
 20
119.812488863096
 30
0.0
 11
438.6861422441596
 21
121.9377841386866
 31
0.0
 70
    32
  1
0.29
 71
     5
 42
7.400000000000545
 73
     0
 74
     0
 75
     0
  3
Standard$0
100
AcDbAlignedDimension
 13
452.4697135650251
 23
106.7467108353613
 33
0.0
 14
445.0697135650245
 24
109.3310709214585
 34
0.0
100
AcDbRotatedDimension
1001
ACAD
1000
DSTYLE
1002
{
1070
    42
1040
0.625
1070
    43
1040
3.75
1070
    44
1040
1.25
1070
    48
1040
0.000000001
1070
    74
1070
     0
1070
    77
1070
     1
1070
    90
1070
     1
1070
   140
1040
3.0
1070
   141
1040
-0.5
1070
   143
1040
0.03937007874016
1070
   146
1040
0.7
1070
   147
1040
0.625
1070
   171
1070
     3
1070
   172
1070
     1
1070
   175
1070
     0
1070
   274
1070
     3
1070
   283
1070
     0
1070
   284
1070
     8
1070
   340
1005
25
1070
   371
1070
    -1
1070
   372
1070
    -1
1002
}
  0
ENDSEC
  0
SECTION
  2
OBJECTS
  0
DICTIONARY
  5
B
330
0
100
AcDbDictionary
281
     1
  3
ACAD_CIP_PREVIOUS_PRODUCT_INFO
350
BE4
  3
ACAD_COLOR
350
3F
  3
ACAD_DETAILVIEWSTYLE
350
BDC
  3
ACAD_GROUP
350
3A
  3
ACAD_LAYOUT
350
17
  3
ACAD_MATERIAL
350
D
  3
ACAD_MLEADERSTYLE
350
42
  3
ACAD_MLINESTYLE
350
3B
  3
ACAD_PLOTSETTINGS
350
3C
  3
ACAD_PLOTSTYLENAME
350
A
  3
ACAD_SCALELIST
350
40
  3
ACAD_SECTIONVIEWSTYLE
350
BDA
  3
ACAD_TABLESTYLE
350
41
  3
ACAD_VISUALSTYLE
350
2F
  3
ACDB_RECOMPOSE_DATA
350
2322F
  3
AcDbVariableDictionary
350
BB8
  3
AEC_PROPERTY_SET_DEFS
350
24C9
  0
DICTIONARY
  5
31
330
2C
100
AcDbDictionary
280
     1
281
     1
  0
DICTIONARY
  5
22
330
21
100
AcDbDictionary
280
     1
281
     1
  3
ACAD_LAYERSTATES
360
23
  0
DICTIONARY
  5
7
330
6
100
AcDbDictionary
280
     1
281
     1
  3
ADSK_XREC_LAYER_RECONCILED
360
8
  0
DICTIONARY
  5
3
330
2
100
AcDbDictionary
280
     1
281
     1
  3
ACAD_SORTENTS
360
BB0
  0
XRECORD
  5
BE4
102
{ACAD_REACTORS
330
B
102
}
330
B
100
AcDbXrecord
280
     1
300
ACD
300
2014
300
ACD_F_S
  0
DICTIONARY
  5
3F
102
{ACAD_REACTORS
330
B
102
}
330
B
100
AcDbDictionary
281
     1
  0
DICTIONARY
  5
BDC
102
{ACAD_REACTORS
330
B
102
}
330
B
100
AcDbDictionary
281
     1
  3
Metric50
350
BDD
  0
DICTIONARY
  5
3A
102
{ACAD_REACTORS
330
B
102
}
330
B
100
AcDbDictionary
281
     1
  0
DICTIONARY
  5
17
102
{ACAD_REACTORS
330
B
102
}
330
B
100
AcDbDictionary
281
     1
  3
Model
350
16
  3
배치1
350
1E
  0
DICTIONARY
  5
D
102
{ACAD_REACTORS
330
B
102
}
330
B
100
AcDbDictionary
281
     1
  3
ByBlock
350
3E
  3
ByLayer
350
3D
  3
Global
350
C
  0
DICTIONARY
  5
42
102
{ACAD_REACTORS
330
B
102
}
330
B
100
AcDbDictionary
281
     1
  3
Standard
350
BD9
  0
DICTIONARY
  5
3B
102
{ACAD_REACTORS
330
B
102
}
330
B
100
AcDbDictionary
281
     1
  3
Standard
350
43
  0
DICTIONARY
  5
3C
102
{ACAD_REACTORS
330
B
102
}
330
B
100
AcDbDictionary
281
     1
  0
ACDBDICTIONARYWDFLT
  5
A
102
{ACAD_REACTORS
330
B
102
}
330
B
100
AcDbDictionary
281
     1
  3
Normal
350
9
100
AcDbDictionaryWithDefault
340
9
  0
DICTIONARY
  5
40
102
{ACAD_REACTORS
330
B
102
}
330
B
100
AcDbDictionary
281
     1
  3
A0
350
48
  3
A1
350
49
  3
A2
350
4A
  3
A3
350
4B
  3
A4
350
4C
  3
A5
350
4D
  3
A6
350
4E
  3
A7
350
4F
  3
A8
350
50
  3
A9
350
51
  3
B0
350
52
  3
B1
350
53
  3
B2
350
54
  3
B3
350
55
  3
B4
350
56
  3
B5
350
57
  3
B6
350
58
  0
DICTIONARY
  5
BDA
102
{ACAD_REACTORS
330
B
102
}
330
B
100
AcDbDictionary
281
     1
  3
Metric50
350
BDB
  0
DICTIONARY
  5
41
102
{ACAD_REACTORS
330
B
102
}
330
B
100
AcDbDictionary
281
     1
  3
Standard
350
44
  0
DICTIONARY
  5
2F
102
{ACAD_REACTORS
330
B
102
}
330
B
100
AcDbDictionary
281
     1
  3
2dWireframe
350
2E
  3
3D Hidden
350
1A64
  3
3dWireframe
350
47
  3
Basic
350
BC7
  3
Brighten
350
BCC
  3
ColorChange
350
BD0
  3
Conceptual
350
BCA
  3
Dim
350
BCB
  3
EdgeColorOff
350
BD8
  3
Facepattern
350
BCF
  3
Flat
350
BC3
  3
FlatWithEdges
350
BC4
  3
Gouraud
350
BC5
  3
GouraudWithEdges
350
BC6
  3
Hidden
350
BC9
  3
JitterOff
350
BD6
  3
Linepattern
350
BCE
  3
OverhangOff
350
BD7
  3
Realistic
350
46
  3
Shaded
350
BD5
  3
Shaded with edges
350
BD4
  3
Shades of Gray
350
BD1
  3
Sketchy
350
BD2
  3
Thicken
350
BCD
  3
Wireframe
350
BC8
  3
X-Ray
350
BD3
  0
XRECORD
  5
2322F
102
{ACAD_REACTORS
330
B
102
}
330
B
100
AcDbXrecord
280
     1
 90
        1
330
44
330
BDB
330
BDD
  0
DICTIONARY
  5
BB8
102
{ACAD_REACTORS
330
B
102
}
330
B
100
AcDbDictionary
281
     1
  3
CANNOSCALE
350
BBE
  3
CMLEADERSTYLE
350
BBA
  3
CTABLESTYLE
350
BB9
  3
CVIEWDETAILSTYLE
350
BBB
  3
CVIEWSECTIONSTYLE
350
BBC
  3
DIMASSOC
350
C3B
  3
HIDETEXT
350
C39
  3
HPCOLOR
350
FF3
  3
INDEXCTL
350
C38
  3
LAYEREVAL
350
BC0
  3
LAYERNOTIFY
350
BC1
  3
LIGHTINGUNITS
350
BBF
  3
MSLTSCALE
350
BBD
  3
SOLIDHIST
350
C3C
  3
SORTENTS
350
C37
  0
DICTIONARY
  5
24C9
102
{ACAD_REACTORS
330
B
102
}
330
B
100
AcDbDictionary
281
     1
  0
DICTIONARY
  5
23
102
{ACAD_REACTORS
330
22
102
}
330
22
100
AcDbDictionary
281
     1
  0
XRECORD
  5
8
102
{ACAD_REACTORS
330
7
102
}
330
7
100
AcDbXrecord
280
     1
290
     1
  0
SORTENTSTABLE
  5
BB0
102
{ACAD_REACTORS
330
3
102
}
330
3
100
AcDbSortentsTable
330
2
331
1DC5B
  5
1DC60
331
1DCB2
  5
1DCB7
331
1DC75
  5
1DC7A
331
1DCAC
  5
1DCB1
331
1DC6F
  5
1DC74
331
1DC69
  5
1DC6E
331
1DC83
  5
1DC88
331
1DC7D
  5
1DC82
331
1DC97
  5
1DC9C
331
1DC91
  5
1DC96
331
1DC8B
  5
1DC90
331
1DCA5
  5
1DCAA
331
1DC9F
  5
1DCA4
331
1DC99
  5
1DC9E
331
1DC62
  5
1DC67
331
1DC5C
  5
1DC61
331
1DCB3
  5
1DCB8
331
1DC76
  5
1DC7B
331
1DCAD
  5
1DCB2
331
1DC70
  5
1DC75
331
1DC6A
  5
1DC6F
331
1DC84
  5
1DC89
331
1DC7E
  5
1DC83
331
1DC78
  5
1DC7D
331
1DC92
  5
1DC97
331
1DC8C
  5
1DC91
331
1DCA6
  5
1DCAB
331
1DCA0
  5
1DCA5
331
1DC9A
  5
1DC9F
331
1DC63
  5
1DC68
331
1DC5D
  5
1DC62
331
1DCB4
  5
1DCC0
331
1DC77
  5
1DC7C
331
1DCAE
  5
1DCB3
331
1DC71
  5
1DC76
331
1DCA8
  5
1DCAD
331
1DC6B
  5
1DC70
331
1DC85
  5
1DC8A
331
1DC7F
  5
1DC84
331
1DC79
  5
1DC7E
331
1DC93
  5
1DC98
331
1DC8D
  5
1DC92
331
1DBC8
  5
1DC5E
331
1DCA7
  5
1DCAC
331
1DCA1
  5
1DCA6
331
1DC9B
  5
1DCA0
331
1DC64
  5
1DC69
331
1DC5E
  5
1DC63
331
1DCB5
  5
1DDD7
331
1DCAF
  5
1DCB4
331
1DC72
  5
1DC77
331
1DCA9
  5
1DCAE
331
1DC6C
  5
1DC71
331
1DC86
  5
1DC8B
331
1DC80
  5
1DC85
331
1DC7A
  5
1DC7F
331
1DC94
  5
1DC99
331
1DC8E
  5
1DC93
331
1DC88
  5
1DC8D
331
1DCA2
  5
1DCA7
331
1DC9C
  5
1DCA1
331
1DC65
  5
1DC6A
331
1DC5F
  5
1DC64
331
1DCB6
  5
1DE45
331
1DCB0
  5
1DCB5
331
1DC73
  5
1DC78
331
1DCAA
  5
1DCAF
331
1DC6D
  5
1DC72
331
1DC87
  5
1DC8C
331
1DCB8
  5
1DE48
331
1DC81
  5
1DC86
331
1DC7B
  5
1DC80
331
1DC95
  5
1DC9A
331
1DC8F
  5
1DC94
331
1DC89
  5
1DC8E
331
1DCC0
  5
1DE49
331
1DCA3
  5
1DCA8
331
1DC9D
  5
1DCA2
331
1DC66
  5
1DC6B
331
1DC60
  5
1DC65
331
1DC5A
  5
1DC5F
331
1DCB7
  5
1DE46
331
1DCB1
  5
1DCB6
331
1DC74
  5
1DC79
331
1DCAB
  5
1DCB0
331
1DC6E
  5
1DC73
331
1DC68
  5
1DC6D
331
1DC82
  5
1DC87
331
1DC7C
  5
1DC81
331
1DC96
  5
1DC9B
331
1DC90
  5
1DC95
331
1DC8A
  5
1DC8F
331
1DCA4
  5
1DCA9
331
1DC9E
  5
1DCA3
331
1DC67
  5
1DC6C
331
1DC61
  5
1DC66
331
1DC98
  5
1DC9D
  0
ACDBDETAILVIEWSTYLE
  5
BDD
102
{ACAD_XDICTIONARY
360
2322D
102
}
102
{ACAD_REACTORS
330
BDC
102
}
330
BDC
100
AcDbModelDocViewStyle
 70
     0
  3
Metric50
290
     0
100
AcDbDetailViewStyle
 70
     0
 71
     0
 90
        3
 71
     1
340
25
 62
   256
 40
5.0
340
0
 62
   256
 40
5.0
300

 40
0.0
280
     1
 71
     2
340
14
 90
       25
 62
   256
 71
     3
340
25
 62
   256
 40
5.0
 90
        0
 40
15.0
 90
        1
300
%<\AcVar ViewDetailId>% (%<\AcVar ViewScale \f "%sn">%)
 71
     4
340
14
 90
       25
 62
   256
340
14
 90
       25
 62
   256
280
     0
  0
LAYOUT
  5
16
102
{ACAD_XDICTIONARY
360
18
102
}
102
{ACAD_REACTORS
330
17
102
}
330
17
100
AcDbPlotSettings
  1

  2
Samsung M267x 287x Series
  4
A4
  6

 40
5.027082920074462
 41
5.027099609375
 42
5.027069091796875
 43
5.027069091796875
 44
209.9733276367187
 45
296.9259948730469
 46
0.0
 47
0.3443247085572807
 48
5290.957610138349
 49
-1180.058350911508
140
5701.957610138348
141
-892.9458025305684
142
1.0
143
1.436143118755716
 70
 11956
 72
     1
 73
     1
 74
     4
  7
ksm0910.ctb
 75
     0
147
0.6963094324933345
 76
     0
 77
     2
 78
   300
148
-5290.957610138349
149
1180.058350911508
100
AcDbLayout
  1
Model
 70
     1
 71
     0
 10
0.0
 20
0.0
 11
12.0
 21
9.0
 12
0.0
 22
0.0
 32
0.0
 14
0.0
 24
0.0
 34
0.0
 15
0.0
 25
0.0
 35
0.0
146
0.0
 13
0.0
 23
0.0
 33
0.0
 16
1.0
 26
0.0
 36
0.0
 17
0.0
 27
1.0
 37
0.0
 76
     0
330
2
331
2D
1001
ACAD_PSEXT
1000
Samsung M267x 287x Series
1000
Samsung M267x 287x Series
1000
USB001
1000

1070
     0
  0
LAYOUT
  5
1E
102
{ACAD_XDICTIONARY
360
1F
102
}
102
{ACAD_REACTORS
330
17
102
}
330
17
100
AcDbPlotSettings
  1

  2
none_device
  4
ISO_A4_(210.00_x_297.00_MM)
  6

 40
7.5
 41
20.0
 42
7.5
 43
20.0
 44
210.0
 45
297.0
 46
0.0
 47
0.0
 48
0.0
 49
0.0
140
0.0
141
0.0
142
1.0
143
1.0
 70
   688
 72
     1
 73
     1
 74
     5
  7
ksm0910.ctb
 75
    16
147
1.0
 76
     0
 77
     2
 78
   300
148
0.0
149
0.0
100
AcDbLayout
  1
배치1
 70
     1
 71
     1
 10
-20.0
 20
-7.5
 11
277.0
 21
202.5
 12
0.0
 22
0.0
 32
0.0
 14
1.000000000000000E+20
 24
1.000000000000000E+20
 34
1.000000000000000E+20
 15
-1.000000000000000E+20
 25
-1.000000000000000E+20
 35
-1.000000000000000E+20
146
0.0
 13
0.0
 23
0.0
 33
0.0
 16
1.0
 26
0.0
 36
0.0
 17
0.0
 27
1.0
 37
0.0
 76
     0
330
1B
1001
ACAD_PSEXT
1000
없음
1000
없음
1000
해당 없음
1000
배치가 새로운 플로터 구성을 선택할 때까지 플롯되지 않습니다.
1070
     0
  0
MATERIAL
  5
3E
102
{ACAD_REACTORS
330
D
102
}
330
D
100
AcDbMaterial
  1
ByBlock
 94
       63
  0
MATERIAL
  5
3D
102
{ACAD_REACTORS
330
D
102
}
330
D
100
AcDbMaterial
  1
ByLayer
 94
       63
  0
MATERIAL
  5
C
102
{ACAD_XDICTIONARY
360
E
102
}
102
{ACAD_REACTORS
330
D
102
}
330
D
100
AcDbMaterial
  1
Global
 43
0.0007999999797903
 43
0.0
 43
0.0
 43
0.0
 43
0.0
 43
0.0007999999797903
 43
0.0
 43
0.0
 43
0.0
 43
0.0
 43
1.0
 43
0.0
 43
0.0
 43
0.0
 43
0.0
 43
1.0
 49
0.0007999999797903
 49
0.0
 49
0.0
 49
0.0
 49
0.0
 49
0.0007999999797903
 49
0.0
 49
0.0
 49
0.0
 49
0.0
 49
1.0
 49
0.0
 49
0.0
 49
0.0
 49
0.0
 49
1.0
142
0.0007999999797903
142
0.0
142
0.0
142
0.0
142
0.0
142
0.0007999999797903
142
0.0
142
0.0
142
0.0
142
0.0
142
1.0
142
0.0
142
0.0
142
0.0
142
0.0
142
1.0
144
0.0007999999797903
144
0.0
144
0.0
144
0.0
144
0.0
144
0.0007999999797903
144
0.0
144
0.0
144
0.0
144
0.0
144
1.0
144
0.0
144
0.0
144
0.0
144
0.0
144
1.0
 94
       63
1001
ACAD
1070
    -1
1070
     3
1070
     0
1000

1071
        0
1070
     0
  0
MLEADERSTYLE
  5
BD9
102
{ACAD_REACTORS
330
42
330
22FB1
102
}
330
42
100
AcDbMLeaderStyle
179
     2
170
     2
171
     1
172
     0
 90
        2
 40
0.0
 41
0.0
173
     1
 91
-1056964608
340
28
 92
       -2
290
     1
 42
2.0
291
     1
 43
0.36
  3
Standard
 44
4.0
300

342
25
174
     1
178
     6
175
     1
176
     0
 93
-1056964608
 45
4.0
292
     0
297
     0
 46
4.0
 94
-1056964608
 47
1.0
 49
1.0
140
1.0
293
     1
141
0.0
294
     1
177
     0
142
1.0
295
     0
296
     0
143
0.125
271
     0
272
     9
273
     9
298
     1
  0
MLINESTYLE
  5
43
102
{ACAD_REACTORS
330
3B
102
}
330
3B
100
AcDbMlineStyle
  2
STANDARD
 70
     0
  3

 62
   256
 51
90.0
 52
90.0
 71
     2
 49
0.5
 62
   256
  6
BYLAYER
 49
-0.5
 62
   256
  6
BYLAYER
  0
ACDBPLACEHOLDER
  5
9
102
{ACAD_REACTORS
330
A
102
}
330
A
  0
SCALE
  5
48
102
{ACAD_REACTORS
330
40
102
}
330
40
100
AcDbScale
 70
     0
300
1:1
140
1.0
141
1.0
290
     1
  0
SCALE
  5
49
102
{ACAD_REACTORS
330
40
102
}
330
40
100
AcDbScale
 70
     0
300
1:2
140
1.0
141
2.0
290
     0
  0
SCALE
  5
4A
102
{ACAD_REACTORS
330
40
102
}
330
40
100
AcDbScale
 70
     0
300
1:4
140
1.0
141
4.0
290
     0
  0
SCALE
  5
4B
102
{ACAD_REACTORS
330
40
102
}
330
40
100
AcDbScale
 70
     0
300
1:5
140
1.0
141
5.0
290
     0
  0
SCALE
  5
4C
102
{ACAD_REACTORS
330
40
102
}
330
40
100
AcDbScale
 70
     0
300
1:8
140
1.0
141
8.0
290
     0
  0
SCALE
  5
4D
102
{ACAD_REACTORS
330
40
102
}
330
40
100
AcDbScale
 70
     0
300
1:10
140
1.0
141
10.0
290
     0
  0
SCALE
  5
4E
102
{ACAD_REACTORS
330
40
102
}
330
40
100
AcDbScale
 70
     0
300
1:16
140
1.0
141
16.0
290
     0
  0
SCALE
  5
4F
102
{ACAD_REACTORS
330
40
102
}
330
40
100
AcDbScale
 70
     0
300
1:20
140
1.0
141
20.0
290
     0
  0
SCALE
  5
50
102
{ACAD_REACTORS
330
40
102
}
330
40
100
AcDbScale
 70
     0
300
1:30
140
1.0
141
30.0
290
     0
  0
SCALE
  5
51
102
{ACAD_REACTORS
330
40
102
}
330
40
100
AcDbScale
 70
     0
300
1:40
140
1.0
141
40.0
290
     0
  0
SCALE
  5
52
102
{ACAD_REACTORS
330
40
102
}
330
40
100
AcDbScale
 70
     0
300
1:50
140
1.0
141
50.0
290
     0
  0
SCALE
  5
53
102
{ACAD_REACTORS
330
40
102
}
330
40
100
AcDbScale
 70
     0
300
1:100
140
1.0
141
100.0
290
     0
  0
SCALE
  5
54
102
{ACAD_REACTORS
330
40
102
}
330
40
100
AcDbScale
 70
     0
300
2:1
140
2.0
141
1.0
290
     0
  0
SCALE
  5
55
102
{ACAD_REACTORS
330
40
102
}
330
40
100
AcDbScale
 70
     0
300
4:1
140
4.0
141
1.0
290
     0
  0
SCALE
  5
56
102
{ACAD_REACTORS
330
40
102
}
330
40
100
AcDbScale
 70
     0
300
8:1
140
8.0
141
1.0
290
     0
  0
SCALE
  5
57
102
{ACAD_REACTORS
330
40
102
}
330
40
100
AcDbScale
 70
     0
300
10:1
140
10.0
141
1.0
290
     0
  0
SCALE
  5
58
102
{ACAD_REACTORS
330
40
102
}
330
40
100
AcDbScale
 70
     0
300
100:1
140
100.0
141
1.0
290
     0
  0
ACDBSECTIONVIEWSTYLE
  5
BDB
102
{ACAD_XDICTIONARY
360
2322B
102
}
102
{ACAD_REACTORS
330
BDA
102
}
330
BDA
100
AcDbModelDocViewStyle
 70
     0
  3
Metric50
290
     0
100
AcDbSectionViewStyle
 70
     0
 71
     0
 90
      102
 71
     1
340
25
 62
   256
 40
5.0
340
0
340
0
 62
   256
 40
5.0
300
I, O, Q, S, X, Z
 40
10.0
 90
        0
 40
2.5
 90
        0
 71
     2
340
14
 90
       25
 62
   256
340
14
 90
       50
 62
   256
 40
5.0
 40
2.5
 40
5.0
 71
     3
340
25
 62
   256
 40
5.0
 90
        0
 40
15.0
 90
        1
300
%<\AcVar ViewSectionStartId>%-%<\AcVar ViewSectionEndId>% (%<\AcVar ViewScale \f "%sn">%)
 71
     4
 62
   256
 62
   257
300
ANSI31
 40
1.0
 90
        0
290
     0
290
     0
 90
        6
 40
0.0
 40
1.570796326794896
 40
0.2617993877991494
 40
1.308996938995747
 40
-0.2617993877991494
 40
1.832595714594046
  0
TABLESTYLE
  5
44
102
{ACAD_XDICTIONARY
360
45
102
}
102
{ACAD_REACTORS
330
41
102
}
330
41
100
AcDbTableStyle
280
     0
  3
Standard
 70
     0
 71
     0
 40
1.5
 41
1.5
280
     0
281
     0
  7
Standard
140
4.5
170
     2
 62
     0
 63
     7
283
     0
 90
      512
 91
        0
  1

274
    -2
284
     1
 64
     0
275
    -2
285
     1
 65
     0
276
    -2
286
     1
 66
     0
277
    -2
287
     1
 67
     0
278
    -2
288
     1
 68
     0
279
    -2
289
     1
 69
     0
  7
Standard
140
6.0
170
     5
 62
     0
 63
     7
283
     0
 90
      512
 91
        0
  1

274
    -2
284
     1
 64
     0
275
    -2
285
     1
 65
     0
276
    -2
286
     1
 66
     0
277
    -2
287
     1
 67
     0
278
    -2
288
     1
 68
     0
279
    -2
289
     1
 69
     0
  7
Standard
140
4.5
170
     5
 62
     0
 63
     7
283
     0
 90
      512
 91
        0
  1

274
    -2
284
     1
 64
     0
275
    -2
285
     1
 65
     0
276
    -2
286
     1
 66
     0
277
    -2
287
     1
 67
     0
278
    -2
288
     1
 68
     0
279
    -2
289
     1
 69
     0
  0
VISUALSTYLE
  5
2E
102
{ACAD_REACTORS
330
2F
102
}
330
2F
100
AcDbVisualStyle
  2
2dWireframe
 70
     4
177
     3
291
     0
 70
    58
 90
        0
176
     1
 90
        2
176
     1
 90
        1
176
     1
 90
        0
176
     1
 40
0.6
176
     1
 40
30.0
176
     1
 62
     7
176
     1
 90
        1
176
     1
 90
        4
176
     1
 62
     7
176
     1
 62
   257
176
     1
 90
        1
176
     1
 90
        1
176
     1
 40
1.0
176
     1
 90
        0
176
     1
 62
   257
176
     1
 40
1.0
176
     1
 90
        1
176
     1
 90
        6
176
     1
 90
        2
176
     1
 62
     7
176
     1
 90
        5
176
     1
 90
        0
176
     1
 90
        0
176
     1
290
     0
176
     1
 90
        1
176
     1
 40
0.0
176
     1
 90
        0
176
     1
290
     1
176
     1
290
     1
176
     1
290
     0
176
     1
290
     0
176
     1
290
     0
176
     1
290
     0
176
     1
290
     0
176
     1
290
     0
176
     1
290
     0
176
     1
 90
       50
176
     1
 40
0.0
176
     1
 40
1.0
176
     1
 90
        0
176
     1
 62
    18
420
        0
176
     1
 90
       50
176
     1
 90
        3
176
     1
 62
     5
420
      255
176
     1
290
     0
176
     1
 90
       50
176
     1
 90
       50
176
     1
 90
       50
176
     1
290
     0
176
     1
 90
       50
176
     1
 62
   256
176
     0
 40
1.0
176
     0
 90
        2
176
     1
  1
strokes_ogs.tif
176
     1
290
     0
176
     1
 40
1.0
176
     1
 40
1.0
176
     1
  0
VISUALSTYLE
  5
1A64
102
{ACAD_REACTORS
330
2F
102
}
330
2F
100
AcDbVisualStyle
  2
3D Hidden
 70
     6
177
     3
291
     0
 70
    58
 90
        1
176
     1
 90
        2
176
     1
 90
        2
176
     1
 90
        0
176
     1
 40
0.6
176
     1
 40
30.0
176
     1
 62
     7
176
     1
 90
        2
176
     1
 90
        2
176
     1
 62
     7
176
     1
 62
   257
176
     1
 90
        2
176
     1
 90
        1
176
     1
 40
40.0
176
     1
 90
        0
176
     1
 62
   257
176
     1
 40
1.0
176
     1
 90
        1
176
     1
 90
        6
176
     1
 90
        2
176
     1
 62
     7
176
     1
 90
        3
176
     1
 90
        0
176
     1
 90
        0
176
     1
290
     0
176
     1
 90
        1
176
     1
 40
0.0
176
     1
 90
        0
176
     1
290
     0
176
     1
290
     1
176
     1
290
     1
176
     1
290
     0
176
     1
290
     0
176
     1
290
     0
176
     1
290
     0
176
     1
290
     0
176
     1
290
     0
176
     1
 90
       50
176
     1
 40
0.0
176
     1
 40
1.0
176
     1
 90
        0
176
     1
 62
    18
420
        0
176
     1
 90
       50
176
     1
 90
        3
176
     1
 62
     5
420
      255
176
     1
290
     0
176
     1
 90
       50
176
     1
 90
       50
176
     1
 90
       50
176
     1
290
     0
176
     1
 90
       50
176
     1
 62
   256
176
     0
 40
1.0
176
     0
 90
        2
176
     1
  1
strokes_ogs.tif
176
     1
290
     0
176
     1
 40
1.0
176
     1
 40
1.0
176
     1
  0
VISUALSTYLE
  5
47
102
{ACAD_REACTORS
330
2F
102
}
330
2F
100
AcDbVisualStyle
  2
3dWireframe
 70
     5
177
     3
291
     0
 70
    58
 90
        0
176
     1
 90
        2
176
     1
 90
        1
176
     1
 90
        0
176
     1
 40
0.6
176
     1
 40
30.0
176
     1
 62
     7
176
     1
 90
        1
176
     1
 90
        4
176
     1
 62
     7
176
     1
 62
   257
176
     1
 90
        1
176
     1
 90
        1
176
     1
 40
1.0
176
     1
 90
        0
176
     1
 62
   257
176
     1
 40
1.0
176
     1
 90
        1
176
     1
 90
        6
176
     1
 90
        2
176
     1
 62
     7
176
     1
 90
        5
176
     1
 90
        0
176
     1
 90
        0
176
     1
290
     0
176
     1
 90
        1
176
     1
 40
0.0
176
     1
 90
        0
176
     1
290
     0
176
     1
290
     1
176
     1
290
     1
176
     1
290
     0
176
     1
290
     0
176
     1
290
     0
176
     1
290
     0
176
     1
290
     0
176
     1
290
     0
176
     1
 90
       50
176
     1
 40
0.0
176
     1
 40
1.0
176
     1
 90
        0
176
     1
 62
    18
420
        0
176
     1
 90
       50
176
     1
 90
        3
176
     1
 62
     5
420
      255
176
     1
290
     0
176
     1
 90
       50
176
     1
 90
       50
176
     1
 90
       50
176
     1
290
     0
176
     1
 90
       50
176
     1
 62
   256
176
     0
 40
1.0
176
     0
 90
        2
176
     1
  1
strokes_ogs.tif
176
     1
290
     0
176
     1
 40
1.0
176
     1
 40
1.0
176
     1
  0
VISUALSTYLE
  5
BC7
102
{ACAD_REACTORS
330
2F
102
}
330
2F
100
AcDbVisualStyle
  2
Basic
 70
     7
177
     3
291
     1
 70
    58
 90
        1
176
     1
 90
        0
176
     1
 90
        1
176
     1
 90
        0
176
     1
 40
0.6
176
     1
 40
30.0
176
     1
 62
     7
176
     1
 90
        0
176
     1
 90
        4
176
     1
 62
     7
176
     1
 62
   257
176
     1
 90
        1
176
     1
 90
        1
176
     1
 40
1.0
176
     1
 90
        8
176
     1
 62
     7
176
     1
 40
1.0
176
     1
 90
        1
176
     1
 90
        6
176
     1
 90
        2
176
     1
 62
     7
176
     1
 90
        5
176
     1
 90
        0
176
     1
 90
        0
176
     1
290
     0
176
     1
 90
        1
176
     1
 40
0.0
176
     1
 90
        0
176
     1
290
     0
176
     1
290
     1
176
     1
290
     1
176
     1
290
     0
176
     1
290
     0
176
     1
290
     0
176
     1
290
     0
176
     1
290
     0
176
     1
290
     0
176
     1
 90
       50
176
     1
 40
0.0
176
     1
 40
1.0
176
     1
 90
        0
176
     1
 62
    18
420
        0
176
     1
 90
       50
176
     1
 90
        3
176
     1
 62
     5
420
      255
176
     1
290
     0
176
     1
 90
       50
176
     1
 90
       50
176
     1
 90
       50
176
     1
290
     0
176
     1
 90
       50
176
     1
 62
   256
176
     0
 40
1.0
176
     0
 90
        2
176
     1
  1
strokes_ogs.tif
176
     1
290
     0
176
     1
 40
1.0
176
     1
 40
1.0
176
     1
  0
VISUALSTYLE
  5
BCC
102
{ACAD_REACTORS
330
2F
102
}
330
2F
100
AcDbVisualStyle
  2
Brighten
 70
    12
177
     3
291
     1
 70
    58
 90
        2
176
     1
 90
        2
176
     1
 90
        0
176
     1
 90
        0
176
     1
 40
0.6
176
     1
 40
30.0
176
     1
 62
     7
176
     1
 90
        1
176
     1
 90
        4
176
     1
 62
     7
176
     1
 62
   257
176
     1
 90
        1
176
     1
 90
        1
176
     1
 40
1.0
176
     1
 90
        8
176
     1
 62
     7
176
     1
 40
1.0
176
     1
 90
        1
176
     1
 90
        6
176
     1
 90
        2
176
     1
 62
     7
176
     1
 90
        5
176
     1
 90
        0
176
     1
 90
        0
176
     1
290
     0
176
     1
 90
        1
176
     1
 40
50.0
176
     1
 90
        0
176
     1
290
     0
176
     1
290
     1
176
     1
290
     1
176
     1
290
     0
176
     1
290
     0
176
     1
290
     0
176
     1
290
     0
176
     1
290
     0
176
     1
290
     0
176
     1
 90
       50
176
     1
 40
0.0
176
     1
 40
1.0
176
     1
 90
        0
176
     1
 62
    18
420
        0
176
     1
 90
       50
176
     1
 90
        3
176
     1
 62
     5
420
      255
176
     1
290
     0
176
     1
 90
       50
176
     1
 90
       50
176
     1
 90
       50
176
     1
290
     0
176
     1
 90
       50
176
     1
 62
   256
176
     0
 40
1.0
176
     0
 90
        2
176
     1
  1
strokes_ogs.tif
176
     1
290
     0
176
     1
 40
1.0
176
     1
 40
1.0
176
     1
  0
VISUALSTYLE
  5
BD0
102
{ACAD_REACTORS
330
2F
102
}
330
2F
100
AcDbVisualStyle
  2
ColorChange
 70
    16
177
     3
291
     1
 70
    58
 90
        2
176
     1
 90
        2
176
     1
 90
        3
176
     1
 90
        0
176
     1
 40
0.6
176
     1
 40
30.0
176
     1
 62
     8
176
     1
 90
        1
176
     1
 90
        4
176
     1
 62
     7
176
     1
 62
   257
176
     1
 90
        1
176
     1
 90
        1
176
     1
 40
1.0
176
     1
 90
        8
176
     1
 62
     8
176
     1
 40
1.0
176
     1
 90
        1
176
     1
 90
        6
176
     1
 90
        2
176
     1
 62
     7
176
     1
 90
        5
176
     1
 90
        0
176
     1
 90
        0
176
     1
290
     0
176
     1
 90
        1
176
     1
 40
0.0
176
     1
 90
        0
176
     1
290
     0
176
     1
290
     1
176
     1
290
     1
176
     1
290
     0
176
     1
290
     0
176
     1
290
     0
176
     1
290
     0
176
     1
290
     0
176
     1
290
     0
176
     1
 90
       50
176
     1
 40
0.0
176
     1
 40
1.0
176
     1
 90
        0
176
     1
 62
    18
420
        0
176
     1
 90
       50
176
     1
 90
        3
176
     1
 62
     5
420
      255
176
     1
290
     0
176
     1
 90
       50
176
     1
 90
       50
176
     1
 90
       50
176
     1
290
     0
176
     1
 90
       50
176
     1
 62
   256
176
     0
 40
1.0
176
     0
 90
        2
176
     1
  1
strokes_ogs.tif
176
     1
290
     0
176
     1
 40
1.0
176
     1
 40
1.0
176
     1
  0
VISUALSTYLE
  5
BCA
102
{ACAD_REACTORS
330
2F
102
}
330
2F
100
AcDbVisualStyle
  2
Conceptual
 70
     9
177
     3
291
     0
 70
    58
 90
        3
176
     1
 90
        2
176
     1
 90
        0
176
     1
 90
        0
176
     1
 40
0.6
176
     1
 40
30.0
176
     1
 62
     7
176
     1
 90
        2
176
     1
 90
        2
176
     1
 62
     7
176
     1
 62
   257
176
     1
 90
        1
176
     1
 90
        1
176
     1
 40
179.0
176
     1
 90
        8
176
     1
 62
     7
176
     1
 40
1.0
176
     1
 90
        1
176
     1
 90
        6
176
     1
 90
        2
176
     1
 62
     7
176
     1
 90
        3
176
     1
 90
        0
176
     1
 90
        0
176
     1
290
     0
176
     1
 90
        1
176
     1
 40
0.0
176
     1
 90
        0
176
     1
290
     0
176
     1
290
     1
176
     1
290
     1
176
     1
290
     0
176
     1
290
     0
176
     1
290
     0
176
     1
290
     0
176
     1
290
     0
176
     1
290
     0
176
     1
 90
       50
176
     1
 40
0.0
176
     1
 40
1.0
176
     1
 90
        0
176
     1
 62
    18
420
        0
176
     1
 90
       50
176
     1
 90
        3
176
     1
 62
     5
420
      255
176
     1
290
     0
176
     1
 90
       50
176
     1
 90
       50
176
     1
 90
       50
176
     1
290
     0
176
     1
 90
       50
176
     1
 62
   256
176
     0
 40
1.0
176
     0
 90
        2
176
     1
  1
strokes_ogs.tif
176
     1
290
     0
176
     1
 40
1.0
176
     1
 40
1.0
176
     1
  0
VISUALSTYLE
  5
BCB
102
{ACAD_REACTORS
330
2F
102
}
330
2F
100
AcDbVisualStyle
  2
Dim
 70
    11
177
     3
291
     1
 70
    58
 90
        2
176
     1
 90
        2
176
     1
 90
        0
176
     1
 90
        0
176
     1
 40
0.6
176
     1
 40
30.0
176
     1
 62
     7
176
     1
 90
        1
176
     1
 90
        4
176
     1
 62
     7
176
     1
 62
   257
176
     1
 90
        1
176
     1
 90
        1
176
     1
 40
1.0
176
     1
 90
        8
176
     1
 62
     7
176
     1
 40
1.0
176
     1
 90
        1
176
     1
 90
        6
176
     1
 90
        2
176
     1
 62
     7
176
     1
 90
        5
176
     1
 90
        0
176
     1
 90
        0
176
     1
290
     0
176
     1
 90
        1
176
     1
 40
-50.0
176
     1
 90
        0
176
     1
290
     0
176
     1
290
     1
176
     1
290
     1
176
     1
290
     0
176
     1
290
     0
176
     1
290
     0
176
     1
290
     0
176
     1
290
     0
176
     1
290
     0
176
     1
 90
       50
176
     1
 40
0.0
176
     1
 40
1.0
176
     1
 90
        0
176
     1
 62
    18
420
        0
176
     1
 90
       50
176
     1
 90
        3
176
     1
 62
     5
420
      255
176
     1
290
     0
176
     1
 90
       50
176
     1
 90
       50
176
     1
 90
       50
176
     1
290
     0
176
     1
 90
       50
176
     1
 62
   256
176
     0
 40
1.0
176
     0
 90
        2
176
     1
  1
strokes_ogs.tif
176
     1
290
     0
176
     1
 40
1.0
176
     1
 40
1.0
176
     1
  0
VISUALSTYLE
  5
BD8
102
{ACAD_REACTORS
330
2F
102
}
330
2F
100
AcDbVisualStyle
  2
EdgeColorOff
 70
    22
177
     3
291
     1
 70
    58
 90
        2
176
     0
 90
        2
176
     0
 90
        0
176
     0
 90
        0
176
     0
 40
0.6
176
     0
 40
30.0
176
     0
 62
     7
176
     0
 90
        1
176
     0
 90
        4
176
     0
 62
     7
176
     0
 62
   257
176
     0
 90
        1
176
     0
 90
        1
176
     0
 40
1.0
176
     0
 90
        8
176
     2
 62
     7
176
     0
 40
1.0
176
     0
 90
        1
176
     0
 90
        6
176
     0
 90
        2
176
     0
 62
     7
176
     0
 90
        5
176
     0
 90
        0
176
     0
 90
        0
176
     0
290
     0
176
     0
 90
        1
176
     0
 40
0.0
176
     0
 90
        0
176
     0
290
     0
176
     0
290
     1
176
     0
290
     1
176
     0
290
     0
176
     0
290
     0
176
     0
290
     0
176
     0
290
     0
176
     0
290
     0
176
     0
290
     0
176
     0
 90
       50
176
     0
 40
0.0
176
     0
 40
1.0
176
     0
 90
        0
176
     0
 62
    18
420
        0
176
     0
 90
       50
176
     0
 90
        3
176
     0
 62
     5
420
      255
176
     0
290
     0
176
     0
 90
       50
176
     0
 90
       50
176
     0
 90
       50
176
     0
290
     0
176
     0
 90
       50
176
     0
 62
   256
176
     0
 40
1.0
176
     0
 90
        2
176
     0
  1
strokes_ogs.tif
176
     0
290
     0
176
     0
 40
1.0
176
     0
 40
1.0
176
     0
  0
VISUALSTYLE
  5
BCF
102
{ACAD_REACTORS
330
2F
102
}
330
2F
100
AcDbVisualStyle
  2
Facepattern
 70
    15
177
     3
291
     1
 70
    58
 90
        2
176
     1
 90
        2
176
     1
 90
        0
176
     1
 90
        0
176
     1
 40
0.6
176
     1
 40
30.0
176
     1
 62
     7
176
     1
 90
        1
176
     1
 90
        4
176
     1
 62
     7
176
     1
 62
   257
176
     1
 90
        1
176
     1
 90
        1
176
     1
 40
1.0
176
     1
 90
        8
176
     1
 62
     7
176
     1
 40
1.0
176
     1
 90
        1
176
     1
 90
        6
176
     1
 90
        2
176
     1
 62
     7
176
     1
 90
        5
176
     1
 90
        0
176
     1
 90
        0
176
     1
290
     0
176
     1
 90
        1
176
     1
 40
0.0
176
     1
 90
        0
176
     1
290
     0
176
     1
290
     1
176
     1
290
     1
176
     1
290
     0
176
     1
290
     0
176
     1
290
     0
176
     1
290
     0
176
     1
290
     0
176
     1
290
     0
176
     1
 90
       50
176
     1
 40
0.0
176
     1
 40
1.0
176
     1
 90
        0
176
     1
 62
    18
420
        0
176
     1
 90
       50
176
     1
 90
        3
176
     1
 62
     5
420
      255
176
     1
290
     0
176
     1
 90
       50
176
     1
 90
       50
176
     1
 90
       50
176
     1
290
     0
176
     1
 90
       50
176
     1
 62
   256
176
     0
 40
1.0
176
     0
 90
        2
176
     1
  1
strokes_ogs.tif
176
     1
290
     0
176
     1
 40
1.0
176
     1
 40
1.0
176
     1
  0
VISUALSTYLE
  5
BC3
102
{ACAD_REACTORS
330
2F
102
}
330
2F
100
AcDbVisualStyle
  2
Flat
 70
     0
177
     3
291
     1
 70
    58
 90
        2
176
     1
 90
        1
176
     1
 90
        1
176
     1
 90
        2
176
     1
 40
0.6
176
     1
 40
30.0
176
     1
 62
     7
176
     1
 90
        0
176
     1
 90
        0
176
     1
 62
     7
176
     1
 62
   257
176
     1
 90
        1
176
     1
 90
        1
176
     1
 40
1.0
176
     1
 90
        8
176
     1
 62
     7
176
     1
 40
1.0
176
     1
 90
        1
176
     1
 90
        6
176
     1
 90
        2
176
     1
 62
     7
176
     1
 90
        5
176
     1
 90
        0
176
     1
 90
        0
176
     1
290
     0
176
     1
 90
       13
176
     1
 40
0.0
176
     1
 90
        0
176
     1
290
     0
176
     1
290
     1
176
     1
290
     1
176
     1
290
     0
176
     1
290
     0
176
     1
290
     0
176
     1
290
     0
176
     1
290
     0
176
     1
290
     0
176
     1
 90
       50
176
     1
 40
0.0
176
     1
 40
1.0
176
     1
 90
        0
176
     1
 62
    18
420
        0
176
     1
 90
       50
176
     1
 90
        3
176
     1
 62
     5
420
      255
176
     1
290
     0
176
     1
 90
       50
176
     1
 90
       50
176
     1
 90
       50
176
     1
290
     0
176
     1
 90
       50
176
     1
 62
   256
176
     0
 40
1.0
176
     0
 90
        2
176
     1
  1
strokes_ogs.tif
176
     1
290
     0
176
     1
 40
1.0
176
     1
 40
1.0
176
     1
  0
VISUALSTYLE
  5
BC4
102
{ACAD_REACTORS
330
2F
102
}
330
2F
100
AcDbVisualStyle
  2
FlatWithEdges
 70
     1
177
     3
291
     1
 70
    58
 90
        2
176
     1
 90
        1
176
     1
 90
        1
176
     1
 90
        2
176
     1
 40
0.6
176
     1
 40
30.0
176
     1
 62
     7
176
     1
 90
        1
176
     1
 90
        0
176
     1
 62
     7
176
     1
 62
   257
176
     1
 90
        1
176
     1
 90
        1
176
     1
 40
1.0
176
     1
 90
        0
176
     1
 62
   257
176
     1
 40
1.0
176
     1
 90
        1
176
     1
 90
        6
176
     1
 90
        2
176
     1
 62
     7
176
     1
 90
        5
176
     1
 90
        0
176
     1
 90
        0
176
     1
290
     0
176
     1
 90
       13
176
     1
 40
0.0
176
     1
 90
        0
176
     1
290
     0
176
     1
290
     1
176
     1
290
     1
176
     1
290
     0
176
     1
290
     0
176
     1
290
     0
176
     1
290
     0
176
     1
290
     0
176
     1
290
     0
176
     1
 90
       50
176
     1
 40
0.0
176
     1
 40
1.0
176
     1
 90
        0
176
     1
 62
    18
420
        0
176
     1
 90
       50
176
     1
 90
        3
176
     1
 62
     5
420
      255
176
     1
290
     0
176
     1
 90
       50
176
     1
 90
       50
176
     1
 90
       50
176
     1
290
     0
176
     1
 90
       50
176
     1
 62
   256
176
     0
 40
1.0
176
     0
 90
        2
176
     1
  1
strokes_ogs.tif
176
     1
290
     0
176
     1
 40
1.0
176
     1
 40
1.0
176
     1
  0
VISUALSTYLE
  5
BC5
102
{ACAD_REACTORS
330
2F
102
}
330
2F
100
AcDbVisualStyle
  2
Gouraud
 70
     2
177
     3
291
     1
 70
    58
 90
        2
176
     1
 90
        2
176
     1
 90
        1
176
     1
 90
        2
176
     1
 40
0.6
176
     1
 40
30.0
176
     1
 62
     7
176
     1
 90
        0
176
     1
 90
        0
176
     1
 62
     7
176
     1
 62
   257
176
     1
 90
        1
176
     1
 90
        1
176
     1
 40
1.0
176
     1
 90
        0
176
     1
 62
     7
176
     1
 40
1.0
176
     1
 90
        1
176
     1
 90
        6
176
     1
 90
        2
176
     1
 62
     7
176
     1
 90
        5
176
     1
 90
        0
176
     1
 90
        0
176
     1
290
     0
176
     1
 90
       13
176
     1
 40
0.0
176
     1
 90
        0
176
     1
290
     0
176
     1
290
     1
176
     1
290
     1
176
     1
290
     0
176
     1
290
     0
176
     1
290
     0
176
     1
290
     0
176
     1
290
     0
176
     1
290
     0
176
     1
 90
       50
176
     1
 40
0.0
176
     1
 40
1.0
176
     1
 90
        0
176
     1
 62
    18
420
        0
176
     1
 90
       50
176
     1
 90
        3
176
     1
 62
     5
420
      255
176
     1
290
     0
176
     1
 90
       50
176
     1
 90
       50
176
     1
 90
       50
176
     1
290
     0
176
     1
 90
       50
176
     1
 62
   256
176
     0
 40
1.0
176
     0
 90
        2
176
     1
  1
strokes_ogs.tif
176
     1
290
     0
176
     1
 40
1.0
176
     1
 40
1.0
176
     1
  0
VISUALSTYLE
  5
BC6
102
{ACAD_REACTORS
330
2F
102
}
330
2F
100
AcDbVisualStyle
  2
GouraudWithEdges
 70
     3
177
     3
291
     1
 70
    58
 90
        2
176
     1
 90
        2
176
     1
 90
        1
176
     1
 90
        2
176
     1
 40
0.6
176
     1
 40
30.0
176
     1
 62
     7
176
     1
 90
        1
176
     1
 90
        0
176
     1
 62
     7
176
     1
 62
   257
176
     1
 90
        1
176
     1
 90
        1
176
     1
 40
1.0
176
     1
 90
        0
176
     1
 62
   257
176
     1
 40
1.0
176
     1
 90
        1
176
     1
 90
        6
176
     1
 90
        2
176
     1
 62
     7
176
     1
 90
        5
176
     1
 90
        0
176
     1
 90
        0
176
     1
290
     0
176
     1
 90
       13
176
     1
 40
0.0
176
     1
 90
        0
176
     1
290
     0
176
     1
290
     1
176
     1
290
     1
176
     1
290
     0
176
     1
290
     0
176
     1
290
     0
176
     1
290
     0
176
     1
290
     0
176
     1
290
     0
176
     1
 90
       50
176
     1
 40
0.0
176
     1
 40
1.0
176
     1
 90
        0
176
     1
 62
    18
420
        0
176
     1
 90
       50
176
     1
 90
        3
176
     1
 62
     5
420
      255
176
     1
290
     0
176
     1
 90
       50
176
     1
 90
       50
176
     1
 90
       50
176
     1
290
     0
176
     1
 90
       50
176
     1
 62
   256
176
     0
 40
1.0
176
     0
 90
        2
176
     1
  1
strokes_ogs.tif
176
     1
290
     0
176
     1
 40
1.0
176
     1
 40
1.0
176
     1
  0
VISUALSTYLE
  5
BC9
102
{ACAD_REACTORS
330
2F
102
}
330
2F
100
AcDbVisualStyle
  2
Hidden
 70
     6
177
     3
291
     0
 70
    58
 90
        1
176
     1
 90
        2
176
     1
 90
        2
176
     1
 90
        0
176
     1
 40
0.6
176
     1
 40
30.0
176
     1
 62
     7
176
     1
 90
        2
176
     1
 90
        2
176
     1
 62
     7
176
     1
 62
   257
176
     1
 90
        2
176
     1
 90
        1
176
     1
 40
40.0
176
     1
 90
        0
176
     1
 62
   257
176
     1
 40
1.0
176
     1
 90
        1
176
     1
 90
        6
176
     1
 90
        2
176
     1
 62
     7
176
     1
 90
        3
176
     1
 90
        0
176
     1
 90
        0
176
     1
290
     0
176
     1
 90
        1
176
     1
 40
0.0
176
     1
 90
        0
176
     1
290
     0
176
     1
290
     1
176
     1
290
     1
176
     1
290
     0
176
     1
290
     0
176
     1
290
     0
176
     1
290
     0
176
     1
290
     0
176
     1
290
     0
176
     1
 90
       50
176
     1
 40
0.0
176
     1
 40
1.0
176
     1
 90
        0
176
     1
 62
    18
420
        0
176
     1
 90
       50
176
     1
 90
        3
176
     1
 62
     5
420
      255
176
     1
290
     0
176
     1
 90
       50
176
     1
 90
       50
176
     1
 90
       50
176
     1
290
     0
176
     1
 90
       50
176
     1
 62
   256
176
     0
 40
1.0
176
     0
 90
        2
176
     1
  1
strokes_ogs.tif
176
     1
290
     0
176
     1
 40
1.0
176
     1
 40
1.0
176
     1
  0
VISUALSTYLE
  5
BD6
102
{ACAD_REACTORS
330
2F
102
}
330
2F
100
AcDbVisualStyle
  2
JitterOff
 70
    20
177
     3
291
     1
 70
    58
 90
        2
176
     0
 90
        2
176
     0
 90
        0
176
     0
 90
        0
176
     0
 40
0.6
176
     0
 40
30.0
176
     0
 62
     7
176
     0
 90
        1
176
     0
 90
        4
176
     0
 62
     7
176
     0
 62
   257
176
     0
 90
        1
176
     0
 90
        1
176
     0
 40
1.0
176
     0
 90
       10
176
     2
 62
     7
176
     0
 40
1.0
176
     0
 90
        1
176
     0
 90
        6
176
     0
 90
        2
176
     0
 62
     7
176
     0
 90
        5
176
     0
 90
        0
176
     0
 90
        0
176
     0
290
     0
176
     0
 90
        1
176
     0
 40
0.0
176
     0
 90
        0
176
     0
290
     0
176
     0
290
     1
176
     0
290
     1
176
     0
290
     0
176
     0
290
     0
176
     0
290
     0
176
     0
290
     0
176
     0
290
     0
176
     0
290
     0
176
     0
 90
       50
176
     0
 40
0.0
176
     0
 40
1.0
176
     0
 90
        0
176
     0
 62
    18
420
        0
176
     0
 90
       50
176
     0
 90
        3
176
     0
 62
     5
420
      255
176
     0
290
     0
176
     0
 90
       50
176
     0
 90
       50
176
     0
 90
       50
176
     0
290
     0
176
     0
 90
       50
176
     0
 62
   256
176
     0
 40
1.0
176
     0
 90
        2
176
     0
  1
strokes_ogs.tif
176
     0
290
     0
176
     0
 40
1.0
176
     0
 40
1.0
176
     0
  0
VISUALSTYLE
  5
BCE
102
{ACAD_REACTORS
330
2F
102
}
330
2F
100
AcDbVisualStyle
  2
Linepattern
 70
    14
177
     3
291
     1
 70
    58
 90
        2
176
     1
 90
        2
176
     1
 90
        0
176
     1
 90
        0
176
     1
 40
0.6
176
     1
 40
30.0
176
     1
 62
     7
176
     1
 90
        1
176
     1
 90
        4
176
     1
 62
     7
176
     1
 62
   257
176
     1
 90
        7
176
     1
 90
        7
176
     1
 40
1.0
176
     1
 90
        8
176
     1
 62
     7
176
     1
 40
1.0
176
     1
 90
        1
176
     1
 90
        6
176
     1
 90
        2
176
     1
 62
     7
176
     1
 90
        5
176
     1
 90
        0
176
     1
 90
        0
176
     1
290
     0
176
     1
 90
        1
176
     1
 40
0.0
176
     1
 90
        0
176
     1
290
     0
176
     1
290
     1
176
     1
290
     1
176
     1
290
     0
176
     1
290
     0
176
     1
290
     0
176
     1
290
     0
176
     1
290
     0
176
     1
290
     0
176
     1
 90
       50
176
     1
 40
0.0
176
     1
 40
1.0
176
     1
 90
        0
176
     1
 62
    18
420
        0
176
     1
 90
       50
176
     1
 90
        3
176
     1
 62
     5
420
      255
176
     1
290
     0
176
     1
 90
       50
176
     1
 90
       50
176
     1
 90
       50
176
     1
290
     0
176
     1
 90
       50
176
     1
 62
   256
176
     0
 40
1.0
176
     0
 90
        2
176
     1
  1
strokes_ogs.tif
176
     1
290
     0
176
     1
 40
1.0
176
     1
 40
1.0
176
     1
  0
VISUALSTYLE
  5
BD7
102
{ACAD_REACTORS
330
2F
102
}
330
2F
100
AcDbVisualStyle
  2
OverhangOff
 70
    21
177
     3
291
     1
 70
    58
 90
        2
176
     0
 90
        2
176
     0
 90
        0
176
     0
 90
        0
176
     0
 40
0.6
176
     0
 40
30.0
176
     0
 62
     7
176
     0
 90
        1
176
     0
 90
        4
176
     0
 62
     7
176
     0
 62
   257
176
     0
 90
        1
176
     0
 90
        1
176
     0
 40
1.0
176
     0
 90
        9
176
     2
 62
     7
176
     0
 40
1.0
176
     0
 90
        1
176
     0
 90
        6
176
     0
 90
        2
176
     0
 62
     7
176
     0
 90
        5
176
     0
 90
        0
176
     0
 90
        0
176
     0
290
     0
176
     0
 90
        1
176
     0
 40
0.0
176
     0
 90
        0
176
     0
290
     0
176
     0
290
     1
176
     0
290
     1
176
     0
290
     0
176
     0
290
     0
176
     0
290
     0
176
     0
290
     0
176
     0
290
     0
176
     0
290
     0
176
     0
 90
       50
176
     0
 40
0.0
176
     0
 40
1.0
176
     0
 90
        0
176
     0
 62
    18
420
        0
176
     0
 90
       50
176
     0
 90
        3
176
     0
 62
     5
420
      255
176
     0
290
     0
176
     0
 90
       50
176
     0
 90
       50
176
     0
 90
       50
176
     0
290
     0
176
     0
 90
       50
176
     0
 62
   256
176
     0
 40
1.0
176
     0
 90
        2
176
     0
  1
strokes_ogs.tif
176
     0
290
     0
176
     0
 40
1.0
176
     0
 40
1.0
176
     0
  0
VISUALSTYLE
  5
46
102
{ACAD_REACTORS
330
2F
102
}
330
2F
100
AcDbVisualStyle
  2
Realistic
 70
     8
177
     3
291
     0
 70
    58
 90
        2
176
     1
 90
        2
176
     1
 90
        1
176
     1
 90
        0
176
     1
 40
0.6
176
     1
 40
30.0
176
     1
 62
     7
176
     1
 90
        1
176
     1
 90
        0
176
     1
 62
     7
176
     1
 62
   257
176
     1
 90
        1
176
     1
 90
        1
176
     1
 40
1.0
176
     1
 90
        8
176
     1
 62
     8
176
     1
 40
1.0
176
     1
 90
        1
176
     1
 90
        6
176
     1
 90
        2
176
     1
 62
     7
176
     1
 90
        5
176
     1
 90
        0
176
     1
 90
        0
176
     1
290
     0
176
     1
 90
       13
176
     1
 40
0.0
176
     1
 90
        0
176
     1
290
     0
176
     1
290
     1
176
     1
290
     1
176
     1
290
     0
176
     1
290
     0
176
     1
290
     0
176
     1
290
     0
176
     1
290
     0
176
     1
290
     0
176
     1
 90
       50
176
     1
 40
0.0
176
     1
 40
1.0
176
     1
 90
        0
176
     1
 62
    18
420
        0
176
     1
 90
       50
176
     1
 90
        3
176
     1
 62
     5
420
      255
176
     1
290
     0
176
     1
 90
       50
176
     1
 90
       50
176
     1
 90
       50
176
     1
290
     0
176
     1
 90
       50
176
     1
 62
   256
176
     0
 40
1.0
176
     0
 90
        2
176
     1
  1
strokes_ogs.tif
176
     1
290
     0
176
     1
 40
1.0
176
     1
 40
1.0
176
     1
  0
VISUALSTYLE
  5
BD5
102
{ACAD_REACTORS
330
2F
102
}
330
2F
100
AcDbVisualStyle
  2
Shaded
 70
    27
177
     3
291
     0
 70
    58
 90
        2
176
     1
 90
        2
176
     1
 90
        1
176
     1
 90
        2
176
     1
 40
0.6
176
     1
 40
30.0
176
     1
 62
     7
176
     1
 90
        0
176
     1
 90
        4
176
     1
 62
     7
176
     1
 62
   257
176
     1
 90
        1
176
     1
 90
        1
176
     1
 40
1.0
176
     1
 90
        8
176
     1
 62
   257
176
     1
 40
1.0
176
     1
 90
        1
176
     1
 90
        6
176
     1
 90
        2
176
     1
 62
     8
176
     1
 90
        3
176
     1
 90
        0
176
     1
 90
        0
176
     1
290
     0
176
     1
 90
        5
176
     1
 40
0.0
176
     1
 90
        0
176
     1
290
     0
176
     1
290
     1
176
     1
290
     1
176
     1
290
     0
176
     1
290
     0
176
     1
290
     0
176
     1
290
     0
176
     1
290
     0
176
     1
290
     0
176
     1
 90
       50
176
     1
 40
0.0
176
     1
 40
1.0
176
     1
 90
        0
176
     1
 62
    18
420
        0
176
     1
 90
       50
176
     1
 90
        3
176
     1
 62
     5
420
      255
176
     1
290
     0
176
     1
 90
       50
176
     1
 90
       50
176
     1
 90
       50
176
     1
290
     0
176
     1
 90
       50
176
     1
 62
   256
176
     0
 40
1.0
176
     0
 90
        2
176
     1
  1
strokes_ogs.tif
176
     1
290
     0
176
     1
 40
1.0
176
     1
 40
1.0
176
     1
  0
VISUALSTYLE
  5
BD4
102
{ACAD_REACTORS
330
2F
102
}
330
2F
100
AcDbVisualStyle
  2
Shaded with edges
 70
    26
177
     3
291
     0
 70
    58
 90
        2
176
     1
 90
        2
176
     1
 90
        1
176
     1
 90
        2
176
     1
 40
0.6
176
     1
 40
30.0
176
     1
 62
     7
176
     1
 90
        1
176
     1
 90
       10
176
     1
 62
     7
176
     1
 62
   257
176
     1
 90
        2
176
     1
 90
        1
176
     1
 40
1.0
176
     1
 90
        8
176
     1
 62
   257
176
     1
 40
1.0
176
     1
 90
        1
176
     1
 90
        6
176
     1
 90
        2
176
     1
 62
     7
176
     1
 90
        3
176
     1
 90
        0
176
     1
 90
        0
176
     1
290
     0
176
     1
 90
        5
176
     1
 40
0.0
176
     1
 90
        0
176
     1
290
     0
176
     1
290
     1
176
     1
290
     1
176
     1
290
     0
176
     1
290
     0
176
     1
290
     0
176
     1
290
     0
176
     1
290
     0
176
     1
290
     0
176
     1
 90
       50
176
     1
 40
0.0
176
     1
 40
1.0
176
     1
 90
        0
176
     1
 62
    18
420
        0
176
     1
 90
       50
176
     1
 90
        3
176
     1
 62
     5
420
      255
176
     1
290
     0
176
     1
 90
       50
176
     1
 90
       50
176
     1
 90
       50
176
     1
290
     0
176
     1
 90
       50
176
     1
 62
   256
176
     0
 40
1.0
176
     0
 90
        2
176
     1
  1
strokes_ogs.tif
176
     1
290
     0
176
     1
 40
1.0
176
     1
 40
1.0
176
     1
  0
VISUALSTYLE
  5
BD1
102
{ACAD_REACTORS
330
2F
102
}
330
2F
100
AcDbVisualStyle
  2
Shades of Gray
 70
    23
177
     3
291
     0
 70
    58
 90
        2
176
     1
 90
        2
176
     1
 90
        3
176
     1
 90
        0
176
     1
 40
0.6
176
     1
 40
30.0
176
     1
 62
     7
176
     1
 90
        2
176
     1
 90
        2
176
     1
 62
     7
176
     1
 62
     7
176
     1
 90
        1
176
     1
 90
        1
176
     1
 40
40.0
176
     1
 90
        8
176
     1
 62
     7
176
     1
 40
1.0
176
     1
 90
        1
176
     1
 90
        6
176
     1
 90
        2
176
     1
 62
     7
176
     1
 90
        3
176
     1
 90
        0
176
     1
 90
        0
176
     1
290
     0
176
     1
 90
        1
176
     1
 40
0.0
176
     1
 90
        0
176
     1
290
     0
176
     1
290
     1
176
     1
290
     1
176
     1
290
     0
176
     1
290
     0
176
     1
290
     0
176
     1
290
     0
176
     1
290
     0
176
     1
290
     0
176
     1
 90
       50
176
     1
 40
0.0
176
     1
 40
1.0
176
     1
 90
        0
176
     1
 62
    18
420
        0
176
     1
 90
       50
176
     1
 90
        3
176
     1
 62
     5
420
      255
176
     1
290
     0
176
     1
 90
       50
176
     1
 90
       50
176
     1
 90
       50
176
     1
290
     0
176
     1
 90
       50
176
     1
 62
   256
176
     0
 40
1.0
176
     0
 90
        2
176
     1
  1
strokes_ogs.tif
176
     1
290
     0
176
     1
 40
1.0
176
     1
 40
1.0
176
     1
  0
VISUALSTYLE
  5
BD2
102
{ACAD_REACTORS
330
2F
102
}
330
2F
100
AcDbVisualStyle
  2
Sketchy
 70
    24
177
     3
291
     0
 70
    58
 90
        1
176
     1
 90
        2
176
     1
 90
        2
176
     1
 90
        0
176
     1
 40
0.6
176
     1
 40
30.0
176
     1
 62
     7
176
     1
 90
        2
176
     1
 90
        2
176
     1
 62
     7
176
     1
 62
     7
176
     1
 90
        1
176
     1
 90
        1
176
     1
 40
40.0
176
     1
 90
       11
176
     1
 62
     7
176
     1
 40
1.0
176
     1
 90
        1
176
     1
 90
        6
176
     1
 90
        2
176
     1
 62
     7
176
     1
 90
        6
176
     1
 90
        0
176
     1
 90
        0
176
     1
290
     0
176
     1
 90
        1
176
     1
 40
0.0
176
     1
 90
        0
176
     1
290
     0
176
     1
290
     1
176
     1
290
     1
176
     1
290
     0
176
     1
290
     0
176
     1
290
     0
176
     1
290
     0
176
     1
290
     0
176
     1
290
     0
176
     1
 90
       50
176
     1
 40
0.0
176
     1
 40
1.0
176
     1
 90
        0
176
     1
 62
    18
420
        0
176
     1
 90
       50
176
     1
 90
        3
176
     1
 62
     5
420
      255
176
     1
290
     0
176
     1
 90
       50
176
     1
 90
       50
176
     1
 90
       50
176
     1
290
     0
176
     1
 90
       50
176
     1
 62
   256
176
     0
 40
1.0
176
     0
 90
        2
176
     1
  1
strokes_ogs.tif
176
     1
290
     0
176
     1
 40
1.0
176
     1
 40
1.0
176
     1
  0
VISUALSTYLE
  5
BCD
102
{ACAD_REACTORS
330
2F
102
}
330
2F
100
AcDbVisualStyle
  2
Thicken
 70
    13
177
     3
291
     1
 70
    58
 90
        2
176
     1
 90
        2
176
     1
 90
        0
176
     1
 90
        0
176
     1
 40
0.6
176
     1
 40
30.0
176
     1
 62
     7
176
     1
 90
        1
176
     1
 90
        4
176
     1
 62
     7
176
     1
 62
   257
176
     1
 90
        1
176
     1
 90
        1
176
     1
 40
1.0
176
     1
 90
       12
176
     1
 62
     7
176
     1
 40
1.0
176
     1
 90
        1
176
     1
 90
        6
176
     1
 90
        2
176
     1
 62
     7
176
     1
 90
        5
176
     1
 90
        0
176
     1
 90
        0
176
     1
290
     0
176
     1
 90
        1
176
     1
 40
0.0
176
     1
 90
        0
176
     1
290
     0
176
     1
290
     1
176
     1
290
     1
176
     1
290
     0
176
     1
290
     0
176
     1
290
     0
176
     1
290
     0
176
     1
290
     0
176
     1
290
     0
176
     1
 90
       50
176
     1
 40
0.0
176
     1
 40
1.0
176
     1
 90
        0
176
     1
 62
    18
420
        0
176
     1
 90
       50
176
     1
 90
        3
176
     1
 62
     5
420
      255
176
     1
290
     0
176
     1
 90
       50
176
     1
 90
       50
176
     1
 90
       50
176
     1
290
     0
176
     1
 90
       50
176
     1
 62
   256
176
     0
 40
1.0
176
     0
 90
        2
176
     1
  1
strokes_ogs.tif
176
     1
290
     0
176
     1
 40
1.0
176
     1
 40
1.0
176
     1
  0
VISUALSTYLE
  5
BC8
102
{ACAD_REACTORS
330
2F
102
}
330
2F
100
AcDbVisualStyle
  2
Wireframe
 70
     5
177
     3
291
     0
 70
    58
 90
        0
176
     1
 90
        2
176
     1
 90
        0
176
     1
 90
        0
176
     1
 40
0.6
176
     1
 40
30.0
176
     1
 62
     7
176
     1
 90
        1
176
     1
 90
        4
176
     1
 62
     7
176
     1
 62
   257
176
     1
 90
        1
176
     1
 90
        1
176
     1
 40
1.0
176
     1
 90
        0
176
     1
 62
   257
176
     1
 40
1.0
176
     1
 90
        1
176
     1
 90
        6
176
     1
 90
        2
176
     1
 62
     7
176
     1
 90
        3
176
     1
 90
        0
176
     1
 90
        0
176
     1
290
     0
176
     1
 90
        1
176
     1
 40
0.0
176
     1
 90
        0
176
     1
290
     0
176
     1
290
     1
176
     1
290
     1
176
     1
290
     0
176
     1
290
     0
176
     1
290
     0
176
     1
290
     0
176
     1
290
     0
176
     1
290
     0
176
     1
 90
       50
176
     1
 40
0.0
176
     1
 40
1.0
176
     1
 90
        0
176
     1
 62
    18
420
        0
176
     1
 90
       50
176
     1
 90
        3
176
     1
 62
     5
420
      255
176
     1
290
     0
176
     1
 90
       50
176
     1
 90
       50
176
     1
 90
       50
176
     1
290
     0
176
     1
 90
       50
176
     1
 62
   256
176
     0
 40
1.0
176
     0
 90
        2
176
     1
  1
strokes_ogs.tif
176
     1
290
     0
176
     1
 40
1.0
176
     1
 40
1.0
176
     1
  0
VISUALSTYLE
  5
BD3
102
{ACAD_REACTORS
330
2F
102
}
330
2F
100
AcDbVisualStyle
  2
X-Ray
 70
    25
177
     3
291
     0
 70
    58
 90
        2
176
     1
 90
        2
176
     1
 90
        1
176
     1
 90
        1
176
     1
 40
0.5
176
     1
 40
30.0
176
     1
 62
     7
176
     1
 90
        1
176
     1
 90
        0
176
     1
 62
     7
176
     1
 62
   257
176
     1
 90
        1
176
     1
 90
        1
176
     1
 40
1.0
176
     1
 90
        8
176
     1
 62
     7
176
     1
 40
1.0
176
     1
 90
        1
176
     1
 90
        6
176
     1
 90
        2
176
     1
 62
     7
176
     1
 90
        3
176
     1
 90
        0
176
     1
 90
        0
176
     1
290
     0
176
     1
 90
       13
176
     1
 40
0.0
176
     1
 90
        0
176
     1
290
     0
176
     1
290
     1
176
     1
290
     1
176
     1
290
     0
176
     1
290
     0
176
     1
290
     0
176
     1
290
     0
176
     1
290
     0
176
     1
290
     0
176
     1
 90
       50
176
     1
 40
0.0
176
     1
 40
1.0
176
     1
 90
        0
176
     1
 62
    18
420
        0
176
     1
 90
       50
176
     1
 90
        3
176
     1
 62
     5
420
      255
176
     1
290
     0
176
     1
 90
       50
176
     1
 90
       50
176
     1
 90
       50
176
     1
290
     0
176
     1
 90
       50
176
     1
 62
   256
176
     0
 40
1.0
176
     0
 90
        2
176
     1
  1
strokes_ogs.tif
176
     1
290
     0
176
     1
 40
1.0
176
     1
 40
1.0
176
     1
  0
DICTIONARYVAR
  5
BBE
102
{ACAD_REACTORS
330
BB8
102
}
330
BB8
100
DictionaryVariables
280
     0
  1
1:1
  0
DICTIONARYVAR
  5
BBA
102
{ACAD_REACTORS
330
BB8
102
}
330
BB8
100
DictionaryVariables
280
     0
  1
STANDARD
  0
DICTIONARYVAR
  5
BB9
102
{ACAD_REACTORS
330
BB8
102
}
330
BB8
100
DictionaryVariables
280
     0
  1
STANDARD
  0
DICTIONARYVAR
  5
BBB
102
{ACAD_REACTORS
330
BB8
102
}
330
BB8
100
DictionaryVariables
280
     0
  1
Metric50
  0
DICTIONARYVAR
  5
BBC
102
{ACAD_REACTORS
330
BB8
102
}
330
BB8
100
DictionaryVariables
280
     0
  1
Metric50
  0
DICTIONARYVAR
  5
C3B
102
{ACAD_REACTORS
330
BB8
102
}
330
BB8
100
DictionaryVariables
280
     0
  1
1
  0
DICTIONARYVAR
  5
C39
102
{ACAD_REACTORS
330
BB8
102
}
330
BB8
100
DictionaryVariables
280
     0
  1
1
  0
DICTIONARYVAR
  5
FF3
102
{ACAD_REACTORS
330
BB8
102
}
330
BB8
100
DictionaryVariables
280
     0
  1
4
  0
DICTIONARYVAR
  5
C38
102
{ACAD_REACTORS
330
BB8
102
}
330
BB8
100
DictionaryVariables
280
     0
  1
0
  0
DICTIONARYVAR
  5
BC0
102
{ACAD_REACTORS
330
BB8
102
}
330
BB8
100
DictionaryVariables
280
     0
  1
1
  0
DICTIONARYVAR
  5
BC1
102
{ACAD_REACTORS
330
BB8
102
}
330
BB8
100
DictionaryVariables
280
     0
  1
15
  0
DICTIONARYVAR
  5
BBF
102
{ACAD_REACTORS
330
BB8
102
}
330
BB8
100
DictionaryVariables
280
     0
  1
0
  0
DICTIONARYVAR
  5
BBD
102
{ACAD_REACTORS
330
BB8
102
}
330
BB8
100
DictionaryVariables
280
     0
  1
0
  0
DICTIONARYVAR
  5
C3C
102
{ACAD_REACTORS
330
BB8
102
}
330
BB8
100
DictionaryVariables
280
     0
  1
1
  0
DICTIONARYVAR
  5
C37
102
{ACAD_REACTORS
330
BB8
102
}
330
BB8
100
DictionaryVariables
280
     0
  1
127
  0
DICTIONARY
  5
2322D
330
BDD
100
AcDbDictionary
280
     1
281
     1
  3
ACAD_XREC_ROUNDTRIP
360
2322E
  0
DICTIONARY
  5
18
330
16
100
AcDbDictionary
280
     1
281
     1
  0
DICTIONARY
  5
1F
330
1E
100
AcDbDictionary
280
     1
281
     1
  0
DICTIONARY
  5
E
330
C
100
AcDbDictionary
280
     1
281
     1
  3
BUMPTILE
360
F
  3
DIFFUSETILE
360
10
  3
OPACITYTILE
360
11
  3
REFLECTIONTILE
360
12
  0
DICTIONARY
  5
2322B
330
BDB
100
AcDbDictionary
280
     1
281
     1
  3
ACAD_XREC_ROUNDTRIP
360
2322C
  0
DICTIONARY
  5
45
330
44
100
AcDbDictionary
280
     1
281
     1
  3
ACAD_ROUNDTRIP_2008_TABLESTYLE_CELLSTYLEMAP
360
2322A
  0
XRECORD
  5
2322E
102
{ACAD_REACTORS
330
2322D
102
}
330
2322D
100
AcDbXrecord
280
     1
102
DISPLAYNAME
  1
Metric50
102
FLAGS
 90
        0
  0
XRECORD
  5
F
102
{ACAD_REACTORS
330
E
102
}
330
E
100
AcDbXrecord
280
     1
270
     1
271
     1
  0
XRECORD
  5
10
102
{ACAD_REACTORS
330
E
102
}
330
E
100
AcDbXrecord
280
     1
270
     1
271
     1
  0
XRECORD
  5
11
102
{ACAD_REACTORS
330
E
102
}
330
E
100
AcDbXrecord
280
     1
270
     1
271
     1
  0
XRECORD
  5
12
102
{ACAD_REACTORS
330
E
102
}
330
E
100
AcDbXrecord
280
     1
270
     1
271
     1
  0
XRECORD
  5
2322C
102
{ACAD_REACTORS
330
2322B
102
}
330
2322B
100
AcDbXrecord
280
     1
102
DISPLAYNAME
  1
Metric50
102
FLAGS
 90
        0
  0
CELLSTYLEMAP
  5
2322A
102
{ACAD_REACTORS
330
45
102
}
330
45
100
AcDbCellStyleMap
 90
        3
300
CELLSTYLE
  1
TABLEFORMAT_BEGIN
 90
        5
170
     1
 91
        0
 92
    32768
 62
   257
 93
        1
300
CONTENTFORMAT
  1
CONTENTFORMAT_BEGIN
 90
        0
 91
        0
 92
      512
 93
        0
300

 40
0.0
140
1.0
 94
        5
 62
     0
340
25
144
6.0
309
CONTENTFORMAT_END
171
     1
301
MARGIN
  1
CELLMARGIN_BEGIN
 40
1.5
 40
1.5
 40
1.5
 40
1.5
 40
0.18
 40
0.18
309
CELLMARGIN_END
 94
        6
 95
        1
302
GRIDFORMAT
  1
GRIDFORMAT_BEGIN
 90
        0
 91
        1
 62
     0
 92
       -2
340
28
 93
        0
 40
1.125
309
GRIDFORMAT_END
 95
        2
302
GRIDFORMAT
  1
GRIDFORMAT_BEGIN
 90
        0
 91
        1
 62
     0
 92
       -2
340
28
 93
        0
 40
1.125
309
GRIDFORMAT_END
 95
        4
302
GRIDFORMAT
  1
GRIDFORMAT_BEGIN
 90
        0
 91
        1
 62
     0
 92
       -2
340
28
 93
        0
 40
1.125
309
GRIDFORMAT_END
 95
        8
302
GRIDFORMAT
  1
GRIDFORMAT_BEGIN
 90
        0
 91
        1
 62
     0
 92
       -2
340
28
 93
        0
 40
1.125
309
GRIDFORMAT_END
 95
       16
302
GRIDFORMAT
  1
GRIDFORMAT_BEGIN
 90
        0
 91
        1
 62
     0
 92
       -2
340
28
 93
        0
 40
1.125
309
GRIDFORMAT_END
 95
       32
302
GRIDFORMAT
  1
GRIDFORMAT_BEGIN
 90
        0
 91
        1
 62
     0
 92
       -2
340
28
 93
        0
 40
1.125
309
GRIDFORMAT_END
309
TABLEFORMAT_END
  1
CELLSTYLE_BEGIN
 90
        1
 91
        1
300
_TITLE
309
CELLSTYLE_END
300
CELLSTYLE
  1
TABLEFORMAT_BEGIN
 90
        5
170
     1
 91
        0
 92
        0
 62
   257
 93
        1
300
CONTENTFORMAT
  1
CONTENTFORMAT_BEGIN
 90
        0
 91
        0
 92
      512
 93
        0
300

 40
0.0
140
1.0
 94
        5
 62
     0
340
25
144
4.5
309
CONTENTFORMAT_END
171
     1
301
MARGIN
  1
CELLMARGIN_BEGIN
 40
1.5
 40
1.5
 40
1.5
 40
1.5
 40
0.18
 40
0.18
309
CELLMARGIN_END
 94
        6
 95
        1
302
GRIDFORMAT
  1
GRIDFORMAT_BEGIN
 90
        0
 91
        1
 62
     0
 92
       -2
340
28
 93
        0
 40
1.125
309
GRIDFORMAT_END
 95
        2
302
GRIDFORMAT
  1
GRIDFORMAT_BEGIN
 90
        0
 91
        1
 62
     0
 92
       -2
340
28
 93
        0
 40
1.125
309
GRIDFORMAT_END
 95
        4
302
GRIDFORMAT
  1
GRIDFORMAT_BEGIN
 90
        0
 91
        1
 62
     0
 92
       -2
340
28
 93
        0
 40
1.125
309
GRIDFORMAT_END
 95
        8
302
GRIDFORMAT
  1
GRIDFORMAT_BEGIN
 90
        0
 91
        1
 62
     0
 92
       -2
340
28
 93
        0
 40
1.125
309
GRIDFORMAT_END
 95
       16
302
GRIDFORMAT
  1
GRIDFORMAT_BEGIN
 90
        0
 91
        1
 62
     0
 92
       -2
340
28
 93
        0
 40
1.125
309
GRIDFORMAT_END
 95
       32
302
GRIDFORMAT
  1
GRIDFORMAT_BEGIN
 90
        0
 91
        1
 62
     0
 92
       -2
340
28
 93
        0
 40
1.125
309
GRIDFORMAT_END
309
TABLEFORMAT_END
  1
CELLSTYLE_BEGIN
 90
        2
 91
        1
300
_HEADER
309
CELLSTYLE_END
300
CELLSTYLE
  1
TABLEFORMAT_BEGIN
 90
        5
170
     1
 91
        0
 92
        0
 62
   257
 93
        1
300
CONTENTFORMAT
  1
CONTENTFORMAT_BEGIN
 90
        0
 91
        0
 92
      512
 93
        0
300

 40
0.0
140
1.0
 94
        2
 62
     0
340
25
144
4.5
309
CONTENTFORMAT_END
171
     1
301
MARGIN
  1
CELLMARGIN_BEGIN
 40
1.5
 40
1.5
 40
1.5
 40
1.5
 40
0.18
 40
0.18
309
CELLMARGIN_END
 94
        6
 95
        1
302
GRIDFORMAT
  1
GRIDFORMAT_BEGIN
 90
        0
 91
        1
 62
     0
 92
       -2
340
28
 93
        0
 40
1.125
309
GRIDFORMAT_END
 95
        2
302
GRIDFORMAT
  1
GRIDFORMAT_BEGIN
 90
        0
 91
        1
 62
     0
 92
       -2
340
28
 93
        0
 40
1.125
309
GRIDFORMAT_END
 95
        4
302
GRIDFORMAT
  1
GRIDFORMAT_BEGIN
 90
        0
 91
        1
 62
     0
 92
       -2
340
28
 93
        0
 40
1.125
309
GRIDFORMAT_END
 95
        8
302
GRIDFORMAT
  1
GRIDFORMAT_BEGIN
 90
        0
 91
        1
 62
     0
 92
       -2
340
28
 93
        0
 40
1.125
309
GRIDFORMAT_END
 95
       16
302
GRIDFORMAT
  1
GRIDFORMAT_BEGIN
 90
        0
 91
        1
 62
     0
 92
       -2
340
28
 93
        0
 40
1.125
309
GRIDFORMAT_END
 95
       32
302
GRIDFORMAT
  1
GRIDFORMAT_BEGIN
 90
        0
 91
        1
 62
     0
 92
       -2
340
28
 93
        0
 40
1.125
309
GRIDFORMAT_END
309
TABLEFORMAT_END
  1
CELLSTYLE_BEGIN
 90
        3
 91
        2
300
_DATA
309
CELLSTYLE_END
  0
ENDSEC
  0
SECTION
  2
ACDSDATA
 70
     2
 71
     6
  0
ACDSSCHEMA
 90
        0
  1
AcDb_Thumbnail_Schema
  2
AcDbDs::ID
280
    10
 91
        8
  2
Thumbnail_Data
280
    15
 91
        0
101
ACDSRECORD
 95
        0
 90
        1
  2
AcDbDs::TreatedAsObjectData
280
     1
291
     1
101
ACDSRECORD
 95
        0
 90
        2
  2
AcDbDs::Legacy
280
     1
291
     1
101
ACDSRECORD
  1
AcDbDs::ID
 90
        3
  2
AcDs:Indexable
280
     1
291
     1
101
ACDSRECORD
  1
AcDbDs::ID
 90
        4
  2
AcDbDs::HandleAttribute
280
     7
282
     1
  0
ACDSSCHEMA
 90
        1
  1
AcDbDs::TreatedAsObjectDataSchema
  2
AcDbDs::TreatedAsObjectData
280
     1
 91
        0
  0
ACDSSCHEMA
 90
        2
  1
AcDbDs::LegacySchema
  2
AcDbDs::Legacy
280
     1
 91
        0
  0
ACDSSCHEMA
 90
        3
  1
AcDbDs::IndexedPropertySchema
  2
AcDs:Indexable
280
     1
 91
        0
  0
ACDSSCHEMA
 90
        4
  1
AcDbDs::HandleAttributeSchema
  2
AcDbDs::HandleAttribute
280
     7
 91
        1
284
     1
  0
ACDSRECORD
 90
        0
  2
AcDbDs::ID
280
    10
320
16
  2
Thumbnail_Data
280
    15
 94
     1903
310
89504E470D0A1A0A0000000D4948445200000100000000730803000000406D2C8F00000300504C5445000000000000C8C8C80000000000000000000000000000000000000000000000000000330000660000990000CC0000FF0033000033330033660033990033CC0033FF0066000066330066660066990066CC0066FF0099
310
000099330099660099990099CC0099FF00CC0000CC3300CC6600CC9900CCCC00CCFF00FF0000FF3300FF6600FF9900FFCC00FFFF3300003300333300663300993300CC3300FF3333003333333333663333993333CC3333FF3366003366333366663366993366CC3366FF3399003399333399663399993399CC3399FF33CC00
310
33CC3333CC6633CC9933CCCC33CCFF33FF0033FF3333FF6633FF9933FFCC33FFFF6600006600336600666600996600CC6600FF6633006633336633666633996633CC6633FF6666006666336666666666996666CC6666FF6699006699336699666699996699CC6699FF66CC0066CC3366CC6666CC9966CCCC66CCFF66FF0066
310
FF3366FF6666FF9966FFCC66FFFF9900009900339900669900999900CC9900FF9933009933339933669933999933CC9933FF9966009966339966669966999966CC9966FF9999009999339999669999999999CC9999FF99CC0099CC3399CC6699CC9999CCCC99CCFF99FF0099FF3399FF6699FF9999FFCC99FFFFCC0000CC00
310
33CC0066CC0099CC00CCCC00FFCC3300CC3333CC3366CC3399CC33CCCC33FFCC6600CC6633CC6666CC6699CC66CCCC66FFCC9900CC9933CC9966CC9999CC99CCCC99FFCCCC00CCCC33CCCC66CCCC99CCCCCCCCCCFFCCFF00CCFF33CCFF66CCFF99CCFFCCCCFFFFFF0000FF0033FF0066FF0099FF00CCFF00FFFF3300FF3333
310
FF3366FF3399FF33CCFF33FFFF6600FF6633FF6666FF6699FF66CCFF66FFFF9900FF9933FF9966FF9999FF99CCFF99FFFFCC00FFCC33FFCC66FFCC99FFCCCCFFCCFFFFFF00FFFF33FFFF66FFFF99FFFFCCFFFFFF0000000D0D0D1A1A1A2828283535354343435050505D5D5D6B6B6B787878868686939393A1A1A1AEAEAEBB
310
BBBBC9C9C9D6D6D6E4E4E4F1F1F1FFFFFF00000000000000000000000000000000000000000000000000000000000008F1915C0000042A4944415478DAED9D6D7A83200C80394EFE70B31D996BE4FF1410C397865A0B68B2ADDB2368C94B1243D44EA99B04BFDA8DDD6F1CE102C0D90060418C418E30BBF1FB953676995963
310
58BB32BBF1FB75B1147C84E70900012000048000100002400008000120001A85BB50E925B78FEFF5002406080001200004800010007C81D702306B4E624C2B00732D951100026076006A6C004D17DFBA58C0ED5707C505F89AC0198092B21302305E92CBB50C0B7818806CE8709608959585724F332C00A042B763D4022E3E
310
D19B184E004005000C1C03A06E01A8F4F2E35E6998380050119C1480B6D3AF95FAC002D8CB8BCE00401D59C032F9F61B8F7599054021EA9D00F0FAAB470180684039802D12A2BD21CEEAAFF75BBA96D6FCDEAE590078C5A2D09F0140ABA15EA73DE81F5C61F9028F64DE1850B30037BF8BEA1094D6B9FE5BEBA300789B5EF4
310
82F0B2699EEAEF5B6302630328657BB04D3A38775E34DBECDBBF9099D7547FD7AAD5F700FCFCDAA00B74567665D7B9A61640F5777660DBAD0BE8F4CC383880CC05565FDF3DDAEBA9F7E9854C7FF25B0764386B0C40EDE35C34DB4E292061AEA83F4186704910BA0150446F88F4D7B087B98AFEC556D0214B28DF060E0746F1
310
7B006EA8440C205500221DD23321D4AD626B744835B94FBF30F93D01A40F3D842884693DC0AE8422FD7717200D005148D12A7D200093D5F83C00F62438F292D405C2A961EB4BF52701D3959C6CE56D12006167C4A29B53130F6E5FEBB0389BC1ADF0667A01807534690C00B24C20E5A075E5633763562B4A3AFB23627E9828
310
E4AF93DF1BC0E11B520B58E713A91D1812BDB16DE018D79DA3F4676800CAD5043900900BE0E71680970038C72615E4EB1660CF022408E2DDFA5F0190EFD306A09C08C4A7C1FB097C0CA09ED4D501149F09B4735ECB0471E818E00A638700188F41DA33A0192415866F01685CFD1893FB411F00078FABB6008086ABC850A949
310
F7B3808AB93600580C805FCB80AD283D0C80C87B3F04A0907D5D18929C7B1400118776000AB80486AB0AD7CE5FB06ACB0280AEB6C824300500DFE6D67B2700D00358093C0D80DA2F691300745DEB3D064E8F362980FDEFA20584566828673F10003F00CE0E002B00D434008CB9C5021434D8C07097C66AE384CA4D52E5BB22
310
2601D0E20249983BDC0794FA0A80A162402380E70541012000220061C9FF52002A543DDE0B4009000120009E05C0701358E36A1DE0F7C99A1B52D8F51D4D370049F1D7709FE4F0FDAA000C7F2570DCF7C74F8DB1C74D01985B01FC3A06342E256F5FAC0D0DC0BC1DC0EB2DE017220004800010000240003C0E00F2E5A100B2
310
2D7F89FC6C787D3E5011CBB6F097CFFB433F51B20C40F500D0D9056203F8CB5D7FDC1860F8C20D8214C0F841F01A80079C0605C0B7001CF77F411EF07A00920A4B2AFC460BD82ACAA7715300880B0C148FBA4897320C33792B67F91F1F4E8DF3AF0EAE00509D01FC03C07C847B41C9A17D0000000049454E44AE426082
  0
ACDSRECORD
 90
        0
  2
AcDbDs::ID
280
    10
320
1E
  2
Thumbnail_Data
280
    15
 94
     1014
310
89504E470D0A1A0A0000000D49484452000000B80000007F08030000006B00F8F900000300504C5445FFFFFF000000FFFFFF0000000000000000000000000000000000000000000000000000330000660000990000CC0000FF0033000033330033660033990033CC0033FF0066000066330066660066990066CC0066FF0099
310
000099330099660099990099CC0099FF00CC0000CC3300CC6600CC9900CCCC00CCFF00FF0000FF3300FF6600FF9900FFCC00FFFF3300003300333300663300993300CC3300FF3333003333333333663333993333CC3333FF3366003366333366663366993366CC3366FF3399003399333399663399993399CC3399FF33CC00
310
33CC3333CC6633CC9933CCCC33CCFF33FF0033FF3333FF6633FF9933FFCC33FFFF6600006600336600666600996600CC6600FF6633006633336633666633996633CC6633FF6666006666336666666666996666CC6666FF6699006699336699666699996699CC6699FF66CC0066CC3366CC6666CC9966CCCC66CCFF66FF0066
310
FF3366FF6666FF9966FFCC66FFFF9900009900339900669900999900CC9900FF9933009933339933669933999933CC9933FF9966009966339966669966999966CC9966FF9999009999339999669999999999CC9999FF99CC0099CC3399CC6699CC9999CCCC99CCFF99FF0099FF3399FF6699FF9999FFCC99FFFFCC0000CC00
310
33CC0066CC0099CC00CCCC00FFCC3300CC3333CC3366CC3399CC33CCCC33FFCC6600CC6633CC6666CC6699CC66CCCC66FFCC9900CC9933CC9966CC9999CC99CCCC99FFCCCC00CCCC33CCCC66CCCC99CCCCCCCCCCFFCCFF00CCFF33CCFF66CCFF99CCFFCCCCFFFFFF0000FF0033FF0066FF0099FF00CCFF00FFFF3300FF3333
310
FF3366FF3399FF33CCFF33FFFF6600FF6633FF6666FF6699FF66CCFF66FFFF9900FF9933FF9966FF9999FF99CCFF99FFFFCC00FFCC33FFCC66FFCC99FFCCCCFFCCFFFFFF00FFFF33FFFF66FFFF99FFFFCCFFFFFF0000000D0D0D1A1A1A2828283535354343435050505D5D5D6B6B6B787878868686939393A1A1A1AEAEAEBB
310
BBBBC9C9C9D6D6D6E4E4E4F1F1F1FFFFFF000000000000000000000000000000000000000000000000000000000000790CAC0F000000B14944415478DAEDDC3B0A80301004D0DCFF987B81ADEC258D4D8A547E46DE968AF01061B25338BAE2A6C79CAE236C72E105FE3EFCFAFED72BBB1B373FB2837FF62D838383833F0A97
310
9CE0E0E0E0E1E771C9090E0E0E0E0E0E0E0EAE9EB04880838383AB27443E3838383838383838B87A021C1C1C1C5CAF22F2C1C1C1C1C1C1C1C1C1F52A362070707070F5043838383838383838B87AC222010E0E0EAE9E909CE0E0E099F0D47F7A4A4EF05FC2F366BA4F0386279D40CB09810000000049454E44AE426082
  0
ENDSEC
  0
EOF
