  0
SECTION
  2
HEADER
  9
$ACADVER
  1
AC1027
  9
$ACADMAINTVER
 70
    55
  9
$DWGCODEPAGE
  3
ANSI_949
  9
$LASTSAVEDBY
  1
DESKTOP
  9
$REQUIREDVERSIONS
160
                 0
  9
$INSBASE
 10
0.0
 20
0.0
 30
0.0
  9
$EXTMIN
 10
-2.292913230539966
 20
-2.289159854807962
 30
-0.0015258207003583
  9
$EXTMAX
 10
231.2510866058375
 20
162.3614348141883
 30
0.0000000349246037
  9
$LIMMIN
 10
0.0
 20
0.0
  9
$LIMMAX
 10
420.0
 20
297.0
  9
$ORTHOMODE
 70
     0
  9
$REGENMODE
 70
     1
  9
$FILLMODE
 70
     1
  9
$QTEXTMODE
 70
     0
  9
$MIRRTEXT
 70
     0
  9
$LTSCALE
 40
5.0
  9
$ATTMODE
 70
     1
  9
$TEXTSIZE
 40
3.0
  9
$TRACEWID
 40
1.0
  9
$TEXTSTYLE
  7
Standard
  9
$CLAYER
  8
0
  9
$CELTYPE
  6
Continuous
  9
$CECOLOR
 62
     7
  9
$CELTSCALE
 40
1.0
  9
$DISPSILH
 70
     0
  9
$DIMSCALE
 40
1.0
  9
$DIMASZ
 40
2.5
  9
$DIMEXO
 40
0.625
  9
$DIMDLI
 40
3.75
  9
$DIMRND
 40
0.0
  9
$DIMDLE
 40
0.0
  9
$DIMEXE
 40
1.25
  9
$DIMTP
 40
0.0
  9
$DIMTM
 40
0.000000001
  9
$DIMTXT
 40
3.0
  9
$DIMCEN
 40
-0.5
  9
$DIMTSZ
 40
0.0
  9
$DIMTOL
 70
     0
  9
$DIMLIM
 70
     0
  9
$DIMTIH
 70
     0
  9
$DIMTOH
 70
     0
  9
$DIMSE1
 70
     0
  9
$DIMSE2
 70
     0
  9
$DIMTAD
 70
     1
  9
$DIMZIN
 70
     8
  9
$DIMBLK
  1

  9
$DIMASO
 70
     1
  9
$DIMSHO
 70
     1
  9
$DIMPOST
  1

  9
$DIMAPOST
  1

  9
$DIMALT
 70
     0
  9
$DIMALTD
 70
     3
  9
$DIMALTF
 40
0.03937007874016
  9
$DIMLFAC
 40
1.0
  9
$DIMTOFL
 70
     1
  9
$DIMTVP
 40
0.0
  9
$DIMTIX
 70
     0
  9
$DIMSOXD
 70
     0
  9
$DIMSAH
 70
     0
  9
$DIMBLK1
  1

  9
$DIMBLK2
  1

  9
$DIMSTYLE
  2
Standard
  9
$DIMCLRD
 70
     3
  9
$DIMCLRE
 70
     3
  9
$DIMCLRT
 70
     2
  9
$DIMTFAC
 40
0.7
  9
$DIMGAP
 40
0.625
  9
$DIMJUST
 70
     0
  9
$DIMSD1
 70
     0
  9
$DIMSD2
 70
     0
  9
$DIMTOLJ
 70
     0
  9
$DIMTZIN
 70
     8
  9
$DIMALTZ
 70
     0
  9
$DIMALTTZ
 70
     0
  9
$DIMUPT
 70
     0
  9
$DIMDEC
 70
     8
  9
$DIMTDEC
 70
     8
  9
$DIMALTU
 70
     2
  9
$DIMALTTD
 70
     3
  9
$DIMTXSTY
  7
Standard
  9
$DIMAUNIT
 70
     1
  9
$DIMADEC
 70
     0
  9
$DIMALTRND
 40
0.0
  9
$DIMAZIN
 70
     0
  9
$DIMDSEP
 70
    46
  9
$DIMATFIT
 70
     3
  9
$DIMFRAC
 70
     0
  9
$DIMLDRBLK
  1

  9
$DIMLUNIT
 70
     2
  9
$DIMLWD
 70
    -1
  9
$DIMLWE
 70
    -1
  9
$DIMTMOVE
 70
     0
  9
$DIMFXL
 40
1.0
  9
$DIMFXLON
 70
     0
  9
$DIMJOGANG
 40
0.7853981633974483
  9
$DIMTFILL
 70
     0
  9
$DIMTFILLCLR
 70
     0
  9
$DIMARCSYM
 70
     1
  9
$DIMLTYPE
  6

  9
$DIMLTEX1
  6

  9
$DIMLTEX2
  6

  9
$DIMTXTDIRECTION
 70
     0
  9
$LUNITS
 70
     2
  9
$LUPREC
 70
     4
  9
$SKETCHINC
 40
0.0
  9
$FILLETRAD
 40
0.0
  9
$AUNITS
 70
     0
  9
$AUPREC
 70
     0
  9
$MENU
  1
.
  9
$ELEVATION
 40
0.0
  9
$PELEVATION
 40
0.0
  9
$THICKNESS
 40
0.0
  9
$LIMCHECK
 70
     0
  9
$CHAMFERA
 40
1.5
  9
$CHAMFERB
 40
1.5
  9
$CHAMFERC
 40
0.0
  9
$CHAMFERD
 40
0.0087266462599716
  9
$SKPOLY
 70
     0
  9
$TDCREATE
 40
2455072.745932974
  9
$TDUCREATE
 40
2455072.370932974
  9
$TDUPDATE
 40
2461098.576186424
  9
$TDUUPDATE
 40
2461098.201186424
  9
$TDINDWG
 40
132.2063045602
  9
$TDUSRTIMER
 40
132.2063043750
  9
$USRTIMER
 70
     1
  9
$ANGBASE
 50
0.0
  9
$ANGDIR
 70
     0
  9
$PDMODE
 70
     0
  9
$PDSIZE
 40
0.0
  9
$PLINEWID
 40
0.0
  9
$SPLFRAME
 70
     0
  9
$SPLINETYPE
 70
     6
  9
$SPLINESEGS
 70
     8
  9
$HANDSEED
  5
4D04B
  9
$SURFTAB1
 70
     6
  9
$SURFTAB2
 70
     6
  9
$SURFTYPE
 70
     6
  9
$SURFU
 70
     6
  9
$SURFV
 70
     6
  9
$UCSBASE
  2

  9
$UCSNAME
  2

  9
$UCSORG
 10
0.0
 20
0.0
 30
0.0
  9
$UCSXDIR
 10
1.0
 20
0.0
 30
0.0
  9
$UCSYDIR
 10
0.0
 20
1.0
 30
0.0
  9
$UCSORTHOREF
  2

  9
$UCSORTHOVIEW
 70
     0
  9
$UCSORGTOP
 10
0.0
 20
0.0
 30
0.0
  9
$UCSORGBOTTOM
 10
0.0
 20
0.0
 30
0.0
  9
$UCSORGLEFT
 10
0.0
 20
0.0
 30
0.0
  9
$UCSORGRIGHT
 10
0.0
 20
0.0
 30
0.0
  9
$UCSORGFRONT
 10
0.0
 20
0.0
 30
0.0
  9
$UCSORGBACK
 10
0.0
 20
0.0
 30
0.0
  9
$PUCSBASE
  2

  9
$PUCSNAME
  2

  9
$PUCSORG
 10
0.0
 20
0.0
 30
0.0
  9
$PUCSXDIR
 10
1.0
 20
0.0
 30
0.0
  9
$PUCSYDIR
 10
0.0
 20
1.0
 30
0.0
  9
$PUCSORTHOREF
  2

  9
$PUCSORTHOVIEW
 70
     0
  9
$PUCSORGTOP
 10
0.0
 20
0.0
 30
0.0
  9
$PUCSORGBOTTOM
 10
0.0
 20
0.0
 30
0.0
  9
$PUCSORGLEFT
 10
0.0
 20
0.0
 30
0.0
  9
$PUCSORGRIGHT
 10
0.0
 20
0.0
 30
0.0
  9
$PUCSORGFRONT
 10
0.0
 20
0.0
 30
0.0
  9
$PUCSORGBACK
 10
0.0
 20
0.0
 30
0.0
  9
$USERI1
 70
     0
  9
$USERI2
 70
     0
  9
$USERI3
 70
     0
  9
$USERI4
 70
     0
  9
$USERI5
 70
     0
  9
$USERR1
 40
0.0
  9
$USERR2
 40
0.0
  9
$USERR3
 40
0.0
  9
$USERR4
 40
0.0
  9
$USERR5
 40
0.0
  9
$WORLDVIEW
 70
     1
  9
$SHADEDGE
 70
     3
  9
$SHADEDIF
 70
    70
  9
$TILEMODE
 70
     1
  9
$MAXACTVP
 70
    64
  9
$PINSBASE
 10
0.0
 20
0.0
 30
0.0
  9
$PLIMCHECK
 70
     0
  9
$PEXTMIN
 10
1.000000000000000E+20
 20
1.000000000000000E+20
 30
1.000000000000000E+20
  9
$PEXTMAX
 10
-1.000000000000000E+20
 20
-1.000000000000000E+20
 30
-1.000000000000000E+20
  9
$PLIMMIN
 10
-20.0
 20
-7.5
  9
$PLIMMAX
 10
277.0
 20
202.5
  9
$UNITMODE
 70
     0
  9
$VISRETAIN
 70
     1
  9
$PLINEGEN
 70
     0
  9
$PSLTSCALE
 70
     1
  9
$TREEDEPTH
 70
  3020
  9
$CMLSTYLE
  2
Standard
  9
$CMLJUST
 70
     0
  9
$CMLSCALE
 40
20.0
  9
$PROXYGRAPHICS
 70
     1
  9
$MEASUREMENT
 70
     1
  9
$CELWEIGHT
370
    -1
  9
$ENDCAPS
280
     0
  9
$JOINSTYLE
280
     0
  9
$LWDISPLAY
290
     0
  9
$INSUNITS
 70
     4
  9
$HYPERLINKBASE
  1

  9
$STYLESHEET
  1
ksm0910.ctb
  9
$XEDIT
290
     1
  9
$CEPSNTYPE
380
     0
  9
$PSTYLEMODE
290
     1
  9
$FINGERPRINTGUID
  2
{D2C70C36-9B4F-4E20-9CCB-531AA1EE4AC8}
  9
$VERSIONGUID
  2
{FF246D4F-BBAF-4727-9718-A6E7E5102A8F}
  9
$EXTNAMES
290
     1
  9
$PSVPSCALE
 40
0.0
  9
$OLESTARTUP
290
     0
  9
$SORTENTS
280
   127
  9
$INDEXCTL
280
     0
  9
$HIDETEXT
280
     1
  9
$XCLIPFRAME
280
     2
  9
$HALOGAP
280
     0
  9
$OBSCOLOR
 70
   257
  9
$OBSLTYPE
280
     0
  9
$INTERSECTIONDISPLAY
280
     0
  9
$INTERSECTIONCOLOR
 70
   257
  9
$DIMASSOC
280
     1
  9
$PROJECTNAME
  1

  9
$CAMERADISPLAY
290
     0
  9
$LENSLENGTH
 40
50.0
  9
$CAMERAHEIGHT
 40
0.0
  9
$STEPSPERSEC
 40
2.0
  9
$STEPSIZE
 40
6.0
  9
$3DDWFPREC
 40
2.0
  9
$PSOLWIDTH
 40
5.0
  9
$PSOLHEIGHT
 40
80.0
  9
$LOFTANG1
 40
1.570796326794896
  9
$LOFTANG2
 40
1.570796326794896
  9
$LOFTMAG1
 40
0.0
  9
$LOFTMAG2
 40
0.0
  9
$LOFTPARAM
 70
     7
  9
$LOFTNORMALS
280
     1
  9
$LATITUDE
 40
37.795
  9
$LONGITUDE
 40
-122.394
  9
$NORTHDIRECTION
 40
0.0
  9
$TIMEZONE
 70
 -8000
  9
$LIGHTGLYPHDISPLAY
280
     1
  9
$TILEMODELIGHTSYNCH
280
     1
  9
$CMATERIAL
347
3D
  9
$SOLIDHIST
280
     1
  9
$SHOWHIST
280
     1
  9
$DWFFRAME
280
     2
  9
$DGNFRAME
280
     0
  9
$REALWORLDSCALE
290
     1
  9
$INTERFERECOLOR
 62
     1
  9
$INTERFEREOBJVS
345
46
  9
$INTERFEREVPVS
346
47
  9
$CSHADOW
280
     0
  9
$SHADOWPLANELOCATION
 40
0.0
  0
ENDSEC
  0
SECTION
  2
CLASSES
  0
CLASS
  1
ACDBDICTIONARYWDFLT
  2
AcDbDictionaryWithDefault
  3
ObjectDBX Classes
 90
        0
 91
        1
280
     0
281
     0
  0
CLASS
  1
DICTIONARYVAR
  2
AcDbDictionaryVar
  3
ObjectDBX Classes
 90
        0
 91
       18
280
     0
281
     0
  0
CLASS
  1
TABLESTYLE
  2
AcDbTableStyle
  3
ObjectDBX Classes
 90
     4095
 91
        1
280
     0
281
     0
  0
CLASS
  1
MATERIAL
  2
AcDbMaterial
  3
ObjectDBX Classes
 90
     1153
 91
        3
280
     0
281
     0
  0
CLASS
  1
VISUALSTYLE
  2
AcDbVisualStyle
  3
ObjectDBX Classes
 90
     4095
 91
       26
280
     0
281
     0
  0
CLASS
  1
SCALE
  2
AcDbScale
  3
ObjectDBX Classes
 90
     1153
 91
       17
280
     0
281
     0
  0
CLASS
  1
MLEADERSTYLE
  2
AcDbMLeaderStyle
  3
ACDB_MLEADERSTYLE_CLASS
 90
     4095
 91
        1
280
     0
281
     0
  0
CLASS
  1
CELLSTYLEMAP
  2
AcDbCellStyleMap
  3
ObjectDBX Classes
 90
     1152
 91
        2
280
     0
281
     0
  0
CLASS
  1
SORTENTSTABLE
  2
AcDbSortentsTable
  3
ObjectDBX Classes
 90
        0
 91
        1
280
     0
281
     0
  0
CLASS
  1
DIMASSOC
  2
AcDbDimAssoc
  3
"AcDbDimAssoc|Product Desc:     AcDim ARX App For Dimension|Company:          Autodesk, Inc.|WEB Address:      www.autodesk.com"
 90
        0
 91
        0
280
     0
281
     0
  0
CLASS
  1
SOLID_BACKGROUND
  2
AcDbSolidBackground
  3
SCENEOE
 90
     4095
 91
        0
280
     0
281
     0
  0
CLASS
  1
NPOCOLLECTION
  2
AcDbImpNonPersistentObjectsCollection
  3
ObjectDBX Classes
 90
     1153
 91
        0
280
     0
281
     0
  0
CLASS
  1
ACAD_EVALUATION_GRAPH
  2
AcDbEvalGraph
  3
ObjectDBX Classes
 90
     1153
 91
        0
280
     0
281
     0
  0
CLASS
  1
ACAECUSTOBJ
  2
AcAeEditorObj
  3
AcAeEditorObj
 90
     1024
 91
        0
280
     1
281
     0
  0
CLASS
  1
ACDB_DYNAMICBLOCKPURGEPREVENTER_VERSION
  2
AcDbDynamicBlockPurgePreventer
  3
ObjectDBX Classes
 90
     1153
 91
        0
280
     0
281
     0
  0
CLASS
  1
HELIX
  2
AcDbHelix
  3
ObjectDBX Classes
 90
     4095
 91
        0
280
     0
281
     1
  0
CLASS
  1
MULTILEADER
  2
AcDbMLeader
  3
ACDB_MLEADER_CLASS
 90
     1025
 91
        1
280
     0
281
     1
  0
CLASS
  1
ACMDIMBREAKPERSREACTOR
  2
AcmDimBreakPersReactor
  3
amgDimApp().moduleName()
 90
     1023
 91
        0
280
     1
281
     0
  0
CLASS
  1
ACDB_MTEXTOBJECTCONTEXTDATA_CLASS
  2
AcDbMTextObjectContextData
  3
ObjectDBX Classes
 90
     1153
 91
        0
280
     0
281
     0
  0
CLASS
  1
BREAKDATA
  2
AcDbBreakData
  3
ObjectDBX Classes
 90
     1024
 91
        0
280
     0
281
     0
  0
CLASS
  1
EXACXREFPANELOBJECT
  2
ExAcXREFPanelObject
  3
EXAC_ESW
 90
     1025
 91
        0
280
     1
281
     0
  0
CLASS
  1
ACDBSECTIONVIEWSTYLE
  2
AcDbSectionViewStyle
  3
ObjectDBX Classes
 90
     1025
 91
        2
280
     0
281
     0
  0
CLASS
  1
ACDBDETAILVIEWSTYLE
  2
AcDbDetailViewStyle
  3
ObjectDBX Classes
 90
     1025
 91
        2
280
     0
281
     0
  0
CLASS
  1
ACDBASSOCACTION
  2
AcDbAssocAction
  3
ObjectDBX Classes
 90
     1025
 91
        1
280
     0
281
     0
  0
CLASS
  1
ACDBASSOCARRAYACTIONBODY
  2
AcDbAssocArrayActionBody
  3
ObjectDBX Classes
 90
     1025
 91
        1
280
     0
281
     0
  0
CLASS
  1
ACDBASSOCDEPENDENCY
  2
AcDbAssocDependency
  3
ObjectDBX Classes
 90
     1025
 91
        3
280
     0
281
     0
  0
CLASS
  1
ACDBASSOCVERTEXACTIONPARAM
  2
AcDbAssocVertexActionParam
  3
ObjectDBX Classes
 90
     1025
 91
        3
280
     0
281
     0
  0
CLASS
  1
ACDBASSOCARRAYPOLARPARAMETERS
  2
AcDbAssocArrayPolarParameters
  3
ObjectDBX Classes
 90
     1025
 91
        0
280
     0
281
     0
  0
CLASS
  1
ACDBASSOCNETWORK
  2
AcDbAssocNetwork
  3
ObjectDBX Classes
 90
     1025
 91
        2
280
     0
281
     0
  0
CLASS
  1
ACARRAYJIGENTITY
  2
AcArrayJigEntity
  3
ACAD_ARRAY
 90
      129
 91
        0
280
     0
281
     1
  0
ENDSEC
  0
SECTION
  2
TABLES
  0
TABLE
  2
VPORT
  5
2C
102
{ACAD_XDICTIONARY
360
31
102
}
330
0
100
AcDbSymbolTable
 70
     1
  0
VPORT
  5
2D
330
2C
100
AcDbSymbolTableRecord
100
AcDbViewportTableRecord
  2
*Active
 70
     0
 10
0.0
 20
0.0
 11
1.0
 21
1.0
 12
114.4784457710966
 22
80.03161056798456
 13
0.0
 23
0.0
 14
2.0
 24
2.0
 15
2.0
 25
2.0
 16
0.0
 26
0.0
 36
1.0
 17
0.0
 27
0.0
 37
0.0
 40
165.8467215705409
 41
2.176540284360189
 42
50.0
 43
0.0
 44
0.0
 50
0.0
 51
0.0
 71
     0
 72
  1000
 73
     1
 74
     3
 75
     0
 76
     0
 77
     0
 78
     1
281
     0
 65
     1
110
0.0
120
0.0
130
0.0
111
1.0
121
0.0
131
0.0
112
0.0
122
1.0
132
0.0
 79
     0
146
0.0
348
2E
 60
     3
 61
     5
292
     1
282
     1
141
0.0
142
0.0
 63
   250
421
  3355443
1001
ACAD_NAV_VCDISPLAY
1070
     3
  0
ENDTAB
  0
TABLE
  2
LTYPE
  5
27
330
0
100
AcDbSymbolTable
 70
     2
  0
LTYPE
  5
28
330
27
100
AcDbSymbolTableRecord
100
AcDbLinetypeTableRecord
  2
ByBlock
 70
     0
  3

 72
    65
 73
     0
 40
0.0
  0
LTYPE
  5
29
330
27
100
AcDbSymbolTableRecord
100
AcDbLinetypeTableRecord
  2
ByLayer
 70
     0
  3

 72
    65
 73
     0
 40
0.0
  0
LTYPE
  5
14
330
27
100
AcDbSymbolTableRecord
100
AcDbLinetypeTableRecord
  2
Continuous
 70
     0
  3
Solid line
 72
    65
 73
     0
 40
0.0
  0
LTYPE
  5
39E15
330
27
100
AcDbSymbolTableRecord
100
AcDbLinetypeTableRecord
  2
CENTER
 70
     0
  3
____ _ ____ _ ____ _ ____ _ ____ _ ____ _ ____ 
 72
    65
 73
     4
 40
2.0
 49
1.25
 74
     0
 49
-0.25
 74
     0
 49
0.25
 74
     0
 49
-0.25
 74
     0
  0
ENDTAB
  0
TABLE
  2
LAYER
  5
21
102
{ACAD_XDICTIONARY
360
22
102
}
330
0
100
AcDbSymbolTable
 70
     3
  0
LAYER
  5
6
102
{ACAD_XDICTIONARY
360
7
102
}
330
21
100
AcDbSymbolTableRecord
100
AcDbLayerTableRecord
  2
0
 70
     0
 62
     7
  6
Continuous
370
    -3
390
9
347
C
348
0
  0
LAYER
  5
1A4
330
21
100
AcDbSymbolTableRecord
100
AcDbLayerTableRecord
  2
DEFPOINTS
 70
     0
 62
     7
  6
Continuous
290
     0
370
    -3
390
9
347
C
348
0
  0
LAYER
  5
283CB
330
21
100
AcDbSymbolTableRecord
100
AcDbLayerTableRecord
  2
Layer 1
 70
     0
 62
     7
  6
Continuous
370
     0
390
9
347
C
348
0
  0
ENDTAB
  0
TABLE
  2
STYLE
  5
24
330
0
100
AcDbSymbolTable
 70
     4
  0
STYLE
  5
25
330
24
100
AcDbSymbolTableRecord
100
AcDbTextStyleTableRecord
  2
Standard
 70
     0
 40
3.0
 41
1.0
 50
0.0
 71
     0
 42
3.0
  3
isocp.shx
  4
whgtxt.shx
  0
STYLE
  5
35
330
24
100
AcDbSymbolTableRecord
100
AcDbTextStyleTableRecord
  2
ROMANS
 70
     0
 40
2.5
 41
1.0
 50
0.0
 71
     0
 42
2.5
  3
romans.shx
  4

  0
STYLE
  5
5C
330
24
100
AcDbSymbolTableRecord
100
AcDbTextStyleTableRecord
  2
굴림
 70
     0
 40
3.0
 41
1.0
 50
0.0
 71
     0
 42
3.0
  3

  4

1001
ACAD
1000
Gulim
1071
    33074
  0
ENDTAB
  0
TABLE
  2
VIEW
  5
2A
330
0
100
AcDbSymbolTable
 70
     0
  0
ENDTAB
  0
TABLE
  2
UCS
  5
2B
330
0
100
AcDbSymbolTable
 70
     0
  0
ENDTAB
  0
TABLE
  2
APPID
  5
32
330
0
100
AcDbSymbolTable
 70
    45
  0
APPID
  5
13
330
32
100
AcDbSymbolTableRecord
100
AcDbRegAppTableRecord
  2
ACAD
 70
     0
  0
APPID
  5
1A
330
32
100
AcDbSymbolTableRecord
100
AcDbRegAppTableRecord
  2
ACAD_PSEXT
 70
     0
  0
APPID
  5
37
330
32
100
AcDbSymbolTableRecord
100
AcDbRegAppTableRecord
  2
ACAD_DSTYLE_DIMJAG
 70
     0
  0
APPID
  5
38
330
32
100
AcDbSymbolTableRecord
100
AcDbRegAppTableRecord
  2
ACAD_DSTYLE_DIMTALN
 70
     0
  0
APPID
  5
36
330
32
100
AcDbSymbolTableRecord
100
AcDbRegAppTableRecord
  2
ACAD_DSTYLE_DIMJOGGED_JOGANGLE_SYMBOL
 70
     0
  0
APPID
  5
183
330
32
100
AcDbSymbolTableRecord
100
AcDbRegAppTableRecord
  2
AcAecLayerStandard
 70
     0
  0
APPID
  5
3DE
330
32
100
AcDbSymbolTableRecord
100
AcDbRegAppTableRecord
  2
ACAD_DSTYLE_DIMRADIAL_EXTENSION
 70
     0
  0
APPID
  5
530
330
32
100
AcDbSymbolTableRecord
100
AcDbRegAppTableRecord
  2
GRADIENTCOLOR1ACI
 70
     0
  0
APPID
  5
531
330
32
100
AcDbSymbolTableRecord
100
AcDbRegAppTableRecord
  2
GRADIENTCOLOR2ACI
 70
     0
  0
APPID
  5
30
330
32
100
AcDbSymbolTableRecord
100
AcDbRegAppTableRecord
  2
ACAD_NAV_VCDISPLAY
 70
     0
  0
APPID
  5
C34
330
32
100
AcDbSymbolTableRecord
100
AcDbRegAppTableRecord
  2
ACAD_MLEADERVER
 70
     0
  0
APPID
  5
C97
330
32
100
AcDbSymbolTableRecord
100
AcDbRegAppTableRecord
  2
ACAD_EXEMPT_FROM_CAD_STANDARDS
 70
     0
  0
APPID
  5
D79
330
32
100
AcDbSymbolTableRecord
100
AcDbRegAppTableRecord
  2
AcadAnnoMonitorAlertIconDisabled
 70
     0
  0
APPID
  5
1A45
330
32
100
AcDbSymbolTableRecord
100
AcDbRegAppTableRecord
  2
GENIUS_GENODEF_13
 70
     0
  0
APPID
  5
1A46
330
32
100
AcDbSymbolTableRecord
100
AcDbRegAppTableRecord
  2
GENIUS_GENOBJ-N-FIL_13
 70
     0
  0
APPID
  5
1A47
330
32
100
AcDbSymbolTableRecord
100
AcDbRegAppTableRecord
  2
ACAD_DSTYLE_DIMBREAK
 70
     0
  0
APPID
  5
1A48
330
32
100
AcDbSymbolTableRecord
100
AcDbRegAppTableRecord
  2
GENIUS_GENOBJ-N-HTC_13
 70
     0
  0
APPID
  5
1A49
330
32
100
AcDbSymbolTableRecord
100
AcDbRegAppTableRecord
  2
GENIUS_GENHATCH_13
 70
     0
  0
APPID
  5
1A4A
330
32
100
AcDbSymbolTableRecord
100
AcDbRegAppTableRecord
  2
GENIUS_GENREC_14
 70
     0
  0
APPID
  5
1A4B
330
32
100
AcDbSymbolTableRecord
100
AcDbRegAppTableRecord
  2
GENIUS_GENOBJ-N-REC_13
 70
     0
  0
APPID
  5
1A4C
330
32
100
AcDbSymbolTableRecord
100
AcDbRegAppTableRecord
  2
ACAUTHENVIRON
 70
     0
  0
APPID
  5
1A4D
330
32
100
AcDbSymbolTableRecord
100
AcDbRegAppTableRecord
  2
AcDbDynamicBlockTrueName
 70
     0
  0
APPID
  5
1A4E
330
32
100
AcDbSymbolTableRecord
100
AcDbRegAppTableRecord
  2
AcDbDynamicBlockGUID
 70
     0
  0
APPID
  5
1A4F
330
32
100
AcDbSymbolTableRecord
100
AcDbRegAppTableRecord
  2
AcDbBlockRepETag
 70
     0
  0
APPID
  5
1A50
330
32
100
AcDbSymbolTableRecord
100
AcDbRegAppTableRecord
  2
DCO15
 70
     0
  0
APPID
  5
1A51
330
32
100
AcDbSymbolTableRecord
100
AcDbRegAppTableRecord
  2
ACAD_DSTYLE_DIMTEXT_FILL
 70
     0
  0
APPID
  5
1A52
330
32
100
AcDbSymbolTableRecord
100
AcDbRegAppTableRecord
  2
ACAD_DSTYLE_DIM_LINETYPE
 70
     0
  0
APPID
  5
1A53
330
32
100
AcDbSymbolTableRecord
100
AcDbRegAppTableRecord
  2
ACAD_DSTYLE_DIM_EXT1_LINETYPE
 70
     0
  0
APPID
  5
1A54
330
32
100
AcDbSymbolTableRecord
100
AcDbRegAppTableRecord
  2
ACAD_DSTYLE_DIM_EXT2_LINETYPE
 70
     0
  0
APPID
  5
1A55
330
32
100
AcDbSymbolTableRecord
100
AcDbRegAppTableRecord
  2
ACAD_DSTYLE_DIMINSPECT
 70
     0
  0
APPID
  5
1A56
330
32
100
AcDbSymbolTableRecord
100
AcDbRegAppTableRecord
  2
AcadAnnotative
 70
     0
  0
APPID
  5
1A57
330
32
100
AcDbSymbolTableRecord
100
AcDbRegAppTableRecord
  2
GENIUS_GENDTOL_13
 70
     0
  0
APPID
  5
1A58
330
32
100
AcDbSymbolTableRecord
100
AcDbRegAppTableRecord
  2
GENIUS_GENFIL_13
 70
     0
  0
APPID
  5
1A59
330
32
100
AcDbSymbolTableRecord
100
AcDbRegAppTableRecord
  2
GENIUS_GENOBJ-N-CHA_13
 70
     0
  0
APPID
  5
1A5A
330
32
100
AcDbSymbolTableRecord
100
AcDbRegAppTableRecord
  2
AcadAnnotativeDecomposition
 70
     0
  0
APPID
  5
1A5B
330
32
100
AcDbSymbolTableRecord
100
AcDbRegAppTableRecord
  2
MCAD_NO_VIS
 70
     0
  0
APPID
  5
1A5C
330
32
100
AcDbSymbolTableRecord
100
AcDbRegAppTableRecord
  2
ACAD_TEMP_GRAPHIC
 70
     0
  0
APPID
  5
1A5D
330
32
100
AcDbSymbolTableRecord
100
AcDbRegAppTableRecord
  2
ACATTRIBSERVICES
 70
     0
  0
APPID
  5
1A5E
330
32
100
AcDbSymbolTableRecord
100
AcDbRegAppTableRecord
  2
DESIGNERASSEMBLIES
 70
     0
  0
APPID
  5
1A5F
330
32
100
AcDbSymbolTableRecord
100
AcDbRegAppTableRecord
  2
GENIUS_GENDIMSH_14
 70
     0
  0
APPID
  5
1A60
330
32
100
AcDbSymbolTableRecord
100
AcDbRegAppTableRecord
  2
ACAD_DSTYLE_DIMARC_LENGTH_SYMBOL
 70
     0
  0
APPID
  5
1A61
330
32
100
AcDbSymbolTableRecord
100
AcDbRegAppTableRecord
  2
ACAD_SPLINE_DATA
 70
     0
  0
APPID
  5
1A62
330
32
100
AcDbSymbolTableRecord
100
AcDbRegAppTableRecord
  2
GENIUS_GENOREF_13
 70
     0
  0
APPID
  5
1A63
330
32
100
AcDbSymbolTableRecord
100
AcDbRegAppTableRecord
  2
ACAD_DSTYLE_DIMANGULAR_EXTENSION
 70
     0
  0
APPID
  5
318CC
330
32
100
AcDbSymbolTableRecord
100
AcDbRegAppTableRecord
  2
HATCHBACKGROUNDCOLOR
 70
     0
  0
ENDTAB
  0
TABLE
  2
DIMSTYLE
  5
33
330
0
100
AcDbSymbolTable
 70
     4
100
AcDbDimStyleTable
 71
     1
340
34
  0
DIMSTYLE
105
34
330
33
100
AcDbSymbolTableRecord
100
AcDbDimStyleTableRecord
  2
Standard
 70
     0
 41
2.5
 73
     0
 77
     3
 78
     8
140
2.5
141
-1.0
147
1.0
175
     1
176
     3
177
     3
178
     2
179
     8
271
     8
272
     8
275
     1
340
35
1001
ACAD_DSTYLE_DIMJOGGED_JOGANGLE_SYMBOL
1070
   384
1040
0.7853981633974483
1001
ACAD_DSTYLE_DIMJAG
1070
   388
1040
1.5
1001
ACAD_DSTYLE_DIMTALN
1070
   392
1070
     0
  0
DIMSTYLE
105
1A8
102
{ACAD_REACTORS
330
4527A
330
4527C
330
4976D
102
}
330
33
100
AcDbSymbolTableRecord
100
AcDbDimStyleTableRecord
  2
Standard$0
 70
     0
 41
2.5
 73
     0
 77
     3
 78
     8
140
2.5
141
-1.0
147
1.0
175
     1
176
     3
177
     3
178
     2
179
     8
271
     8
272
     8
275
     1
340
35
  0
DIMSTYLE
105
44B03
102
{ACAD_REACTORS
330
45221
102
}
330
33
100
AcDbSymbolTableRecord
100
AcDbDimStyleTableRecord
  2
사본 ISO-25
 70
     0
 41
2.5
 42
0.625
 43
3.75
 44
1.25
 48
0.000000001
 73
     0
 74
     0
 77
     1
 78
     8
140
3.0
141
-0.5
143
0.03937007874016
146
0.7
147
0.625
171
     3
172
     1
176
     3
177
     3
178
     2
179
     8
271
     8
272
     8
274
     3
275
     1
283
     0
284
     8
340
25
371
    -1
372
    -1
1001
ACAD_DSTYLE_DIMBREAK
1070
   391
1040
3.75
1001
ACAD_DSTYLE_DIMJAG
1070
   388
1040
1.5
1001
ACAD_DSTYLE_DIMTALN
1070
   392
1070
     0
  0
ENDTAB
  0
TABLE
  2
BLOCK_RECORD
  5
1
330
0
100
AcDbSymbolTable
 70
     7
  0
BLOCK_RECORD
  5
2
102
{ACAD_XDICTIONARY
360
3
102
}
330
1
100
AcDbSymbolTableRecord
100
AcDbBlockTableRecord
  2
*Model_Space
340
16
 70
     0
280
     1
281
     0
  0
BLOCK_RECORD
  5
1B
330
1
100
AcDbSymbolTableRecord
100
AcDbBlockTableRecord
  2
*Paper_Space
340
1E
 70
     0
280
     1
281
     0
  0
BLOCK_RECORD
  5
4529A
330
1
100
AcDbSymbolTableRecord
100
AcDbBlockTableRecord
  2
*D0
340
0
 70
     0
280
     1
281
     0
  0
BLOCK_RECORD
  5
45302
330
1
100
AcDbSymbolTableRecord
100
AcDbBlockTableRecord
  2
*D1
340
0
 70
     0
280
     1
281
     0
  0
BLOCK_RECORD
  5
4531F
330
1
100
AcDbSymbolTableRecord
100
AcDbBlockTableRecord
  2
*D2
340
0
 70
     0
280
     1
281
     0
  0
BLOCK_RECORD
  5
4976E
330
1
100
AcDbSymbolTableRecord
100
AcDbBlockTableRecord
  2
*D3
340
0
 70
     0
280
     1
281
     0
  0
BLOCK_RECORD
  5
4CBF0
102
{ACAD_REACTORS
330
4CC02
102
}
330
1
100
AcDbSymbolTableRecord
100
AcDbBlockTableRecord
  2
*U4
340
0
102
{BLKREFS
331
4CBFB
331
4CBFC
331
4CBFD
102
}
 70
     0
280
     1
281
     0
  0
BLOCK_RECORD
  5
4CBF8
102
{ACAD_XDICTIONARY
360
4CBF9
102
}
102
{ACAD_REACTORS
330
4CC01
102
}
330
1
100
AcDbSymbolTableRecord
100
AcDbBlockTableRecord
  2
*U5
340
0
102
{BLKREFS
331
4CBDF
102
}
 70
     0
280
     1
281
     1
  0
ENDTAB
  0
ENDSEC
  0
SECTION
  2
BLOCKS
  0
BLOCK
  5
5
330
2
100
AcDbEntity
  8
0
100
AcDbBlockBegin
  2
*Model_Space
 70
     0
 10
0.0
 20
0.0
 30
0.0
  3
*Model_Space
  1

  0
ENDBLK
  5
15
330
2
100
AcDbEntity
  8
0
100
AcDbBlockEnd
  0
BLOCK
  5
1C
330
1B
100
AcDbEntity
 67
     1
  8
0
100
AcDbBlockBegin
  2
*Paper_Space
 70
     0
 10
0.0
 20
0.0
 30
0.0
  3
*Paper_Space
  1

  0
ENDBLK
  5
1D
330
1B
100
AcDbEntity
 67
     1
  8
0
100
AcDbBlockEnd
  0
BLOCK
  5
4529B
330
4529A
100
AcDbEntity
  8
0
 62
     7
100
AcDbBlockBegin
  2
*D0
 70
     1
 10
0.0
 20
0.0
 30
0.0
  3
*D0
  1

  0
LINE
  5
4CF2C
330
4529A
100
AcDbEntity
  8
0
  6
Continuous
 62
     3
440
 16777216
100
AcDbLine
 10
195.7830529713524
 20
107.0471334113624
 30
0.0
 11
195.7830529713524
 21
114.2289683049787
 31
0.0
  0
LINE
  5
4CF2D
330
4529A
100
AcDbEntity
  8
0
  6
Continuous
 62
     3
440
 16777216
100
AcDbLine
 10
197.7830529713514
 20
107.0471334113625
 30
0.0
 11
197.7830529713514
 21
114.2289683049787
 31
0.0
  0
LINE
  5
4CF2E
330
4529A
100
AcDbEntity
  8
0
  6
Continuous
 62
     3
440
 16777216
100
AcDbLine
 10
193.2830529713524
 20
112.9789683049787
 30
0.0
 11
190.7830529713524
 21
112.9789683049787
 31
0.0
  0
LINE
  5
4CF2F
330
4529A
100
AcDbEntity
  8
0
  6
Continuous
 62
     3
440
 16777216
100
AcDbLine
 10
200.2830529713515
 20
112.9789683049787
 30
0.0
 11
212.7330529713514
 21
112.9789683049787
 31
0.0
  0
LINE
  5
4CF30
330
4529A
100
AcDbEntity
  8
0
  6
Continuous
 62
     3
440
 16777216
100
AcDbLine
 10
195.7830529713524
 20
112.9789683049787
 30
0.0
 11
197.7830529713514
 21
112.9789683049787
 31
0.0
  0
SOLID
  5
4CF31
330
4529A
100
AcDbEntity
  8
0
  6
Continuous
 62
     3
440
 16777216
100
AcDbTrace
 10
193.2830529713524
 20
113.3956349716453
 30
0.0
 11
193.2830529713524
 21
112.562301638312
 31
0.0
 12
195.7830529713524
 22
112.9789683049787
 32
0.0
 13
195.7830529713524
 23
112.9789683049787
 33
0.0
  0
SOLID
  5
4CF32
330
4529A
100
AcDbEntity
  8
0
  6
Continuous
 62
     3
440
 16777216
100
AcDbTrace
 10
200.2830529713515
 20
113.3956349716453
 30
0.0
 11
200.2830529713515
 21
112.562301638312
 31
0.0
 12
197.7830529713514
 22
112.9789683049787
 32
0.0
 13
197.7830529713514
 23
112.9789683049787
 33
0.0
  0
MTEXT
  5
4CF33
330
4529A
100
AcDbEntity
  8
0
  6
Continuous
 62
     2
440
 16777216
100
AcDbMText
 10
207.7580529713515
 20
115.1039683049787
 30
0.0
 40
3.0
 41
0.0
 46
0.0
 71
     5
 72
     1
  1
3-.04
 73
     1
 44
1.0
  0
POINT
  5
4CF34
330
4529A
100
AcDbEntity
  8
DEFPOINTS
  6
Continuous
 62
     0
440
 16777216
100
AcDbPoint
 10
195.7830529713524
 20
106.4221334113624
 30
0.0
  0
POINT
  5
4CF35
330
4529A
100
AcDbEntity
  8
DEFPOINTS
  6
Continuous
 62
     0
440
 16777216
100
AcDbPoint
 10
197.7830529713514
 20
106.4221334113625
 30
0.0
  0
POINT
  5
4CF36
330
4529A
100
AcDbEntity
  8
DEFPOINTS
  6
Continuous
 62
     0
440
 16777216
100
AcDbPoint
 10
197.7830529713514
 20
112.9789683049787
 30
0.0
  0
ENDBLK
  5
4529C
330
4529A
100
AcDbEntity
  8
0
 62
     7
100
AcDbBlockEnd
  0
BLOCK
  5
45303
330
45302
100
AcDbEntity
  8
0
 62
     7
100
AcDbBlockBegin
  2
*D1
 70
     1
 10
0.0
 20
0.0
 30
0.0
  3
*D1
  1

  0
LINE
  5
4CF37
330
45302
100
AcDbEntity
  8
0
  6
Continuous
 62
     3
440
 16777216
100
AcDbLine
 10
128.8088630149911
 20
106.4448724355266
 30
0.0
 11
152.935291710008
 21
106.4448724355266
 31
0.0
  0
LINE
  5
4CF38
330
45302
100
AcDbEntity
  8
0
  6
Continuous
 62
     3
440
 16777216
100
AcDbLine
 10
128.8088630149911
 20
62.44487243552658
 30
0.0
 11
152.9352917100079
 21
62.44487243552657
 31
0.0
  0
LINE
  5
4CF39
330
45302
100
AcDbEntity
  8
0
  6
Continuous
 62
     3
440
 16777216
100
AcDbLine
 10
151.685291710008
 20
103.9448724355265
 30
0.0
 11
151.685291710008
 21
64.94487243552658
 31
0.0
  0
SOLID
  5
4CF3A
330
45302
100
AcDbEntity
  8
0
  6
Continuous
 62
     3
440
 16777216
100
AcDbTrace
 10
151.2686250433413
 20
103.9448724355265
 30
0.0
 11
152.1019583766746
 21
103.9448724355265
 31
0.0
 12
151.685291710008
 22
106.4448724355266
 32
0.0
 13
151.685291710008
 23
106.4448724355266
 33
0.0
  0
SOLID
  5
4CF3B
330
45302
100
AcDbEntity
  8
0
  6
Continuous
 62
     3
440
 16777216
100
AcDbTrace
 10
151.2686250433413
 20
64.94487243552658
 30
0.0
 11
152.1019583766746
 21
64.94487243552658
 31
0.0
 12
151.6852917100079
 22
62.44487243552657
 32
0.0
 13
151.6852917100079
 23
62.44487243552657
 33
0.0
  0
MTEXT
  5
4CF3C
330
45302
100
AcDbEntity
  8
0
  6
Continuous
 62
     2
440
 16777216
100
AcDbMText
 10
149.5602917100079
 20
84.44487243552659
 30
0.0
 40
3.0
 41
0.0
 46
0.0
 71
     5
 72
     1
  1
%%C.866
 11
0.0000000000000001
 21
1.0
 31
0.0
 73
     1
 44
1.0
  0
POINT
  5
4CF3D
330
45302
100
AcDbEntity
  8
DEFPOINTS
  6
Continuous
 62
     0
440
 16777216
100
AcDbPoint
 10
128.1838630149912
 20
106.4448724355266
 30
0.0
  0
POINT
  5
4CF3E
330
45302
100
AcDbEntity
  8
DEFPOINTS
  6
Continuous
 62
     0
440
 16777216
100
AcDbPoint
 10
128.1838630149912
 20
62.44487243552658
 30
0.0
  0
POINT
  5
4CF3F
330
45302
100
AcDbEntity
  8
DEFPOINTS
  6
Continuous
 62
     0
440
 16777216
100
AcDbPoint
 10
151.6852917100079
 20
62.44487243552657
 30
0.0
  0
ENDBLK
  5
45304
330
45302
100
AcDbEntity
  8
0
 62
     7
100
AcDbBlockEnd
  0
BLOCK
  5
45320
330
4531F
100
AcDbEntity
  8
0
 62
     7
100
AcDbBlockBegin
  2
*D2
 70
     1
 10
0.0
 20
0.0
 30
0.0
  3
*D2
  1

  0
LINE
  5
4CFC6
330
4531F
100
AcDbEntity
  8
0
  6
Continuous
 62
     3
440
 16777216
100
AcDbLine
 10
130.5182640917508
 20
93.96987243552656
 30
0.0
 11
144.935291710008
 21
93.96987243552656
 31
0.0
  0
LINE
  5
4CFC7
330
4531F
100
AcDbEntity
  8
0
  6
Continuous
 62
     3
440
 16777216
100
AcDbLine
 10
143.685291710008
 20
91.46987243552656
 30
0.0
 11
143.685291710008
 21
78.06711540117072
 31
0.0
  0
SOLID
  5
4CFC8
330
4531F
100
AcDbEntity
  8
0
  6
Continuous
 62
     3
440
 16777216
100
AcDbTrace
 10
143.2686250433413
 20
91.46987243552656
 30
0.0
 11
144.1019583766746
 21
91.46987243552656
 31
0.0
 12
143.685291710008
 22
93.96987243552656
 32
0.0
 13
143.685291710008
 23
93.96987243552656
 33
0.0
  0
MTEXT
  5
4CFC9
330
4531F
100
AcDbEntity
  8
0
  6
Continuous
 62
     2
440
 16777216
100
AcDbMText
 10
141.5602917100079
 20
83.25424743552671
 30
0.0
 40
3.0
 41
0.0
 46
0.0
 71
     5
 72
     1
  1
%%C.375
 11
0.0000000000000001
 21
1.0
 31
0.0
 73
     1
 44
1.0
  0
POINT
  5
4CFCA
330
4531F
100
AcDbEntity
  8
DEFPOINTS
  6
Continuous
 62
     0
440
 16777216
100
AcDbPoint
 10
129.8932640917508
 20
93.96987243552656
 30
0.0
  0
POINT
  5
4CFCB
330
4531F
100
AcDbEntity
  8
DEFPOINTS
  6
Continuous
 62
     0
440
 16777216
100
AcDbPoint
 10
129.9736488494802
 20
78.88862243552648
 30
0.0
  0
POINT
  5
4CFCC
330
4531F
100
AcDbEntity
  8
DEFPOINTS
  6
Continuous
 62
     0
440
 16777216
100
AcDbPoint
 10
143.685291710008
 20
78.88862243552648
 30
0.0
  0
ENDBLK
  5
45321
330
4531F
100
AcDbEntity
  8
0
 62
     7
100
AcDbBlockEnd
  0
BLOCK
  5
4976F
330
4976E
100
AcDbEntity
  8
0
 62
     7
100
AcDbBlockBegin
  2
*D3
 70
     1
 10
0.0
 20
0.0
 30
0.0
  3
*D3
  1

  0
LINE
  5
4CF47
330
4976E
100
AcDbEntity
  8
0
  6
Continuous
 62
     3
440
 16777216
100
AcDbLine
 10
33.66826409175042
 20
70.44487243552566
 30
0.0
 11
19.49753614314283
 21
70.44487243552568
 31
0.0
  0
LINE
  5
4CF48
330
4976E
100
AcDbEntity
  8
0
  6
Continuous
 62
     3
440
 16777216
100
AcDbLine
 10
33.66826409175132
 20
98.44487243552567
 30
0.0
 11
19.49753614314284
 21
98.44487243552569
 31
0.0
  0
LINE
  5
4CF49
330
4976E
100
AcDbEntity
  8
0
  6
Continuous
 62
     3
440
 16777216
100
AcDbLine
 10
20.74753614314284
 20
72.94487243552568
 30
0.0
 11
20.74753614314284
 21
95.94487243552569
 31
0.0
  0
SOLID
  5
4CF4A
330
4976E
100
AcDbEntity
  8
0
  6
Continuous
 62
     3
440
 16777216
100
AcDbTrace
 10
20.33086947647617
 20
72.94487243552568
 30
0.0
 11
21.1642028098095
 21
72.94487243552568
 31
0.0
 12
20.74753614314283
 22
70.44487243552568
 32
0.0
 13
20.74753614314283
 23
70.44487243552568
 33
0.0
  0
SOLID
  5
4CF4B
330
4976E
100
AcDbEntity
  8
0
  6
Continuous
 62
     3
440
 16777216
100
AcDbTrace
 10
20.33086947647617
 20
95.94487243552569
 30
0.0
 11
21.16420280980951
 21
95.94487243552569
 31
0.0
 12
20.74753614314284
 22
98.44487243552569
 32
0.0
 13
20.74753614314284
 23
98.44487243552569
 33
0.0
  0
MTEXT
  5
4CF4C
330
4976E
100
AcDbEntity
  8
0
  6
Continuous
 62
     2
440
 16777216
100
AcDbMText
 10
18.62253614314282
 20
84.44487243552568
 30
0.0
 40
3.0
 41
0.0
 46
0.0
 71
     5
 72
     1
  1
%%C.551
 11
0.0000000000000001
 21
1.0
 31
0.0
 73
     1
 44
1.0
  0
POINT
  5
4CF4D
330
4976E
100
AcDbEntity
  8
DEFPOINTS
  6
Continuous
 62
     0
440
 16777216
100
AcDbPoint
 10
34.29326409175042
 20
70.44487243552566
 30
0.0
  0
POINT
  5
4CF4E
330
4976E
100
AcDbEntity
  8
DEFPOINTS
  6
Continuous
 62
     0
440
 16777216
100
AcDbPoint
 10
34.29326409175132
 20
98.44487243552567
 30
0.0
  0
POINT
  5
4CF4F
330
4976E
100
AcDbEntity
  8
DEFPOINTS
  6
Continuous
 62
     0
440
 16777216
100
AcDbPoint
 10
20.74753614314284
 20
98.44487243552569
 30
0.0
  0
ENDBLK
  5
49770
330
4976E
100
AcDbEntity
  8
0
 62
     7
100
AcDbBlockEnd
  0
BLOCK
  5
4CBF1
330
4CBF0
100
AcDbEntity
  8
0
 62
     7
100
AcDbBlockBegin
  2
*U4
 70
     1
 10
0.0
 20
0.0
 30
0.0
  3
*U4
  1

  0
LINE
  5
4CBF2
330
4CBF0
100
AcDbEntity
  8
0
  6
Continuous
 62
     7
100
AcDbLine
 10
-1.0
 20
5.226130487917998
 30
0.0
 11
-0.9999999999995452
 21
-5.226130487917885
 31
0.0
  0
LINE
  5
4CBF3
330
4CBF0
100
AcDbEntity
  8
0
  6
Continuous
 62
     7
100
AcDbLine
 10
1.0
 20
5.226130487917998
 30
0.0
 11
1.0
 21
-5.226130487917885
 31
0.0
  0
LINE
  5
4CBF4
330
4CBF0
100
AcDbEntity
  8
0
  6
Continuous
 62
     7
100
AcDbLine
 10
-0.9999999999995452
 20
-5.226130487917885
 30
0.0
 11
0.9999999999995452
 21
-5.226130487917885
 31
0.0
  0
ENDBLK
  5
4CBF5
330
4CBF0
100
AcDbEntity
  8
0
 62
     7
100
AcDbBlockEnd
  0
BLOCK
  5
4CBFA
330
4CBF8
100
AcDbEntity
  8
0
 62
     7
100
AcDbBlockBegin
  2
*U5
 70
     1
 10
0.0
 20
0.0
 30
0.0
  3
*U5
  1

  0
INSERT
  5
4CBFB
330
4CBF8
100
AcDbEntity
  8
0
  6
ByBlock
347
3E
 62
     0
440
 16777216
370
    -2
380
     1
100
AcDbBlockReference
  2
*U4
 10
2828.603599224573
 20
935.810169742337
 30
0.0
  0
INSERT
  5
4CBFC
330
4CBF8
100
AcDbEntity
  8
0
  6
ByBlock
347
3E
 62
     0
440
 16777216
370
    -2
380
     1
100
AcDbBlockReference
  2
*U4
 10
2814.096694679928
 20
910.68347401046
 30
0.0
 41
0.9999999999999998
 42
0.9999999999999998
 43
0.9999999999999998
 50
120.0
  0
INSERT
  5
4CBFD
330
4CBF8
100
AcDbEntity
  8
0
  6
ByBlock
347
3E
 62
     0
440
 16777216
370
    -2
380
     1
100
AcDbBlockReference
  2
*U4
 10
2843.110503769218
 20
910.68347401046
 30
0.0
 50
240.0
  0
ENDBLK
  5
4CBFE
330
4CBF8
100
AcDbEntity
  8
0
 62
     7
100
AcDbBlockEnd
  0
ENDSEC
  0
SECTION
  2
ENTITIES
  0
LWPOLYLINE
  5
3C9CD
330
2
100
AcDbEntity
  8
0
 62
     0
100
AcDbPolyline
 90
        4
 70
     1
 43
0.0
 10
0.5
 20
0.5
 10
0.5
 20
159.5801362131918
 10
228.4622345
 20
159.5801362131918
 10
228.4622345
 20
0.5
  0
LINE
  5
3C9CE
330
2
100
AcDbEntity
  8
0
  6
Continuous
 62
     7
100
AcDbLine
 10
171.471675875
 20
-2.28002724999998
 30
0.0
 11
171.471675875
 21
0.5
 31
0.0
  0
LINE
  5
3C9CF
330
2
100
AcDbEntity
  8
0
  6
Continuous
 62
     7
100
AcDbLine
 10
168.6916486249998
 20
0.5
 30
0.0
 11
168.6916486249998
 21
22.87064415498009
 31
0.0
  0
LINE
  5
3C9D0
330
2
100
AcDbEntity
  8
0
  6
Continuous
 62
     7
100
AcDbLine
 10
57.49055862500004
 20
-2.28002724999998
 30
0.0
 11
57.49055862500004
 21
0.5
 31
0.0
  0
LINE
  5
3C9D1
330
2
100
AcDbEntity
  8
0
  6
Continuous
 62
     7
100
AcDbLine
 10
171.471675875
 20
162.3601634631918
 30
0.0
 11
171.471675875
 21
159.5801362131918
 31
0.0
  0
LINE
  5
3C9D2
330
2
100
AcDbEntity
  8
0
  6
Continuous
 62
     7
100
AcDbLine
 10
57.49055862500004
 20
162.3601634631918
 30
0.0
 11
57.49055862500004
 21
159.5801362131918
 31
0.0
  0
LINE
  5
3C9D3
330
2
100
AcDbEntity
  8
0
  6
Continuous
 62
     7
100
AcDbLine
 10
-2.28002724999998
 20
40.27003405329798
 30
0.0
 11
0.5
 21
40.27003405329798
 31
0.0
  0
LINE
  5
3C9D4
330
2
100
AcDbEntity
  8
0
  6
Continuous
 62
     7
100
AcDbLine
 10
-2.28002724999998
 20
119.8101021598939
 30
0.0
 11
0.5
 21
119.8101021598939
 31
0.0
  0
LINE
  5
3C9D5
330
2
100
AcDbEntity
  8
0
  6
Continuous
 62
     7
100
AcDbLine
 10
231.24226175
 20
40.27003405329798
 30
0.0
 11
228.4622345
 21
40.27003405329798
 31
0.0
  0
LINE
  5
3C9D6
330
2
100
AcDbEntity
  8
0
  6
Continuous
 62
     7
100
AcDbLine
 10
231.24226175
 20
119.8101021598939
 30
0.0
 11
228.4622345
 21
119.8101021598939
 31
0.0
  0
LINE
  5
3C9D7
330
2
100
AcDbEntity
  8
0
  6
Continuous
 62
     7
100
AcDbLine
 10
168.6916486249998
 20
15.41376276998672
 30
0.0
 11
228.4622345
 21
15.41376276998672
 31
0.0
  0
LINE
  5
3C9D8
330
2
100
AcDbEntity
  8
0
  6
Continuous
 62
     7
100
AcDbLine
 10
168.6916486249998
 20
22.87064415498009
 30
0.0
 11
228.4622345
 21
22.87064415498009
 31
0.0
  0
LINE
  5
3C9D9
330
2
100
AcDbEntity
  8
0
  6
Continuous
 62
     7
100
AcDbLine
 10
168.6916486249998
 20
7.956881384993362
 30
0.0
 11
228.4622345
 21
7.956881384993362
 31
0.0
  0
LINE
  5
3C9DA
330
2
100
AcDbEntity
  8
0
  6
Continuous
 62
     7
100
AcDbLine
 10
228.4622345
 20
80.04006810659589
 30
0.0
 11
231.24226175
 21
80.04006810659589
 31
0.0
  0
LINE
  5
3C9DB
330
2
100
AcDbEntity
  8
0
  6
Continuous
 62
     7
100
AcDbLine
 10
229.852248125
 20
79.09485884159588
 30
0.0
 11
229.852248125
 21
80.98527737159592
 31
0.0
  0
LINE
  5
3C9DC
330
2
100
AcDbEntity
  8
0
  6
Continuous
 62
     7
100
AcDbLine
 10
229.852248125
 20
79.09485884159588
 30
0.0
 11
228.4622345
 21
80.04006810659589
 31
0.0
  0
LINE
  5
3C9DD
330
2
100
AcDbEntity
  8
0
  6
Continuous
 62
     7
100
AcDbLine
 10
228.4622345
 20
80.04006810659589
 30
0.0
 11
229.852248125
 21
80.98527737159592
 31
0.0
  0
LINE
  5
3C9DE
330
2
100
AcDbEntity
  8
0
  6
Continuous
 62
     7
100
AcDbLine
 10
0.5
 20
80.04006810659589
 30
0.0
 11
-2.28002724999998
 21
80.04006810659589
 31
0.0
  0
LINE
  5
3C9DF
330
2
100
AcDbEntity
  8
0
  6
Continuous
 62
     7
100
AcDbLine
 10
-0.890013625000015
 20
79.09485884159588
 30
0.0
 11
-0.890013625000015
 21
80.98527737159592
 31
0.0
  0
LINE
  5
3C9E0
330
2
100
AcDbEntity
  8
0
  6
Continuous
 62
     7
100
AcDbLine
 10
-0.890013625000015
 20
79.09485884159588
 30
0.0
 11
0.5
 21
80.04006810659589
 31
0.0
  0
LINE
  5
3C9E1
330
2
100
AcDbEntity
  8
0
  6
Continuous
 62
     7
100
AcDbLine
 10
0.5
 20
80.04006810659589
 30
0.0
 11
-0.890013625000015
 21
80.98527737159592
 31
0.0
  0
LINE
  5
3C9E2
330
2
100
AcDbEntity
  8
0
  6
Continuous
 62
     7
100
AcDbLine
 10
114.48111725
 20
159.5801362131918
 30
0.0
 11
114.48111725
 21
162.3601634631918
 31
0.0
  0
LINE
  5
3C9E3
330
2
100
AcDbEntity
  8
0
  6
Continuous
 62
     7
100
AcDbLine
 10
113.5359079849999
 20
160.9701498381918
 30
0.0
 11
115.4263265149999
 21
160.9701498381918
 31
0.0
  0
LINE
  5
3C9E4
330
2
100
AcDbEntity
  8
0
  6
Continuous
 62
     7
100
AcDbLine
 10
113.5359079849999
 20
160.9701498381918
 30
0.0
 11
114.48111725
 21
159.5801362131918
 31
0.0
  0
LINE
  5
3C9E5
330
2
100
AcDbEntity
  8
0
  6
Continuous
 62
     7
100
AcDbLine
 10
114.48111725
 20
159.5801362131918
 30
0.0
 11
115.4263265149999
 21
160.9701498381918
 31
0.0
  0
LINE
  5
3C9E6
330
2
100
AcDbEntity
  8
0
  6
Continuous
 62
     7
100
AcDbLine
 10
114.48111725
 20
0.5
 30
0.0
 11
114.48111725
 21
-2.28002724999998
 31
0.0
  0
LINE
  5
3C9E7
330
2
100
AcDbEntity
  8
0
  6
Continuous
 62
     7
100
AcDbLine
 10
113.5359079849999
 20
-0.890013625000015
 30
0.0
 11
115.4263265149999
 21
-0.890013625000015
 31
0.0
  0
LINE
  5
3C9E8
330
2
100
AcDbEntity
  8
0
  6
Continuous
 62
     7
100
AcDbLine
 10
113.5359079849999
 20
-0.890013625000015
 30
0.0
 11
114.48111725
 21
0.5
 31
0.0
  0
LINE
  5
3C9E9
330
2
100
AcDbEntity
  8
0
  6
Continuous
 62
     7
100
AcDbLine
 10
114.48111725
 20
0.5
 30
0.0
 11
115.4263265149999
 21
-0.890013625000015
 31
0.0
  0
TEXT
  5
3C9EA
330
2
100
AcDbEntity
  8
0
 62
     2
100
AcDbText
 10
28.41311731059692
 20
-1.752484322891404
 30
0.0
 40
1.556815259999999
  1
4
  7
굴림
100
AcDbText
  0
TEXT
  5
3C9EB
330
2
100
AcDbEntity
  8
0
 62
     2
100
AcDbText
 10
85.45651373783945
 20
-1.752484322891404
 30
0.0
 40
1.556815259999999
  1
3
  7
굴림
100
AcDbText
  0
TEXT
  5
3C9EC
330
2
100
AcDbEntity
  8
0
 62
     2
100
AcDbText
 10
142.3733528614959
 20
-1.752484322891404
 30
0.0
 40
1.556815259999999
  1
2
  7
굴림
100
AcDbText
  0
TEXT
  5
3C9ED
330
2
100
AcDbEntity
  8
0
 62
     2
100
AcDbText
 10
199.5377263891383
 20
-1.752484322891404
 30
0.0
 40
1.556815259999999
  1
1
  7
굴림
100
AcDbText
  0
TEXT
  5
3C9EE
330
2
100
AcDbEntity
  8
0
 62
     2
100
AcDbText
 10
28.41311731059692
 20
160.4665108981042
 30
0.0
 40
1.556815259999999
  1
4
  7
굴림
100
AcDbText
  0
TEXT
  5
3C9EF
330
2
100
AcDbEntity
  8
0
 62
     2
100
AcDbText
 10
85.45651373783945
 20
160.4665108981042
 30
0.0
 40
1.556815259999999
  1
3
  7
굴림
100
AcDbText
  0
TEXT
  5
3C9F0
330
2
100
AcDbEntity
  8
0
 62
     2
100
AcDbText
 10
142.3733528614959
 20
160.4665108981042
 30
0.0
 40
1.556815259999999
  1
2
  7
굴림
100
AcDbText
  0
TEXT
  5
3C9F1
330
2
100
AcDbEntity
  8
0
 62
     2
100
AcDbText
 10
199.5377263891383
 20
160.4665108981042
 30
0.0
 40
1.556815259999999
  1
1
  7
굴림
100
AcDbText
  0
TEXT
  5
3C9F2
330
2
100
AcDbEntity
  8
0
 62
     2
100
AcDbText
 10
-1.747477303099856
 20
19.86663775446954
 30
0.0
 40
1.556815259999999
  1
A
  7
굴림
100
AcDbText
  0
TEXT
  5
3C9F3
330
2
100
AcDbEntity
  8
0
 62
     2
100
AcDbText
 10
-1.747477303099856
 20
59.30673861467433
 30
0.0
 40
1.556815259999999
  1
B
  7
굴림
100
AcDbText
  0
TEXT
  5
3C9F4
330
2
100
AcDbEntity
  8
0
 62
     2
100
AcDbText
 10
-1.747477303099856
 20
99.12318927488799
 30
0.0
 40
1.556815259999999
  1
C
  7
굴림
100
AcDbText
  0
TEXT
  5
3C9F5
330
2
100
AcDbEntity
  8
0
 62
     2
100
AcDbText
 10
-1.747477303099856
 20
139.1848214194692
 30
0.0
 40
1.556815259999999
  1
D
  7
굴림
100
AcDbText
  0
TEXT
  5
3C9F6
330
2
100
AcDbEntity
  8
0
 62
     2
100
AcDbText
 10
229.2950322483239
 20
19.86663775446954
 30
0.0
 40
1.556815259999999
  1
A
  7
굴림
100
AcDbText
  0
TEXT
  5
3C9F7
330
2
100
AcDbEntity
  8
0
 62
     2
100
AcDbText
 10
229.2950322483239
 20
59.30673861467433
 30
0.0
 40
1.556815259999999
  1
B
  7
굴림
100
AcDbText
  0
TEXT
  5
3C9F8
330
2
100
AcDbEntity
  8
0
 62
     2
100
AcDbText
 10
229.2950322483239
 20
99.12318927488799
 30
0.0
 40
1.556815259999999
  1
C
  7
굴림
100
AcDbText
  0
TEXT
  5
3C9F9
330
2
100
AcDbEntity
  8
0
 62
     2
100
AcDbText
 10
229.2950322483239
 20
139.1848214194692
 30
0.0
 40
1.556815259999999
  1
D
  7
굴림
100
AcDbText
  0
HATCH
  5
3C9FA
330
2
100
AcDbEntity
  8
0
  6
Continuous
 62
     0
100
AcDbHatch
 10
0.0
 20
0.0
 30
0.0
210
0.0
220
0.0
230
0.9999999999999998
  2
SOLID
 70
     1
 71
     1
 91
        1
 92
        5
 93
       13
 72
     4
 94
        3
 73
     0
 74
     0
 95
        8
 96
        4
 40
1.0
 40
1.0
 40
1.0
 40
1.0
 40
2.0
 40
2.0
 40
2.0
 40
2.0
 10
186.5074847003158
 20
19.00434374315034
 10
186.5074847003158
 20
19.00434374315034
 10
185.8719293529163
 20
16.09388382359109
 10
185.8719293529163
 20
16.09388382359109
 97
        0
 72
     4
 94
        3
 73
     0
 74
     0
 95
        8
 96
        4
 40
0.0
 40
0.0
 40
0.0
 40
0.0
 40
1.0
 40
1.0
 40
1.0
 40
1.0
 10
185.8719293529163
 20
16.09388382359109
 10
185.8719293529163
 20
16.09388382359109
 10
187.2698700943516
 20
16.09388382359109
 10
187.2698700943516
 20
16.09388382359109
 97
        0
 72
     4
 94
        3
 73
     0
 74
     0
 95
        8
 96
        4
 40
12.0
 40
12.0
 40
12.0
 40
12.0
 40
13.0
 40
13.0
 40
13.0
 40
13.0
 10
187.2698700943516
 20
16.09388382359109
 10
187.2698700943516
 20
16.09388382359109
 10
188.0008746041562
 20
20.58019442827264
 10
188.0008746041562
 20
20.58019442827264
 97
        0
 72
     4
 94
        3
 73
     0
 74
     0
 95
        8
 96
        4
 40
11.0
 40
11.0
 40
11.0
 40
11.0
 40
12.0
 40
12.0
 40
12.0
 40
12.0
 10
188.0008746041562
 20
20.58019442827264
 10
188.0008746041562
 20
20.58019442827264
 10
186.4945921610756
 20
20.58019442827264
 10
186.4945921610756
 20
20.58019442827264
 97
        0
 72
     4
 94
        3
 73
     0
 74
     0
 95
        8
 96
        4
 40
10.0
 40
10.0
 40
10.0
 40
10.0
 40
11.0
 40
11.0
 40
11.0
 40
11.0
 10
186.4945921610756
 20
20.58019442827264
 10
186.4945921610756
 20
20.58019442827264
 10
184.944036294524
 20
18.11473388445217
 10
184.944036294524
 20
18.11473388445217
 97
        0
 72
     4
 94
        3
 73
     0
 74
     0
 95
        8
 96
        4
 40
9.0
 40
9.0
 40
9.0
 40
9.0
 40
10.0
 40
10.0
 40
10.0
 40
10.0
 10
184.944036294524
 20
18.11473388445217
 10
184.944036294524
 20
18.11473388445217
 10
184.6710503444688
 20
20.58019442827264
 10
184.6710503444688
 20
20.58019442827264
 97
        0
 72
     4
 94
        3
 73
     0
 74
     0
 95
        8
 96
        4
 40
8.0
 40
8.0
 40
8.0
 40
8.0
 40
9.0
 40
9.0
 40
9.0
 40
9.0
 10
184.6710503444688
 20
20.58019442827264
 10
184.6710503444688
 20
20.58019442827264
 10
183.1901585244317
 20
20.58019442827264
 10
183.1901585244317
 20
20.58019442827264
 97
        0
 72
     4
 94
        3
 73
     0
 74
     0
 95
        8
 96
        4
 40
7.0
 40
7.0
 40
7.0
 40
7.0
 40
8.0
 40
8.0
 40
8.0
 40
8.0
 10
183.1901585244317
 20
20.58019442827264
 10
183.1901585244317
 20
20.58019442827264
 10
181.5571445979683
 20
16.09388382359109
 10
181.5571445979683
 20
16.09388382359109
 97
        0
 72
     4
 94
        3
 73
     0
 74
     0
 95
        8
 96
        4
 40
6.0
 40
6.0
 40
6.0
 40
6.0
 40
7.0
 40
7.0
 40
7.0
 40
7.0
 10
181.5571445979683
 20
16.09388382359109
 10
181.5571445979683
 20
16.09388382359109
 10
182.9233100716582
 20
16.09388382359109
 10
182.9233100716582
 20
16.09388382359109
 97
        0
 72
     4
 94
        3
 73
     0
 74
     0
 95
        8
 96
        4
 40
5.0
 40
5.0
 40
5.0
 40
5.0
 40
6.0
 40
6.0
 40
6.0
 40
6.0
 10
182.9233100716582
 20
16.09388382359109
 10
182.9233100716582
 20
16.09388382359109
 10
183.8448431626535
 20
19.06779574315842
 10
183.8448431626535
 20
19.06779574315842
 97
        0
 72
     4
 94
        3
 73
     0
 74
     0
 95
        8
 96
        4
 40
4.0
 40
4.0
 40
4.0
 40
4.0
 40
5.0
 40
5.0
 40
5.0
 40
5.0
 10
183.8448431626535
 20
19.06779574315842
 10
183.8448431626535
 20
19.06779574315842
 10
184.1816268635117
 20
16.09388382359109
 10
184.1816268635117
 20
16.09388382359109
 97
        0
 72
     4
 94
        3
 73
     0
 74
     0
 95
        8
 96
        4
 40
3.0
 40
3.0
 40
3.0
 40
3.0
 40
4.0
 40
4.0
 40
4.0
 40
4.0
 10
184.1816268635117
 20
16.09388382359109
 10
184.1816268635117
 20
16.09388382359109
 10
184.626505132091
 20
16.09388382359109
 10
184.626505132091
 20
16.09388382359109
 97
        0
 72
     4
 94
        3
 73
     0
 74
     0
 95
        8
 96
        4
 40
2.0
 40
2.0
 40
2.0
 40
2.0
 40
3.0
 40
3.0
 40
3.0
 40
3.0
 10
184.626505132091
 20
16.09388382359109
 10
184.626505132091
 20
16.09388382359109
 10
186.5074847003158
 20
19.00434374315034
 10
186.5074847003158
 20
19.00434374315034
 97
        0
 97
       13
330
3CA07
330
3CA06
330
3CA05
330
3CA04
330
3CA03
330
3CA02
330
3CA01
330
3CA00
330
3C9FF
330
3C9FE
330
3C9FD
330
3C9FC
330
3C9FB
 75
     1
 76
     1
 47
0.0269459378258844
 98
        1
 10
186.5885685095635
 20
17.61916490117755
450
        0
451
        0
460
0.0
461
0.0
452
        0
462
1.0
453
        2
463
0.0
 63
     5
421
      255
463
1.0
 63
     2
421
 16776960
470
LINEAR
1001
GRADIENTCOLOR1ACI
1070
     5
1001
GRADIENTCOLOR2ACI
1070
     2
1001
ACAD
1010
0.0
1020
0.0
1030
0.0
  0
SPLINE
  5
3C9FB
102
{ACAD_REACTORS
330
3C9FA
102
}
330
2
100
AcDbEntity
  8
Layer 1
100
AcDbSpline
210
0.0
220
0.0
230
1.0
 70
    24
 71
     3
 72
     8
 73
     4
 74
     0
 42
0.000000001
 43
0.0000000001
 40
0.0
 40
0.0
 40
0.0
 40
0.0
 40
1.0
 40
1.0
 40
1.0
 40
1.0
 10
187.2698700943516
 20
16.09388382359109
 30
0.0
 10
187.2698700943516
 20
16.09388382359109
 30
0.0
 10
185.8719293529163
 20
16.09388382359109
 30
0.0
 10
185.8719293529163
 20
16.09388382359109
 30
0.0
  0
SPLINE
  5
3C9FC
102
{ACAD_REACTORS
330
3C9FA
102
}
330
2
100
AcDbEntity
  8
Layer 1
100
AcDbSpline
210
0.0
220
0.0
230
1.0
 70
    24
 71
     3
 72
     8
 73
     4
 74
     0
 42
0.000000001
 43
0.0000000001
 40
1.0
 40
1.0
 40
1.0
 40
1.0
 40
2.0
 40
2.0
 40
2.0
 40
2.0
 10
185.8719293529163
 20
16.09388382359109
 30
0.0
 10
185.8719293529163
 20
16.09388382359109
 30
0.0
 10
186.5074847003158
 20
19.00434374315034
 30
0.0
 10
186.5074847003158
 20
19.00434374315034
 30
0.0
  0
SPLINE
  5
3C9FD
102
{ACAD_REACTORS
330
3C9FA
102
}
330
2
100
AcDbEntity
  8
Layer 1
100
AcDbSpline
210
0.0
220
0.0
230
1.0
 70
    24
 71
     3
 72
     8
 73
     4
 74
     0
 42
0.000000001
 43
0.0000000001
 40
2.0
 40
2.0
 40
2.0
 40
2.0
 40
3.0
 40
3.0
 40
3.0
 40
3.0
 10
186.5074847003158
 20
19.00434374315034
 30
0.0
 10
186.5074847003158
 20
19.00434374315034
 30
0.0
 10
184.626505132091
 20
16.09388382359109
 30
0.0
 10
184.626505132091
 20
16.09388382359109
 30
0.0
  0
SPLINE
  5
3C9FE
102
{ACAD_REACTORS
330
3C9FA
102
}
330
2
100
AcDbEntity
  8
Layer 1
100
AcDbSpline
210
0.0
220
0.0
230
1.0
 70
    24
 71
     3
 72
     8
 73
     4
 74
     0
 42
0.000000001
 43
0.0000000001
 40
3.0
 40
3.0
 40
3.0
 40
3.0
 40
4.0
 40
4.0
 40
4.0
 40
4.0
 10
184.626505132091
 20
16.09388382359109
 30
0.0
 10
184.626505132091
 20
16.09388382359109
 30
0.0
 10
184.1816268635117
 20
16.09388382359109
 30
0.0
 10
184.1816268635117
 20
16.09388382359109
 30
0.0
  0
SPLINE
  5
3C9FF
102
{ACAD_REACTORS
330
3C9FA
102
}
330
2
100
AcDbEntity
  8
Layer 1
100
AcDbSpline
210
0.0
220
0.0
230
1.0
 70
    24
 71
     3
 72
     8
 73
     4
 74
     0
 42
0.000000001
 43
0.0000000001
 40
4.0
 40
4.0
 40
4.0
 40
4.0
 40
5.0
 40
5.0
 40
5.0
 40
5.0
 10
184.1816268635117
 20
16.09388382359109
 30
0.0
 10
184.1816268635117
 20
16.09388382359109
 30
0.0
 10
183.8448431626535
 20
19.06779574315842
 30
0.0
 10
183.8448431626535
 20
19.06779574315842
 30
0.0
  0
SPLINE
  5
3CA00
102
{ACAD_REACTORS
330
3C9FA
102
}
330
2
100
AcDbEntity
  8
Layer 1
100
AcDbSpline
210
0.0
220
0.0
230
1.0
 70
    24
 71
     3
 72
     8
 73
     4
 74
     0
 42
0.000000001
 43
0.0000000001
 40
5.0
 40
5.0
 40
5.0
 40
5.0
 40
6.0
 40
6.0
 40
6.0
 40
6.0
 10
183.8448431626535
 20
19.06779574315842
 30
0.0
 10
183.8448431626535
 20
19.06779574315842
 30
0.0
 10
182.9233100716582
 20
16.09388382359109
 30
0.0
 10
182.9233100716582
 20
16.09388382359109
 30
0.0
  0
SPLINE
  5
3CA01
102
{ACAD_REACTORS
330
3C9FA
102
}
330
2
100
AcDbEntity
  8
Layer 1
100
AcDbSpline
210
0.0
220
0.0
230
1.0
 70
    24
 71
     3
 72
     8
 73
     4
 74
     0
 42
0.000000001
 43
0.0000000001
 40
6.0
 40
6.0
 40
6.0
 40
6.0
 40
7.0
 40
7.0
 40
7.0
 40
7.0
 10
182.9233100716582
 20
16.09388382359109
 30
0.0
 10
182.9233100716582
 20
16.09388382359109
 30
0.0
 10
181.5571445979683
 20
16.09388382359109
 30
0.0
 10
181.5571445979683
 20
16.09388382359109
 30
0.0
  0
SPLINE
  5
3CA02
102
{ACAD_REACTORS
330
3C9FA
102
}
330
2
100
AcDbEntity
  8
Layer 1
100
AcDbSpline
210
0.0
220
0.0
230
1.0
 70
    24
 71
     3
 72
     8
 73
     4
 74
     0
 42
0.000000001
 43
0.0000000001
 40
7.0
 40
7.0
 40
7.0
 40
7.0
 40
8.0
 40
8.0
 40
8.0
 40
8.0
 10
181.5571445979683
 20
16.09388382359109
 30
0.0
 10
181.5571445979683
 20
16.09388382359109
 30
0.0
 10
183.1901585244317
 20
20.58019442827264
 30
0.0
 10
183.1901585244317
 20
20.58019442827264
 30
0.0
  0
SPLINE
  5
3CA03
102
{ACAD_REACTORS
330
3C9FA
102
}
330
2
100
AcDbEntity
  8
Layer 1
100
AcDbSpline
210
0.0
220
0.0
230
1.0
 70
    24
 71
     3
 72
     8
 73
     4
 74
     0
 42
0.000000001
 43
0.0000000001
 40
8.0
 40
8.0
 40
8.0
 40
8.0
 40
9.0
 40
9.0
 40
9.0
 40
9.0
 10
183.1901585244317
 20
20.58019442827264
 30
0.0
 10
183.1901585244317
 20
20.58019442827264
 30
0.0
 10
184.6710503444688
 20
20.58019442827264
 30
0.0
 10
184.6710503444688
 20
20.58019442827264
 30
0.0
  0
SPLINE
  5
3CA04
102
{ACAD_REACTORS
330
3C9FA
102
}
330
2
100
AcDbEntity
  8
Layer 1
100
AcDbSpline
210
0.0
220
0.0
230
1.0
 70
    24
 71
     3
 72
     8
 73
     4
 74
     0
 42
0.000000001
 43
0.0000000001
 40
9.0
 40
9.0
 40
9.0
 40
9.0
 40
10.0
 40
10.0
 40
10.0
 40
10.0
 10
184.6710503444688
 20
20.58019442827264
 30
0.0
 10
184.6710503444688
 20
20.58019442827264
 30
0.0
 10
184.944036294524
 20
18.11473388445217
 30
0.0
 10
184.944036294524
 20
18.11473388445217
 30
0.0
  0
SPLINE
  5
3CA05
102
{ACAD_REACTORS
330
3C9FA
102
}
330
2
100
AcDbEntity
  8
Layer 1
100
AcDbSpline
210
0.0
220
0.0
230
1.0
 70
    24
 71
     3
 72
     8
 73
     4
 74
     0
 42
0.000000001
 43
0.0000000001
 40
10.0
 40
10.0
 40
10.0
 40
10.0
 40
11.0
 40
11.0
 40
11.0
 40
11.0
 10
184.944036294524
 20
18.11473388445217
 30
0.0
 10
184.944036294524
 20
18.11473388445217
 30
0.0
 10
186.4945921610756
 20
20.58019442827264
 30
0.0
 10
186.4945921610756
 20
20.58019442827264
 30
0.0
  0
SPLINE
  5
3CA06
102
{ACAD_REACTORS
330
3C9FA
102
}
330
2
100
AcDbEntity
  8
Layer 1
100
AcDbSpline
210
0.0
220
0.0
230
1.0
 70
    24
 71
     3
 72
     8
 73
     4
 74
     0
 42
0.000000001
 43
0.0000000001
 40
11.0
 40
11.0
 40
11.0
 40
11.0
 40
12.0
 40
12.0
 40
12.0
 40
12.0
 10
186.4945921610756
 20
20.58019442827264
 30
0.0
 10
186.4945921610756
 20
20.58019442827264
 30
0.0
 10
188.0008746041562
 20
20.58019442827264
 30
0.0
 10
188.0008746041562
 20
20.58019442827264
 30
0.0
  0
SPLINE
  5
3CA07
102
{ACAD_REACTORS
330
3C9FA
102
}
330
2
100
AcDbEntity
  8
Layer 1
100
AcDbSpline
210
0.0
220
0.0
230
1.0
 70
    24
 71
     3
 72
     8
 73
     4
 74
     0
 42
0.000000001
 43
0.0000000001
 40
12.0
 40
12.0
 40
12.0
 40
12.0
 40
13.0
 40
13.0
 40
13.0
 40
13.0
 10
188.0008746041562
 20
20.58019442827264
 30
0.0
 10
188.0008746041562
 20
20.58019442827264
 30
0.0
 10
187.2698700943516
 20
16.09388382359109
 30
0.0
 10
187.2698700943516
 20
16.09388382359109
 30
0.0
  0
HATCH
  5
3CA08
330
2
100
AcDbEntity
  8
0
  6
Continuous
 62
     0
100
AcDbHatch
 10
0.0
 20
0.0
 30
0.0
210
0.0
220
0.0
230
0.9999999999999998
  2
SOLID
 70
     1
 71
     0
 91
        1
 92
        5
 93
        1
 72
     4
 94
        3
 73
     0
 74
     0
 95
       41
 96
       37
 40
0.0
 40
0.0
 40
0.0
 40
0.0
 40
1.0
 40
1.0
 40
1.0
 40
2.0
 40
2.0
 40
2.0
 40
3.0
 40
3.0
 40
3.0
 40
4.0
 40
4.0
 40
4.0
 40
5.0
 40
5.0
 40
5.0
 40
6.0
 40
6.0
 40
6.0
 40
7.0
 40
7.0
 40
7.0
 40
8.0
 40
8.0
 40
8.0
 40
9.0
 40
9.0
 40
9.0
 40
10.0
 40
10.0
 40
10.0
 40
11.0
 40
11.0
 40
11.0
 40
12.0
 40
12.0
 40
12.0
 40
12.0
 10
188.8646254309942
 20
16.09388382359109
 10
188.8646254309942
 20
16.09388382359109
 10
187.4094940757213
 20
16.09388382359109
 10
187.4094940757213
 20
16.09388382359109
 10
187.4094940757213
 20
16.09388382359109
 10
190.3198561599883
 20
20.58645305181942
 10
190.3198561599883
 20
20.58645305181942
 10
190.3198561599883
 20
20.58645305181942
 10
191.8196307435195
 20
20.58645305181942
 10
191.8196307435195
 20
20.58645305181942
 10
191.8196307435195
 20
20.58645305181942
 10
192.156536884401
 20
16.09388382359109
 10
192.156536884401
 20
16.09388382359109
 10
192.156536884401
 20
16.09388382359109
 10
190.8028942175635
 20
16.09388382359109
 10
190.8028942175635
 20
16.09388382359109
 10
190.8028942175635
 20
16.09388382359109
 10
190.7583496316994
 20
16.81838043595916
 10
190.7583496316994
 20
16.81838043595916
 10
190.7583496316994
 20
16.81838043595916
 10
189.7771115352273
 20
16.81838043595916
 10
189.7771115352273
 20
16.81838043595916
 10
189.7771115352273
 20
16.81838043595916
 10
190.2642424490418
 20
17.75228836925493
 10
190.2642424490418
 20
17.75228836925493
 10
190.2642424490418
 20
17.75228836925493
 10
190.7139283014685
 20
17.75228836925493
 10
190.7139283014685
 20
17.75228836925493
 10
190.7139283014685
 20
17.75228836925493
 10
190.6566390831239
 20
19.06779574315842
 10
190.6566390831239
 20
19.06779574315842
 10
190.6566390831239
 20
19.06779574315842
 10
188.8718489437386
 20
16.1039907855194
 10
188.8718489437386
 20
16.1039907855194
 10
188.8718489437386
 20
16.1039907855194
 10
188.8646254309942
 20
16.09388382359109
 10
188.8646254309942
 20
16.09388382359109
 97
        0
 97
        0
 75
     1
 76
     1
 47
0.0269459378258844
 98
        1
 10
191.5991973971412
 20
17.94864318337259
450
        0
451
        0
460
0.0
461
0.0
452
        0
462
1.0
453
        2
463
0.0
 63
     5
421
      255
463
1.0
 63
     2
421
 16776960
470
LINEAR
1001
GRADIENTCOLOR1ACI
1070
     5
1001
GRADIENTCOLOR2ACI
1070
     2
1001
ACAD
1010
0.0
1020
0.0
1030
0.0
  0
SPLINE
  5
3CA09
330
2
100
AcDbEntity
  8
Layer 1
100
AcDbSpline
210
0.0
220
0.0
230
1.0
 70
    11
 71
     3
 72
    41
 73
    37
 74
     0
 42
0.000000001
 43
0.0000000001
 40
0.0
 40
0.0
 40
0.0
 40
0.0
 40
1.0
 40
1.0
 40
1.0
 40
2.0
 40
2.0
 40
2.0
 40
3.0
 40
3.0
 40
3.0
 40
4.0
 40
4.0
 40
4.0
 40
5.0
 40
5.0
 40
5.0
 40
6.0
 40
6.0
 40
6.0
 40
7.0
 40
7.0
 40
7.0
 40
8.0
 40
8.0
 40
8.0
 40
9.0
 40
9.0
 40
9.0
 40
10.0
 40
10.0
 40
10.0
 40
11.0
 40
11.0
 40
11.0
 40
12.0
 40
12.0
 40
12.0
 40
12.0
 10
188.8646254309942
 20
16.09388382359109
 30
0.0
 10
188.8646254309942
 20
16.09388382359109
 30
0.0
 10
187.4094940757213
 20
16.09388382359109
 30
0.0
 10
187.4094940757213
 20
16.09388382359109
 30
0.0
 10
187.4094940757213
 20
16.09388382359109
 30
0.0
 10
190.3198561599882
 20
20.58645305181943
 30
0.0
 10
190.3198561599882
 20
20.58645305181943
 30
0.0
 10
190.3198561599882
 20
20.58645305181943
 30
0.0
 10
191.8196307435195
 20
20.58645305181943
 30
0.0
 10
191.8196307435195
 20
20.58645305181943
 30
0.0
 10
191.8196307435195
 20
20.58645305181943
 30
0.0
 10
192.156536884401
 20
16.09388382359109
 30
0.0
 10
192.156536884401
 20
16.09388382359109
 30
0.0
 10
192.156536884401
 20
16.09388382359109
 30
0.0
 10
190.8028942175635
 20
16.09388382359109
 30
0.0
 10
190.8028942175635
 20
16.09388382359109
 30
0.0
 10
190.8028942175635
 20
16.09388382359109
 30
0.0
 10
190.7583496316994
 20
16.81838043595916
 30
0.0
 10
190.7583496316994
 20
16.81838043595916
 30
0.0
 10
190.7583496316994
 20
16.81838043595916
 30
0.0
 10
189.7771115352273
 20
16.81838043595916
 30
0.0
 10
189.7771115352273
 20
16.81838043595916
 30
0.0
 10
189.7771115352273
 20
16.81838043595916
 30
0.0
 10
190.2642424490418
 20
17.75228836925493
 30
0.0
 10
190.2642424490418
 20
17.75228836925493
 30
0.0
 10
190.2642424490418
 20
17.75228836925493
 30
0.0
 10
190.7139283014685
 20
17.75228836925493
 30
0.0
 10
190.7139283014685
 20
17.75228836925493
 30
0.0
 10
190.7139283014685
 20
17.75228836925493
 30
0.0
 10
190.6566390831239
 20
19.06779574315842
 30
0.0
 10
190.6566390831239
 20
19.06779574315842
 30
0.0
 10
190.6566390831239
 20
19.06779574315842
 30
0.0
 10
188.8718489437386
 20
16.10399078551935
 30
0.0
 10
188.8718489437386
 20
16.10399078551935
 30
0.0
 10
188.8718489437386
 20
16.10399078551935
 30
0.0
 10
188.8646254309942
 20
16.09388382359109
 30
0.0
 10
188.8646254309942
 20
16.09388382359109
 30
0.0
  0
HATCH
  5
3CA0A
330
2
100
AcDbEntity
  8
0
  6
Continuous
 62
     0
100
AcDbHatch
 10
0.0
 20
0.0
 30
0.0
210
0.0
220
0.0
230
0.9999999999999998
  2
SOLID
 70
     1
 71
     1
 91
        1
 92
        5
 93
        1
 72
     4
 94
        3
 73
     0
 74
     0
 95
       17
 96
       13
 40
0.0
 40
0.0
 40
0.0
 40
0.0
 40
1.0
 40
1.0
 40
1.0
 40
2.0
 40
2.0
 40
2.0
 40
3.0
 40
3.0
 40
3.0
 40
4.0
 40
4.0
 40
4.0
 40
4.0
 10
198.351932960646
 20
16.09388382359109
 10
198.351932960646
 20
16.09388382359109
 10
196.9666372750626
 20
16.09388382359109
 10
196.9666372750626
 20
16.09388382359109
 10
196.9666372750626
 20
16.09388382359109
 10
198.1677634212904
 20
20.58019442827264
 10
198.1677634212904
 20
20.58019442827264
 10
198.1677634212904
 20
20.58019442827264
 10
199.5529595302451
 20
20.58019442827264
 10
199.5529595302451
 20
20.58019442827264
 10
199.5529595302451
 20
20.58019442827264
 10
198.351932960646
 20
16.09388382359109
 10
198.351932960646
 20
16.09388382359109
 97
        0
 97
        1
330
3CA0B
 75
     1
 76
     1
 47
0.0269459378258844
 98
        1
 10
197.7759609019998
 20
17.31939519916909
450
        0
451
        0
460
0.0
461
0.0
452
        0
462
1.0
453
        2
463
0.0
 63
     5
421
      255
463
1.0
 63
     2
421
 16776960
470
LINEAR
1001
GRADIENTCOLOR1ACI
1070
     5
1001
GRADIENTCOLOR2ACI
1070
     2
1001
ACAD
1010
0.0
1020
0.0
1030
0.0
  0
SPLINE
  5
3CA0B
102
{ACAD_REACTORS
330
3CA0A
102
}
330
2
100
AcDbEntity
  8
Layer 1
100
AcDbSpline
210
0.0
220
0.0
230
1.0
 70
    11
 71
     3
 72
    17
 73
    13
 74
     0
 42
0.000000001
 43
0.0000000001
 40
0.0
 40
0.0
 40
0.0
 40
0.0
 40
1.0
 40
1.0
 40
1.0
 40
2.0
 40
2.0
 40
2.0
 40
3.0
 40
3.0
 40
3.0
 40
4.0
 40
4.0
 40
4.0
 40
4.0
 10
198.351932960646
 20
16.09388382359109
 30
0.0
 10
198.351932960646
 20
16.09388382359109
 30
0.0
 10
196.9666372750626
 20
16.09388382359109
 30
0.0
 10
196.9666372750626
 20
16.09388382359109
 30
0.0
 10
196.9666372750626
 20
16.09388382359109
 30
0.0
 10
198.1677634212904
 20
20.58019442827264
 30
0.0
 10
198.1677634212904
 20
20.58019442827264
 30
0.0
 10
198.1677634212904
 20
20.58019442827264
 30
0.0
 10
199.5529595302451
 20
20.58019442827264
 30
0.0
 10
199.5529595302451
 20
20.58019442827264
 30
0.0
 10
199.5529595302451
 20
20.58019442827264
 30
0.0
 10
198.351932960646
 20
16.09388382359109
 30
0.0
 10
198.351932960646
 20
16.09388382359109
 30
0.0
  0
HATCH
  5
3CA0C
330
2
100
AcDbEntity
  8
0
  6
Continuous
 62
     0
100
AcDbHatch
 10
0.0
 20
0.0
 30
0.0
210
0.0
220
0.0
230
0.9999999999999998
  2
SOLID
 70
     1
 71
     1
 91
        1
 92
        5
 93
       14
 72
     4
 94
        3
 73
     0
 74
     0
 95
        8
 96
        4
 40
12.0
 40
12.0
 40
12.0
 40
12.0
 40
13.0
 40
13.0
 40
13.0
 40
13.0
 10
195.9159569548057
 20
17.94091879041316
 10
196.1158775919715
 20
18.00170846874258
 10
196.3142452081583
 20
18.09101950061086
 10
196.4897365788098
 20
18.22509697848326
 97
        0
 72
     4
 94
        3
 73
     0
 74
     0
 95
        8
 96
        4
 40
13.0
 40
13.0
 40
13.0
 40
13.0
 40
14.0
 40
14.0
 40
14.0
 40
14.0
 10
196.4897365788098
 20
18.22509697848326
 10
196.8774494988276
 20
18.52384398240596
 10
197.0808705959783
 20
18.94971684648461
 10
197.0808705959783
 20
19.36893390636656
 97
        0
 72
     4
 94
        3
 73
     0
 74
     0
 95
        8
 96
        4
 40
0.0
 40
0.0
 40
0.0
 40
0.0
 40
1.0
 40
1.0
 40
1.0
 40
1.0
 10
197.0808705959783
 20
19.36893390636656
 10
197.0808705959783
 20
20.271214444165
 10
196.2865619929254
 20
20.58899211786476
 10
195.5939648408977
 20
20.58899211786476
 97
        0
 72
     4
 94
        3
 73
     0
 74
     0
 95
        8
 96
        4
 40
1.0
 40
1.0
 40
1.0
 40
1.0
 40
2.0
 40
2.0
 40
2.0
 40
2.0
 10
195.5939648408977
 20
20.58899211786476
 10
195.5939648408977
 20
20.58899211786476
 10
193.6112746740101
 20
20.58899211786476
 10
193.6112746740101
 20
20.58899211786476
 97
        0
 72
     4
 94
        3
 73
     0
 74
     0
 95
        8
 96
        4
 40
2.0
 40
2.0
 40
2.0
 40
2.0
 40
3.0
 40
3.0
 40
3.0
 40
3.0
 10
193.6112746740101
 20
20.58899211786476
 10
193.6112746740101
 20
20.58899211786476
 10
192.4038862892497
 20
16.10256366968219
 10
192.4038862892497
 20
16.10256366968219
 97
        0
 72
     4
 94
        3
 73
     0
 74
     0
 95
        8
 96
        4
 40
3.0
 40
3.0
 40
3.0
 40
3.0
 40
4.0
 40
4.0
 40
4.0
 40
4.0
 10
192.4038862892497
 20
16.10256366968219
 10
192.4038862892497
 20
16.10256366968219
 10
193.8275874580386
 20
16.10256366968219
 10
193.8275874580386
 20
16.10256366968219
 97
        0
 72
     4
 94
        3
 73
     0
 74
     0
 95
        8
 96
        4
 40
4.0
 40
4.0
 40
4.0
 40
4.0
 40
5.0
 40
5.0
 40
5.0
 40
5.0
 10
193.8275874580386
 20
16.10256366968219
 10
193.8275874580386
 20
16.10256366968219
 10
194.7613967868278
 20
19.58487777585772
 10
194.7613967868278
 20
19.58487777585772
 97
        0
 72
     4
 94
        3
 73
     0
 74
     0
 95
        8
 96
        4
 40
5.0
 40
5.0
 40
5.0
 40
5.0
 40
6.0
 40
6.0
 40
6.0
 40
6.0
 10
194.7613967868278
 20
19.58487777585772
 10
194.7613967868278
 20
19.58487777585772
 10
195.1808603579762
 20
19.58487777585772
 10
195.1808603579762
 20
19.58487777585772
 97
        0
 72
     4
 94
        3
 73
     0
 74
     0
 95
        8
 96
        4
 40
6.0
 40
6.0
 40
6.0
 40
6.0
 40
7.0
 40
7.0
 40
7.0
 40
7.0
 10
195.6829298545432
 20
19.22282667868689
 10
195.6829298545432
 20
19.52771181314651
 10
195.4285795297248
 20
19.58487777585772
 10
195.1808603579762
 20
19.58487777585772
 97
        0
 72
     4
 94
        3
 73
     0
 74
     0
 95
        8
 96
        4
 40
7.0
 40
7.0
 40
7.0
 40
7.0
 40
8.0
 40
8.0
 40
8.0
 40
8.0
 10
195.6829298545432
 20
19.22282667868689
 10
195.6829298545432
 20
19.05768878123016
 10
195.5559272500205
 20
18.79059382393147
 10
195.1364636788722
 20
18.80346171204493
 97
        0
 72
     4
 94
        3
 73
     0
 74
     0
 95
        8
 96
        4
 40
8.0
 40
8.0
 40
8.0
 40
8.0
 40
9.0
 40
9.0
 40
9.0
 40
9.0
 10
195.1364636788722
 20
18.80346171204493
 10
195.1364636788722
 20
18.80346171204493
 10
194.8677910494675
 20
17.81995571192087
 10
194.8677910494675
 20
17.81995571192087
 97
        0
 72
     4
 94
        3
 73
     0
 74
     0
 95
        8
 96
        4
 40
9.0
 40
9.0
 40
9.0
 40
9.0
 40
10.0
 40
10.0
 40
10.0
 40
10.0
 10
194.8677910494675
 20
17.81995571192087
 10
194.8677910494675
 20
17.81995571192087
 10
195.380928901902
 20
16.03346391216148
 10
195.380928901902
 20
16.03346391216148
 97
        0
 72
     4
 94
        3
 73
     0
 74
     0
 95
        8
 96
        4
 40
10.0
 40
10.0
 40
10.0
 40
10.0
 40
11.0
 40
11.0
 40
11.0
 40
11.0
 10
195.380928901902
 20
16.03346391216148
 10
195.380928901902
 20
16.03346391216148
 10
196.5548657821546
 20
16.03346391216148
 10
196.5548657821546
 20
16.03346391216148
 97
        0
 72
     4
 94
        3
 73
     0
 74
     0
 95
        8
 96
        4
 40
11.0
 40
11.0
 40
11.0
 40
11.0
 40
12.0
 40
12.0
 40
12.0
 40
12.0
 10
196.5548657821546
 20
16.03346391216148
 10
196.5548657821546
 20
16.03346391216148
 10
195.9159569548057
 20
17.94091879041316
 10
195.9159569548057
 20
17.94091879041316
 97
        0
 97
       13
330
3CA17
330
3CA18
330
3CA19
330
3CA0D
330
3CA0E
330
3CA0F
330
3CA10
330
3CA11
330
3CA12
330
3CA13
330
3CA14
330
3CA15
330
3CA16
 75
     1
 76
     1
 47
0.0269459378258844
 98
        1
 10
195.6021007507461
 20
17.70892948008784
450
        0
451
        0
460
0.0
461
0.0
452
        0
462
1.0
453
        2
463
0.0
 63
     5
421
      255
463
1.0
 63
     2
421
 16776960
470
LINEAR
1001
GRADIENTCOLOR1ACI
1070
     5
1001
GRADIENTCOLOR2ACI
1070
     2
1001
ACAD
1010
0.0
1020
0.0
1030
0.0
  0
SPLINE
  5
3CA0D
102
{ACAD_REACTORS
330
3CA0C
102
}
330
2
100
AcDbEntity
  8
Layer 1
100
AcDbSpline
210
0.0
220
0.0
230
1.0
 70
     8
 71
     3
 72
     8
 73
     4
 74
     0
 42
0.000000001
 43
0.0000000001
 40
0.0
 40
0.0
 40
0.0
 40
0.0
 40
1.0
 40
1.0
 40
1.0
 40
1.0
 10
197.0808705959783
 20
19.36893390636656
 30
0.0
 10
197.0808705959783
 20
20.271214444165
 30
0.0
 10
196.2865619929254
 20
20.58899211786476
 30
0.0
 10
195.5939648408977
 20
20.58899211786476
 30
0.0
  0
SPLINE
  5
3CA0E
102
{ACAD_REACTORS
330
3CA0C
102
}
330
2
100
AcDbEntity
  8
Layer 1
100
AcDbSpline
210
0.0
220
0.0
230
1.0
 70
    24
 71
     3
 72
     8
 73
     4
 74
     0
 42
0.000000001
 43
0.0000000001
 40
1.0
 40
1.0
 40
1.0
 40
1.0
 40
2.0
 40
2.0
 40
2.0
 40
2.0
 10
195.5939648408977
 20
20.58899211786476
 30
0.0
 10
195.5939648408977
 20
20.58899211786476
 30
0.0
 10
193.6112746740101
 20
20.58899211786476
 30
0.0
 10
193.6112746740101
 20
20.58899211786476
 30
0.0
  0
SPLINE
  5
3CA0F
102
{ACAD_REACTORS
330
3CA0C
102
}
330
2
100
AcDbEntity
  8
Layer 1
100
AcDbSpline
210
0.0
220
0.0
230
1.0
 70
    24
 71
     3
 72
     8
 73
     4
 74
     0
 42
0.000000001
 43
0.0000000001
 40
2.0
 40
2.0
 40
2.0
 40
2.0
 40
3.0
 40
3.0
 40
3.0
 40
3.0
 10
193.6112746740101
 20
20.58899211786476
 30
0.0
 10
193.6112746740101
 20
20.58899211786476
 30
0.0
 10
192.4038862892497
 20
16.10256366968219
 30
0.0
 10
192.4038862892497
 20
16.10256366968219
 30
0.0
  0
SPLINE
  5
3CA10
102
{ACAD_REACTORS
330
3CA0C
102
}
330
2
100
AcDbEntity
  8
Layer 1
100
AcDbSpline
210
0.0
220
0.0
230
1.0
 70
    24
 71
     3
 72
     8
 73
     4
 74
     0
 42
0.000000001
 43
0.0000000001
 40
3.0
 40
3.0
 40
3.0
 40
3.0
 40
4.0
 40
4.0
 40
4.0
 40
4.0
 10
192.4038862892497
 20
16.10256366968219
 30
0.0
 10
192.4038862892497
 20
16.10256366968219
 30
0.0
 10
193.8275874580386
 20
16.10256366968219
 30
0.0
 10
193.8275874580386
 20
16.10256366968219
 30
0.0
  0
SPLINE
  5
3CA11
102
{ACAD_REACTORS
330
3CA0C
102
}
330
2
100
AcDbEntity
  8
Layer 1
100
AcDbSpline
210
0.0
220
0.0
230
1.0
 70
    24
 71
     3
 72
     8
 73
     4
 74
     0
 42
0.000000001
 43
0.0000000001
 40
4.0
 40
4.0
 40
4.0
 40
4.0
 40
5.0
 40
5.0
 40
5.0
 40
5.0
 10
193.8275874580386
 20
16.10256366968219
 30
0.0
 10
193.8275874580386
 20
16.10256366968219
 30
0.0
 10
194.7613967868278
 20
19.58487777585772
 30
0.0
 10
194.7613967868278
 20
19.58487777585772
 30
0.0
  0
SPLINE
  5
3CA12
102
{ACAD_REACTORS
330
3CA0C
102
}
330
2
100
AcDbEntity
  8
Layer 1
100
AcDbSpline
210
0.0
220
0.0
230
1.0
 70
    24
 71
     3
 72
     8
 73
     4
 74
     0
 42
0.000000001
 43
0.0000000001
 40
5.0
 40
5.0
 40
5.0
 40
5.0
 40
6.0
 40
6.0
 40
6.0
 40
6.0
 10
194.7613967868278
 20
19.58487777585772
 30
0.0
 10
194.7613967868278
 20
19.58487777585772
 30
0.0
 10
195.1808603579762
 20
19.58487777585772
 30
0.0
 10
195.1808603579762
 20
19.58487777585772
 30
0.0
  0
SPLINE
  5
3CA13
102
{ACAD_REACTORS
330
3CA0C
102
}
330
2
100
AcDbEntity
  8
Layer 1
100
AcDbSpline
210
0.0
220
0.0
230
1.0
 70
     8
 71
     3
 72
    11
 73
     7
 74
     0
 42
0.000000001
 43
0.0000000001
 40
6.0
 40
6.0
 40
6.0
 40
6.0
 40
7.0
 40
7.0
 40
7.0
 40
8.0
 40
8.0
 40
8.0
 40
8.0
 10
195.1808603579762
 20
19.58487777585772
 30
0.0
 10
195.4285795297248
 20
19.58487777585772
 30
0.0
 10
195.6829298545432
 20
19.52771181314651
 30
0.0
 10
195.6829298545432
 20
19.22282667868689
 30
0.0
 10
195.6829298545432
 20
19.05768878123016
 30
0.0
 10
195.5559272500205
 20
18.79059382393147
 30
0.0
 10
195.1364636788722
 20
18.80346171204493
 30
0.0
  0
SPLINE
  5
3CA14
102
{ACAD_REACTORS
330
3CA0C
102
}
330
2
100
AcDbEntity
  8
Layer 1
100
AcDbSpline
210
0.0
220
0.0
230
1.0
 70
    24
 71
     3
 72
     8
 73
     4
 74
     0
 42
0.000000001
 43
0.0000000001
 40
8.0
 40
8.0
 40
8.0
 40
8.0
 40
9.0
 40
9.0
 40
9.0
 40
9.0
 10
195.1364636788722
 20
18.80346171204493
 30
0.0
 10
195.1364636788722
 20
18.80346171204493
 30
0.0
 10
194.8677910494675
 20
17.81995571192087
 30
0.0
 10
194.8677910494675
 20
17.81995571192087
 30
0.0
  0
SPLINE
  5
3CA15
102
{ACAD_REACTORS
330
3CA0C
102
}
330
2
100
AcDbEntity
  8
Layer 1
100
AcDbSpline
210
0.0
220
0.0
230
1.0
 70
    24
 71
     3
 72
     8
 73
     4
 74
     0
 42
0.000000001
 43
0.0000000001
 40
9.0
 40
9.0
 40
9.0
 40
9.0
 40
10.0
 40
10.0
 40
10.0
 40
10.0
 10
194.8677910494675
 20
17.81995571192087
 30
0.0
 10
194.8677910494675
 20
17.81995571192087
 30
0.0
 10
195.380928901902
 20
16.03346391216148
 30
0.0
 10
195.380928901902
 20
16.03346391216148
 30
0.0
  0
SPLINE
  5
3CA16
102
{ACAD_REACTORS
330
3CA0C
102
}
330
2
100
AcDbEntity
  8
Layer 1
100
AcDbSpline
210
0.0
220
0.0
230
1.0
 70
    24
 71
     3
 72
     8
 73
     4
 74
     0
 42
0.000000001
 43
0.0000000001
 40
10.0
 40
10.0
 40
10.0
 40
10.0
 40
11.0
 40
11.0
 40
11.0
 40
11.0
 10
195.380928901902
 20
16.03346391216148
 30
0.0
 10
195.380928901902
 20
16.03346391216148
 30
0.0
 10
196.5548657821546
 20
16.03346391216148
 30
0.0
 10
196.5548657821546
 20
16.03346391216148
 30
0.0
  0
SPLINE
  5
3CA17
102
{ACAD_REACTORS
330
3CA0C
102
}
330
2
100
AcDbEntity
  8
Layer 1
100
AcDbSpline
210
0.0
220
0.0
230
1.0
 70
    24
 71
     3
 72
     8
 73
     4
 74
     0
 42
0.000000001
 43
0.0000000001
 40
11.0
 40
11.0
 40
11.0
 40
11.0
 40
12.0
 40
12.0
 40
12.0
 40
12.0
 10
196.5548657821546
 20
16.03346391216148
 30
0.0
 10
196.5548657821546
 20
16.03346391216148
 30
0.0
 10
195.9159569548057
 20
17.94091879041316
 30
0.0
 10
195.9159569548057
 20
17.94091879041316
 30
0.0
  0
SPLINE
  5
3CA18
102
{ACAD_REACTORS
330
3CA0C
102
}
330
2
100
AcDbEntity
  8
Layer 1
100
AcDbSpline
210
0.0
220
0.0
230
1.0
 70
     8
 71
     3
 72
     8
 73
     4
 74
     0
 42
0.000000001
 43
0.0000000001
 40
12.0
 40
12.0
 40
12.0
 40
12.0
 40
13.0
 40
13.0
 40
13.0
 40
13.0
 10
195.9159569548057
 20
17.94091879041316
 30
0.0
 10
196.1158775919715
 20
18.00170846874258
 30
0.0
 10
196.3142452081583
 20
18.09101950061086
 30
0.0
 10
196.4897365788098
 20
18.22509697848326
 30
0.0
  0
SPLINE
  5
3CA19
102
{ACAD_REACTORS
330
3CA0C
102
}
330
2
100
AcDbEntity
  8
Layer 1
100
AcDbSpline
210
0.0
220
0.0
230
1.0
 70
     8
 71
     3
 72
     8
 73
     4
 74
     0
 42
0.000000001
 43
0.0000000001
 40
13.0
 40
13.0
 40
13.0
 40
13.0
 40
14.0
 40
14.0
 40
14.0
 40
14.0
 10
196.4897365788098
 20
18.22509697848326
 30
0.0
 10
196.8774494988276
 20
18.52384398240596
 30
0.0
 10
197.0808705959783
 20
18.94971684648461
 30
0.0
 10
197.0808705959783
 20
19.36893390636656
 30
0.0
  0
LWPOLYLINE
  5
3CA1A
102
{ACAD_REACTORS
330
3CA1B
102
}
330
2
100
AcDbEntity
  8
Layer 1
 62
   103
100
AcDbPolyline
 90
        8
 70
     1
 43
0.0
 10
215.4187451095593
 20
22.04205277849885
 10
194.1006972902409
 20
22.04289091680514
 10
193.7826977564014
 20
20.99691896173913
 10
201.1704432056631
 20
20.99655196798084
 10
199.7566024875359
 20
16.09388382359109
 10
201.1420451077575
 20
16.09388382359109
 10
202.5556146634914
 20
20.99655196798084
 10
215.0991692988067
 20
20.99593291667294
  0
HATCH
  5
3CA1B
330
2
100
AcDbEntity
  8
0
  6
Continuous
 62
    93
100
AcDbHatch
 10
0.0
 20
0.0
 30
0.0
210
0.0
220
0.0
230
0.9999999999999998
  2
SOLID
 70
     1
 71
     1
 91
        1
 92
        7
 72
     0
 73
     1
 93
        8
 10
194.1006972902409
 20
22.04289091680514
 10
193.7826977564014
 20
20.99691896173913
 10
201.1704432056631
 20
20.99655196798084
 10
199.7566024875359
 20
16.09388382359109
 10
201.1420451077575
 20
16.09388382359109
 10
202.5556146634914
 20
20.99655196798084
 10
215.0991692988067
 20
20.99593291667294
 10
215.4187451095593
 20
22.04205277849885
 97
        1
330
3CA1A
 75
     1
 76
     1
 47
0.0428322549537331
 98
        1
 10
203.4815983305233
 20
21.52605484338792
450
        0
451
        0
460
0.0
461
0.0
452
        0
462
1.0
453
        2
463
0.0
 63
     5
421
      255
463
1.0
 63
     2
421
 16776960
470
LINEAR
1001
GRADIENTCOLOR1ACI
1070
     5
1001
GRADIENTCOLOR2ACI
1070
     2
1001
ACAD
1010
0.0
1020
0.0
1030
0.0
  0
HATCH
  5
3CA1C
330
2
100
AcDbEntity
  8
0
  6
Continuous
 62
     0
100
AcDbHatch
 10
0.0
 20
0.0
 30
0.0
210
0.0
220
0.0
230
0.9999999999999998
  2
SOLID
 70
     1
 71
     1
 91
        2
 92
        5
 93
        4
 72
     4
 94
        3
 73
     0
 74
     0
 95
        8
 96
        4
 40
0.0
 40
0.0
 40
0.0
 40
0.0
 40
1.0
 40
1.0
 40
1.0
 40
1.0
 10
202.6414498865011
 20
17.91298906391389
 10
202.6414498865011
 20
16.75036797752009
 10
203.4376812774331
 20
15.85927905122269
 10
204.8151615837455
 20
15.85927905122269
 97
        0
 72
     4
 94
        3
 73
     0
 74
     0
 95
        8
 96
        4
 40
3.0
 40
3.0
 40
3.0
 40
3.0
 40
4.0
 40
4.0
 40
4.0
 40
4.0
 10
204.8151615837455
 20
15.85927905122269
 10
206.6414649530514
 20
15.85927905122269
 10
207.5829900844833
 20
17.25579002731198
 10
207.5829900844833
 20
18.51962863974812
 97
        0
 72
     4
 94
        3
 73
     0
 74
     0
 95
        8
 96
        4
 40
2.0
 40
2.0
 40
2.0
 40
2.0
 40
3.0
 40
3.0
 40
3.0
 40
3.0
 10
207.5829900844833
 20
18.51962863974812
 10
207.5829900844833
 20
19.65084692993063
 10
206.7868819491846
 20
20.58608328491956
 10
205.3524575403011
 20
20.58608328491956
 97
        0
 72
     4
 94
        3
 73
     0
 74
     0
 95
        8
 96
        4
 40
1.0
 40
1.0
 40
1.0
 40
1.0
 40
2.0
 40
2.0
 40
2.0
 40
2.0
 10
205.3524575403011
 20
20.58608328491956
 10
203.5893350086101
 20
20.58608328491956
 10
202.6414498865011
 20
19.18308906252026
 10
202.6414498865011
 20
17.91298906391389
 97
        0
 97
        1
330
3CA1D
 92
       20
 93
        4
 72
     4
 94
        3
 73
     0
 74
     0
 95
        8
 96
        4
 40
1.0
 40
1.0
 40
1.0
 40
1.0
 40
2.0
 40
2.0
 40
2.0
 40
2.0
 10
204.025314834617
 20
17.90046629157357
 10
204.025314834617
 20
18.58296009629214
 10
204.4994310809788
 20
19.56237129722237
 10
205.3651035682749
 20
19.56237129722237
 97
        0
 72
     4
 94
        3
 73
     0
 74
     0
 95
        8
 96
        4
 40
0.0
 40
0.0
 40
0.0
 40
0.0
 40
1.0
 40
1.0
 40
1.0
 40
1.0
 10
205.3651035682749
 20
19.56237129722237
 10
205.8200894129321
 20
19.56237129722237
 10
206.2118944199746
 20
19.25280244869843
 10
206.2118944199746
 20
18.60184014713997
 97
        0
 72
     4
 94
        3
 73
     0
 74
     0
 95
        8
 96
        4
 40
3.0
 40
3.0
 40
3.0
 40
3.0
 40
4.0
 40
4.0
 40
4.0
 40
4.0
 10
206.2118944199746
 20
18.60184014713997
 10
206.2118944199746
 20
17.95102575234142
 10
205.8328586965391
 20
16.93357515081436
 10
204.8974716956439
 20
16.93357515081436
 97
        0
 72
     4
 94
        3
 73
     0
 74
     0
 95
        8
 96
        4
 40
2.0
 40
2.0
 40
2.0
 40
2.0
 40
3.0
 40
3.0
 40
3.0
 40
3.0
 10
204.8974716956439
 20
16.93357515081436
 10
204.4298644741397
 20
16.93357515081436
 10
204.025314834617
 20
17.24326725497166
 10
204.025314834617
 20
17.90046629157357
 97
        0
 97
        1
330
3CA1E
 75
     1
 76
     1
 47
0.0269459378258844
 98
        2
 10
203.5929116019579
 20
17.22950337196972
 10
203.5929116019579
 20
17.22950337196972
450
        0
451
        0
460
0.0
461
0.0
452
        0
462
1.0
453
        2
463
0.0
 63
     5
421
      255
463
1.0
 63
     2
421
 16776960
470
LINEAR
1001
GRADIENTCOLOR1ACI
1070
     5
1001
GRADIENTCOLOR2ACI
1070
     2
1001
ACAD
1010
0.0
1020
0.0
1030
0.0
  0
SPLINE
  5
3CA1D
102
{ACAD_REACTORS
330
3CA1C
102
}
330
2
100
AcDbEntity
  8
Layer 1
100
AcDbSpline
210
0.0
220
0.0
230
1.0
 70
     9
 71
     3
 72
    17
 73
    13
 74
     0
 42
0.000000001
 43
0.0000000001
 40
0.0
 40
0.0
 40
0.0
 40
0.0
 40
1.0
 40
1.0
 40
1.0
 40
2.0
 40
2.0
 40
2.0
 40
3.0
 40
3.0
 40
3.0
 40
4.0
 40
4.0
 40
4.0
 40
4.0
 10
204.8151615837455
 20
15.85927905122269
 30
0.0
 10
203.4376812774331
 20
15.85927905122269
 30
0.0
 10
202.6414498865011
 20
16.75036797752009
 30
0.0
 10
202.6414498865011
 20
17.91298906391389
 30
0.0
 10
202.6414498865011
 20
19.18308906252026
 30
0.0
 10
203.5893350086101
 20
20.58608328491956
 30
0.0
 10
205.3524575403011
 20
20.58608328491956
 30
0.0
 10
206.7868819491846
 20
20.58608328491956
 30
0.0
 10
207.5829900844833
 20
19.65084692993063
 30
0.0
 10
207.5829900844833
 20
18.51962863974812
 30
0.0
 10
207.5829900844833
 20
17.25579002731198
 30
0.0
 10
206.6414649530514
 20
15.85927905122269
 30
0.0
 10
204.8151615837455
 20
15.85927905122269
 30
0.0
  0
SPLINE
  5
3CA1E
102
{ACAD_REACTORS
330
3CA1C
102
}
330
2
100
AcDbEntity
  8
Layer 1
100
AcDbSpline
210
0.0
220
0.0
230
1.0
 70
     9
 71
     3
 72
    17
 73
    13
 74
     0
 42
0.000000001
 43
0.0000000001
 40
0.0
 40
0.0
 40
0.0
 40
0.0
 40
1.0
 40
1.0
 40
1.0
 40
2.0
 40
2.0
 40
2.0
 40
3.0
 40
3.0
 40
3.0
 40
4.0
 40
4.0
 40
4.0
 40
4.0
 10
206.2118944199746
 20
18.60184014713997
 30
0.0
 10
206.2118944199746
 20
19.25280244869843
 30
0.0
 10
205.8200894129321
 20
19.56237129722237
 30
0.0
 10
205.3651035682749
 20
19.56237129722237
 30
0.0
 10
204.4994310809788
 20
19.56237129722237
 30
0.0
 10
204.025314834617
 20
18.58296009629214
 30
0.0
 10
204.025314834617
 20
17.90046629157357
 30
0.0
 10
204.025314834617
 20
17.24326725497166
 30
0.0
 10
204.4298644741397
 20
16.93357515081436
 30
0.0
 10
204.8974716956439
 20
16.93357515081436
 30
0.0
 10
205.8328586965391
 20
16.93357515081436
 30
0.0
 10
206.2118944199746
 20
17.95102575234142
 30
0.0
 10
206.2118944199746
 20
18.60184014713997
 30
0.0
  0
HATCH
  5
3CA1F
330
2
100
AcDbEntity
  8
0
  6
Continuous
 62
     0
100
AcDbHatch
 10
0.0
 20
0.0
 30
0.0
210
0.0
220
0.0
230
0.9999999999999998
  2
SOLID
 70
     1
 71
     1
 91
        2
 92
        5
 93
        4
 72
     4
 94
        3
 73
     0
 74
     0
 95
        8
 96
        4
 40
0.0
 40
0.0
 40
0.0
 40
0.0
 40
1.0
 40
1.0
 40
1.0
 40
1.0
 10
207.7373061373386
 20
17.91298906391389
 10
207.7373061373386
 20
16.75036797752009
 10
208.5336361327772
 20
15.85927905122269
 10
209.9109931834562
 20
15.85927905122269
 97
        0
 72
     4
 94
        3
 73
     0
 74
     0
 95
        8
 96
        4
 40
3.0
 40
3.0
 40
3.0
 40
3.0
 40
4.0
 40
4.0
 40
4.0
 40
4.0
 10
209.9109931834562
 20
15.85927905122269
 10
211.7373212038889
 20
15.85927905122269
 10
212.6788463353208
 20
17.25579002731198
 10
212.6788463353208
 20
18.51962863974812
 97
        0
 72
     4
 94
        3
 73
     0
 74
     0
 95
        8
 96
        4
 40
2.0
 40
2.0
 40
2.0
 40
2.0
 40
3.0
 40
3.0
 40
3.0
 40
3.0
 10
212.6788463353208
 20
18.51962863974812
 10
212.6788463353208
 20
19.65084692993063
 10
211.8826149443888
 20
20.58608328491956
 10
210.4483137911387
 20
20.58608328491956
 97
        0
 72
     4
 94
        3
 73
     0
 74
     0
 95
        8
 96
        4
 40
1.0
 40
1.0
 40
1.0
 40
1.0
 40
2.0
 40
2.0
 40
2.0
 40
2.0
 10
210.4483137911387
 20
20.58608328491956
 10
208.6850680038143
 20
20.58608328491956
 10
207.7373061373386
 20
19.18308906252026
 10
207.7373061373386
 20
17.91298906391389
 97
        0
 97
        1
330
3CA21
 92
       20
 93
        4
 72
     4
 94
        3
 73
     0
 74
     0
 95
        8
 96
        4
 40
1.0
 40
1.0
 40
1.0
 40
1.0
 40
2.0
 40
2.0
 40
2.0
 40
2.0
 10
209.1212709341395
 20
17.90046629157357
 10
209.1212709341395
 20
18.58296009629214
 10
209.5951629487621
 20
19.56237129722237
 10
210.4605900522124
 20
19.56237129722237
 97
        0
 72
     4
 94
        3
 73
     0
 74
     0
 95
        8
 96
        4
 40
0.0
 40
0.0
 40
0.0
 40
0.0
 40
1.0
 40
1.0
 40
1.0
 40
1.0
 10
210.4605900522124
 20
19.56237129722237
 10
210.9158224081363
 20
19.56237129722237
 10
211.3076274151789
 20
19.25280244869843
 10
211.3076274151789
 20
18.60184014713997
 97
        0
 72
     4
 94
        3
 73
     0
 74
     0
 95
        8
 96
        4
 40
3.0
 40
3.0
 40
3.0
 40
3.0
 40
4.0
 40
4.0
 40
4.0
 40
4.0
 10
211.3076274151789
 20
18.60184014713997
 10
211.3076274151789
 20
17.95102575234142
 10
210.9283451804766
 20
16.93357515081436
 10
209.9930814352149
 20
16.93357515081436
 97
        0
 72
     4
 94
        3
 73
     0
 74
     0
 95
        8
 96
        4
 40
2.0
 40
2.0
 40
2.0
 40
2.0
 40
3.0
 40
3.0
 40
3.0
 40
3.0
 10
209.9930814352149
 20
16.93357515081436
 10
209.5254742137106
 20
16.93357515081436
 10
209.1212709341395
 20
17.24326725497166
 10
209.1212709341395
 20
17.90046629157357
 97
        0
 97
        1
330
3CA20
 75
     1
 76
     1
 47
0.0269459378258844
 98
        2
 10
209.0350586546765
 20
17.58907327767113
 10
209.0350586546765
 20
17.58907327767113
450
        0
451
        0
460
0.0
461
0.0
452
        0
462
1.0
453
        2
463
0.0
 63
     5
421
      255
463
1.0
 63
     2
421
 16776960
470
LINEAR
1001
GRADIENTCOLOR1ACI
1070
     5
1001
GRADIENTCOLOR2ACI
1070
     2
1001
ACAD
1010
0.0
1020
0.0
1030
0.0
  0
SPLINE
  5
3CA20
102
{ACAD_REACTORS
330
3CA1F
102
}
330
2
100
AcDbEntity
  8
Layer 1
100
AcDbSpline
210
0.0
220
0.0
230
1.0
 70
     9
 71
     3
 72
    17
 73
    13
 74
     0
 42
0.000000001
 43
0.0000000001
 40
0.0
 40
0.0
 40
0.0
 40
0.0
 40
1.0
 40
1.0
 40
1.0
 40
2.0
 40
2.0
 40
2.0
 40
3.0
 40
3.0
 40
3.0
 40
4.0
 40
4.0
 40
4.0
 40
4.0
 10
211.3076274151789
 20
18.60184014713997
 30
0.0
 10
211.3076274151789
 20
19.25280244869843
 30
0.0
 10
210.9158224081363
 20
19.56237129722237
 30
0.0
 10
210.4605900522124
 20
19.56237129722237
 30
0.0
 10
209.5951629487621
 20
19.56237129722237
 30
0.0
 10
209.1212709341395
 20
18.58296009629214
 30
0.0
 10
209.1212709341395
 20
17.90046629157357
 30
0.0
 10
209.1212709341395
 20
17.24326725497166
 30
0.0
 10
209.5254742137106
 20
16.93357515081436
 30
0.0
 10
209.9930814352149
 20
16.93357515081436
 30
0.0
 10
210.9283451804766
 20
16.93357515081436
 30
0.0
 10
211.3076274151789
 20
17.95102575234142
 30
0.0
 10
211.3076274151789
 20
18.60184014713997
 30
0.0
  0
SPLINE
  5
3CA21
102
{ACAD_REACTORS
330
3CA1F
102
}
330
2
100
AcDbEntity
  8
Layer 1
100
AcDbSpline
210
0.0
220
0.0
230
1.0
 70
     9
 71
     3
 72
    17
 73
    13
 74
     0
 42
0.000000001
 43
0.0000000001
 40
0.0
 40
0.0
 40
0.0
 40
0.0
 40
1.0
 40
1.0
 40
1.0
 40
2.0
 40
2.0
 40
2.0
 40
3.0
 40
3.0
 40
3.0
 40
4.0
 40
4.0
 40
4.0
 40
4.0
 10
209.9109931834562
 20
15.85927905122269
 30
0.0
 10
208.5336361327772
 20
15.85927905122269
 30
0.0
 10
207.7373061373386
 20
16.75036797752009
 30
0.0
 10
207.7373061373386
 20
17.91298906391389
 30
0.0
 10
207.7373061373386
 20
19.18308906252026
 30
0.0
 10
208.6850680038143
 20
20.58608328491956
 30
0.0
 10
210.4483137911387
 20
20.58608328491956
 30
0.0
 10
211.8826149443888
 20
20.58608328491956
 30
0.0
 10
212.6788463353208
 20
19.65084692993063
 30
0.0
 10
212.6788463353208
 20
18.51962863974812
 30
0.0
 10
212.6788463353208
 20
17.25579002731198
 30
0.0
 10
211.7373212038889
 20
15.85927905122269
 30
0.0
 10
209.9109931834562
 20
15.85927905122269
 30
0.0
  0
HATCH
  5
3CA22
330
2
100
AcDbEntity
  8
0
  6
Continuous
 62
     0
100
AcDbHatch
 10
0.0
 20
0.0
 30
0.0
210
0.0
220
0.0
230
0.9999999999999998
  2
SOLID
 70
     1
 71
     1
 91
        1
 92
        5
 93
        6
 72
     4
 94
        3
 73
     0
 74
     0
 95
        8
 96
        4
 40
4.0
 40
4.0
 40
4.0
 40
4.0
 40
5.0
 40
5.0
 40
5.0
 40
5.0
 10
214.046073141534
 20
17.02828477942
 10
214.046073141534
 20
17.02828477942
 10
214.9624281040627
 20
20.45346022351977
 10
214.9624281040627
 20
20.45346022351977
 97
        0
 72
     4
 94
        3
 73
     0
 74
     0
 95
        8
 96
        4
 40
3.0
 40
3.0
 40
3.0
 40
3.0
 40
4.0
 40
4.0
 40
4.0
 40
4.0
 10
214.9624281040627
 20
20.45346022351977
 10
214.9624281040627
 20
20.45346022351977
 10
213.5593106260301
 20
20.45346022351977
 10
213.5593106260301
 20
20.45346022351977
 97
        0
 72
     4
 94
        3
 73
     0
 74
     0
 95
        8
 96
        4
 40
2.0
 40
2.0
 40
2.0
 40
2.0
 40
3.0
 40
3.0
 40
3.0
 40
3.0
 10
213.5593106260301
 20
20.45346022351977
 10
213.5593106260301
 20
20.45346022351977
 10
212.3651607486456
 20
15.99205001938239
 10
212.3651607486456
 20
15.99205001938239
 97
        0
 72
     4
 94
        3
 73
     0
 74
     0
 95
        8
 96
        4
 40
1.0
 40
1.0
 40
1.0
 40
1.0
 40
2.0
 40
2.0
 40
2.0
 40
2.0
 10
212.3651607486456
 20
15.99205001938239
 10
212.3651607486456
 20
15.99205001938239
 10
215.2532388442878
 20
15.99205001938239
 10
215.2532388442878
 20
15.99205001938239
 97
        0
 72
     4
 94
        3
 73
     0
 74
     0
 95
        8
 96
        4
 40
0.0
 40
0.0
 40
0.0
 40
0.0
 40
1.0
 40
1.0
 40
1.0
 40
1.0
 10
215.2532388442878
 20
15.99205001938239
 10
215.2532388442878
 20
15.99205001938239
 10
215.5960360124568
 20
17.02828477942
 10
215.5960360124568
 20
17.02828477942
 97
        0
 72
     4
 94
        3
 73
     0
 74
     0
 95
        8
 96
        4
 40
5.0
 40
5.0
 40
5.0
 40
5.0
 40
6.0
 40
6.0
 40
6.0
 40
6.0
 10
215.5960360124568
 20
17.02828477942
 10
215.5960360124568
 20
17.02828477942
 10
214.046073141534
 20
17.02828477942
 10
214.046073141534
 20
17.02828477942
 97
        0
 97
        6
330
3CA27
330
3CA26
330
3CA25
330
3CA24
330
3CA23
330
3CA28
 75
     1
 76
     1
 47
0.0168242271866721
 98
        1
 10
213.6164004556548
 20
17.31931209824557
450
        0
451
        0
460
0.0
461
0.0
452
        0
462
1.0
453
        2
463
0.0
 63
     5
421
      255
463
1.0
 63
     2
421
 16776960
470
LINEAR
1001
GRADIENTCOLOR1ACI
1070
     5
1001
GRADIENTCOLOR2ACI
1070
     2
1001
ACAD
1010
0.0
1020
0.0
1030
0.0
  0
SPLINE
  5
3CA23
102
{ACAD_REACTORS
330
3CA22
102
}
330
2
100
AcDbEntity
  8
Layer 1
100
AcDbSpline
210
0.0
220
0.0
230
1.0
 70
    24
 71
     3
 72
     8
 73
     4
 74
     0
 42
0.000000001
 43
0.0000000001
 40
0.0
 40
0.0
 40
0.0
 40
0.0
 40
1.0
 40
1.0
 40
1.0
 40
1.0
 10
215.5960360124568
 20
17.02828477942
 30
0.0
 10
215.5960360124568
 20
17.02828477942
 30
0.0
 10
215.2532388442878
 20
15.99205001938239
 30
0.0
 10
215.2532388442878
 20
15.99205001938239
 30
0.0
  0
SPLINE
  5
3CA24
102
{ACAD_REACTORS
330
3CA22
102
}
330
2
100
AcDbEntity
  8
Layer 1
100
AcDbSpline
210
0.0
220
0.0
230
1.0
 70
    24
 71
     3
 72
     8
 73
     4
 74
     0
 42
0.000000001
 43
0.0000000001
 40
1.0
 40
1.0
 40
1.0
 40
1.0
 40
2.0
 40
2.0
 40
2.0
 40
2.0
 10
215.2532388442878
 20
15.99205001938239
 30
0.0
 10
215.2532388442878
 20
15.99205001938239
 30
0.0
 10
212.3651607486456
 20
15.99205001938239
 30
0.0
 10
212.3651607486456
 20
15.99205001938239
 30
0.0
  0
SPLINE
  5
3CA25
102
{ACAD_REACTORS
330
3CA22
102
}
330
2
100
AcDbEntity
  8
Layer 1
100
AcDbSpline
210
0.0
220
0.0
230
1.0
 70
    24
 71
     3
 72
     8
 73
     4
 74
     0
 42
0.000000001
 43
0.0000000001
 40
2.0
 40
2.0
 40
2.0
 40
2.0
 40
3.0
 40
3.0
 40
3.0
 40
3.0
 10
212.3651607486456
 20
15.99205001938239
 30
0.0
 10
212.3651607486456
 20
15.99205001938239
 30
0.0
 10
213.5593106260301
 20
20.45346022351977
 30
0.0
 10
213.5593106260301
 20
20.45346022351977
 30
0.0
  0
SPLINE
  5
3CA26
102
{ACAD_REACTORS
330
3CA22
102
}
330
2
100
AcDbEntity
  8
Layer 1
100
AcDbSpline
210
0.0
220
0.0
230
1.0
 70
    24
 71
     3
 72
     8
 73
     4
 74
     0
 42
0.000000001
 43
0.0000000001
 40
3.0
 40
3.0
 40
3.0
 40
3.0
 40
4.0
 40
4.0
 40
4.0
 40
4.0
 10
213.5593106260301
 20
20.45346022351977
 30
0.0
 10
213.5593106260301
 20
20.45346022351977
 30
0.0
 10
214.9624281040627
 20
20.45346022351977
 30
0.0
 10
214.9624281040627
 20
20.45346022351977
 30
0.0
  0
SPLINE
  5
3CA27
102
{ACAD_REACTORS
330
3CA22
102
}
330
2
100
AcDbEntity
  8
Layer 1
100
AcDbSpline
210
0.0
220
0.0
230
1.0
 70
    24
 71
     3
 72
     8
 73
     4
 74
     0
 42
0.000000001
 43
0.0000000001
 40
4.0
 40
4.0
 40
4.0
 40
4.0
 40
5.0
 40
5.0
 40
5.0
 40
5.0
 10
214.9624281040627
 20
20.45346022351977
 30
0.0
 10
214.9624281040627
 20
20.45346022351977
 30
0.0
 10
214.046073141534
 20
17.02828477942
 30
0.0
 10
214.046073141534
 20
17.02828477942
 30
0.0
  0
SPLINE
  5
3CA28
102
{ACAD_REACTORS
330
3CA22
102
}
330
2
100
AcDbEntity
  8
Layer 1
100
AcDbSpline
210
0.0
220
0.0
230
1.0
 70
    24
 71
     3
 72
     8
 73
     4
 74
     0
 42
0.000000001
 43
0.0000000001
 40
5.0
 40
5.0
 40
5.0
 40
5.0
 40
6.0
 40
6.0
 40
6.0
 40
6.0
 10
214.046073141534
 20
17.02828477942
 30
0.0
 10
214.046073141534
 20
17.02828477942
 30
0.0
 10
215.5960360124568
 20
17.02828477942
 30
0.0
 10
215.5960360124568
 20
17.02828477942
 30
0.0
  0
TEXT
  5
3CA29
330
2
100
AcDbEntity
  8
0
 62
     2
100
AcDbText
 10
185.8372258017363
 20
10.74674747563917
 30
0.0
 40
2.179541363999999
  1
www.maritool.com
  7
굴림
100
AcDbText
  0
TEXT
  5
3CA2A
330
2
100
AcDbEntity
  8
0
 62
     2
100
AcDbText
 10
170.9359365869521
 20
3.446091305514248
 30
0.0
 40
1.743633091199999
  1
ITEM#
  7
굴림
100
AcDbText
  0
TEXT
  5
3CA2B
330
2
100
AcDbEntity
  8
0
 62
     2
100
AcDbText
 10
183.6903497557854
 20
3.031808946540651
 30
0.0
 40
2.615449636799999
  1
MG15-.375
  7
굴림
100
AcDbText
  0
DIMENSION
  5
45221
330
2
100
AcDbEntity
  8
0
  6
Continuous
 62
     7
100
AcDbDimension
280
     0
  2
*D0
 10
197.7830529713514
 20
112.9789683049787
 30
0.0
 11
207.7580529713515
 21
115.1039683049787
 31
0.0
 70
    32
  1
3-.04
 71
     5
 42
1.99999999999909
 73
     0
 74
     0
 75
     0
  3
사본 ISO-25
100
AcDbAlignedDimension
 13
195.7830529713524
 23
106.4221334113624
 33
0.0
 14
197.7830529713514
 24
106.4221334113625
 34
0.0
100
AcDbRotatedDimension
1001
ACAD
1000
DSTYLE
1002
{
1070
   140
1040
3.0
1070
    90
1070
     1
1070
   179
1070
     0
1002
}
  0
DIMENSION
  5
4527A
330
2
100
AcDbEntity
  8
0
  6
Continuous
 62
     7
100
AcDbDimension
280
     0
  2
*D1
 10
151.6852917100079
 20
62.44487243552657
 30
0.0
 11
149.5602917100079
 21
84.44487243552659
 31
0.0
 70
    32
  1
%%C.866
 71
     5
 42
44.0
 73
     0
 74
     0
 75
     0
  3
Standard$0
100
AcDbAlignedDimension
 13
128.1838630149912
 23
106.4448724355266
 33
0.0
 14
128.1838630149912
 24
62.44487243552658
 34
0.0
 50
90.0
100
AcDbRotatedDimension
1001
ACAD
1000
DSTYLE
1002
{
1070
   171
1070
     3
1070
   143
1040
0.03937007874016
1070
   274
1070
     3
1070
   141
1040
-0.5
1070
    43
1040
3.75
1070
    44
1040
1.25
1070
    42
1040
0.625
1070
   147
1040
0.625
1070
   371
1070
    -1
1070
   372
1070
    -1
1070
   175
1070
     0
1070
    77
1070
     1
1070
   146
1040
0.7
1070
    48
1040
0.000000001
1070
   172
1070
     1
1070
    74
1070
     0
1070
   283
1070
     0
1070
   340
1005
25
1070
   140
1040
3.0
1070
   284
1070
     8
1070
    90
1070
     1
1002
}
  0
DIMENSION
  5
4527C
330
2
100
AcDbEntity
  8
0
  6
Continuous
 62
     7
100
AcDbDimension
280
     0
  2
*D2
 10
143.685291710008
 20
78.88862243552648
 30
0.0
 11
143.6852917100079
 21
83.25424743552671
 31
0.0
 70
   160
  1
%%C.375
 71
     5
 42
15.08125000000006
 73
     0
 74
     0
 75
     0
  3
Standard$0
100
AcDbAlignedDimension
 13
129.8932640917508
 23
93.96987243552656
 33
0.0
 14
129.9736488494802
 24
78.88862243552648
 34
0.0
 50
90.0
100
AcDbRotatedDimension
1001
ACAD
1000
DSTYLE
1002
{
1070
    76
1070
     1
1070
   282
1070
     1
1070
   171
1070
     3
1070
   143
1040
0.03937007874016
1070
   274
1070
     3
1070
   141
1040
-0.5
1070
    43
1040
3.75
1070
    44
1040
1.25
1070
    42
1040
0.625
1070
   147
1040
0.625
1070
   371
1070
    -1
1070
   372
1070
    -1
1070
   175
1070
     0
1070
    77
1070
     1
1070
   146
1040
0.7
1070
    48
1040
0.000000001
1070
   172
1070
     1
1070
    74
1070
     0
1070
   283
1070
     0
1070
   340
1005
25
1070
   140
1040
3.0
1070
   284
1070
     8
1070
    90
1070
     1
1002
}
  0
LINE
  5
4552E
330
2
100
AcDbEntity
  8
0
  6
Continuous
 62
     3
100
AcDbLine
 10
121.69326409175
 20
66.91073818440798
 30
0.0
 11
121.69326409175
 21
40.12281089985799
 31
0.0
  0
MTEXT
  5
4552F
330
2
100
AcDbEntity
  8
0
  6
Continuous
 62
     2
100
AcDbMText
 10
121.6937982608977
 20
37.67399579606217
 30
0.0
 40
3.0
 41
0.0
 46
0.0
 71
     5
 72
     1
  1
0.00
 73
     1
 44
1.0
  0
LINE
  5
45533
330
2
100
AcDbEntity
  8
0
  6
Continuous
 62
     3
100
AcDbLine
 10
130.4932640917511
 20
66.01987243552731
 30
0.0
 11
130.4932640917511
 21
57.78988307728877
 31
0.0
  0
LINE
  5
45534
330
2
100
AcDbEntity
  8
0
  6
Continuous
 62
     3
100
AcDbLine
 10
130.4932640917511
 20
57.78988307728877
 30
0.0
 11
138.9260163516687
 21
52.78988307728877
 31
0.0
  0
LINE
  5
45535
330
2
100
AcDbEntity
  8
0
  6
Continuous
 62
     3
100
AcDbLine
 10
138.9260163516687
 20
52.78988307728877
 30
0.0
 11
138.9260163516687
 21
40.12281089985799
 31
0.0
  0
MTEXT
  5
45536
330
2
100
AcDbEntity
  8
0
  6
Continuous
 62
     2
100
AcDbMText
 10
138.8705595815422
 20
37.64136663934869
 30
0.0
 40
3.0
 41
0.0
 46
0.0
 71
     5
 72
     1
  1
0.173
 73
     1
 44
1.0
  0
LINE
  5
45538
330
2
100
AcDbEntity
  8
0
  6
Continuous
 62
     3
100
AcDbLine
 10
33.69326409175051
 20
70.2599491801254
 30
0.0
 11
33.69326409175051
 21
40.12281089985799
 31
0.0
  0
MTEXT
  5
45539
330
2
100
AcDbEntity
  8
0
  6
Continuous
 62
     2
100
AcDbMText
 10
33.69379826089812
 20
37.67399579606217
 30
0.0
 40
3.0
 41
0.0
 46
0.0
 71
     5
 72
     1
  1
1.732
 73
     1
 44
1.0
  0
MULTILEADER
  5
45790
330
2
100
AcDbEntity
  8
0
  6
Continuous
 62
     7
160
               688
310
B0020000180000000C00000016000000020000C30C00000033000000000000000C00000013000000993A00000C00000016000000020000C3D4000000260000007881189A942B514030B02E2B09805D40000000000000000000000000000000000000000000000000000000000000F03F000000000000F03F00000000000000
310
0000000000000000004D00470031003500200054004100500045005200000073000A000000010000000000000000000440000000000000F03F0000000000000000000000000000F03F0000000000000000000000000000000000000000000000000000000001000000000000000000000072006F006D0061006E0073002E00
310
73006800780000002E00000078000C00000033000000000000000C00000010000000000000000C00000016000000030000C30C00000012000000000000000C00000013000000010000000C0000001400000001000000540000000700000003000000DB0B35B2A8CF5240EE2F48FD496559400000000000000000D0978C72E1
310
FF524090E2FB636ACA584000000000000000008C929D4C09A052400F6D3C2C474D594000000000000000000C0000001300000089130000540000000600000003000000344F69FFD8B752407E4EC29448595940000000000000000060DBB912AE77504030B02E2B09D05D40000000000000000060FBB6810E0A514030B02E2B
310
09D05D4000000000000000000C00000013000000112700003C000000060000000200000060FBB6810E0A514030B02E2B09D05D40000000000000000060FBB6810E2A514030B02E2B09D05D4000000000000000000C00000016000000030000C30C00000012000000000000000C00000017000000000000000C000000130000
310
009A3A00000C00000016000000070000C30C00000012000000000000000C00000017000000FFFFFFFF0C0000003300000000000000
100
AcDbMLeader
270
     2
300
CONTEXT_DATA{
 40
1.0
 10
68.65713541859941
 20
119.2505596118869
 30
0.0
 41
2.5
140
2.5
145
0.5
174
     2
175
     2
176
     0
177
     1
290
     1
304
MG15 TAPER
 11
0.0
 21
0.0
 31
1.0
340
35
 12
69.15713541859941
 22
120.5005596118869
 32
0.0
 13
1.0
 23
0.0
 33
0.0
 42
0.0
 43
0.0
 44
0.0
 45
1.0
170
     1
 90
-1023410174
171
     1
172
     5
 91
-1073741824
141
0.0
 92
        0
291
     0
292
     0
173
     0
293
     0
142
0.0
143
0.0
294
     0
295
     0
296
     0
110
65.28969537363309
120
161.3173847953433
130
0.0
111
1.0
121
0.0
131
0.0
112
0.0
122
1.0
132
0.0
297
     0
302
LEADER{
290
     1
291
     1
 10
68.15713541859941
 20
119.2505596118869
 30
0.0
 11
1.0
 21
0.0
 31
0.0
 90
        0
 40
0.5
304
LEADER_LINE{
 10
75.99813522081172
 20
99.16274356458803
 30
0.0
 10
65.86999958181468
 20
119.2505596118869
 30
0.0
 91
        0
305
}
271
     0
303
}
272
     9
273
     9
301
}
340
BD9
 90
   279552
170
     1
 91
-1023410173
341
28
171
    -1
290
     1
291
     1
 41
0.5
 42
2.5
172
     2
343
35
173
     2
 95
        2
174
     1
175
     0
 92
-1023410174
292
     0
 93
-1023410174
 10
1.0
 20
1.0
 30
1.0
 43
0.0
176
     1
293
     0
294
     0
178
     0
179
     1
 45
1.0
271
     0
272
     9
273
     9
295
     0
  0
DIMENSION
  5
4976D
330
2
100
AcDbEntity
  8
0
  6
Continuous
 62
     7
100
AcDbDimension
280
     0
  2
*D3
 10
20.74753614314284
 20
98.44487243552569
 30
0.0
 11
18.62253614314282
 21
84.44487243552568
 31
0.0
 70
    32
  1
%%C.551
 71
     5
 42
28.0
 73
     0
 74
     0
 75
     0
  3
Standard$0
100
AcDbAlignedDimension
 13
34.29326409175042
 23
70.44487243552566
 33
0.0
 14
34.29326409175132
 24
98.44487243552567
 34
0.0
 50
90.0
100
AcDbRotatedDimension
1001
ACAD
1000
DSTYLE
1002
{
1070
    42
1040
0.625
1070
    43
1040
3.75
1070
    44
1040
1.25
1070
    48
1040
0.000000001
1070
    74
1070
     0
1070
    77
1070
     1
1070
    90
1070
     1
1070
   140
1040
3.0
1070
   141
1040
-0.5
1070
   143
1040
0.03937007874016
1070
   146
1040
0.7
1070
   147
1040
0.625
1070
   171
1070
     3
1070
   172
1070
     1
1070
   175
1070
     0
1070
   179
1070
     0
1070
   274
1070
     3
1070
   283
1070
     0
1070
   284
1070
     8
1070
   340
1005
25
1070
   371
1070
    -1
1070
   372
1070
    -1
1002
}
  0
LINE
  5
4CA9B
330
2
100
AcDbEntity
  8
0
  6
CENTER
 62
     3
100
AcDbLine
 10
31.69326409175096
 20
84.44487243552657
 30
0.0
 11
132.493264091752
 21
84.44487243552657
 31
0.0
  0
HATCH
  5
4CA9C
330
2
100
AcDbEntity
  8
0
  6
Continuous
 62
     4
100
AcDbHatch
 10
0.0
 20
0.0
 30
0.0
210
0.0
220
0.0
230
1.0
  2
ANSI31
 70
     0
 71
     0
 91
        4
 92
        5
 93
       12
 72
     3
 10
42.29457202405387
 20
96.50384457641349
 11
-11.66662463010834
 21
0.0
 40
0.6668310972524685
 50
170.9489182961534
 51
189.1373999783013
 73
     1
 72
     2
 10
94.03948926510498
 20
161.514683831151
 40
74.99999999999904
 50
122.596138694203
 51
123.6000450310266
 73
     0
 72
     1
 10
52.53507397492853
 20
99.04562339784213
 11
49.2777555526834
 21
99.02936389645994
 72
     1
 10
49.2777555526834
 20
99.02936389645994
 11
48.69326409175005
 21
98.44487243552567
 72
     1
 10
48.69326409175005
 20
98.44487243552567
 11
34.29326409175132
 21
98.4448724355262
 72
     2
 10
34.29326409175132
 20
97.84487243552627
 40
0.5999999999999517
 50
90.0
 51
180.0
 73
     1
 72
     1
 10
33.69326409175142
 20
97.84487243552627
 11
33.69326409175142
 21
96.64487243552436
 72
     1
 10
33.69326409175142
 20
96.64487243552436
 11
34.03967425326141
 21
96.44487243552658
 72
     1
 10
34.03967425326141
 20
96.44487243552658
 11
47.6932640917505
 21
96.44487243552658
 72
     1
 10
47.6932640917505
 20
96.44487243552658
 11
47.6932640917505
 21
96.64487243552663
 72
     1
 10
47.6932640917505
 20
96.64487243552663
 11
51.69326409175005
 21
96.64487243552663
 72
     1
 10
51.69326409175005
 20
96.64487243552663
 11
53.6419047965062
 21
94.69623173076943
 97
        0
 92
       23
 72
     0
 73
     1
 93
        4
 10
47.6932640917505
 20
96.44487243552658
 10
34.03967425326141
 20
96.44487243552658
 10
35.42531489931821
 20
95.64487243552548
 10
47.6932640917505
 20
95.64487243552548
 97
        0
 92
        5
 93
        4
 72
     3
 10
42.29457202405387
 20
96.50384457641349
 11
-11.66662463010834
 21
0.0
 40
0.6668310972524685
 50
170.8626000218766
 51
189.0510817038465
 73
     0
 72
     1
 10
53.6419047965062
 20
94.69623173076943
 11
54.36826409174841
 21
93.96987243552677
 72
     1
 10
54.36826409174841
 20
93.96987243552677
 11
61.44043324304516
 21
93.96987243552677
 72
     2
 10
94.03948926510452
 20
161.5146838311514
 40
74.99999999999904
 50
115.7632845151734
 51
122.5961386941987
 73
     0
 97
        0
 92
        7
 72
     1
 73
     1
 93
        4
 10
130.4932640917507
 20
95.96987243552652
 42
-0.0144786297244184
 10
126.6385452871634
 20
93.96987243552656
 42
0.0
 10
129.8932640917508
 20
93.96987243552656
 42
0.0
 10
130.4932640917507
 20
94.31628259704064
 42
0.0
 97
        0
 75
     1
 76
     1
 52
0.0
 41
0.5
 77
     0
 78
     1
 53
45.0
 43
-2603.834611052598
 44
191.6529688300534
 45
-1.122532015133644
 46
1.122532015133644
 79
     0
 47
0.0622066359478907
 98
        4
 10
45.42360375491057
 20
97.27888471023561
 10
45.30054474278017
 20
95.86468201520347
 10
56.49216430718457
 20
95.48987995065818
 10
129.305159980953
 20
94.76417647305879
1001
GRADIENTCOLOR1ACI
1070
     5
1001
GRADIENTCOLOR2ACI
1070
     2
1001
ACAD
1010
0.0
1020
0.0
1030
0.0
  0
LINE
  5
4CA9D
330
2
100
AcDbEntity
  8
0
  6
Continuous
 62
     7
100
AcDbLine
 10
130.4932640917511
 20
84.44487243552657
 30
0.0
 11
130.4932640917502
 21
102.4448724355266
 31
0.0
  0
LINE
  5
4CA9E
330
2
100
AcDbEntity
  8
0
  6
Continuous
 62
     7
100
AcDbLine
 10
128.1838630149912
 20
106.4448724355266
 30
0.0
 11
126.8026651685093
 21
106.4448724355266
 31
0.0
  0
LINE
  5
4CA9F
330
2
100
AcDbEntity
  8
0
  6
Continuous
 62
     7
100
AcDbLine
 10
122.2932640917504
 20
102.4448724355266
 30
0.0
 11
124.0313838763984
 21
102.4448724355266
 31
0.0
  0
LINE
  5
4CAA0
330
2
100
AcDbEntity
  8
0
  6
Continuous
 62
     7
100
AcDbLine
 10
121.69326409175
 20
101.8448724355262
 30
0.0
 11
122.2932640917504
 21
102.4448724355266
 31
0.0
  0
ARC
  5
4CAA1
330
2
100
AcDbEntity
  8
0
  6
Continuous
 62
     7
100
AcDbCircle
 10
124.0313838763984
 20
103.2448724355258
 30
0.0
 40
0.8
100
AcDbArc
 50
270.0
 51
330.000000000005
  0
LINE
  5
4CAA2
330
2
100
AcDbEntity
  8
0
  6
Continuous
 62
     7
100
AcDbLine
 10
124.7242041994257
 20
102.8448724355262
 30
0.0
 11
126.8026651685093
 21
106.4448724355266
 31
0.0
  0
LINE
  5
4CAA4
330
2
100
AcDbEntity
  8
0
  6
Continuous
 62
     7
100
AcDbLine
 10
130.4932640917502
 20
102.4448724355266
 30
0.0
 11
128.1838630149912
 21
106.4448724355266
 31
0.0
  0
LINE
  5
4CAA6
330
2
100
AcDbEntity
  8
0
  6
Continuous
 62
     7
100
AcDbLine
 10
33.69326409175096
 20
84.44487243552657
 30
0.0
 11
33.69326409175096
 21
97.84487243552622
 31
0.0
  0
ARC
  5
4CAA7
330
2
100
AcDbEntity
  8
0
  6
Continuous
 62
     7
100
AcDbCircle
 10
34.29326409175132
 20
97.84487243552622
 30
0.0
 40
0.6
100
AcDbArc
 50
90.0
 51
180.0
  0
LINE
  5
4CAA9
330
2
100
AcDbEntity
  8
0
  6
Continuous
 62
     7
100
AcDbLine
 10
34.29326409175132
 20
98.44487243552567
 30
0.0
 11
48.69326409175005
 21
98.44487243552567
 31
0.0
  0
LINE
  5
4CAAA
330
2
100
AcDbEntity
  8
0
  6
Continuous
 62
     7
100
AcDbLine
 10
35.42531489931821
 20
95.64487243552548
 30
0.0
 11
47.69326409175005
 21
95.64487243552548
 31
0.0
  0
LINE
  5
4CAAB
330
2
100
AcDbEntity
  8
0
  6
Continuous
 62
     7
100
AcDbLine
 10
48.69326409175005
 20
98.44487243552567
 30
0.0
 11
49.27775555268431
 21
99.02936389646084
 31
0.0
  0
LINE
  5
4CAAC
330
2
100
AcDbEntity
  8
0
  6
Continuous
 62
     7
100
AcDbLine
 10
130.4932640917511
 20
84.44487243552657
 30
0.0
 11
130.4932640917511
 21
66.44487243552749
 31
0.0
  0
LINE
  5
4CAAD
330
2
100
AcDbEntity
  8
0
  6
Continuous
 62
     7
100
AcDbLine
 10
121.69326409175
 20
67.04487243552603
 30
0.0
 11
121.69326409175
 21
84.4448724355268
 31
0.0
  0
ARC
  5
4CAAE
330
2
100
AcDbEntity
  8
0
  6
Continuous
 62
     7
100
AcDbCircle
 10
121.2932640917499
 20
69.34487243552576
 30
0.0
 40
0.4
100
AcDbArc
 50
0.0
 51
90.0
  0
LINE
  5
4CAAF
330
2
100
AcDbEntity
  8
0
  6
Continuous
 62
     7
100
AcDbLine
 10
122.2932640917504
 20
66.44487243552567
 30
0.0
 11
121.69326409175
 21
67.04487243552603
 31
0.0
  0
LINE
  5
4CAB0
330
2
100
AcDbEntity
  8
0
  6
Continuous
 62
     7
100
AcDbLine
 10
124.4932640917502
 20
84.44487243552657
 30
0.0
 11
124.4932640917502
 21
76.58362373891077
 31
0.0
  0
LINE
  5
4CAB1
330
2
100
AcDbEntity
  8
0
  6
Continuous
 62
     7
100
AcDbLine
 10
122.2932640917504
 20
66.44487243552567
 30
0.0
 11
124.0313838763984
 21
66.44487243552567
 31
0.0
  0
ARC
  5
4CAB2
330
2
100
AcDbEntity
  8
0
  6
Continuous
 62
     7
100
AcDbCircle
 10
124.0313838763984
 20
65.64487243552548
 30
0.0
 40
0.8
100
AcDbArc
 50
29.99999999999504
 51
90.0
  0
LINE
  5
4CAB3
330
2
100
AcDbEntity
  8
0
  6
Continuous
 62
     7
100
AcDbLine
 10
126.8026651685093
 20
84.44487243552657
 30
0.0
 11
126.8026651685093
 21
75.06903417631519
 31
0.0
  0
LINE
  5
4CAB4
330
2
100
AcDbEntity
  8
0
  6
Continuous
 62
     7
100
AcDbLine
 10
128.1838630149912
 20
84.44487243552657
 30
0.0
 11
128.1838630149912
 21
75.06903417631429
 31
0.0
  0
LINE
  5
4CAB5
330
2
100
AcDbEntity
  8
0
  6
Continuous
 62
     7
100
AcDbLine
 10
117.69326409175
 20
84.44487243552657
 30
0.0
 11
117.69326409175
 21
77.47049007971918
 31
0.0
  0
LINE
  5
4CAB6
330
2
100
AcDbEntity
  8
0
  6
Continuous
 62
     7
100
AcDbLine
 10
121.2932640917499
 20
69.74487243552585
 30
0.0
 11
118.5367075742567
 21
69.74487243552585
 31
0.0
  0
LINE
  5
4CAB7
330
2
100
AcDbEntity
  8
0
  6
Continuous
 62
     7
100
AcDbLine
 10
117.69326409175
 20
69.51887243552619
 30
0.0
 11
118.5367075742567
 21
69.74487243552585
 31
0.0
  0
LINE
  5
4CAB8
330
2
100
AcDbEntity
  8
0
  6
Continuous
 62
     7
100
AcDbLine
 10
118.5367075742567
 20
69.74487243552585
 30
0.0
 11
118.5367075742567
 21
76.43125959517738
 31
0.0
  0
LINE
  5
4CAB9
330
2
100
AcDbEntity
  8
0
  6
Continuous
 62
     4
100
AcDbLine
 10
122.2932640917504
 20
66.44487243552567
 30
0.0
 11
122.2932640917504
 21
75.54439325436897
 31
0.0
  0
LINE
  5
4CABA
330
2
100
AcDbEntity
  8
0
  6
Continuous
 62
     7
100
AcDbLine
 10
48.69326409175005
 20
84.44487243552657
 30
0.0
 11
48.69326409175005
 21
70.44487243552566
 31
0.0
  0
LINE
  5
4CABB
330
2
100
AcDbEntity
  8
0
  6
Continuous
 62
     7
100
AcDbLine
 10
33.69326409175005
 20
84.44487243552657
 30
0.0
 11
33.69326409175005
 21
71.04487243552603
 31
0.0
  0
ARC
  5
4CABC
330
2
100
AcDbEntity
  8
0
  6
Continuous
 62
     7
100
AcDbCircle
 10
34.29326409175042
 20
71.04487243552603
 30
0.0
 40
0.6
100
AcDbArc
 50
180.0
 51
270.0
  0
LINE
  5
4CABD
330
2
100
AcDbEntity
  8
0
  6
Continuous
 62
     7
100
AcDbLine
 10
34.29326409175042
 20
70.44487243552566
 30
0.0
 11
48.69326409174914
 21
70.44487243552566
 31
0.0
  0
LINE
  5
4CABE
330
2
100
AcDbEntity
  8
0
  6
Continuous
 62
     7
100
AcDbLine
 10
48.69326409175005
 20
70.44487243552566
 30
0.0
 11
49.27775555268431
 21
69.8603809745914
 31
0.0
  0
LINE
  5
4CABF
330
2
100
AcDbEntity
  8
0
  6
Continuous
 62
     7
100
AcDbLine
 10
49.27775555268431
 20
69.8603809745914
 30
0.0
 11
49.27775555268431
 21
84.44487243552657
 31
0.0
  0
LINE
  5
4CAC0
330
2
100
AcDbEntity
  8
0
  6
Continuous
 62
     7
100
AcDbLine
 10
129.8932640917512
 20
93.96987243552656
 30
0.0
 11
54.36826409174841
 21
93.96987243552677
 31
0.0
  0
LINE
  5
4CAC1
330
2
100
AcDbEntity
  8
0
  6
Continuous
 62
     3
100
AcDbLine
 10
34.03967425326096
 20
96.44487243552658
 30
0.0
 11
47.69326409175005
 21
96.44487243552658
 31
0.0
  0
LINE
  5
4CAC2
330
2
100
AcDbEntity
  8
0
  6
Continuous
 62
     7
100
AcDbLine
 10
51.69326409175005
 20
96.64487243552663
 30
0.0
 11
54.36826409174841
 21
93.96987243552676
 31
0.0
  0
LINE
  5
4CAC3
330
2
100
AcDbEntity
  8
0
  6
Continuous
 62
     7
100
AcDbLine
 10
51.69326409175005
 20
96.64487243552663
 30
0.0
 11
47.69326409175005
 21
96.64487243552663
 31
0.0
  0
LINE
  5
4CAC4
330
2
100
AcDbEntity
  8
0
  6
Continuous
 62
     7
100
AcDbLine
 10
51.69326409175005
 20
96.64487243552663
 30
0.0
 11
51.69326409175005
 21
84.44487243552657
 31
0.0
  0
LINE
  5
4CAC5
330
2
100
AcDbEntity
  8
0
  6
Continuous
 62
     7
100
AcDbLine
 10
47.6932640917505
 20
96.64487243552663
 30
0.0
 11
47.69326409175005
 21
84.44487243552657
 31
0.0
  0
LINE
  5
4CAC6
330
2
100
AcDbEntity
  8
0
  6
Continuous
 62
     7
100
AcDbLine
 10
35.42531489931821
 20
95.64487243552548
 30
0.0
 11
33.69326409175096
 21
96.64487243552457
 31
0.0
  0
LINE
  5
4CAC7
330
2
100
AcDbEntity
  8
0
  6
Continuous
 62
     7
100
AcDbLine
 10
35.42531489931821
 20
95.64487243552548
 30
0.0
 11
35.42531489931821
 21
84.44487243552567
 31
0.0
  0
LINE
  5
4CAC8
330
2
100
AcDbEntity
  8
0
  6
Continuous
 62
     7
100
AcDbLine
 10
130.4932640917507
 20
94.31628259704064
 30
0.0
 11
129.8932640917508
 21
93.96987243552656
 31
0.0
  0
LINE
  5
4CAC9
330
2
100
AcDbEntity
  8
0
  6
Continuous
 62
     7
100
AcDbLine
 10
129.8932640917508
 20
93.96987243552656
 30
0.0
 11
129.8932640917508
 21
84.44487243552657
 31
0.0
  0
LINE
  5
4CACA
330
2
100
AcDbEntity
  8
0
  6
Continuous
 62
     7
100
AcDbLine
 10
121.69326409175
 20
77.47049007971918
 30
0.0
 11
52.53507397492808
 21
77.47049007971918
 31
0.0
  0
LINE
  5
4CACB
330
2
100
AcDbEntity
  8
0
  6
Continuous
 62
     7
100
AcDbLine
 10
121.69326409175
 20
76.43125959517738
 30
0.0
 11
52.53507397492808
 21
76.43125959517738
 31
0.0
  0
LINE
  5
4CACC
330
2
100
AcDbEntity
  8
0
  6
Continuous
 62
     7
100
AcDbLine
 10
52.53507397492808
 20
77.47049007971918
 30
0.0
 11
52.53507397492808
 21
76.43125959517738
 31
0.0
  0
LINE
  5
4CACD
330
2
100
AcDbEntity
  8
0
  6
Continuous
 62
     7
100
AcDbLine
 10
124.4932640917502
 20
76.58362373891077
 30
0.0
 11
121.69326409175
 21
76.58362373891077
 31
0.0
  0
LINE
  5
4CACE
330
2
100
AcDbEntity
  8
0
  6
Continuous
 62
     7
100
AcDbLine
 10
124.4932640917502
 20
75.54439325436897
 30
0.0
 11
121.69326409175
 21
75.54439325436897
 31
0.0
  0
LINE
  5
4CACF
330
2
100
AcDbEntity
  8
0
  6
Continuous
 62
     7
100
AcDbLine
 10
128.1838630149912
 20
74.02980369177339
 30
0.0
 11
126.8026651685093
 21
74.02980369177339
 31
0.0
  0
LINE
  5
4CAD0
330
2
100
AcDbEntity
  8
0
  6
Continuous
 62
     7
100
AcDbLine
 10
128.1838630149912
 20
75.06903417631429
 30
0.0
 11
126.8026651685093
 21
75.06903417631519
 31
0.0
  0
LINE
  5
4CAD1
330
2
100
AcDbEntity
  8
0
  6
Continuous
 62
     7
100
AcDbLine
 10
124.4932640917502
 20
75.54439325436897
 30
0.0
 11
126.8026651685093
 21
74.02980369177339
 31
0.0
  0
LINE
  5
4CAD2
330
2
100
AcDbEntity
  8
0
  6
Continuous
 62
     7
100
AcDbLine
 10
126.8026651685093
 20
75.06903417631519
 30
0.0
 11
124.4932640917502
 21
76.58362373891077
 31
0.0
  0
LINE
  5
4CAD3
330
2
100
AcDbEntity
  8
0
  6
Continuous
 62
     7
100
AcDbLine
 10
118.5367075742567
 20
77.47049007971828
 30
0.0
 11
118.5367075742567
 21
84.44487243552567
 31
0.0
  0
LINE
  5
4CAD4
330
2
100
AcDbEntity
  8
0
  6
Continuous
 62
     7
100
AcDbLine
 10
117.69326409175
 20
76.43125959517738
 30
0.0
 11
117.69326409175
 21
69.51887243552619
 31
0.0
  0
LINE
  5
4CAD5
330
2
100
AcDbEntity
  8
0
  6
Continuous
 62
     4
100
AcDbLine
 10
122.2932640917504
 20
76.58362373891077
 30
0.0
 11
122.2932640917504
 21
84.44487243552657
 31
0.0
  0
LINE
  5
4CAD6
330
2
100
AcDbEntity
  8
0
  6
Continuous
 62
     7
100
AcDbLine
 10
130.4932640917511
 20
76.16071888953365
 30
0.0
 11
128.1838630149912
 21
74.02980369177339
 31
0.0
  0
LINE
  5
4CAD7
330
2
100
AcDbEntity
  8
0
  6
Continuous
 62
     7
100
AcDbLine
 10
128.1838630149912
 20
75.06903417631429
 30
0.0
 11
130.4932640917511
 21
77.19994937407546
 31
0.0
  0
LINE
  5
4CAD8
330
2
100
AcDbEntity
  8
0
  6
Continuous
 62
     7
100
AcDbLine
 10
128.1838630149912
 20
74.02980369177339
 30
0.0
 11
128.1838630149912
 21
62.44487243552658
 31
0.0
  0
LINE
  5
4CAD9
330
2
100
AcDbEntity
  8
0
  6
Continuous
 62
     7
100
AcDbLine
 10
126.8026651685093
 20
74.02980369177339
 30
0.0
 11
126.8026651685093
 21
62.44487243552658
 31
0.0
  0
LINE
  5
4CADA
330
2
100
AcDbEntity
  8
0
  6
Continuous
 62
     7
100
AcDbLine
 10
124.4932640917493
 20
75.54439325436897
 30
0.0
 11
124.4932640917502
 21
66.29806970026812
 31
0.0
  0
LINE
  5
4CADB
330
2
100
AcDbEntity
  8
0
  6
Continuous
 62
     7
100
AcDbLine
 10
128.1838630149912
 20
62.44487243552658
 30
0.0
 11
126.8026651685093
 21
62.44487243552658
 31
0.0
  0
LINE
  5
4CADC
330
2
100
AcDbEntity
  8
0
  6
Continuous
 62
     7
100
AcDbLine
 10
124.7242041994257
 20
66.04487243552603
 30
0.0
 11
126.8026651685093
 21
62.44487243552658
 31
0.0
  0
LINE
  5
4CADD
330
2
100
AcDbEntity
  8
0
  6
Continuous
 62
     7
100
AcDbLine
 10
130.4932640917511
 20
66.44487243552749
 30
0.0
 11
128.1838630149912
 21
62.44487243552658
 31
0.0
  0
LINE
  5
4CADE
330
2
100
AcDbEntity
  8
0
  6
Continuous
 62
     7
100
AcDbLine
 10
117.6932640917491
 20
69.51887243552619
 30
0.0
 11
49.2777555526834
 21
69.8603809745914
 31
0.0
  0
LINE
  5
4CADF
330
2
100
AcDbEntity
  8
0
  6
Continuous
 62
     7
100
AcDbLine
 10
121.69326409175
 20
101.8448724355262
 30
0.0
 11
121.69326409175
 21
99.54487243552557
 31
0.0
  0
ARC
  5
4CAE0
330
2
100
AcDbEntity
  8
0
  6
Continuous
 62
     7
100
AcDbCircle
 10
121.2932640917499
 20
99.54487243552557
 30
0.0
 40
0.4
100
AcDbArc
 50
270.0
 51
0.0
  0
LINE
  5
4CAE1
330
2
100
AcDbEntity
  8
0
  6
Continuous
 62
     7
100
AcDbLine
 10
121.2932640917499
 20
99.14487243552549
 30
0.0
 11
118.5367075742567
 21
99.14487243552549
 31
0.0
  0
LINE
  5
4CAE2
330
2
100
AcDbEntity
  8
0
  6
Continuous
 62
     7
100
AcDbLine
 10
117.69326409175
 20
99.37087243552605
 30
0.0
 11
118.5367075742567
 21
99.14487243552549
 31
0.0
  0
LINE
  5
4CAE3
330
2
100
AcDbEntity
  8
0
  6
Continuous
 62
     7
100
AcDbLine
 10
117.6932640917491
 20
99.37087243552605
 30
0.0
 11
49.27775555268431
 21
99.02936389645994
 31
0.0
  0
ARC
  5
4CBCC
330
2
100
AcDbEntity
  8
0
  6
Continuous
 62
     7
100
AcDbCircle
 10
196.7830529713521
 20
84.44487243552657
 30
0.0
 40
18.0
100
AcDbArc
 50
93.18473853672621
 51
206.8152614632793
  0
ARC
  5
4CBCD
330
2
100
AcDbEntity
  8
0
  6
Continuous
 62
     7
100
AcDbCircle
 10
196.7830529713521
 20
84.44487243552657
 30
0.0
 40
18.0
100
AcDbArc
 50
213.1847385367239
 51
326.8152614632748
  0
ARC
  5
4CBCE
330
2
100
AcDbEntity
  8
0
  6
Continuous
 62
     7
100
AcDbCircle
 10
196.7830529713521
 20
84.44487243552657
 30
0.0
 40
18.0
100
AcDbArc
 50
333.1847385367207
 51
86.81526146327378
  0
ARC
  5
4CBCF
330
2
100
AcDbEntity
  8
0
  6
Continuous
 62
     7
100
AcDbCircle
 10
196.7830529713521
 20
84.44487243552657
 30
0.0
 40
22.0
100
AcDbArc
 50
92.60525126505491
 51
207.3947487349491
  0
ARC
  5
4CBD0
330
2
100
AcDbEntity
  8
0
  6
Continuous
 62
     7
100
AcDbCircle
 10
196.7830529713521
 20
84.44487243552657
 30
0.0
 40
22.0
100
AcDbArc
 50
212.605251265064
 51
327.394748734936
  0
ARC
  5
4CBD1
330
2
100
AcDbEntity
  8
0
  6
Continuous
 62
     7
100
AcDbCircle
 10
196.7830529713521
 20
84.44487243552657
 30
0.0
 40
22.0
100
AcDbArc
 50
332.6052512650509
 51
87.39474873494506
  0
LINE
  5
4CBD2
330
2
100
AcDbEntity
  8
0
  6
Continuous
 62
     3
100
AcDbLine
 10
196.2830529713521
 20
84.44487243552657
 30
0.0
 11
197.2830529713521
 21
84.44487243552657
 31
0.0
  0
LINE
  5
4CBD3
330
2
100
AcDbEntity
  8
0
  6
Continuous
 62
     3
100
AcDbLine
 10
196.7830529713521
 20
83.94487243552658
 30
0.0
 11
196.7830529713521
 21
84.94487243552658
 31
0.0
  0
LINE
  5
4CBD4
330
2
100
AcDbEntity
  8
0
  6
Continuous
 62
     3
100
AcDbLine
 10
195.7830529713521
 20
84.44487243552657
 30
0.0
 11
174.2830529713521
 21
84.44487243552657
 31
0.0
  0
LINE
  5
4CBD5
330
2
100
AcDbEntity
  8
0
  6
Continuous
 62
     3
100
AcDbLine
 10
197.7830529713521
 20
84.44487243552657
 30
0.0
 11
219.2830529713522
 21
84.44487243552657
 31
0.0
  0
LINE
  5
4CBD6
330
2
100
AcDbEntity
  8
0
  6
Continuous
 62
     3
100
AcDbLine
 10
196.7830529713521
 20
83.44487243552658
 30
0.0
 11
196.7830529713521
 21
61.94487243552657
 31
0.0
  0
LINE
  5
4CBD7
330
2
100
AcDbEntity
  8
0
  6
Continuous
 62
     3
100
AcDbLine
 10
196.7830529713521
 20
85.44487243552657
 30
0.0
 11
196.7830529713521
 21
106.9448724355265
 31
0.0
  0
LINE
  5
4CBD9
330
2
100
AcDbEntity
  8
0
  6
Continuous
 62
     7
100
AcDbLine
 10
54.36826409174841
 20
93.96987243552676
 30
0.0
 11
54.36826409174887
 21
84.44487243552666
 31
0.0
  0
ARC
  5
4CBDB
330
2
100
AcDbEntity
  8
0
  6
Continuous
 62
     7
100
AcDbCircle
 10
94.03948926510452
 20
161.5146838311526
 30
0.0
 40
75.0000000000001
100
AcDbArc
 50
236.3999549689784
 51
244.2367154848333
  0
ARC
  5
4CBDC
330
2
100
AcDbEntity
  8
0
  6
Continuous
 62
     7
100
AcDbCircle
 10
94.03948926510452
 20
161.5146838311526
 30
0.0
 40
75.0000000000001
100
AcDbArc
 50
295.7632845151668
 51
299.0813101801307
  0
CIRCLE
  5
4CBDE
330
2
100
AcDbEntity
  8
0
  6
Continuous
 62
     7
100
AcDbCircle
 10
196.7830529713521
 20
84.44487243552657
 30
0.0
 40
9.525
  0
INSERT
  5
4CBDF
102
{ACAD_REACTORS
330
4CC03
102
}
330
2
100
AcDbEntity
  8
0
  6
Continuous
 62
     7
100
AcDbBlockReference
  2
*U5
 10
-2631.820546253221
 20
-834.6141668188925
 30
0.0
  0
VIEWPORT
  5
2C7EC
102
{ACAD_XDICTIONARY
360
2C7ED
102
}
330
1B
100
AcDbEntity
 67
     1
  8
0
  6
Continuous
 62
     7
100
AcDbViewport
 10
212.4908200734394
 20
97.5
 30
0.0
 40
464.9816401468789
 41
210.0
 68
     1
 69
     1
 12
212.4908200734394
 22
97.5
 13
0.0
 23
0.0
 14
2.0
 24
2.0
 15
2.0
 25
2.0
 16
0.0
 26
0.0
 36
1.0
 17
0.0
 27
0.0
 37
0.0
 42
50.0
 43
0.0
 44
0.0
 45
210.0
 50
0.0
 51
0.0
 72
  1000
 90
   823328
  1

281
     0
 71
     1
 74
     0
110
0.0
120
0.0
130
0.0
111
1.0
121
0.0
131
0.0
112
0.0
122
1.0
132
0.0
 79
     0
146
0.0
170
     0
 61
     5
348
2E
292
     1
282
     1
141
0.0
142
0.0
 63
   250
421
  3355443
  0
ENDSEC
  0
SECTION
  2
OBJECTS
  0
DICTIONARY
  5
B
330
0
100
AcDbDictionary
281
     1
  3
ACAD_ASSOCNETWORK
350
486A3
  3
ACAD_CIP_PREVIOUS_PRODUCT_INFO
350
BE4
  3
ACAD_COLOR
350
3F
  3
ACAD_DETAILVIEWSTYLE
350
BDC
  3
ACAD_GROUP
350
3A
  3
ACAD_LAYOUT
350
17
  3
ACAD_MATERIAL
350
D
  3
ACAD_MLEADERSTYLE
350
42
  3
ACAD_MLINESTYLE
350
3B
  3
ACAD_PLOTSETTINGS
350
3C
  3
ACAD_PLOTSTYLENAME
350
A
  3
ACAD_SCALELIST
350
40
  3
ACAD_SECTIONVIEWSTYLE
350
BDA
  3
ACAD_TABLESTYLE
350
41
  3
ACAD_VISUALSTYLE
350
2F
  3
ACDB_RECOMPOSE_DATA
350
4D04A
  3
AcDbVariableDictionary
350
BB8
  3
AEC_PROPERTY_SET_DEFS
350
24C9
  0
DICTIONARY
  5
31
330
2C
100
AcDbDictionary
280
     1
281
     1
  0
DICTIONARY
  5
22
330
21
100
AcDbDictionary
280
     1
281
     1
  3
ACAD_LAYERSTATES
360
23
  0
DICTIONARY
  5
7
330
6
100
AcDbDictionary
280
     1
281
     1
  3
ADSK_XREC_LAYER_RECONCILED
360
8
  0
DICTIONARY
  5
3
330
2
100
AcDbDictionary
280
     1
281
     1
  3
ACAD_ASSOCNETWORK
360
48933
  3
ACAD_SORTENTS
360
BB0
  0
DICTIONARY
  5
4CBF9
330
4CBF8
100
AcDbDictionary
280
     1
281
     1
  0
DICTIONARY
  5
2C7ED
330
2C7EC
100
AcDbDictionary
280
     1
281
     1
  3
ASDK_XREC_ANNOTATION_SCALE_INFO
360
2C7EE
  0
DICTIONARY
  5
486A3
102
{ACAD_REACTORS
330
B
102
}
330
B
100
AcDbDictionary
281
     1
  3
ACAD_ASSOCNETWORK
350
486A4
  0
XRECORD
  5
BE4
102
{ACAD_REACTORS
330
B
102
}
330
B
100
AcDbXrecord
280
     1
300
ACD
300
2014
300
ACD_F_S
  0
DICTIONARY
  5
3F
102
{ACAD_REACTORS
330
B
102
}
330
B
100
AcDbDictionary
281
     1
  0
DICTIONARY
  5
BDC
102
{ACAD_REACTORS
330
B
102
}
330
B
100
AcDbDictionary
281
     1
  3
Imperial24
350
283CD
  3
Metric50
350
BDD
  0
DICTIONARY
  5
3A
102
{ACAD_REACTORS
330
B
102
}
330
B
100
AcDbDictionary
281
     1
  0
DICTIONARY
  5
17
102
{ACAD_REACTORS
330
B
102
}
330
B
100
AcDbDictionary
281
     1
  3
Model
350
16
  3
배치1
350
1E
  0
DICTIONARY
  5
D
102
{ACAD_REACTORS
330
B
102
}
330
B
100
AcDbDictionary
281
     1
  3
ByBlock
350
3E
  3
ByLayer
350
3D
  3
Global
350
C
  0
DICTIONARY
  5
42
102
{ACAD_REACTORS
330
B
102
}
330
B
100
AcDbDictionary
281
     1
  3
Standard
350
BD9
  0
DICTIONARY
  5
3B
102
{ACAD_REACTORS
330
B
102
}
330
B
100
AcDbDictionary
281
     1
  3
Standard
350
43
  0
DICTIONARY
  5
3C
102
{ACAD_REACTORS
330
B
102
}
330
B
100
AcDbDictionary
281
     1
  0
ACDBDICTIONARYWDFLT
  5
A
102
{ACAD_REACTORS
330
B
102
}
330
B
100
AcDbDictionary
281
     1
  3
Normal
350
9
100
AcDbDictionaryWithDefault
340
9
  0
DICTIONARY
  5
40
102
{ACAD_REACTORS
330
B
102
}
330
B
100
AcDbDictionary
281
     1
  3
A0
350
48
  3
A1
350
49
  3
A2
350
4A
  3
A3
350
4B
  3
A4
350
4C
  3
A5
350
4D
  3
A6
350
4E
  3
A7
350
4F
  3
A8
350
50
  3
A9
350
51
  3
B0
350
52
  3
B1
350
53
  3
B2
350
54
  3
B3
350
55
  3
B4
350
56
  3
B5
350
57
  3
B6
350
58
  0
DICTIONARY
  5
BDA
102
{ACAD_REACTORS
330
B
102
}
330
B
100
AcDbDictionary
281
     1
  3
Imperial24
350
283CC
  3
Metric50
350
BDB
  0
DICTIONARY
  5
41
102
{ACAD_REACTORS
330
B
102
}
330
B
100
AcDbDictionary
281
     1
  3
Standard
350
44
  0
DICTIONARY
  5
2F
102
{ACAD_REACTORS
330
B
102
}
330
B
100
AcDbDictionary
281
     1
  3
2dWireframe
350
2E
  3
3D Hidden
350
1A64
  3
3dWireframe
350
47
  3
Basic
350
BC7
  3
Brighten
350
BCC
  3
ColorChange
350
BD0
  3
Conceptual
350
BCA
  3
Dim
350
BCB
  3
EdgeColorOff
350
BD8
  3
Facepattern
350
BCF
  3
Flat
350
BC3
  3
FlatWithEdges
350
BC4
  3
Gouraud
350
BC5
  3
GouraudWithEdges
350
BC6
  3
Hidden
350
BC9
  3
JitterOff
350
BD6
  3
Linepattern
350
BCE
  3
OverhangOff
350
BD7
  3
Realistic
350
46
  3
Shaded
350
BD5
  3
Shaded with edges
350
BD4
  3
Shades of Gray
350
BD1
  3
Sketchy
350
BD2
  3
Thicken
350
BCD
  3
Wireframe
350
BC8
  3
X-Ray
350
BD3
  0
XRECORD
  5
4D04A
102
{ACAD_REACTORS
330
B
102
}
330
B
100
AcDbXrecord
280
     1
 90
        1
330
44
330
BDB
330
BDD
330
283CC
330
283CD
  0
DICTIONARY
  5
BB8
102
{ACAD_REACTORS
330
B
102
}
330
B
100
AcDbDictionary
281
     1
  3
CANNOSCALE
350
BBE
  3
CMLEADERSTYLE
350
BBA
  3
CTABLESTYLE
350
BB9
  3
CVIEWDETAILSTYLE
350
BBB
  3
CVIEWSECTIONSTYLE
350
BBC
  3
DIMASSOC
350
C3B
  3
HIDETEXT
350
C39
  3
HPCOLOR
350
FF3
  3
INDEXCTL
350
C38
  3
LAYEREVAL
350
BC0
  3
LAYERNOTIFY
350
BC1
  3
LIGHTINGUNITS
350
BBF
  3
MSLTSCALE
350
BBD
  3
SOLIDHIST
350
C3C
  3
SORTENTS
350
C37
  0
DICTIONARY
  5
24C9
102
{ACAD_REACTORS
330
B
102
}
330
B
100
AcDbDictionary
281
     1
  0
DICTIONARY
  5
23
102
{ACAD_REACTORS
330
22
102
}
330
22
100
AcDbDictionary
281
     1
  0
XRECORD
  5
8
102
{ACAD_REACTORS
330
7
102
}
330
7
100
AcDbXrecord
280
     1
290
     1
  0
DICTIONARY
  5
48933
102
{ACAD_REACTORS
330
3
102
}
330
3
100
AcDbDictionary
281
     1
  3
ACAD_ASSOCNETWORK
350
48934
  0
SORTENTSTABLE
  5
BB0
102
{ACAD_REACTORS
330
3
102
}
330
3
100
AcDbSortentsTable
330
2
331
3CA15
  5
3CA15
331
3C9DE
  5
3C9DE
331
3CA28
  5
3CA28
331
3C9D6
  5
3C9D6
331
3CA20
  5
3CA20
331
3C9E9
  5
3C9E9
331
3C9FC
  5
3C9FC
331
3CA0F
  5
3CA0F
331
3C9E1
  5
3C9E1
331
3C9F4
  5
3C9F4
331
3CA07
  5
3CA07
331
3CA1A
  5
3CA1A
331
3CA12
  5
3CA12
331
3C9DB
  5
3C9DB
331
3CA25
  5
3CA25
331
3C9EE
  5
3C9EE
331
3C9D3
  5
3C9D3
331
3C9E6
  5
3C9E6
331
3C9F9
  5
3C9F9
331
3CA0C
  5
3CA0C
331
3CA1F
  5
3CA1F
331
3C9F1
  5
3C9F1
331
3CA04
  5
3CA04
331
3C9CD
  5
3C9CD
331
3CA17
  5
3CA17
331
3CA2A
  5
3CA2A
331
3C9D8
  5
3C9D8
331
3CA22
  5
3CA22
331
3C9EB
  5
3C9EB
331
3C9FE
  5
3C9FE
331
3C9D0
  5
3C9D0
331
3C9E3
  5
3C9E3
331
3C9F6
  5
3C9F6
331
3CA09
  5
3CA09
331
3CA1C
  5
3CA1C
331
3CA01
  5
3CA01
331
3CA14
  5
3CA14
331
3C9DD
  5
3C9DD
331
3CA27
  5
3CA27
331
3C9D5
  5
3C9D5
331
3C9E8
  5
3C9E8
331
3C9FB
  5
3C9FB
331
3CA0E
  5
3CA0E
331
3C9E0
  5
3C9E0
331
3C9F3
  5
3C9F3
331
3CA06
  5
3CA06
331
3C9CF
  5
3C9CF
331
3CA19
  5
3CA19
331
3CA11
  5
3CA11
331
3C9DA
  5
3C9DA
331
3CA24
  5
3CA24
331
3C9ED
  5
3C9ED
331
3C9D2
  5
3C9D2
331
3C9E5
  5
3C9E5
331
3C9F8
  5
3C9F8
331
3CA0B
  5
3CA0B
331
3CA1E
  5
3CA1E
331
3C9F0
  5
3C9F0
331
3CA03
  5
3CA03
331
3CA16
  5
3CA16
331
3C9DF
  5
3C9DF
331
3CA29
  5
3CA29
331
3C9D7
  5
3C9D7
331
3CA21
  5
3CA21
331
3C9EA
  5
3C9EA
331
3C9FD
  5
3C9FD
331
3C9E2
  5
3C9E2
331
3C9F5
  5
3C9F5
331
3CA08
  5
3CA08
331
3CA1B
  5
3CA1B
331
3CA00
  5
3CA00
331
3CA13
  5
3CA13
331
3C9DC
  5
3C9DC
331
3CA26
  5
3CA26
331
3C9EF
  5
3C9EF
331
3C9D4
  5
3C9D4
331
3C9E7
  5
3C9E7
331
3C9FA
  5
3C9FA
331
3CA0D
  5
3CA0D
331
3C9F2
  5
3C9F2
331
3CA05
  5
3CA05
331
3C9CE
  5
3C9CE
331
3CA18
  5
3CA18
331
3CA2B
  5
3CA2B
331
3CA10
  5
3CA10
331
3C9D9
  5
3C9D9
331
3CA23
  5
3CA23
331
3C9EC
  5
3C9EC
331
3C9FF
  5
3C9FF
331
3C9D1
  5
3C9D1
331
3C9E4
  5
3C9E4
331
3C9F7
  5
3C9F7
331
3CA0A
  5
3CA0A
331
3CA1D
  5
3CA1D
331
3CA02
  5
3CA02
  0
XRECORD
  5
2C7EE
102
{ACAD_REACTORS
330
2C7ED
102
}
330
2C7ED
100
AcDbXrecord
280
     1
 90
        1
340
48
  0
ACDBASSOCNETWORK
  5
486A4
102
{ACAD_REACTORS
330
486A3
102
}
330
486A3
100
AcDbAssocAction
 90
        2
 90
        0
330
0
360
0
 90
        0
 90
        0
 90
        0
 90
        0
 90
        0
 90
        0
 90
        0
100
AcDbAssocNetwork
 90
        0
 90
        8
 90
        1
330
48934
 90
        0
  0
ACDBDETAILVIEWSTYLE
  5
283CD
102
{ACAD_XDICTIONARY
360
4D048
102
}
102
{ACAD_REACTORS
330
BDC
102
}
330
BDC
100
AcDbModelDocViewStyle
 70
     0
  3
Imperial24
290
     0
100
AcDbDetailViewStyle
 70
     0
 71
     0
 90
        3
 71
     1
340
25
 62
   256
 40
0.24
340
0
 62
   256
 40
0.24
300

 40
0.36
280
     3
 71
     2
340
14
 90
       25
 62
   256
 71
     3
340
25
 62
   256
 40
0.24
 90
        1
 40
0.75
 90
        1
300
%<\AcVar ViewType \f "%tc1">% %<\AcVar ViewDetailId>%\PSCALE %<\AcVar ViewScale \f "%sn">%
 71
     4
340
14
 90
       25
 62
   256
340
14
 90
       25
 62
   256
280
     0
  0
ACDBDETAILVIEWSTYLE
  5
BDD
102
{ACAD_XDICTIONARY
360
4D044
102
}
102
{ACAD_REACTORS
330
BDC
102
}
330
BDC
100
AcDbModelDocViewStyle
 70
     0
  3
Metric50
290
     0
100
AcDbDetailViewStyle
 70
     0
 71
     0
 90
        3
 71
     1
340
25
 62
   256
 40
5.0
340
0
 62
   256
 40
5.0
300

 40
0.0
280
     1
 71
     2
340
14
 90
       25
 62
   256
 71
     3
340
25
 62
   256
 40
5.0
 90
        0
 40
15.0
 90
        1
300
%<\AcVar ViewDetailId>% (%<\AcVar ViewScale \f "%sn">%)
 71
     4
340
14
 90
       25
 62
   256
340
14
 90
       25
 62
   256
280
     0
  0
LAYOUT
  5
16
102
{ACAD_XDICTIONARY
360
18
102
}
102
{ACAD_REACTORS
330
17
102
}
330
17
100
AcDbPlotSettings
  1

  2
DWG To PDF.pc3
  4
ISO_expand_A4_(297.00_x_210.00_MM)
  6

 40
5.793749809265136
 41
10.79374980926513
 42
5.79376220703125
 43
10.79374694824219
 44
297.0
 45
210.0
 46
10.74179700476176
 47
0.0
 48
214.2303289092835
 49
-5.650030662565313
140
426.8811481846322
141
146.1562857013982
142
1.0
143
0.8057125389846563
 70
 11956
 72
     1
 73
     0
 74
     4
  7
ksm0910.ctb
 75
     0
147
1.241137442468229
 76
     0
 77
     2
 78
   300
148
-214.2303289092835
149
5.650030662565313
100
AcDbLayout
  1
Model
 70
     1
 71
     0
 10
0.0
 20
0.0
 11
12.0
 21
9.0
 12
0.0
 22
0.0
 32
0.0
 14
0.0
 24
0.0
 34
0.0
 15
0.0
 25
0.0
 35
0.0
146
0.0
 13
0.0
 23
0.0
 33
0.0
 16
1.0
 26
0.0
 36
0.0
 17
0.0
 27
1.0
 37
0.0
 76
     0
330
2
331
2D
1001
ACAD_PSEXT
1000
DWG To PDF.pc3
1000
DWG To PDF
1000
파일
1000

1070
     0
  0
LAYOUT
  5
1E
102
{ACAD_XDICTIONARY
360
1F
102
}
102
{ACAD_REACTORS
330
17
102
}
330
17
100
AcDbPlotSettings
  1

  2
none_device
  4
ISO_A4_(210.00_x_297.00_MM)
  6

 40
7.5
 41
20.0
 42
7.5
 43
20.0
 44
210.0
 45
297.0
 46
0.0
 47
0.0
 48
0.0
 49
0.0
140
0.0
141
0.0
142
1.0
143
1.0
 70
   688
 72
     1
 73
     1
 74
     5
  7
ksm0910.ctb
 75
    16
147
1.0
 76
     0
 77
     2
 78
   300
148
0.0
149
0.0
100
AcDbLayout
  1
배치1
 70
     1
 71
     1
 10
-20.0
 20
-7.5
 11
277.0
 21
202.5
 12
0.0
 22
0.0
 32
0.0
 14
1.000000000000000E+20
 24
1.000000000000000E+20
 34
1.000000000000000E+20
 15
-1.000000000000000E+20
 25
-1.000000000000000E+20
 35
-1.000000000000000E+20
146
0.0
 13
0.0
 23
0.0
 33
0.0
 16
1.0
 26
0.0
 36
0.0
 17
0.0
 27
1.0
 37
0.0
 76
     0
330
1B
331
2C7EC
1001
ACAD_PSEXT
1000
없음
1000
없음
1000
해당 없음
1000
배치가 새로운 플로터 구성을 선택할 때까지 플롯되지 않습니다.
1070
     0
  0
MATERIAL
  5
3E
102
{ACAD_REACTORS
330
D
102
}
330
D
100
AcDbMaterial
  1
ByBlock
 94
       63
  0
MATERIAL
  5
3D
102
{ACAD_REACTORS
330
D
102
}
330
D
100
AcDbMaterial
  1
ByLayer
 94
       63
  0
MATERIAL
  5
C
102
{ACAD_XDICTIONARY
360
E
102
}
102
{ACAD_REACTORS
330
D
102
}
330
D
100
AcDbMaterial
  1
Global
 43
0.0007999999797903
 43
0.0
 43
0.0
 43
0.0
 43
0.0
 43
0.0007999999797903
 43
0.0
 43
0.0
 43
0.0
 43
0.0
 43
1.0
 43
0.0
 43
0.0
 43
0.0
 43
0.0
 43
1.0
 49
0.0007999999797903
 49
0.0
 49
0.0
 49
0.0
 49
0.0
 49
0.0007999999797903
 49
0.0
 49
0.0
 49
0.0
 49
0.0
 49
1.0
 49
0.0
 49
0.0
 49
0.0
 49
0.0
 49
1.0
142
0.0007999999797903
142
0.0
142
0.0
142
0.0
142
0.0
142
0.0007999999797903
142
0.0
142
0.0
142
0.0
142
0.0
142
1.0
142
0.0
142
0.0
142
0.0
142
0.0
142
1.0
144
0.0007999999797903
144
0.0
144
0.0
144
0.0
144
0.0
144
0.0007999999797903
144
0.0
144
0.0
144
0.0
144
0.0
144
1.0
144
0.0
144
0.0
144
0.0
144
0.0
144
1.0
 94
       63
1001
ACAD
1070
    -1
1070
     3
1070
     0
1000

1071
        0
1070
     0
  0
MLEADERSTYLE
  5
BD9
102
{ACAD_REACTORS
330
42
330
45790
102
}
330
42
100
AcDbMLeaderStyle
179
     2
170
     2
171
     1
172
     0
 90
        2
 40
0.0
 41
0.0
173
     1
 91
-1023410173
340
28
 92
       -2
290
     1
 42
2.0
291
     1
 43
0.36
  3
Standard
 44
4.0
300

342
25
174
     1
178
     6
175
     1
176
     0
 93
-1023410174
 45
3.0
292
     0
297
     0
 46
4.0
 94
-1056964608
 47
1.0
 49
1.0
140
1.0
293
     1
141
0.0
294
     1
177
     0
142
1.0
295
     0
296
     0
143
0.125
271
     0
272
     9
273
     9
298
     1
  0
MLINESTYLE
  5
43
102
{ACAD_REACTORS
330
3B
102
}
330
3B
100
AcDbMlineStyle
  2
STANDARD
 70
     0
  3

 62
   256
 51
90.0
 52
90.0
 71
     2
 49
0.5
 62
   256
  6
BYLAYER
 49
-0.5
 62
   256
  6
BYLAYER
  0
ACDBPLACEHOLDER
  5
9
102
{ACAD_REACTORS
330
A
102
}
330
A
  0
SCALE
  5
48
102
{ACAD_REACTORS
330
40
102
}
330
40
100
AcDbScale
 70
     0
300
1:1
140
1.0
141
1.0
290
     1
  0
SCALE
  5
49
102
{ACAD_REACTORS
330
40
102
}
330
40
100
AcDbScale
 70
     0
300
1:2
140
1.0
141
2.0
290
     0
  0
SCALE
  5
4A
102
{ACAD_REACTORS
330
40
102
}
330
40
100
AcDbScale
 70
     0
300
1:4
140
1.0
141
4.0
290
     0
  0
SCALE
  5
4B
102
{ACAD_REACTORS
330
40
102
}
330
40
100
AcDbScale
 70
     0
300
1:5
140
1.0
141
5.0
290
     0
  0
SCALE
  5
4C
102
{ACAD_REACTORS
330
40
102
}
330
40
100
AcDbScale
 70
     0
300
1:8
140
1.0
141
8.0
290
     0
  0
SCALE
  5
4D
102
{ACAD_REACTORS
330
40
102
}
330
40
100
AcDbScale
 70
     0
300
1:10
140
1.0
141
10.0
290
     0
  0
SCALE
  5
4E
102
{ACAD_REACTORS
330
40
102
}
330
40
100
AcDbScale
 70
     0
300
1:16
140
1.0
141
16.0
290
     0
  0
SCALE
  5
4F
102
{ACAD_REACTORS
330
40
102
}
330
40
100
AcDbScale
 70
     0
300
1:20
140
1.0
141
20.0
290
     0
  0
SCALE
  5
50
102
{ACAD_REACTORS
330
40
102
}
330
40
100
AcDbScale
 70
     0
300
1:30
140
1.0
141
30.0
290
     0
  0
SCALE
  5
51
102
{ACAD_REACTORS
330
40
102
}
330
40
100
AcDbScale
 70
     0
300
1:40
140
1.0
141
40.0
290
     0
  0
SCALE
  5
52
102
{ACAD_REACTORS
330
40
102
}
330
40
100
AcDbScale
 70
     0
300
1:50
140
1.0
141
50.0
290
     0
  0
SCALE
  5
53
102
{ACAD_REACTORS
330
40
102
}
330
40
100
AcDbScale
 70
     0
300
1:100
140
1.0
141
100.0
290
     0
  0
SCALE
  5
54
102
{ACAD_REACTORS
330
40
102
}
330
40
100
AcDbScale
 70
     0
300
2:1
140
2.0
141
1.0
290
     0
  0
SCALE
  5
55
102
{ACAD_REACTORS
330
40
102
}
330
40
100
AcDbScale
 70
     0
300
4:1
140
4.0
141
1.0
290
     0
  0
SCALE
  5
56
102
{ACAD_REACTORS
330
40
102
}
330
40
100
AcDbScale
 70
     0
300
8:1
140
8.0
141
1.0
290
     0
  0
SCALE
  5
57
102
{ACAD_REACTORS
330
40
102
}
330
40
100
AcDbScale
 70
     0
300
10:1
140
10.0
141
1.0
290
     0
  0
SCALE
  5
58
102
{ACAD_REACTORS
330
40
102
}
330
40
100
AcDbScale
 70
     0
300
100:1
140
100.0
141
1.0
290
     0
  0
ACDBSECTIONVIEWSTYLE
  5
283CC
102
{ACAD_XDICTIONARY
360
4D046
102
}
102
{ACAD_REACTORS
330
BDA
102
}
330
BDA
100
AcDbModelDocViewStyle
 70
     0
  3
Imperial24
290
     0
100
AcDbSectionViewStyle
 70
     0
 71
     0
 90
       78
 71
     1
340
25
 62
   256
 40
0.24
340
0
340
0
 62
   256
 40
0.24
300
I, O, Q, S, X, Z
 40
0.48
 90
        3
 40
0.18
 90
        1
 71
     2
340
14
 90
       25
 62
   256
340
14
 90
       50
 62
   256
 40
0.24
 40
0.0
 40
0.24
 71
     3
340
25
 62
   256
 40
0.24
 90
        1
 40
0.75
 90
        1
300
%<\AcVar ViewType \f "%tc1">% %<\AcVar ViewSectionStartId>%-%<\AcVar ViewSectionEndId>%\PSCALE %<\AcVar ViewScale \f "%sn">%
 71
     4
 62
   256
 62
   257
300
ANSI31
 40
1.0
 90
        0
290
     0
290
     0
 90
        6
 40
0.0
 40
1.570796326794896
 40
0.2617993877991494
 40
1.308996938995747
 40
-0.2617993877991494
 40
1.832595714594046
  0
ACDBSECTIONVIEWSTYLE
  5
BDB
102
{ACAD_XDICTIONARY
360
4D042
102
}
102
{ACAD_REACTORS
330
BDA
102
}
330
BDA
100
AcDbModelDocViewStyle
 70
     0
  3
Metric50
290
     0
100
AcDbSectionViewStyle
 70
     0
 71
     0
 90
      102
 71
     1
340
25
 62
   256
 40
5.0
340
0
340
0
 62
   256
 40
5.0
300
I, O, Q, S, X, Z
 40
10.0
 90
        0
 40
2.5
 90
        0
 71
     2
340
14
 90
       25
 62
   256
340
14
 90
       50
 62
   256
 40
5.0
 40
2.5
 40
5.0
 71
     3
340
25
 62
   256
 40
5.0
 90
        0
 40
15.0
 90
        1
300
%<\AcVar ViewSectionStartId>%-%<\AcVar ViewSectionEndId>% (%<\AcVar ViewScale \f "%sn">%)
 71
     4
 62
   256
 62
   257
300
ANSI31
 40
1.0
 90
        0
290
     0
290
     0
 90
        6
 40
0.0
 40
1.570796326794896
 40
0.2617993877991494
 40
1.308996938995747
 40
-0.2617993877991494
 40
1.832595714594046
  0
TABLESTYLE
  5
44
102
{ACAD_XDICTIONARY
360
45
102
}
102
{ACAD_REACTORS
330
41
102
}
330
41
100
AcDbTableStyle
280
     0
  3
Standard
 70
     0
 71
     0
 40
1.5
 41
1.5
280
     0
281
     0
  7
Standard
140
4.5
170
     2
 62
     0
 63
     7
283
     0
 90
      512
 91
        0
  1

274
    -2
284
     1
 64
     0
275
    -2
285
     1
 65
     0
276
    -2
286
     1
 66
     0
277
    -2
287
     1
 67
     0
278
    -2
288
     1
 68
     0
279
    -2
289
     1
 69
     0
  7
Standard
140
6.0
170
     5
 62
     0
 63
     7
283
     0
 90
      512
 91
        0
  1

274
    -2
284
     1
 64
     0
275
    -2
285
     1
 65
     0
276
    -2
286
     1
 66
     0
277
    -2
287
     1
 67
     0
278
    -2
288
     1
 68
     0
279
    -2
289
     1
 69
     0
  7
Standard
140
4.5
170
     5
 62
     0
 63
     7
283
     0
 90
      512
 91
        0
  1

274
    -2
284
     1
 64
     0
275
    -2
285
     1
 65
     0
276
    -2
286
     1
 66
     0
277
    -2
287
     1
 67
     0
278
    -2
288
     1
 68
     0
279
    -2
289
     1
 69
     0
  0
VISUALSTYLE
  5
2E
102
{ACAD_REACTORS
330
2F
102
}
330
2F
100
AcDbVisualStyle
  2
2dWireframe
 70
     4
177
     3
291
     0
 70
    58
 90
        0
176
     1
 90
        2
176
     1
 90
        1
176
     1
 90
        0
176
     1
 40
0.6
176
     1
 40
30.0
176
     1
 62
     7
176
     1
 90
        1
176
     1
 90
        4
176
     1
 62
     7
176
     1
 62
   257
176
     1
 90
        1
176
     1
 90
        1
176
     1
 40
1.0
176
     1
 90
        0
176
     1
 62
   257
176
     1
 40
1.0
176
     1
 90
        1
176
     1
 90
        6
176
     1
 90
        2
176
     1
 62
     7
176
     1
 90
        5
176
     1
 90
        0
176
     1
 90
        0
176
     1
290
     0
176
     1
 90
        1
176
     1
 40
0.0
176
     1
 90
        0
176
     1
290
     1
176
     1
290
     1
176
     1
290
     0
176
     1
290
     0
176
     1
290
     0
176
     1
290
     0
176
     1
290
     0
176
     1
290
     0
176
     1
290
     0
176
     1
 90
       50
176
     1
 40
0.0
176
     1
 40
1.0
176
     1
 90
        0
176
     1
 62
    18
420
        0
176
     1
 90
       50
176
     1
 90
        3
176
     1
 62
     5
420
      255
176
     1
290
     0
176
     1
 90
       50
176
     1
 90
       50
176
     1
 90
       50
176
     1
290
     0
176
     1
 90
       50
176
     1
 62
   256
176
     0
 40
1.0
176
     0
 90
        2
176
     1
  1
strokes_ogs.tif
176
     1
290
     0
176
     1
 40
1.0
176
     1
 40
1.0
176
     1
  0
VISUALSTYLE
  5
1A64
102
{ACAD_REACTORS
330
2F
102
}
330
2F
100
AcDbVisualStyle
  2
3D Hidden
 70
     6
177
     3
291
     0
 70
    58
 90
        1
176
     1
 90
        2
176
     1
 90
        2
176
     1
 90
        0
176
     1
 40
0.6
176
     1
 40
30.0
176
     1
 62
     7
176
     1
 90
        2
176
     1
 90
        2
176
     1
 62
     7
176
     1
 62
   257
176
     1
 90
        2
176
     1
 90
        1
176
     1
 40
40.0
176
     1
 90
        0
176
     1
 62
   257
176
     1
 40
1.0
176
     1
 90
        1
176
     1
 90
        6
176
     1
 90
        2
176
     1
 62
     7
176
     1
 90
        3
176
     1
 90
        0
176
     1
 90
        0
176
     1
290
     0
176
     1
 90
        1
176
     1
 40
0.0
176
     1
 90
        0
176
     1
290
     0
176
     1
290
     1
176
     1
290
     1
176
     1
290
     0
176
     1
290
     0
176
     1
290
     0
176
     1
290
     0
176
     1
290
     0
176
     1
290
     0
176
     1
 90
       50
176
     1
 40
0.0
176
     1
 40
1.0
176
     1
 90
        0
176
     1
 62
    18
420
        0
176
     1
 90
       50
176
     1
 90
        3
176
     1
 62
     5
420
      255
176
     1
290
     0
176
     1
 90
       50
176
     1
 90
       50
176
     1
 90
       50
176
     1
290
     0
176
     1
 90
       50
176
     1
 62
   256
176
     0
 40
1.0
176
     0
 90
        2
176
     1
  1
strokes_ogs.tif
176
     1
290
     0
176
     1
 40
1.0
176
     1
 40
1.0
176
     1
  0
VISUALSTYLE
  5
47
102
{ACAD_REACTORS
330
2F
102
}
330
2F
100
AcDbVisualStyle
  2
3dWireframe
 70
     5
177
     3
291
     0
 70
    58
 90
        0
176
     1
 90
        2
176
     1
 90
        1
176
     1
 90
        0
176
     1
 40
0.6
176
     1
 40
30.0
176
     1
 62
     7
176
     1
 90
        1
176
     1
 90
        4
176
     1
 62
     7
176
     1
 62
   257
176
     1
 90
        1
176
     1
 90
        1
176
     1
 40
1.0
176
     1
 90
        0
176
     1
 62
   257
176
     1
 40
1.0
176
     1
 90
        1
176
     1
 90
        6
176
     1
 90
        2
176
     1
 62
     7
176
     1
 90
        5
176
     1
 90
        0
176
     1
 90
        0
176
     1
290
     0
176
     1
 90
        1
176
     1
 40
0.0
176
     1
 90
        0
176
     1
290
     0
176
     1
290
     1
176
     1
290
     1
176
     1
290
     0
176
     1
290
     0
176
     1
290
     0
176
     1
290
     0
176
     1
290
     0
176
     1
290
     0
176
     1
 90
       50
176
     1
 40
0.0
176
     1
 40
1.0
176
     1
 90
        0
176
     1
 62
    18
420
        0
176
     1
 90
       50
176
     1
 90
        3
176
     1
 62
     5
420
      255
176
     1
290
     0
176
     1
 90
       50
176
     1
 90
       50
176
     1
 90
       50
176
     1
290
     0
176
     1
 90
       50
176
     1
 62
   256
176
     0
 40
1.0
176
     0
 90
        2
176
     1
  1
strokes_ogs.tif
176
     1
290
     0
176
     1
 40
1.0
176
     1
 40
1.0
176
     1
  0
VISUALSTYLE
  5
BC7
102
{ACAD_REACTORS
330
2F
102
}
330
2F
100
AcDbVisualStyle
  2
Basic
 70
     7
177
     3
291
     1
 70
    58
 90
        1
176
     1
 90
        0
176
     1
 90
        1
176
     1
 90
        0
176
     1
 40
0.6
176
     1
 40
30.0
176
     1
 62
     7
176
     1
 90
        0
176
     1
 90
        4
176
     1
 62
     7
176
     1
 62
   257
176
     1
 90
        1
176
     1
 90
        1
176
     1
 40
1.0
176
     1
 90
        8
176
     1
 62
     7
176
     1
 40
1.0
176
     1
 90
        1
176
     1
 90
        6
176
     1
 90
        2
176
     1
 62
     7
176
     1
 90
        5
176
     1
 90
        0
176
     1
 90
        0
176
     1
290
     0
176
     1
 90
        1
176
     1
 40
0.0
176
     1
 90
        0
176
     1
290
     0
176
     1
290
     1
176
     1
290
     1
176
     1
290
     0
176
     1
290
     0
176
     1
290
     0
176
     1
290
     0
176
     1
290
     0
176
     1
290
     0
176
     1
 90
       50
176
     1
 40
0.0
176
     1
 40
1.0
176
     1
 90
        0
176
     1
 62
    18
420
        0
176
     1
 90
       50
176
     1
 90
        3
176
     1
 62
     5
420
      255
176
     1
290
     0
176
     1
 90
       50
176
     1
 90
       50
176
     1
 90
       50
176
     1
290
     0
176
     1
 90
       50
176
     1
 62
   256
176
     0
 40
1.0
176
     0
 90
        2
176
     1
  1
strokes_ogs.tif
176
     1
290
     0
176
     1
 40
1.0
176
     1
 40
1.0
176
     1
  0
VISUALSTYLE
  5
BCC
102
{ACAD_REACTORS
330
2F
102
}
330
2F
100
AcDbVisualStyle
  2
Brighten
 70
    12
177
     3
291
     1
 70
    58
 90
        2
176
     1
 90
        2
176
     1
 90
        0
176
     1
 90
        0
176
     1
 40
0.6
176
     1
 40
30.0
176
     1
 62
     7
176
     1
 90
        1
176
     1
 90
        4
176
     1
 62
     7
176
     1
 62
   257
176
     1
 90
        1
176
     1
 90
        1
176
     1
 40
1.0
176
     1
 90
        8
176
     1
 62
     7
176
     1
 40
1.0
176
     1
 90
        1
176
     1
 90
        6
176
     1
 90
        2
176
     1
 62
     7
176
     1
 90
        5
176
     1
 90
        0
176
     1
 90
        0
176
     1
290
     0
176
     1
 90
        1
176
     1
 40
50.0
176
     1
 90
        0
176
     1
290
     0
176
     1
290
     1
176
     1
290
     1
176
     1
290
     0
176
     1
290
     0
176
     1
290
     0
176
     1
290
     0
176
     1
290
     0
176
     1
290
     0
176
     1
 90
       50
176
     1
 40
0.0
176
     1
 40
1.0
176
     1
 90
        0
176
     1
 62
    18
420
        0
176
     1
 90
       50
176
     1
 90
        3
176
     1
 62
     5
420
      255
176
     1
290
     0
176
     1
 90
       50
176
     1
 90
       50
176
     1
 90
       50
176
     1
290
     0
176
     1
 90
       50
176
     1
 62
   256
176
     0
 40
1.0
176
     0
 90
        2
176
     1
  1
strokes_ogs.tif
176
     1
290
     0
176
     1
 40
1.0
176
     1
 40
1.0
176
     1
  0
VISUALSTYLE
  5
BD0
102
{ACAD_REACTORS
330
2F
102
}
330
2F
100
AcDbVisualStyle
  2
ColorChange
 70
    16
177
     3
291
     1
 70
    58
 90
        2
176
     1
 90
        2
176
     1
 90
        3
176
     1
 90
        0
176
     1
 40
0.6
176
     1
 40
30.0
176
     1
 62
     8
176
     1
 90
        1
176
     1
 90
        4
176
     1
 62
     7
176
     1
 62
   257
176
     1
 90
        1
176
     1
 90
        1
176
     1
 40
1.0
176
     1
 90
        8
176
     1
 62
     8
176
     1
 40
1.0
176
     1
 90
        1
176
     1
 90
        6
176
     1
 90
        2
176
     1
 62
     7
176
     1
 90
        5
176
     1
 90
        0
176
     1
 90
        0
176
     1
290
     0
176
     1
 90
        1
176
     1
 40
0.0
176
     1
 90
        0
176
     1
290
     0
176
     1
290
     1
176
     1
290
     1
176
     1
290
     0
176
     1
290
     0
176
     1
290
     0
176
     1
290
     0
176
     1
290
     0
176
     1
290
     0
176
     1
 90
       50
176
     1
 40
0.0
176
     1
 40
1.0
176
     1
 90
        0
176
     1
 62
    18
420
        0
176
     1
 90
       50
176
     1
 90
        3
176
     1
 62
     5
420
      255
176
     1
290
     0
176
     1
 90
       50
176
     1
 90
       50
176
     1
 90
       50
176
     1
290
     0
176
     1
 90
       50
176
     1
 62
   256
176
     0
 40
1.0
176
     0
 90
        2
176
     1
  1
strokes_ogs.tif
176
     1
290
     0
176
     1
 40
1.0
176
     1
 40
1.0
176
     1
  0
VISUALSTYLE
  5
BCA
102
{ACAD_REACTORS
330
2F
102
}
330
2F
100
AcDbVisualStyle
  2
Conceptual
 70
     9
177
     3
291
     0
 70
    58
 90
        3
176
     1
 90
        2
176
     1
 90
        0
176
     1
 90
        0
176
     1
 40
0.6
176
     1
 40
30.0
176
     1
 62
     7
176
     1
 90
        2
176
     1
 90
        2
176
     1
 62
     7
176
     1
 62
   257
176
     1
 90
        1
176
     1
 90
        1
176
     1
 40
179.0
176
     1
 90
        8
176
     1
 62
     7
176
     1
 40
1.0
176
     1
 90
        1
176
     1
 90
        6
176
     1
 90
        2
176
     1
 62
     7
176
     1
 90
        3
176
     1
 90
        0
176
     1
 90
        0
176
     1
290
     0
176
     1
 90
        1
176
     1
 40
0.0
176
     1
 90
        0
176
     1
290
     0
176
     1
290
     1
176
     1
290
     1
176
     1
290
     0
176
     1
290
     0
176
     1
290
     0
176
     1
290
     0
176
     1
290
     0
176
     1
290
     0
176
     1
 90
       50
176
     1
 40
0.0
176
     1
 40
1.0
176
     1
 90
        0
176
     1
 62
    18
420
        0
176
     1
 90
       50
176
     1
 90
        3
176
     1
 62
     5
420
      255
176
     1
290
     0
176
     1
 90
       50
176
     1
 90
       50
176
     1
 90
       50
176
     1
290
     0
176
     1
 90
       50
176
     1
 62
   256
176
     0
 40
1.0
176
     0
 90
        2
176
     1
  1
strokes_ogs.tif
176
     1
290
     0
176
     1
 40
1.0
176
     1
 40
1.0
176
     1
  0
VISUALSTYLE
  5
BCB
102
{ACAD_REACTORS
330
2F
102
}
330
2F
100
AcDbVisualStyle
  2
Dim
 70
    11
177
     3
291
     1
 70
    58
 90
        2
176
     1
 90
        2
176
     1
 90
        0
176
     1
 90
        0
176
     1
 40
0.6
176
     1
 40
30.0
176
     1
 62
     7
176
     1
 90
        1
176
     1
 90
        4
176
     1
 62
     7
176
     1
 62
   257
176
     1
 90
        1
176
     1
 90
        1
176
     1
 40
1.0
176
     1
 90
        8
176
     1
 62
     7
176
     1
 40
1.0
176
     1
 90
        1
176
     1
 90
        6
176
     1
 90
        2
176
     1
 62
     7
176
     1
 90
        5
176
     1
 90
        0
176
     1
 90
        0
176
     1
290
     0
176
     1
 90
        1
176
     1
 40
-50.0
176
     1
 90
        0
176
     1
290
     0
176
     1
290
     1
176
     1
290
     1
176
     1
290
     0
176
     1
290
     0
176
     1
290
     0
176
     1
290
     0
176
     1
290
     0
176
     1
290
     0
176
     1
 90
       50
176
     1
 40
0.0
176
     1
 40
1.0
176
     1
 90
        0
176
     1
 62
    18
420
        0
176
     1
 90
       50
176
     1
 90
        3
176
     1
 62
     5
420
      255
176
     1
290
     0
176
     1
 90
       50
176
     1
 90
       50
176
     1
 90
       50
176
     1
290
     0
176
     1
 90
       50
176
     1
 62
   256
176
     0
 40
1.0
176
     0
 90
        2
176
     1
  1
strokes_ogs.tif
176
     1
290
     0
176
     1
 40
1.0
176
     1
 40
1.0
176
     1
  0
VISUALSTYLE
  5
BD8
102
{ACAD_REACTORS
330
2F
102
}
330
2F
100
AcDbVisualStyle
  2
EdgeColorOff
 70
    22
177
     3
291
     1
 70
    58
 90
        2
176
     0
 90
        2
176
     0
 90
        0
176
     0
 90
        0
176
     0
 40
0.6
176
     0
 40
30.0
176
     0
 62
     7
176
     0
 90
        1
176
     0
 90
        4
176
     0
 62
     7
176
     0
 62
   257
176
     0
 90
        1
176
     0
 90
        1
176
     0
 40
1.0
176
     0
 90
        8
176
     2
 62
     7
176
     0
 40
1.0
176
     0
 90
        1
176
     0
 90
        6
176
     0
 90
        2
176
     0
 62
     7
176
     0
 90
        5
176
     0
 90
        0
176
     0
 90
        0
176
     0
290
     0
176
     0
 90
        1
176
     0
 40
0.0
176
     0
 90
        0
176
     0
290
     0
176
     0
290
     1
176
     0
290
     1
176
     0
290
     0
176
     0
290
     0
176
     0
290
     0
176
     0
290
     0
176
     0
290
     0
176
     0
290
     0
176
     0
 90
       50
176
     0
 40
0.0
176
     0
 40
1.0
176
     0
 90
        0
176
     0
 62
    18
420
        0
176
     0
 90
       50
176
     0
 90
        3
176
     0
 62
     5
420
      255
176
     0
290
     0
176
     0
 90
       50
176
     0
 90
       50
176
     0
 90
       50
176
     0
290
     0
176
     0
 90
       50
176
     0
 62
   256
176
     0
 40
1.0
176
     0
 90
        2
176
     0
  1
strokes_ogs.tif
176
     0
290
     0
176
     0
 40
1.0
176
     0
 40
1.0
176
     0
  0
VISUALSTYLE
  5
BCF
102
{ACAD_REACTORS
330
2F
102
}
330
2F
100
AcDbVisualStyle
  2
Facepattern
 70
    15
177
     3
291
     1
 70
    58
 90
        2
176
     1
 90
        2
176
     1
 90
        0
176
     1
 90
        0
176
     1
 40
0.6
176
     1
 40
30.0
176
     1
 62
     7
176
     1
 90
        1
176
     1
 90
        4
176
     1
 62
     7
176
     1
 62
   257
176
     1
 90
        1
176
     1
 90
        1
176
     1
 40
1.0
176
     1
 90
        8
176
     1
 62
     7
176
     1
 40
1.0
176
     1
 90
        1
176
     1
 90
        6
176
     1
 90
        2
176
     1
 62
     7
176
     1
 90
        5
176
     1
 90
        0
176
     1
 90
        0
176
     1
290
     0
176
     1
 90
        1
176
     1
 40
0.0
176
     1
 90
        0
176
     1
290
     0
176
     1
290
     1
176
     1
290
     1
176
     1
290
     0
176
     1
290
     0
176
     1
290
     0
176
     1
290
     0
176
     1
290
     0
176
     1
290
     0
176
     1
 90
       50
176
     1
 40
0.0
176
     1
 40
1.0
176
     1
 90
        0
176
     1
 62
    18
420
        0
176
     1
 90
       50
176
     1
 90
        3
176
     1
 62
     5
420
      255
176
     1
290
     0
176
     1
 90
       50
176
     1
 90
       50
176
     1
 90
       50
176
     1
290
     0
176
     1
 90
       50
176
     1
 62
   256
176
     0
 40
1.0
176
     0
 90
        2
176
     1
  1
strokes_ogs.tif
176
     1
290
     0
176
     1
 40
1.0
176
     1
 40
1.0
176
     1
  0
VISUALSTYLE
  5
BC3
102
{ACAD_REACTORS
330
2F
102
}
330
2F
100
AcDbVisualStyle
  2
Flat
 70
     0
177
     3
291
     1
 70
    58
 90
        2
176
     1
 90
        1
176
     1
 90
        1
176
     1
 90
        2
176
     1
 40
0.6
176
     1
 40
30.0
176
     1
 62
     7
176
     1
 90
        0
176
     1
 90
        0
176
     1
 62
     7
176
     1
 62
   257
176
     1
 90
        1
176
     1
 90
        1
176
     1
 40
1.0
176
     1
 90
        8
176
     1
 62
     7
176
     1
 40
1.0
176
     1
 90
        1
176
     1
 90
        6
176
     1
 90
        2
176
     1
 62
     7
176
     1
 90
        5
176
     1
 90
        0
176
     1
 90
        0
176
     1
290
     0
176
     1
 90
       13
176
     1
 40
0.0
176
     1
 90
        0
176
     1
290
     0
176
     1
290
     1
176
     1
290
     1
176
     1
290
     0
176
     1
290
     0
176
     1
290
     0
176
     1
290
     0
176
     1
290
     0
176
     1
290
     0
176
     1
 90
       50
176
     1
 40
0.0
176
     1
 40
1.0
176
     1
 90
        0
176
     1
 62
    18
420
        0
176
     1
 90
       50
176
     1
 90
        3
176
     1
 62
     5
420
      255
176
     1
290
     0
176
     1
 90
       50
176
     1
 90
       50
176
     1
 90
       50
176
     1
290
     0
176
     1
 90
       50
176
     1
 62
   256
176
     0
 40
1.0
176
     0
 90
        2
176
     1
  1
strokes_ogs.tif
176
     1
290
     0
176
     1
 40
1.0
176
     1
 40
1.0
176
     1
  0
VISUALSTYLE
  5
BC4
102
{ACAD_REACTORS
330
2F
102
}
330
2F
100
AcDbVisualStyle
  2
FlatWithEdges
 70
     1
177
     3
291
     1
 70
    58
 90
        2
176
     1
 90
        1
176
     1
 90
        1
176
     1
 90
        2
176
     1
 40
0.6
176
     1
 40
30.0
176
     1
 62
     7
176
     1
 90
        1
176
     1
 90
        0
176
     1
 62
     7
176
     1
 62
   257
176
     1
 90
        1
176
     1
 90
        1
176
     1
 40
1.0
176
     1
 90
        0
176
     1
 62
   257
176
     1
 40
1.0
176
     1
 90
        1
176
     1
 90
        6
176
     1
 90
        2
176
     1
 62
     7
176
     1
 90
        5
176
     1
 90
        0
176
     1
 90
        0
176
     1
290
     0
176
     1
 90
       13
176
     1
 40
0.0
176
     1
 90
        0
176
     1
290
     0
176
     1
290
     1
176
     1
290
     1
176
     1
290
     0
176
     1
290
     0
176
     1
290
     0
176
     1
290
     0
176
     1
290
     0
176
     1
290
     0
176
     1
 90
       50
176
     1
 40
0.0
176
     1
 40
1.0
176
     1
 90
        0
176
     1
 62
    18
420
        0
176
     1
 90
       50
176
     1
 90
        3
176
     1
 62
     5
420
      255
176
     1
290
     0
176
     1
 90
       50
176
     1
 90
       50
176
     1
 90
       50
176
     1
290
     0
176
     1
 90
       50
176
     1
 62
   256
176
     0
 40
1.0
176
     0
 90
        2
176
     1
  1
strokes_ogs.tif
176
     1
290
     0
176
     1
 40
1.0
176
     1
 40
1.0
176
     1
  0
VISUALSTYLE
  5
BC5
102
{ACAD_REACTORS
330
2F
102
}
330
2F
100
AcDbVisualStyle
  2
Gouraud
 70
     2
177
     3
291
     1
 70
    58
 90
        2
176
     1
 90
        2
176
     1
 90
        1
176
     1
 90
        2
176
     1
 40
0.6
176
     1
 40
30.0
176
     1
 62
     7
176
     1
 90
        0
176
     1
 90
        0
176
     1
 62
     7
176
     1
 62
   257
176
     1
 90
        1
176
     1
 90
        1
176
     1
 40
1.0
176
     1
 90
        0
176
     1
 62
     7
176
     1
 40
1.0
176
     1
 90
        1
176
     1
 90
        6
176
     1
 90
        2
176
     1
 62
     7
176
     1
 90
        5
176
     1
 90
        0
176
     1
 90
        0
176
     1
290
     0
176
     1
 90
       13
176
     1
 40
0.0
176
     1
 90
        0
176
     1
290
     0
176
     1
290
     1
176
     1
290
     1
176
     1
290
     0
176
     1
290
     0
176
     1
290
     0
176
     1
290
     0
176
     1
290
     0
176
     1
290
     0
176
     1
 90
       50
176
     1
 40
0.0
176
     1
 40
1.0
176
     1
 90
        0
176
     1
 62
    18
420
        0
176
     1
 90
       50
176
     1
 90
        3
176
     1
 62
     5
420
      255
176
     1
290
     0
176
     1
 90
       50
176
     1
 90
       50
176
     1
 90
       50
176
     1
290
     0
176
     1
 90
       50
176
     1
 62
   256
176
     0
 40
1.0
176
     0
 90
        2
176
     1
  1
strokes_ogs.tif
176
     1
290
     0
176
     1
 40
1.0
176
     1
 40
1.0
176
     1
  0
VISUALSTYLE
  5
BC6
102
{ACAD_REACTORS
330
2F
102
}
330
2F
100
AcDbVisualStyle
  2
GouraudWithEdges
 70
     3
177
     3
291
     1
 70
    58
 90
        2
176
     1
 90
        2
176
     1
 90
        1
176
     1
 90
        2
176
     1
 40
0.6
176
     1
 40
30.0
176
     1
 62
     7
176
     1
 90
        1
176
     1
 90
        0
176
     1
 62
     7
176
     1
 62
   257
176
     1
 90
        1
176
     1
 90
        1
176
     1
 40
1.0
176
     1
 90
        0
176
     1
 62
   257
176
     1
 40
1.0
176
     1
 90
        1
176
     1
 90
        6
176
     1
 90
        2
176
     1
 62
     7
176
     1
 90
        5
176
     1
 90
        0
176
     1
 90
        0
176
     1
290
     0
176
     1
 90
       13
176
     1
 40
0.0
176
     1
 90
        0
176
     1
290
     0
176
     1
290
     1
176
     1
290
     1
176
     1
290
     0
176
     1
290
     0
176
     1
290
     0
176
     1
290
     0
176
     1
290
     0
176
     1
290
     0
176
     1
 90
       50
176
     1
 40
0.0
176
     1
 40
1.0
176
     1
 90
        0
176
     1
 62
    18
420
        0
176
     1
 90
       50
176
     1
 90
        3
176
     1
 62
     5
420
      255
176
     1
290
     0
176
     1
 90
       50
176
     1
 90
       50
176
     1
 90
       50
176
     1
290
     0
176
     1
 90
       50
176
     1
 62
   256
176
     0
 40
1.0
176
     0
 90
        2
176
     1
  1
strokes_ogs.tif
176
     1
290
     0
176
     1
 40
1.0
176
     1
 40
1.0
176
     1
  0
VISUALSTYLE
  5
BC9
102
{ACAD_REACTORS
330
2F
102
}
330
2F
100
AcDbVisualStyle
  2
Hidden
 70
     6
177
     3
291
     0
 70
    58
 90
        1
176
     1
 90
        2
176
     1
 90
        2
176
     1
 90
        0
176
     1
 40
0.6
176
     1
 40
30.0
176
     1
 62
     7
176
     1
 90
        2
176
     1
 90
        2
176
     1
 62
     7
176
     1
 62
   257
176
     1
 90
        2
176
     1
 90
        1
176
     1
 40
40.0
176
     1
 90
        0
176
     1
 62
   257
176
     1
 40
1.0
176
     1
 90
        1
176
     1
 90
        6
176
     1
 90
        2
176
     1
 62
     7
176
     1
 90
        3
176
     1
 90
        0
176
     1
 90
        0
176
     1
290
     0
176
     1
 90
        1
176
     1
 40
0.0
176
     1
 90
        0
176
     1
290
     0
176
     1
290
     1
176
     1
290
     1
176
     1
290
     0
176
     1
290
     0
176
     1
290
     0
176
     1
290
     0
176
     1
290
     0
176
     1
290
     0
176
     1
 90
       50
176
     1
 40
0.0
176
     1
 40
1.0
176
     1
 90
        0
176
     1
 62
    18
420
        0
176
     1
 90
       50
176
     1
 90
        3
176
     1
 62
     5
420
      255
176
     1
290
     0
176
     1
 90
       50
176
     1
 90
       50
176
     1
 90
       50
176
     1
290
     0
176
     1
 90
       50
176
     1
 62
   256
176
     0
 40
1.0
176
     0
 90
        2
176
     1
  1
strokes_ogs.tif
176
     1
290
     0
176
     1
 40
1.0
176
     1
 40
1.0
176
     1
  0
VISUALSTYLE
  5
BD6
102
{ACAD_REACTORS
330
2F
102
}
330
2F
100
AcDbVisualStyle
  2
JitterOff
 70
    20
177
     3
291
     1
 70
    58
 90
        2
176
     0
 90
        2
176
     0
 90
        0
176
     0
 90
        0
176
     0
 40
0.6
176
     0
 40
30.0
176
     0
 62
     7
176
     0
 90
        1
176
     0
 90
        4
176
     0
 62
     7
176
     0
 62
   257
176
     0
 90
        1
176
     0
 90
        1
176
     0
 40
1.0
176
     0
 90
       10
176
     2
 62
     7
176
     0
 40
1.0
176
     0
 90
        1
176
     0
 90
        6
176
     0
 90
        2
176
     0
 62
     7
176
     0
 90
        5
176
     0
 90
        0
176
     0
 90
        0
176
     0
290
     0
176
     0
 90
        1
176
     0
 40
0.0
176
     0
 90
        0
176
     0
290
     0
176
     0
290
     1
176
     0
290
     1
176
     0
290
     0
176
     0
290
     0
176
     0
290
     0
176
     0
290
     0
176
     0
290
     0
176
     0
290
     0
176
     0
 90
       50
176
     0
 40
0.0
176
     0
 40
1.0
176
     0
 90
        0
176
     0
 62
    18
420
        0
176
     0
 90
       50
176
     0
 90
        3
176
     0
 62
     5
420
      255
176
     0
290
     0
176
     0
 90
       50
176
     0
 90
       50
176
     0
 90
       50
176
     0
290
     0
176
     0
 90
       50
176
     0
 62
   256
176
     0
 40
1.0
176
     0
 90
        2
176
     0
  1
strokes_ogs.tif
176
     0
290
     0
176
     0
 40
1.0
176
     0
 40
1.0
176
     0
  0
VISUALSTYLE
  5
BCE
102
{ACAD_REACTORS
330
2F
102
}
330
2F
100
AcDbVisualStyle
  2
Linepattern
 70
    14
177
     3
291
     1
 70
    58
 90
        2
176
     1
 90
        2
176
     1
 90
        0
176
     1
 90
        0
176
     1
 40
0.6
176
     1
 40
30.0
176
     1
 62
     7
176
     1
 90
        1
176
     1
 90
        4
176
     1
 62
     7
176
     1
 62
   257
176
     1
 90
        7
176
     1
 90
        7
176
     1
 40
1.0
176
     1
 90
        8
176
     1
 62
     7
176
     1
 40
1.0
176
     1
 90
        1
176
     1
 90
        6
176
     1
 90
        2
176
     1
 62
     7
176
     1
 90
        5
176
     1
 90
        0
176
     1
 90
        0
176
     1
290
     0
176
     1
 90
        1
176
     1
 40
0.0
176
     1
 90
        0
176
     1
290
     0
176
     1
290
     1
176
     1
290
     1
176
     1
290
     0
176
     1
290
     0
176
     1
290
     0
176
     1
290
     0
176
     1
290
     0
176
     1
290
     0
176
     1
 90
       50
176
     1
 40
0.0
176
     1
 40
1.0
176
     1
 90
        0
176
     1
 62
    18
420
        0
176
     1
 90
       50
176
     1
 90
        3
176
     1
 62
     5
420
      255
176
     1
290
     0
176
     1
 90
       50
176
     1
 90
       50
176
     1
 90
       50
176
     1
290
     0
176
     1
 90
       50
176
     1
 62
   256
176
     0
 40
1.0
176
     0
 90
        2
176
     1
  1
strokes_ogs.tif
176
     1
290
     0
176
     1
 40
1.0
176
     1
 40
1.0
176
     1
  0
VISUALSTYLE
  5
BD7
102
{ACAD_REACTORS
330
2F
102
}
330
2F
100
AcDbVisualStyle
  2
OverhangOff
 70
    21
177
     3
291
     1
 70
    58
 90
        2
176
     0
 90
        2
176
     0
 90
        0
176
     0
 90
        0
176
     0
 40
0.6
176
     0
 40
30.0
176
     0
 62
     7
176
     0
 90
        1
176
     0
 90
        4
176
     0
 62
     7
176
     0
 62
   257
176
     0
 90
        1
176
     0
 90
        1
176
     0
 40
1.0
176
     0
 90
        9
176
     2
 62
     7
176
     0
 40
1.0
176
     0
 90
        1
176
     0
 90
        6
176
     0
 90
        2
176
     0
 62
     7
176
     0
 90
        5
176
     0
 90
        0
176
     0
 90
        0
176
     0
290
     0
176
     0
 90
        1
176
     0
 40
0.0
176
     0
 90
        0
176
     0
290
     0
176
     0
290
     1
176
     0
290
     1
176
     0
290
     0
176
     0
290
     0
176
     0
290
     0
176
     0
290
     0
176
     0
290
     0
176
     0
290
     0
176
     0
 90
       50
176
     0
 40
0.0
176
     0
 40
1.0
176
     0
 90
        0
176
     0
 62
    18
420
        0
176
     0
 90
       50
176
     0
 90
        3
176
     0
 62
     5
420
      255
176
     0
290
     0
176
     0
 90
       50
176
     0
 90
       50
176
     0
 90
       50
176
     0
290
     0
176
     0
 90
       50
176
     0
 62
   256
176
     0
 40
1.0
176
     0
 90
        2
176
     0
  1
strokes_ogs.tif
176
     0
290
     0
176
     0
 40
1.0
176
     0
 40
1.0
176
     0
  0
VISUALSTYLE
  5
46
102
{ACAD_REACTORS
330
2F
102
}
330
2F
100
AcDbVisualStyle
  2
Realistic
 70
     8
177
     3
291
     0
 70
    58
 90
        2
176
     1
 90
        2
176
     1
 90
        1
176
     1
 90
        0
176
     1
 40
0.6
176
     1
 40
30.0
176
     1
 62
     7
176
     1
 90
        1
176
     1
 90
        0
176
     1
 62
     7
176
     1
 62
   257
176
     1
 90
        1
176
     1
 90
        1
176
     1
 40
1.0
176
     1
 90
        8
176
     1
 62
     8
176
     1
 40
1.0
176
     1
 90
        1
176
     1
 90
        6
176
     1
 90
        2
176
     1
 62
     7
176
     1
 90
        5
176
     1
 90
        0
176
     1
 90
        0
176
     1
290
     0
176
     1
 90
       13
176
     1
 40
0.0
176
     1
 90
        0
176
     1
290
     0
176
     1
290
     1
176
     1
290
     1
176
     1
290
     0
176
     1
290
     0
176
     1
290
     0
176
     1
290
     0
176
     1
290
     0
176
     1
290
     0
176
     1
 90
       50
176
     1
 40
0.0
176
     1
 40
1.0
176
     1
 90
        0
176
     1
 62
    18
420
        0
176
     1
 90
       50
176
     1
 90
        3
176
     1
 62
     5
420
      255
176
     1
290
     0
176
     1
 90
       50
176
     1
 90
       50
176
     1
 90
       50
176
     1
290
     0
176
     1
 90
       50
176
     1
 62
   256
176
     0
 40
1.0
176
     0
 90
        2
176
     1
  1
strokes_ogs.tif
176
     1
290
     0
176
     1
 40
1.0
176
     1
 40
1.0
176
     1
  0
VISUALSTYLE
  5
BD5
102
{ACAD_REACTORS
330
2F
102
}
330
2F
100
AcDbVisualStyle
  2
Shaded
 70
    27
177
     3
291
     0
 70
    58
 90
        2
176
     1
 90
        2
176
     1
 90
        1
176
     1
 90
        2
176
     1
 40
0.6
176
     1
 40
30.0
176
     1
 62
     7
176
     1
 90
        0
176
     1
 90
        4
176
     1
 62
     7
176
     1
 62
   257
176
     1
 90
        1
176
     1
 90
        1
176
     1
 40
1.0
176
     1
 90
        8
176
     1
 62
   257
176
     1
 40
1.0
176
     1
 90
        1
176
     1
 90
        6
176
     1
 90
        2
176
     1
 62
     8
176
     1
 90
        3
176
     1
 90
        0
176
     1
 90
        0
176
     1
290
     0
176
     1
 90
        5
176
     1
 40
0.0
176
     1
 90
        0
176
     1
290
     0
176
     1
290
     1
176
     1
290
     1
176
     1
290
     0
176
     1
290
     0
176
     1
290
     0
176
     1
290
     0
176
     1
290
     0
176
     1
290
     0
176
     1
 90
       50
176
     1
 40
0.0
176
     1
 40
1.0
176
     1
 90
        0
176
     1
 62
    18
420
        0
176
     1
 90
       50
176
     1
 90
        3
176
     1
 62
     5
420
      255
176
     1
290
     0
176
     1
 90
       50
176
     1
 90
       50
176
     1
 90
       50
176
     1
290
     0
176
     1
 90
       50
176
     1
 62
   256
176
     0
 40
1.0
176
     0
 90
        2
176
     1
  1
strokes_ogs.tif
176
     1
290
     0
176
     1
 40
1.0
176
     1
 40
1.0
176
     1
  0
VISUALSTYLE
  5
BD4
102
{ACAD_REACTORS
330
2F
102
}
330
2F
100
AcDbVisualStyle
  2
Shaded with edges
 70
    26
177
     3
291
     0
 70
    58
 90
        2
176
     1
 90
        2
176
     1
 90
        1
176
     1
 90
        2
176
     1
 40
0.6
176
     1
 40
30.0
176
     1
 62
     7
176
     1
 90
        1
176
     1
 90
       10
176
     1
 62
     7
176
     1
 62
   257
176
     1
 90
        2
176
     1
 90
        1
176
     1
 40
1.0
176
     1
 90
        8
176
     1
 62
   257
176
     1
 40
1.0
176
     1
 90
        1
176
     1
 90
        6
176
     1
 90
        2
176
     1
 62
     7
176
     1
 90
        3
176
     1
 90
        0
176
     1
 90
        0
176
     1
290
     0
176
     1
 90
        5
176
     1
 40
0.0
176
     1
 90
        0
176
     1
290
     0
176
     1
290
     1
176
     1
290
     1
176
     1
290
     0
176
     1
290
     0
176
     1
290
     0
176
     1
290
     0
176
     1
290
     0
176
     1
290
     0
176
     1
 90
       50
176
     1
 40
0.0
176
     1
 40
1.0
176
     1
 90
        0
176
     1
 62
    18
420
        0
176
     1
 90
       50
176
     1
 90
        3
176
     1
 62
     5
420
      255
176
     1
290
     0
176
     1
 90
       50
176
     1
 90
       50
176
     1
 90
       50
176
     1
290
     0
176
     1
 90
       50
176
     1
 62
   256
176
     0
 40
1.0
176
     0
 90
        2
176
     1
  1
strokes_ogs.tif
176
     1
290
     0
176
     1
 40
1.0
176
     1
 40
1.0
176
     1
  0
VISUALSTYLE
  5
BD1
102
{ACAD_REACTORS
330
2F
102
}
330
2F
100
AcDbVisualStyle
  2
Shades of Gray
 70
    23
177
     3
291
     0
 70
    58
 90
        2
176
     1
 90
        2
176
     1
 90
        3
176
     1
 90
        0
176
     1
 40
0.6
176
     1
 40
30.0
176
     1
 62
     7
176
     1
 90
        2
176
     1
 90
        2
176
     1
 62
     7
176
     1
 62
     7
176
     1
 90
        1
176
     1
 90
        1
176
     1
 40
40.0
176
     1
 90
        8
176
     1
 62
     7
176
     1
 40
1.0
176
     1
 90
        1
176
     1
 90
        6
176
     1
 90
        2
176
     1
 62
     7
176
     1
 90
        3
176
     1
 90
        0
176
     1
 90
        0
176
     1
290
     0
176
     1
 90
        1
176
     1
 40
0.0
176
     1
 90
        0
176
     1
290
     0
176
     1
290
     1
176
     1
290
     1
176
     1
290
     0
176
     1
290
     0
176
     1
290
     0
176
     1
290
     0
176
     1
290
     0
176
     1
290
     0
176
     1
 90
       50
176
     1
 40
0.0
176
     1
 40
1.0
176
     1
 90
        0
176
     1
 62
    18
420
        0
176
     1
 90
       50
176
     1
 90
        3
176
     1
 62
     5
420
      255
176
     1
290
     0
176
     1
 90
       50
176
     1
 90
       50
176
     1
 90
       50
176
     1
290
     0
176
     1
 90
       50
176
     1
 62
   256
176
     0
 40
1.0
176
     0
 90
        2
176
     1
  1
strokes_ogs.tif
176
     1
290
     0
176
     1
 40
1.0
176
     1
 40
1.0
176
     1
  0
VISUALSTYLE
  5
BD2
102
{ACAD_REACTORS
330
2F
102
}
330
2F
100
AcDbVisualStyle
  2
Sketchy
 70
    24
177
     3
291
     0
 70
    58
 90
        1
176
     1
 90
        2
176
     1
 90
        2
176
     1
 90
        0
176
     1
 40
0.6
176
     1
 40
30.0
176
     1
 62
     7
176
     1
 90
        2
176
     1
 90
        2
176
     1
 62
     7
176
     1
 62
     7
176
     1
 90
        1
176
     1
 90
        1
176
     1
 40
40.0
176
     1
 90
       11
176
     1
 62
     7
176
     1
 40
1.0
176
     1
 90
        1
176
     1
 90
        6
176
     1
 90
        2
176
     1
 62
     7
176
     1
 90
        6
176
     1
 90
        0
176
     1
 90
        0
176
     1
290
     0
176
     1
 90
        1
176
     1
 40
0.0
176
     1
 90
        0
176
     1
290
     0
176
     1
290
     1
176
     1
290
     1
176
     1
290
     0
176
     1
290
     0
176
     1
290
     0
176
     1
290
     0
176
     1
290
     0
176
     1
290
     0
176
     1
 90
       50
176
     1
 40
0.0
176
     1
 40
1.0
176
     1
 90
        0
176
     1
 62
    18
420
        0
176
     1
 90
       50
176
     1
 90
        3
176
     1
 62
     5
420
      255
176
     1
290
     0
176
     1
 90
       50
176
     1
 90
       50
176
     1
 90
       50
176
     1
290
     0
176
     1
 90
       50
176
     1
 62
   256
176
     0
 40
1.0
176
     0
 90
        2
176
     1
  1
strokes_ogs.tif
176
     1
290
     0
176
     1
 40
1.0
176
     1
 40
1.0
176
     1
  0
VISUALSTYLE
  5
BCD
102
{ACAD_REACTORS
330
2F
102
}
330
2F
100
AcDbVisualStyle
  2
Thicken
 70
    13
177
     3
291
     1
 70
    58
 90
        2
176
     1
 90
        2
176
     1
 90
        0
176
     1
 90
        0
176
     1
 40
0.6
176
     1
 40
30.0
176
     1
 62
     7
176
     1
 90
        1
176
     1
 90
        4
176
     1
 62
     7
176
     1
 62
   257
176
     1
 90
        1
176
     1
 90
        1
176
     1
 40
1.0
176
     1
 90
       12
176
     1
 62
     7
176
     1
 40
1.0
176
     1
 90
        1
176
     1
 90
        6
176
     1
 90
        2
176
     1
 62
     7
176
     1
 90
        5
176
     1
 90
        0
176
     1
 90
        0
176
     1
290
     0
176
     1
 90
        1
176
     1
 40
0.0
176
     1
 90
        0
176
     1
290
     0
176
     1
290
     1
176
     1
290
     1
176
     1
290
     0
176
     1
290
     0
176
     1
290
     0
176
     1
290
     0
176
     1
290
     0
176
     1
290
     0
176
     1
 90
       50
176
     1
 40
0.0
176
     1
 40
1.0
176
     1
 90
        0
176
     1
 62
    18
420
        0
176
     1
 90
       50
176
     1
 90
        3
176
     1
 62
     5
420
      255
176
     1
290
     0
176
     1
 90
       50
176
     1
 90
       50
176
     1
 90
       50
176
     1
290
     0
176
     1
 90
       50
176
     1
 62
   256
176
     0
 40
1.0
176
     0
 90
        2
176
     1
  1
strokes_ogs.tif
176
     1
290
     0
176
     1
 40
1.0
176
     1
 40
1.0
176
     1
  0
VISUALSTYLE
  5
BC8
102
{ACAD_REACTORS
330
2F
102
}
330
2F
100
AcDbVisualStyle
  2
Wireframe
 70
     5
177
     3
291
     0
 70
    58
 90
        0
176
     1
 90
        2
176
     1
 90
        0
176
     1
 90
        0
176
     1
 40
0.6
176
     1
 40
30.0
176
     1
 62
     7
176
     1
 90
        1
176
     1
 90
        4
176
     1
 62
     7
176
     1
 62
   257
176
     1
 90
        1
176
     1
 90
        1
176
     1
 40
1.0
176
     1
 90
        0
176
     1
 62
   257
176
     1
 40
1.0
176
     1
 90
        1
176
     1
 90
        6
176
     1
 90
        2
176
     1
 62
     7
176
     1
 90
        3
176
     1
 90
        0
176
     1
 90
        0
176
     1
290
     0
176
     1
 90
        1
176
     1
 40
0.0
176
     1
 90
        0
176
     1
290
     0
176
     1
290
     1
176
     1
290
     1
176
     1
290
     0
176
     1
290
     0
176
     1
290
     0
176
     1
290
     0
176
     1
290
     0
176
     1
290
     0
176
     1
 90
       50
176
     1
 40
0.0
176
     1
 40
1.0
176
     1
 90
        0
176
     1
 62
    18
420
        0
176
     1
 90
       50
176
     1
 90
        3
176
     1
 62
     5
420
      255
176
     1
290
     0
176
     1
 90
       50
176
     1
 90
       50
176
     1
 90
       50
176
     1
290
     0
176
     1
 90
       50
176
     1
 62
   256
176
     0
 40
1.0
176
     0
 90
        2
176
     1
  1
strokes_ogs.tif
176
     1
290
     0
176
     1
 40
1.0
176
     1
 40
1.0
176
     1
  0
VISUALSTYLE
  5
BD3
102
{ACAD_REACTORS
330
2F
102
}
330
2F
100
AcDbVisualStyle
  2
X-Ray
 70
    25
177
     3
291
     0
 70
    58
 90
        2
176
     1
 90
        2
176
     1
 90
        1
176
     1
 90
        1
176
     1
 40
0.5
176
     1
 40
30.0
176
     1
 62
     7
176
     1
 90
        1
176
     1
 90
        0
176
     1
 62
     7
176
     1
 62
   257
176
     1
 90
        1
176
     1
 90
        1
176
     1
 40
1.0
176
     1
 90
        8
176
     1
 62
     7
176
     1
 40
1.0
176
     1
 90
        1
176
     1
 90
        6
176
     1
 90
        2
176
     1
 62
     7
176
     1
 90
        3
176
     1
 90
        0
176
     1
 90
        0
176
     1
290
     0
176
     1
 90
       13
176
     1
 40
0.0
176
     1
 90
        0
176
     1
290
     0
176
     1
290
     1
176
     1
290
     1
176
     1
290
     0
176
     1
290
     0
176
     1
290
     0
176
     1
290
     0
176
     1
290
     0
176
     1
290
     0
176
     1
 90
       50
176
     1
 40
0.0
176
     1
 40
1.0
176
     1
 90
        0
176
     1
 62
    18
420
        0
176
     1
 90
       50
176
     1
 90
        3
176
     1
 62
     5
420
      255
176
     1
290
     0
176
     1
 90
       50
176
     1
 90
       50
176
     1
 90
       50
176
     1
290
     0
176
     1
 90
       50
176
     1
 62
   256
176
     0
 40
1.0
176
     0
 90
        2
176
     1
  1
strokes_ogs.tif
176
     1
290
     0
176
     1
 40
1.0
176
     1
 40
1.0
176
     1
  0
DICTIONARYVAR
  5
BBE
102
{ACAD_REACTORS
330
BB8
102
}
330
BB8
100
DictionaryVariables
280
     0
  1
1:1
  0
DICTIONARYVAR
  5
BBA
102
{ACAD_REACTORS
330
BB8
102
}
330
BB8
100
DictionaryVariables
280
     0
  1
STANDARD
  0
DICTIONARYVAR
  5
BB9
102
{ACAD_REACTORS
330
BB8
102
}
330
BB8
100
DictionaryVariables
280
     0
  1
STANDARD
  0
DICTIONARYVAR
  5
BBB
102
{ACAD_REACTORS
330
BB8
102
}
330
BB8
100
DictionaryVariables
280
     0
  1
Metric50
  0
DICTIONARYVAR
  5
BBC
102
{ACAD_REACTORS
330
BB8
102
}
330
BB8
100
DictionaryVariables
280
     0
  1
Metric50
  0
DICTIONARYVAR
  5
C3B
102
{ACAD_REACTORS
330
BB8
102
}
330
BB8
100
DictionaryVariables
280
     0
  1
1
  0
DICTIONARYVAR
  5
C39
102
{ACAD_REACTORS
330
BB8
102
}
330
BB8
100
DictionaryVariables
280
     0
  1
1
  0
DICTIONARYVAR
  5
FF3
102
{ACAD_REACTORS
330
BB8
102
}
330
BB8
100
DictionaryVariables
280
     0
  1
4
  0
DICTIONARYVAR
  5
C38
102
{ACAD_REACTORS
330
BB8
102
}
330
BB8
100
DictionaryVariables
280
     0
  1
0
  0
DICTIONARYVAR
  5
BC0
102
{ACAD_REACTORS
330
BB8
102
}
330
BB8
100
DictionaryVariables
280
     0
  1
1
  0
DICTIONARYVAR
  5
BC1
102
{ACAD_REACTORS
330
BB8
102
}
330
BB8
100
DictionaryVariables
280
     0
  1
15
  0
DICTIONARYVAR
  5
BBF
102
{ACAD_REACTORS
330
BB8
102
}
330
BB8
100
DictionaryVariables
280
     0
  1
0
  0
DICTIONARYVAR
  5
BBD
102
{ACAD_REACTORS
330
BB8
102
}
330
BB8
100
DictionaryVariables
280
     0
  1
0
  0
DICTIONARYVAR
  5
C3C
102
{ACAD_REACTORS
330
BB8
102
}
330
BB8
100
DictionaryVariables
280
     0
  1
1
  0
DICTIONARYVAR
  5
C37
102
{ACAD_REACTORS
330
BB8
102
}
330
BB8
100
DictionaryVariables
280
     0
  1
127
  0
ACDBASSOCNETWORK
  5
48934
102
{ACAD_REACTORS
330
48933
102
}
330
48933
100
AcDbAssocAction
 90
        2
 90
        0
330
486A4
360
0
 90
        2
 90
        0
 90
        0
 90
        0
 90
        0
 90
        0
 90
        0
100
AcDbAssocNetwork
 90
        0
 90
       30
 90
        1
360
4CBFF
 90
        0
  0
DICTIONARY
  5
4D048
330
283CD
100
AcDbDictionary
280
     1
281
     1
  3
ACAD_XREC_ROUNDTRIP
360
4D049
  0
DICTIONARY
  5
4D044
330
BDD
100
AcDbDictionary
280
     1
281
     1
  3
ACAD_XREC_ROUNDTRIP
360
4D045
  0
DICTIONARY
  5
18
330
16
100
AcDbDictionary
280
     1
281
     1
  0
DICTIONARY
  5
1F
330
1E
100
AcDbDictionary
280
     1
281
     1
  0
DICTIONARY
  5
E
330
C
100
AcDbDictionary
280
     1
281
     1
  3
BUMPTILE
360
F
  3
DIFFUSETILE
360
10
  3
OPACITYTILE
360
11
  3
REFLECTIONTILE
360
12
  0
DICTIONARY
  5
4D046
330
283CC
100
AcDbDictionary
280
     1
281
     1
  3
ACAD_XREC_ROUNDTRIP
360
4D047
  0
DICTIONARY
  5
4D042
330
BDB
100
AcDbDictionary
280
     1
281
     1
  3
ACAD_XREC_ROUNDTRIP
360
4D043
  0
DICTIONARY
  5
45
330
44
100
AcDbDictionary
280
     1
281
     1
  3
ACAD_ROUNDTRIP_2008_TABLESTYLE_CELLSTYLEMAP
360
4D041
  0
ACDBASSOCACTION
  5
4CBFF
330
48934
100
AcDbAssocAction
 90
        2
 90
        0
330
48934
360
4CC00
 90
       30
 90
        3
 90
        3
360
4CC01
360
4CC02
360
4CC03
 90
        0
 90
        3
360
4CC04
360
4CC05
360
4CC06
 90
        0
 90
       10
 90
        0
  1
FillAngle
 90
        2
 90
        1
 40
6.283185307179586
330
0
330
0
 90
        0
  1
ItemSpacing
 90
        2
 90
        1
 40
2.094395102393195
330
0
330
0
 90
        0
  1
Items
 90
        0
 90
        1
 90
        3
330
0
330
0
 90
        0
  1
LevelSpacing
 90
        1
 90
        1
 40
1.0
330
0
330
0
 90
        0
  1
Levels
 90
        0
 90
        1
 90
        1
330
0
330
0
 90
        0
  1
RowElevation
 90
        1
 90
        1
 40
0.0
330
0
330
0
 90
        0
  1
RowSpacing
 90
        1
 90
        1
 40
15.67839146375382
330
0
330
0
 90
        0
  1
Rows
 90
        0
 90
        1
 90
        1
330
0
330
0
 90
        0
  1
Radius
 90
        1
 90
        1
 40
16.75113048791786
330
0
330
0
 90
        0
  1
StartAngle
 90
        2
 90
        1
 40
1.570796326794896
330
0
330
0
  0
XRECORD
  5
4D049
102
{ACAD_REACTORS
330
4D048
102
}
330
4D048
100
AcDbXrecord
280
     1
102
DISPLAYNAME
  1
Imperial24
102
FLAGS
 90
        0
  0
XRECORD
  5
4D045
102
{ACAD_REACTORS
330
4D044
102
}
330
4D044
100
AcDbXrecord
280
     1
102
DISPLAYNAME
  1
Metric50
102
FLAGS
 90
        0
  0
XRECORD
  5
F
102
{ACAD_REACTORS
330
E
102
}
330
E
100
AcDbXrecord
280
     1
270
     1
271
     1
  0
XRECORD
  5
10
102
{ACAD_REACTORS
330
E
102
}
330
E
100
AcDbXrecord
280
     1
270
     1
271
     1
  0
XRECORD
  5
11
102
{ACAD_REACTORS
330
E
102
}
330
E
100
AcDbXrecord
280
     1
270
     1
271
     1
  0
XRECORD
  5
12
102
{ACAD_REACTORS
330
E
102
}
330
E
100
AcDbXrecord
280
     1
270
     1
271
     1
  0
XRECORD
  5
4D047
102
{ACAD_REACTORS
330
4D046
102
}
330
4D046
100
AcDbXrecord
280
     1
102
DISPLAYNAME
  1
Imperial24
102
FLAGS
 90
        0
  0
XRECORD
  5
4D043
102
{ACAD_REACTORS
330
4D042
102
}
330
4D042
100
AcDbXrecord
280
     1
102
DISPLAYNAME
  1
Metric50
102
FLAGS
 90
        0
  0
CELLSTYLEMAP
  5
4D041
102
{ACAD_REACTORS
330
45
102
}
330
45
100
AcDbCellStyleMap
 90
        3
300
CELLSTYLE
  1
TABLEFORMAT_BEGIN
 90
        5
170
     1
 91
        0
 92
    32768
 62
   257
 93
        1
300
CONTENTFORMAT
  1
CONTENTFORMAT_BEGIN
 90
        0
 91
        0
 92
      512
 93
        0
300

 40
0.0
140
1.0
 94
        5
 62
     0
340
25
144
6.0
309
CONTENTFORMAT_END
171
     1
301
MARGIN
  1
CELLMARGIN_BEGIN
 40
1.5
 40
1.5
 40
1.5
 40
1.5
 40
0.18
 40
0.18
309
CELLMARGIN_END
 94
        6
 95
        1
302
GRIDFORMAT
  1
GRIDFORMAT_BEGIN
 90
        0
 91
        1
 62
     0
 92
       -2
340
28
 93
        0
 40
1.125
309
GRIDFORMAT_END
 95
        2
302
GRIDFORMAT
  1
GRIDFORMAT_BEGIN
 90
        0
 91
        1
 62
     0
 92
       -2
340
28
 93
        0
 40
1.125
309
GRIDFORMAT_END
 95
        4
302
GRIDFORMAT
  1
GRIDFORMAT_BEGIN
 90
        0
 91
        1
 62
     0
 92
       -2
340
28
 93
        0
 40
1.125
309
GRIDFORMAT_END
 95
        8
302
GRIDFORMAT
  1
GRIDFORMAT_BEGIN
 90
        0
 91
        1
 62
     0
 92
       -2
340
28
 93
        0
 40
1.125
309
GRIDFORMAT_END
 95
       16
302
GRIDFORMAT
  1
GRIDFORMAT_BEGIN
 90
        0
 91
        1
 62
     0
 92
       -2
340
28
 93
        0
 40
1.125
309
GRIDFORMAT_END
 95
       32
302
GRIDFORMAT
  1
GRIDFORMAT_BEGIN
 90
        0
 91
        1
 62
     0
 92
       -2
340
28
 93
        0
 40
1.125
309
GRIDFORMAT_END
309
TABLEFORMAT_END
  1
CELLSTYLE_BEGIN
 90
        1
 91
        1
300
_TITLE
309
CELLSTYLE_END
300
CELLSTYLE
  1
TABLEFORMAT_BEGIN
 90
        5
170
     1
 91
        0
 92
        0
 62
   257
 93
        1
300
CONTENTFORMAT
  1
CONTENTFORMAT_BEGIN
 90
        0
 91
        0
 92
      512
 93
        0
300

 40
0.0
140
1.0
 94
        5
 62
     0
340
25
144
4.5
309
CONTENTFORMAT_END
171
     1
301
MARGIN
  1
CELLMARGIN_BEGIN
 40
1.5
 40
1.5
 40
1.5
 40
1.5
 40
0.18
 40
0.18
309
CELLMARGIN_END
 94
        6
 95
        1
302
GRIDFORMAT
  1
GRIDFORMAT_BEGIN
 90
        0
 91
        1
 62
     0
 92
       -2
340
28
 93
        0
 40
1.125
309
GRIDFORMAT_END
 95
        2
302
GRIDFORMAT
  1
GRIDFORMAT_BEGIN
 90
        0
 91
        1
 62
     0
 92
       -2
340
28
 93
        0
 40
1.125
309
GRIDFORMAT_END
 95
        4
302
GRIDFORMAT
  1
GRIDFORMAT_BEGIN
 90
        0
 91
        1
 62
     0
 92
       -2
340
28
 93
        0
 40
1.125
309
GRIDFORMAT_END
 95
        8
302
GRIDFORMAT
  1
GRIDFORMAT_BEGIN
 90
        0
 91
        1
 62
     0
 92
       -2
340
28
 93
        0
 40
1.125
309
GRIDFORMAT_END
 95
       16
302
GRIDFORMAT
  1
GRIDFORMAT_BEGIN
 90
        0
 91
        1
 62
     0
 92
       -2
340
28
 93
        0
 40
1.125
309
GRIDFORMAT_END
 95
       32
302
GRIDFORMAT
  1
GRIDFORMAT_BEGIN
 90
        0
 91
        1
 62
     0
 92
       -2
340
28
 93
        0
 40
1.125
309
GRIDFORMAT_END
309
TABLEFORMAT_END
  1
CELLSTYLE_BEGIN
 90
        2
 91
        1
300
_HEADER
309
CELLSTYLE_END
300
CELLSTYLE
  1
TABLEFORMAT_BEGIN
 90
        5
170
     1
 91
        0
 92
        0
 62
   257
 93
        1
300
CONTENTFORMAT
  1
CONTENTFORMAT_BEGIN
 90
        0
 91
        0
 92
      512
 93
        0
300

 40
0.0
140
1.0
 94
        2
 62
     0
340
25
144
4.5
309
CONTENTFORMAT_END
171
     1
301
MARGIN
  1
CELLMARGIN_BEGIN
 40
1.5
 40
1.5
 40
1.5
 40
1.5
 40
0.18
 40
0.18
309
CELLMARGIN_END
 94
        6
 95
        1
302
GRIDFORMAT
  1
GRIDFORMAT_BEGIN
 90
        0
 91
        1
 62
     0
 92
       -2
340
28
 93
        0
 40
1.125
309
GRIDFORMAT_END
 95
        2
302
GRIDFORMAT
  1
GRIDFORMAT_BEGIN
 90
        0
 91
        1
 62
     0
 92
       -2
340
28
 93
        0
 40
1.125
309
GRIDFORMAT_END
 95
        4
302
GRIDFORMAT
  1
GRIDFORMAT_BEGIN
 90
        0
 91
        1
 62
     0
 92
       -2
340
28
 93
        0
 40
1.125
309
GRIDFORMAT_END
 95
        8
302
GRIDFORMAT
  1
GRIDFORMAT_BEGIN
 90
        0
 91
        1
 62
     0
 92
       -2
340
28
 93
        0
 40
1.125
309
GRIDFORMAT_END
 95
       16
302
GRIDFORMAT
  1
GRIDFORMAT_BEGIN
 90
        0
 91
        1
 62
     0
 92
       -2
340
28
 93
        0
 40
1.125
309
GRIDFORMAT_END
 95
       32
302
GRIDFORMAT
  1
GRIDFORMAT_BEGIN
 90
        0
 91
        1
 62
     0
 92
       -2
340
28
 93
        0
 40
1.125
309
GRIDFORMAT_END
309
TABLEFORMAT_END
  1
CELLSTYLE_BEGIN
 90
        3
 91
        2
300
_DATA
309
CELLSTYLE_END
  0
ACDBASSOCARRAYACTIONBODY
  5
4CC00
330
4CBFF
100
AcDbAssocActionBody
 90
        2
100
AcDbAssocArrayActionBody
 90
        1
  1
AcDbAssocArrayPolarParameters
 90
        0
 90
        3
  1
AcDbAssocArrayItem
100
AcDbAssocArrayItem
 90
        0
 90
        0
 90
        0
 90
        0
 90
        8
 11
2828.603599224573
 21
935.810169742337
 31
0.0
330
4CBFB
100
AcDbAssocArrayItem
 90
        0
 90
        1
 90
        0
 90
        0
 90
       12
 40
-0.4999999999999999
 40
-0.8660254037844387
 40
0.0
 40
2814.096694679928
 40
0.8660254037844385
 40
-0.4999999999999999
 40
0.0
 40
910.68347401046
 40
0.0
 40
0.0
 40
0.9999999999999998
 40
0.0
 40
0.0
 40
0.0
 40
0.0
 40
1.0
330
4CBFC
100
AcDbAssocArrayItem
 90
        0
 90
        2
 90
        0
 90
        0
 90
       12
 40
-0.5000000000000004
 40
0.8660254037844385
 40
0.0
 40
2843.110503769218
 40
-0.8660254037844385
 40
-0.5000000000000005
 40
0.0
 40
910.68347401046
 40
0.0
 40
0.0
 40
1.0
 40
0.0
 40
0.0
 40
0.0
 40
0.0
 40
1.0
330
4CBFD
 40
1.0
 40
0.0
 40
0.0
 40
-2631.820546253221
 40
0.0
 40
1.0
 40
0.0
 40
-834.6141668188925
 40
0.0
 40
0.0
 40
1.0
 40
0.0
 40
0.0
 40
0.0
 40
0.0
 40
1.0
  0
ACDBASSOCDEPENDENCY
  5
4CC01
330
4CBFF
100
AcDbAssocDependency
 90
        2
 90
        0
290
     0
290
     1
290
     1
290
     1
 90
        0
330
4CBF8
290
     0
330
0
330
0
360
0
 90
        1
  0
ACDBASSOCDEPENDENCY
  5
4CC02
330
4CBFF
100
AcDbAssocDependency
 90
        2
 90
        0
290
     1
290
     0
290
     1
290
     1
 90
        0
330
4CBF0
290
     0
330
0
330
0
360
0
 90
        2
  0
ACDBASSOCDEPENDENCY
  5
4CC03
330
4CBFF
100
AcDbAssocDependency
 90
        2
 90
        0
290
     1
290
     1
290
     1
290
     1
 90
-2147483648
330
4CBDF
290
     0
330
0
330
0
360
0
 90
        3
  0
ACDBASSOCVERTEXACTIONPARAM
  5
4CC04
330
4CBFF
100
AcDbAssocActionParam
 90
        1
 90
        0
  1
BaseNormal
100
AcDbAssocSingleDependencyActionParam
 90
        0
330
0
100
AcDbAssocVertexActionParam
 90
        0
 10
0.0
 20
0.0
 30
1.0
  0
ACDBASSOCVERTEXACTIONPARAM
  5
4CC05
330
4CBFF
100
AcDbAssocActionParam
 90
        1
 90
        0
  1
Origin
100
AcDbAssocSingleDependencyActionParam
 90
        0
330
0
100
AcDbAssocVertexActionParam
 90
        0
 10
2828.603599224573
 20
919.0590392544191
 30
0.0
  0
ACDBASSOCVERTEXACTIONPARAM
  5
4CC06
330
4CBFF
100
AcDbAssocActionParam
 90
        1
 90
        0
  1
basePoint
100
AcDbAssocSingleDependencyActionParam
 90
        0
330
0
100
AcDbAssocVertexActionParam
 90
        0
 10
0.0
 20
0.0
 30
0.0
  0
ENDSEC
  0
SECTION
  2
ACDSDATA
 70
     2
 71
     6
  0
ACDSSCHEMA
 90
        0
  1
AcDb_Thumbnail_Schema
  2
AcDbDs::ID
280
    10
 91
        8
  2
Thumbnail_Data
280
    15
 91
        0
101
ACDSRECORD
 95
        0
 90
        1
  2
AcDbDs::TreatedAsObjectData
280
     1
291
     1
101
ACDSRECORD
 95
        0
 90
        2
  2
AcDbDs::Legacy
280
     1
291
     1
101
ACDSRECORD
  1
AcDbDs::ID
 90
        3
  2
AcDs:Indexable
280
     1
291
     1
101
ACDSRECORD
  1
AcDbDs::ID
 90
        4
  2
AcDbDs::HandleAttribute
280
     7
282
     1
  0
ACDSSCHEMA
 90
        1
  1
AcDbDs::TreatedAsObjectDataSchema
  2
AcDbDs::TreatedAsObjectData
280
     1
 91
        0
  0
ACDSSCHEMA
 90
        2
  1
AcDbDs::LegacySchema
  2
AcDbDs::Legacy
280
     1
 91
        0
  0
ACDSSCHEMA
 90
        3
  1
AcDbDs::IndexedPropertySchema
  2
AcDs:Indexable
280
     1
 91
        0
  0
ACDSSCHEMA
 90
        4
  1
AcDbDs::HandleAttributeSchema
  2
AcDbDs::HandleAttribute
280
     7
 91
        1
284
     1
  0
ACDSRECORD
 90
        0
  2
AcDbDs::ID
280
    10
320
16
  2
Thumbnail_Data
280
    15
 94
     1669
310
89504E470D0A1A0A0000000D49484452000001000000007508030000009634CF9200000300504C5445000000000000C8C8C80000000000000000000000000000000000000000000000000000330000660000990000CC0000FF0033000033330033660033990033CC0033FF0066000066330066660066990066CC0066FF0099
310
000099330099660099990099CC0099FF00CC0000CC3300CC6600CC9900CCCC00CCFF00FF0000FF3300FF6600FF9900FFCC00FFFF3300003300333300663300993300CC3300FF3333003333333333663333993333CC3333FF3366003366333366663366993366CC3366FF3399003399333399663399993399CC3399FF33CC00
310
33CC3333CC6633CC9933CCCC33CCFF33FF0033FF3333FF6633FF9933FFCC33FFFF6600006600336600666600996600CC6600FF6633006633336633666633996633CC6633FF6666006666336666666666996666CC6666FF6699006699336699666699996699CC6699FF66CC0066CC3366CC6666CC9966CCCC66CCFF66FF0066
310
FF3366FF6666FF9966FFCC66FFFF9900009900339900669900999900CC9900FF9933009933339933669933999933CC9933FF9966009966339966669966999966CC9966FF9999009999339999669999999999CC9999FF99CC0099CC3399CC6699CC9999CCCC99CCFF99FF0099FF3399FF6699FF9999FFCC99FFFFCC0000CC00
310
33CC0066CC0099CC00CCCC00FFCC3300CC3333CC3366CC3399CC33CCCC33FFCC6600CC6633CC6666CC6699CC66CCCC66FFCC9900CC9933CC9966CC9999CC99CCCC99FFCCCC00CCCC33CCCC66CCCC99CCCCCCCCCCFFCCFF00CCFF33CCFF66CCFF99CCFFCCCCFFFFFF0000FF0033FF0066FF0099FF00CCFF00FFFF3300FF3333
310
FF3366FF3399FF33CCFF33FFFF6600FF6633FF6666FF6699FF66CCFF66FFFF9900FF9933FF9966FF9999FF99CCFF99FFFFCC00FFCC33FFCC66FFCC99FFCCCCFFCCFFFFFF00FFFF33FFFF66FFFF99FFFFCCFFFFFF0000000D0D0D1A1A1A2828283535354343435050505D5D5D6B6B6B787878868686939393A1A1A1AEAEAEBB
310
BBBBC9C9C9D6D6D6E4E4E4F1F1F1FFFFFF00000000000000000000000000000000000000000000000000000000000008F1915C000003404944415478DAED9C5BB283200C86594E5EDC5997EC36FEF7D3D60B20E8A122F73FD399D61633F091C404B44AA5113CDD10AA2D091E576B00E0917946903CDD0EDE760566769EC3CE
310
7DBA9D9A0B580A7AF13D02200002200002200002200002200002F841DE755AF500824B29022000C60002200002200002200002200002208050ED3F6FBDCDEFFAE123EBDB9C3853BFD3C5948045641F762E0075E997D163406A00AB69551C04D3111051BB5F0D07403E02D152F16550925A400B798010C0E0005211E80D00CC
310
98E6843627DB3BBD29ACC65A40C214236886D5766FE13AF6238236012C3389A0D3F681FB09540940C2B40601C006ECFB8283A0CABD41713CF7706F673080C552603A026C0259B7C67432167263EB55480B06A0476BBDA30C006DDCEF5E4CD3F785D53CE3DD4BFC2D60C7029B4AEEBD410D603786A537D38D7509FC0BC09A6B
310
589F5026088A7B11FB7606F7C4CE00BC00E038CED130EA00704B356CB5F24F0010BDFC85710018BD10651E0F0500FA7778D96402602CC53C0EE0AD5BAE0D600580FE006C6BC8726D005B7AD52300690E801879008C832079379E96547219D2ACFC16609E20BE83024170F67C8D1B2AA7A5BC31B9566A01B02D405200507131
310
0069C77F1A039EB400B9B400D857011C01209B055879403C001D04719107E8526BCD03D67A1A592CE02211B213D61F65F215CC67A9F08640D43670D4900946014020807DFA3F8D452F08017501880C8217E5B001C9FE58AA1C96AC00AC7AD8A28F7100281C7FB7D643F2023013B2280905A060D8BEB85FA962CBE291DB5FC1
310
00CCE18A6749B47F00FBBEC0A7E658AF1CE800008201E8E18AB74B6D0290EFA48A3FC09E21106FE6DB3000B74CBEAA49561708ED60FD007E5752E2FE80D3BDC112004E66A8CC6373A30048EC0292AE834D00780441DB001E40D03A80685504400004400004400004400089868FFA0194786E30EE81C0E5A9CA273415738158
310
00B309400D0740B50FA0262100022000022000022080DE00DCBED3AA1B00CE37AF83E4E960B17F9484650BBB41BCDC79EFF42F35E1F505951D407917B000BC5EAEEB0F15044D00C305C1D12E830470583FB18400980932083208F60E60F7F573EF2700BA401600D54B81E909B5446F3B84B5F32B5475480C00551AC01F2157
310
C10DE14184550000000049454E44AE426082
  0
ACDSRECORD
 90
        0
  2
AcDbDs::ID
280
    10
320
1E
  2
Thumbnail_Data
280
    15
 94
      882
310
89504E470D0A1A0A0000000D49484452000000B80000007F08030000006B00F8F900000300504C5445FFFFFF000000C8C8C80000000000000000000000000000000000000000000000000000330000660000990000CC0000FF0033000033330033660033990033CC0033FF0066000066330066660066990066CC0066FF0099
310
000099330099660099990099CC0099FF00CC0000CC3300CC6600CC9900CCCC00CCFF00FF0000FF3300FF6600FF9900FFCC00FFFF3300003300333300663300993300CC3300FF3333003333333333663333993333CC3333FF3366003366333366663366993366CC3366FF3399003399333399663399993399CC3399FF33CC00
310
33CC3333CC6633CC9933CCCC33CCFF33FF0033FF3333FF6633FF9933FFCC33FFFF6600006600336600666600996600CC6600FF6633006633336633666633996633CC6633FF6666006666336666666666996666CC6666FF6699006699336699666699996699CC6699FF66CC0066CC3366CC6666CC9966CCCC66CCFF66FF0066
310
FF3366FF6666FF9966FFCC66FFFF9900009900339900669900999900CC9900FF9933009933339933669933999933CC9933FF9966009966339966669966999966CC9966FF9999009999339999669999999999CC9999FF99CC0099CC3399CC6699CC9999CCCC99CCFF99FF0099FF3399FF6699FF9999FFCC99FFFFCC0000CC00
310
33CC0066CC0099CC00CCCC00FFCC3300CC3333CC3366CC3399CC33CCCC33FFCC6600CC6633CC6666CC6699CC66CCCC66FFCC9900CC9933CC9966CC9999CC99CCCC99FFCCCC00CCCC33CCCC66CCCC99CCCCCCCCCCFFCCFF00CCFF33CCFF66CCFF99CCFFCCCCFFFFFF0000FF0033FF0066FF0099FF00CCFF00FFFF3300FF3333
310
FF3366FF3399FF33CCFF33FFFF6600FF6633FF6666FF6699FF66CCFF66FFFF9900FF9933FF9966FF9999FF99CCFF99FFFFCC00FFCC33FFCC66FFCC99FFCCCCFFCCFFFFFF00FFFF33FFFF66FFFF99FFFFCCFFFFFF0000000D0D0D1A1A1A2828283535354343435050505D5D5D6B6B6B787878868686939393A1A1A1AEAEAEBB
310
BBBBC9C9C9D6D6D6E4E4E4F1F1F1FFFFFF000000000000000000000000000000000000000000000000000000000000B0E2D2350000002D4944415478DAEDC13101000000C2A0F54FED6F06A00000000000000000000000000000000000000000000080335BC70001E79522D80000000049454E44AE426082
  0
ENDSEC
  0
EOF
