  0
SECTION
  2
HEADER
  9
$ACADVER
  1
AC1027
  9
$ACADMAINTVER
 70
    55
  9
$DWGCODEPAGE
  3
ANSI_949
  9
$LASTSAVEDBY
  1
DESKTOP
  9
$REQUIREDVERSIONS
160
                 0
  9
$INSBASE
 10
0.0
 20
0.0
 30
0.0
  9
$EXTMIN
 10
-2.740124999999977
 20
-2.740124999999977
 30
0.0
  9
$EXTMAX
 10
269.430375
 20
189.1482091645592
 30
0.0
  9
$LIMMIN
 10
0.0
 20
0.0
  9
$LIMMAX
 10
420.0
 20
297.0
  9
$ORTHOMODE
 70
     0
  9
$REGENMODE
 70
     1
  9
$FILLMODE
 70
     1
  9
$QTEXTMODE
 70
     0
  9
$MIRRTEXT
 70
     0
  9
$LTSCALE
 40
5.0
  9
$ATTMODE
 70
     1
  9
$TEXTSIZE
 40
3.0
  9
$TRACEWID
 40
1.0
  9
$TEXTSTYLE
  7
Standard
  9
$CLAYER
  8
0
  9
$CELTYPE
  6
Continuous
  9
$CECOLOR
 62
     7
  9
$CELTSCALE
 40
1.0
  9
$DISPSILH
 70
     0
  9
$DIMSCALE
 40
1.0
  9
$DIMASZ
 40
2.5
  9
$DIMEXO
 40
0.625
  9
$DIMDLI
 40
3.75
  9
$DIMRND
 40
0.0
  9
$DIMDLE
 40
0.0
  9
$DIMEXE
 40
1.25
  9
$DIMTP
 40
0.0
  9
$DIMTM
 40
0.000000001
  9
$DIMTXT
 40
3.0
  9
$DIMCEN
 40
-0.5
  9
$DIMTSZ
 40
0.0
  9
$DIMTOL
 70
     0
  9
$DIMLIM
 70
     0
  9
$DIMTIH
 70
     0
  9
$DIMTOH
 70
     0
  9
$DIMSE1
 70
     0
  9
$DIMSE2
 70
     0
  9
$DIMTAD
 70
     1
  9
$DIMZIN
 70
     8
  9
$DIMBLK
  1

  9
$DIMASO
 70
     1
  9
$DIMSHO
 70
     1
  9
$DIMPOST
  1

  9
$DIMAPOST
  1

  9
$DIMALT
 70
     0
  9
$DIMALTD
 70
     3
  9
$DIMALTF
 40
0.03937007874016
  9
$DIMLFAC
 40
1.0
  9
$DIMTOFL
 70
     1
  9
$DIMTVP
 40
0.0
  9
$DIMTIX
 70
     0
  9
$DIMSOXD
 70
     0
  9
$DIMSAH
 70
     0
  9
$DIMBLK1
  1

  9
$DIMBLK2
  1

  9
$DIMSTYLE
  2
Standard
  9
$DIMCLRD
 70
     3
  9
$DIMCLRE
 70
     3
  9
$DIMCLRT
 70
     2
  9
$DIMTFAC
 40
0.7
  9
$DIMGAP
 40
0.625
  9
$DIMJUST
 70
     0
  9
$DIMSD1
 70
     0
  9
$DIMSD2
 70
     0
  9
$DIMTOLJ
 70
     0
  9
$DIMTZIN
 70
     8
  9
$DIMALTZ
 70
     0
  9
$DIMALTTZ
 70
     0
  9
$DIMUPT
 70
     0
  9
$DIMDEC
 70
     8
  9
$DIMTDEC
 70
     8
  9
$DIMALTU
 70
     2
  9
$DIMALTTD
 70
     3
  9
$DIMTXSTY
  7
Standard
  9
$DIMAUNIT
 70
     1
  9
$DIMADEC
 70
     0
  9
$DIMALTRND
 40
0.0
  9
$DIMAZIN
 70
     0
  9
$DIMDSEP
 70
    46
  9
$DIMATFIT
 70
     3
  9
$DIMFRAC
 70
     0
  9
$DIMLDRBLK
  1

  9
$DIMLUNIT
 70
     2
  9
$DIMLWD
 70
    -1
  9
$DIMLWE
 70
    -1
  9
$DIMTMOVE
 70
     0
  9
$DIMFXL
 40
1.0
  9
$DIMFXLON
 70
     0
  9
$DIMJOGANG
 40
0.7853981633974483
  9
$DIMTFILL
 70
     0
  9
$DIMTFILLCLR
 70
     0
  9
$DIMARCSYM
 70
     1
  9
$DIMLTYPE
  6

  9
$DIMLTEX1
  6

  9
$DIMLTEX2
  6

  9
$DIMTXTDIRECTION
 70
     0
  9
$LUNITS
 70
     2
  9
$LUPREC
 70
     4
  9
$SKETCHINC
 40
0.0
  9
$FILLETRAD
 40
0.0
  9
$AUNITS
 70
     0
  9
$AUPREC
 70
     0
  9
$MENU
  1
.
  9
$ELEVATION
 40
0.0
  9
$PELEVATION
 40
0.0
  9
$THICKNESS
 40
0.0
  9
$LIMCHECK
 70
     0
  9
$CHAMFERA
 40
1.5
  9
$CHAMFERB
 40
1.5
  9
$CHAMFERC
 40
0.0
  9
$CHAMFERD
 40
0.0087266462599716
  9
$SKPOLY
 70
     0
  9
$TDCREATE
 40
2455072.745932974
  9
$TDUCREATE
 40
2455072.370932974
  9
$TDUPDATE
 40
2461019.591716643
  9
$TDUUPDATE
 40
2461019.216716644
  9
$TDINDWG
 40
132.1189046875
  9
$TDUSRTIMER
 40
132.1189045023
  9
$USRTIMER
 70
     1
  9
$ANGBASE
 50
0.0
  9
$ANGDIR
 70
     0
  9
$PDMODE
 70
     0
  9
$PDSIZE
 40
0.0
  9
$PLINEWID
 40
0.0
  9
$SPLFRAME
 70
     0
  9
$SPLINETYPE
 70
     6
  9
$SPLINESEGS
 70
     8
  9
$HANDSEED
  5
41DCD
  9
$SURFTAB1
 70
     6
  9
$SURFTAB2
 70
     6
  9
$SURFTYPE
 70
     6
  9
$SURFU
 70
     6
  9
$SURFV
 70
     6
  9
$UCSBASE
  2

  9
$UCSNAME
  2

  9
$UCSORG
 10
0.0
 20
0.0
 30
0.0
  9
$UCSXDIR
 10
1.0
 20
0.0
 30
0.0
  9
$UCSYDIR
 10
0.0
 20
1.0
 30
0.0
  9
$UCSORTHOREF
  2

  9
$UCSORTHOVIEW
 70
     0
  9
$UCSORGTOP
 10
0.0
 20
0.0
 30
0.0
  9
$UCSORGBOTTOM
 10
0.0
 20
0.0
 30
0.0
  9
$UCSORGLEFT
 10
0.0
 20
0.0
 30
0.0
  9
$UCSORGRIGHT
 10
0.0
 20
0.0
 30
0.0
  9
$UCSORGFRONT
 10
0.0
 20
0.0
 30
0.0
  9
$UCSORGBACK
 10
0.0
 20
0.0
 30
0.0
  9
$PUCSBASE
  2

  9
$PUCSNAME
  2

  9
$PUCSORG
 10
0.0
 20
0.0
 30
0.0
  9
$PUCSXDIR
 10
1.0
 20
0.0
 30
0.0
  9
$PUCSYDIR
 10
0.0
 20
1.0
 30
0.0
  9
$PUCSORTHOREF
  2

  9
$PUCSORTHOVIEW
 70
     0
  9
$PUCSORGTOP
 10
0.0
 20
0.0
 30
0.0
  9
$PUCSORGBOTTOM
 10
0.0
 20
0.0
 30
0.0
  9
$PUCSORGLEFT
 10
0.0
 20
0.0
 30
0.0
  9
$PUCSORGRIGHT
 10
0.0
 20
0.0
 30
0.0
  9
$PUCSORGFRONT
 10
0.0
 20
0.0
 30
0.0
  9
$PUCSORGBACK
 10
0.0
 20
0.0
 30
0.0
  9
$USERI1
 70
     0
  9
$USERI2
 70
     0
  9
$USERI3
 70
     0
  9
$USERI4
 70
     0
  9
$USERI5
 70
     0
  9
$USERR1
 40
0.0
  9
$USERR2
 40
0.0
  9
$USERR3
 40
0.0
  9
$USERR4
 40
0.0
  9
$USERR5
 40
0.0
  9
$WORLDVIEW
 70
     1
  9
$SHADEDGE
 70
     3
  9
$SHADEDIF
 70
    70
  9
$TILEMODE
 70
     1
  9
$MAXACTVP
 70
    64
  9
$PINSBASE
 10
0.0
 20
0.0
 30
0.0
  9
$PLIMCHECK
 70
     0
  9
$PEXTMIN
 10
1.000000000000000E+20
 20
1.000000000000000E+20
 30
1.000000000000000E+20
  9
$PEXTMAX
 10
-1.000000000000000E+20
 20
-1.000000000000000E+20
 30
-1.000000000000000E+20
  9
$PLIMMIN
 10
-20.0
 20
-7.5
  9
$PLIMMAX
 10
277.0
 20
202.5
  9
$UNITMODE
 70
     0
  9
$VISRETAIN
 70
     1
  9
$PLINEGEN
 70
     0
  9
$PSLTSCALE
 70
     1
  9
$TREEDEPTH
 70
  3020
  9
$CMLSTYLE
  2
Standard
  9
$CMLJUST
 70
     0
  9
$CMLSCALE
 40
20.0
  9
$PROXYGRAPHICS
 70
     1
  9
$MEASUREMENT
 70
     1
  9
$CELWEIGHT
370
    -1
  9
$ENDCAPS
280
     0
  9
$JOINSTYLE
280
     0
  9
$LWDISPLAY
290
     0
  9
$INSUNITS
 70
     4
  9
$HYPERLINKBASE
  1

  9
$STYLESHEET
  1
ksm0910.ctb
  9
$XEDIT
290
     1
  9
$CEPSNTYPE
380
     0
  9
$PSTYLEMODE
290
     1
  9
$FINGERPRINTGUID
  2
{D2C70C36-9B4F-4E20-9CCB-531AA1EE4AC8}
  9
$VERSIONGUID
  2
{AB6E874C-9290-4464-96D7-44C46CE528A3}
  9
$EXTNAMES
290
     1
  9
$PSVPSCALE
 40
0.0
  9
$OLESTARTUP
290
     0
  9
$SORTENTS
280
   127
  9
$INDEXCTL
280
     0
  9
$HIDETEXT
280
     1
  9
$XCLIPFRAME
280
     2
  9
$HALOGAP
280
     0
  9
$OBSCOLOR
 70
   257
  9
$OBSLTYPE
280
     0
  9
$INTERSECTIONDISPLAY
280
     0
  9
$INTERSECTIONCOLOR
 70
   257
  9
$DIMASSOC
280
     1
  9
$PROJECTNAME
  1

  9
$CAMERADISPLAY
290
     0
  9
$LENSLENGTH
 40
50.0
  9
$CAMERAHEIGHT
 40
0.0
  9
$STEPSPERSEC
 40
2.0
  9
$STEPSIZE
 40
6.0
  9
$3DDWFPREC
 40
2.0
  9
$PSOLWIDTH
 40
5.0
  9
$PSOLHEIGHT
 40
80.0
  9
$LOFTANG1
 40
1.570796326794896
  9
$LOFTANG2
 40
1.570796326794896
  9
$LOFTMAG1
 40
0.0
  9
$LOFTMAG2
 40
0.0
  9
$LOFTPARAM
 70
     7
  9
$LOFTNORMALS
280
     1
  9
$LATITUDE
 40
37.795
  9
$LONGITUDE
 40
-122.394
  9
$NORTHDIRECTION
 40
0.0
  9
$TIMEZONE
 70
 -8000
  9
$LIGHTGLYPHDISPLAY
280
     1
  9
$TILEMODELIGHTSYNCH
280
     1
  9
$CMATERIAL
347
3D
  9
$SOLIDHIST
280
     1
  9
$SHOWHIST
280
     1
  9
$DWFFRAME
280
     2
  9
$DGNFRAME
280
     0
  9
$REALWORLDSCALE
290
     1
  9
$INTERFERECOLOR
 62
     1
  9
$INTERFEREOBJVS
345
46
  9
$INTERFEREVPVS
346
47
  9
$CSHADOW
280
     0
  9
$SHADOWPLANELOCATION
 40
0.0
  0
ENDSEC
  0
SECTION
  2
CLASSES
  0
CLASS
  1
ACDBDICTIONARYWDFLT
  2
AcDbDictionaryWithDefault
  3
ObjectDBX Classes
 90
        0
 91
        1
280
     0
281
     0
  0
CLASS
  1
DICTIONARYVAR
  2
AcDbDictionaryVar
  3
ObjectDBX Classes
 90
        0
 91
       18
280
     0
281
     0
  0
CLASS
  1
TABLESTYLE
  2
AcDbTableStyle
  3
ObjectDBX Classes
 90
     4095
 91
        1
280
     0
281
     0
  0
CLASS
  1
MATERIAL
  2
AcDbMaterial
  3
ObjectDBX Classes
 90
     1153
 91
        3
280
     0
281
     0
  0
CLASS
  1
VISUALSTYLE
  2
AcDbVisualStyle
  3
ObjectDBX Classes
 90
     4095
 91
       26
280
     0
281
     0
  0
CLASS
  1
SCALE
  2
AcDbScale
  3
ObjectDBX Classes
 90
     1153
 91
       17
280
     0
281
     0
  0
CLASS
  1
MLEADERSTYLE
  2
AcDbMLeaderStyle
  3
ACDB_MLEADERSTYLE_CLASS
 90
     4095
 91
        1
280
     0
281
     0
  0
CLASS
  1
CELLSTYLEMAP
  2
AcDbCellStyleMap
  3
ObjectDBX Classes
 90
     1152
 91
        2
280
     0
281
     0
  0
CLASS
  1
SORTENTSTABLE
  2
AcDbSortentsTable
  3
ObjectDBX Classes
 90
        0
 91
        1
280
     0
281
     0
  0
CLASS
  1
DIMASSOC
  2
AcDbDimAssoc
  3
"AcDbDimAssoc|Product Desc:     AcDim ARX App For Dimension|Company:          Autodesk, Inc.|WEB Address:      www.autodesk.com"
 90
        0
 91
        0
280
     0
281
     0
  0
CLASS
  1
SOLID_BACKGROUND
  2
AcDbSolidBackground
  3
SCENEOE
 90
     4095
 91
        0
280
     0
281
     0
  0
CLASS
  1
NPOCOLLECTION
  2
AcDbImpNonPersistentObjectsCollection
  3
ObjectDBX Classes
 90
     1153
 91
        0
280
     0
281
     0
  0
CLASS
  1
ACAD_EVALUATION_GRAPH
  2
AcDbEvalGraph
  3
ObjectDBX Classes
 90
     1153
 91
        0
280
     0
281
     0
  0
CLASS
  1
ACAECUSTOBJ
  2
AcAeEditorObj
  3
AcAeEditorObj
 90
     1024
 91
        0
280
     1
281
     0
  0
CLASS
  1
ACDB_DYNAMICBLOCKPURGEPREVENTER_VERSION
  2
AcDbDynamicBlockPurgePreventer
  3
ObjectDBX Classes
 90
     1153
 91
        0
280
     0
281
     0
  0
CLASS
  1
HELIX
  2
AcDbHelix
  3
ObjectDBX Classes
 90
     4095
 91
        0
280
     0
281
     1
  0
CLASS
  1
MULTILEADER
  2
AcDbMLeader
  3
ACDB_MLEADER_CLASS
 90
     1025
 91
        2
280
     0
281
     1
  0
CLASS
  1
ACMDIMBREAKPERSREACTOR
  2
AcmDimBreakPersReactor
  3
amgDimApp().moduleName()
 90
     1023
 91
        0
280
     1
281
     0
  0
CLASS
  1
ACDB_MTEXTOBJECTCONTEXTDATA_CLASS
  2
AcDbMTextObjectContextData
  3
ObjectDBX Classes
 90
     1153
 91
        0
280
     0
281
     0
  0
CLASS
  1
BREAKDATA
  2
AcDbBreakData
  3
ObjectDBX Classes
 90
     1024
 91
        0
280
     0
281
     0
  0
CLASS
  1
EXACXREFPANELOBJECT
  2
ExAcXREFPanelObject
  3
EXAC_ESW
 90
     1025
 91
        0
280
     1
281
     0
  0
CLASS
  1
ACDBSECTIONVIEWSTYLE
  2
AcDbSectionViewStyle
  3
ObjectDBX Classes
 90
     1025
 91
        2
280
     0
281
     0
  0
CLASS
  1
ACDBDETAILVIEWSTYLE
  2
AcDbDetailViewStyle
  3
ObjectDBX Classes
 90
     1025
 91
        2
280
     0
281
     0
  0
CLASS
  1
ACDBASSOCACTION
  2
AcDbAssocAction
  3
ObjectDBX Classes
 90
     1025
 91
        0
280
     0
281
     0
  0
CLASS
  1
ACDBASSOCARRAYACTIONBODY
  2
AcDbAssocArrayActionBody
  3
ObjectDBX Classes
 90
     1025
 91
        0
280
     0
281
     0
  0
CLASS
  1
ACDBASSOCDEPENDENCY
  2
AcDbAssocDependency
  3
ObjectDBX Classes
 90
     1025
 91
        0
280
     0
281
     0
  0
CLASS
  1
ACDBASSOCVERTEXACTIONPARAM
  2
AcDbAssocVertexActionParam
  3
ObjectDBX Classes
 90
     1025
 91
        0
280
     0
281
     0
  0
CLASS
  1
ACDBASSOCARRAYPOLARPARAMETERS
  2
AcDbAssocArrayPolarParameters
  3
ObjectDBX Classes
 90
     1025
 91
        0
280
     0
281
     0
  0
CLASS
  1
ACDBASSOCNETWORK
  2
AcDbAssocNetwork
  3
ObjectDBX Classes
 90
     1025
 91
        0
280
     0
281
     0
  0
CLASS
  1
ACARRAYJIGENTITY
  2
AcArrayJigEntity
  3
ACAD_ARRAY
 90
      129
 91
        0
280
     0
281
     1
  0
ENDSEC
  0
SECTION
  2
TABLES
  0
TABLE
  2
VPORT
  5
2C
102
{ACAD_XDICTIONARY
360
31
102
}
330
0
100
AcDbSymbolTable
 70
     1
  0
VPORT
  5
2D
330
2C
100
AcDbSymbolTableRecord
100
AcDbViewportTableRecord
  2
*Active
 70
     0
 10
0.0
 20
0.0
 11
1.0
 21
1.0
 12
133.3510973063264
 22
93.20034513240647
 13
0.0
 23
0.0
 14
2.0
 24
2.0
 15
2.0
 25
2.0
 16
0.0
 26
0.0
 36
1.0
 17
0.0
 27
0.0
 37
0.0
 40
193.2796305365966
 41
2.176540284360189
 42
50.0
 43
0.0
 44
0.0
 50
0.0
 51
0.0
 71
     0
 72
  1000
 73
     1
 74
     3
 75
     0
 76
     0
 77
     0
 78
     1
281
     0
 65
     1
110
0.0
120
0.0
130
0.0
111
1.0
121
0.0
131
0.0
112
0.0
122
1.0
132
0.0
 79
     0
146
0.0
348
2E
 60
     3
 61
     5
292
     1
282
     1
141
0.0
142
0.0
 63
   250
421
  3355443
1001
ACAD_NAV_VCDISPLAY
1070
     3
  0
ENDTAB
  0
TABLE
  2
LTYPE
  5
27
330
0
100
AcDbSymbolTable
 70
     4
  0
LTYPE
  5
28
330
27
100
AcDbSymbolTableRecord
100
AcDbLinetypeTableRecord
  2
ByBlock
 70
     0
  3

 72
    65
 73
     0
 40
0.0
  0
LTYPE
  5
29
330
27
100
AcDbSymbolTableRecord
100
AcDbLinetypeTableRecord
  2
ByLayer
 70
     0
  3

 72
    65
 73
     0
 40
0.0
  0
LTYPE
  5
14
330
27
100
AcDbSymbolTableRecord
100
AcDbLinetypeTableRecord
  2
Continuous
 70
     0
  3
Solid line
 72
    65
 73
     0
 40
0.0
  0
LTYPE
  5
39E15
330
27
100
AcDbSymbolTableRecord
100
AcDbLinetypeTableRecord
  2
CENTER
 70
     0
  3
____ _ ____ _ ____ _ ____ _ ____ _ ____ _ ____ 
 72
    65
 73
     4
 40
2.0
 49
1.25
 74
     0
 49
-0.25
 74
     0
 49
0.25
 74
     0
 49
-0.25
 74
     0
  0
LTYPE
  5
3BE46
330
27
100
AcDbSymbolTableRecord
100
AcDbLinetypeTableRecord
  2
HIDDEN
 70
     0
  3
Hidden __ __ __ __ __ __ __ __ __ __ __ __ __ _
 72
    65
 73
     2
 40
9.524999999999998
 49
6.349999999999999
 74
     0
 49
-3.174999999999999
 74
     0
  0
LTYPE
  5
413DB
330
27
100
AcDbSymbolTableRecord
100
AcDbLinetypeTableRecord
  2
CENTER2
 70
     0
  3
Center (.5x) ___ _ ___ _ ___ _ ___ _ ___ _ ___
 72
    65
 73
     4
 40
1.125
 49
0.75
 74
     0
 49
-0.125
 74
     0
 49
0.125
 74
     0
 49
-0.125
 74
     0
  0
ENDTAB
  0
TABLE
  2
LAYER
  5
21
102
{ACAD_XDICTIONARY
360
22
102
}
330
0
100
AcDbSymbolTable
 70
     5
  0
LAYER
  5
6
102
{ACAD_XDICTIONARY
360
7
102
}
330
21
100
AcDbSymbolTableRecord
100
AcDbLayerTableRecord
  2
0
 70
     0
 62
     7
  6
Continuous
370
    -3
390
9
347
C
348
0
  0
LAYER
  5
1A4
330
21
100
AcDbSymbolTableRecord
100
AcDbLayerTableRecord
  2
DEFPOINTS
 70
     0
 62
     7
  6
Continuous
290
     0
370
    -3
390
9
347
C
348
0
  0
LAYER
  5
283CB
330
21
100
AcDbSymbolTableRecord
100
AcDbLayerTableRecord
  2
Layer 1
 70
     0
 62
     7
  6
Continuous
370
     0
390
9
347
C
348
0
  0
LAYER
  5
4174B
330
21
100
AcDbSymbolTableRecord
100
AcDbLayerTableRecord
  2
2
 70
     0
 62
     2
  6
HIDDEN
370
    -3
390
9
347
C
348
0
  0
LAYER
  5
4174C
330
21
100
AcDbSymbolTableRecord
100
AcDbLayerTableRecord
  2
3
 70
     0
 62
     3
  6
CENTER
370
    -3
390
9
347
C
348
0
  0
ENDTAB
  0
TABLE
  2
STYLE
  5
24
330
0
100
AcDbSymbolTable
 70
     3
  0
STYLE
  5
25
330
24
100
AcDbSymbolTableRecord
100
AcDbTextStyleTableRecord
  2
Standard
 70
     0
 40
3.0
 41
1.0
 50
0.0
 71
     0
 42
3.0
  3
isocp.shx
  4
whgtxt.shx
  0
STYLE
  5
35
330
24
100
AcDbSymbolTableRecord
100
AcDbTextStyleTableRecord
  2
ROMANS
 70
     0
 40
2.5
 41
1.0
 50
0.0
 71
     0
 42
2.5
  3
romans.shx
  4

  0
STYLE
  5
5C
330
24
100
AcDbSymbolTableRecord
100
AcDbTextStyleTableRecord
  2
굴림
 70
     0
 40
3.0
 41
1.0
 50
0.0
 71
     0
 42
3.0
  3

  4

1001
ACAD
1000
Gulim
1071
    33074
  0
ENDTAB
  0
TABLE
  2
VIEW
  5
2A
330
0
100
AcDbSymbolTable
 70
     0
  0
ENDTAB
  0
TABLE
  2
UCS
  5
2B
330
0
100
AcDbSymbolTable
 70
     0
  0
ENDTAB
  0
TABLE
  2
APPID
  5
32
330
0
100
AcDbSymbolTable
 70
    45
  0
APPID
  5
13
330
32
100
AcDbSymbolTableRecord
100
AcDbRegAppTableRecord
  2
ACAD
 70
     0
  0
APPID
  5
1A
330
32
100
AcDbSymbolTableRecord
100
AcDbRegAppTableRecord
  2
ACAD_PSEXT
 70
     0
  0
APPID
  5
37
330
32
100
AcDbSymbolTableRecord
100
AcDbRegAppTableRecord
  2
ACAD_DSTYLE_DIMJAG
 70
     0
  0
APPID
  5
38
330
32
100
AcDbSymbolTableRecord
100
AcDbRegAppTableRecord
  2
ACAD_DSTYLE_DIMTALN
 70
     0
  0
APPID
  5
36
330
32
100
AcDbSymbolTableRecord
100
AcDbRegAppTableRecord
  2
ACAD_DSTYLE_DIMJOGGED_JOGANGLE_SYMBOL
 70
     0
  0
APPID
  5
183
330
32
100
AcDbSymbolTableRecord
100
AcDbRegAppTableRecord
  2
AcAecLayerStandard
 70
     0
  0
APPID
  5
3DE
330
32
100
AcDbSymbolTableRecord
100
AcDbRegAppTableRecord
  2
ACAD_DSTYLE_DIMRADIAL_EXTENSION
 70
     0
  0
APPID
  5
530
330
32
100
AcDbSymbolTableRecord
100
AcDbRegAppTableRecord
  2
GRADIENTCOLOR1ACI
 70
     0
  0
APPID
  5
531
330
32
100
AcDbSymbolTableRecord
100
AcDbRegAppTableRecord
  2
GRADIENTCOLOR2ACI
 70
     0
  0
APPID
  5
30
330
32
100
AcDbSymbolTableRecord
100
AcDbRegAppTableRecord
  2
ACAD_NAV_VCDISPLAY
 70
     0
  0
APPID
  5
C34
330
32
100
AcDbSymbolTableRecord
100
AcDbRegAppTableRecord
  2
ACAD_MLEADERVER
 70
     0
  0
APPID
  5
C97
330
32
100
AcDbSymbolTableRecord
100
AcDbRegAppTableRecord
  2
ACAD_EXEMPT_FROM_CAD_STANDARDS
 70
     0
  0
APPID
  5
D79
330
32
100
AcDbSymbolTableRecord
100
AcDbRegAppTableRecord
  2
AcadAnnoMonitorAlertIconDisabled
 70
     0
  0
APPID
  5
1A45
330
32
100
AcDbSymbolTableRecord
100
AcDbRegAppTableRecord
  2
GENIUS_GENODEF_13
 70
     0
  0
APPID
  5
1A46
330
32
100
AcDbSymbolTableRecord
100
AcDbRegAppTableRecord
  2
GENIUS_GENOBJ-N-FIL_13
 70
     0
  0
APPID
  5
1A47
330
32
100
AcDbSymbolTableRecord
100
AcDbRegAppTableRecord
  2
ACAD_DSTYLE_DIMBREAK
 70
     0
  0
APPID
  5
1A48
330
32
100
AcDbSymbolTableRecord
100
AcDbRegAppTableRecord
  2
GENIUS_GENOBJ-N-HTC_13
 70
     0
  0
APPID
  5
1A49
330
32
100
AcDbSymbolTableRecord
100
AcDbRegAppTableRecord
  2
GENIUS_GENHATCH_13
 70
     0
  0
APPID
  5
1A4A
330
32
100
AcDbSymbolTableRecord
100
AcDbRegAppTableRecord
  2
GENIUS_GENREC_14
 70
     0
  0
APPID
  5
1A4B
330
32
100
AcDbSymbolTableRecord
100
AcDbRegAppTableRecord
  2
GENIUS_GENOBJ-N-REC_13
 70
     0
  0
APPID
  5
1A4C
330
32
100
AcDbSymbolTableRecord
100
AcDbRegAppTableRecord
  2
ACAUTHENVIRON
 70
     0
  0
APPID
  5
1A4D
330
32
100
AcDbSymbolTableRecord
100
AcDbRegAppTableRecord
  2
AcDbDynamicBlockTrueName
 70
     0
  0
APPID
  5
1A4E
330
32
100
AcDbSymbolTableRecord
100
AcDbRegAppTableRecord
  2
AcDbDynamicBlockGUID
 70
     0
  0
APPID
  5
1A4F
330
32
100
AcDbSymbolTableRecord
100
AcDbRegAppTableRecord
  2
AcDbBlockRepETag
 70
     0
  0
APPID
  5
1A50
330
32
100
AcDbSymbolTableRecord
100
AcDbRegAppTableRecord
  2
DCO15
 70
     0
  0
APPID
  5
1A51
330
32
100
AcDbSymbolTableRecord
100
AcDbRegAppTableRecord
  2
ACAD_DSTYLE_DIMTEXT_FILL
 70
     0
  0
APPID
  5
1A52
330
32
100
AcDbSymbolTableRecord
100
AcDbRegAppTableRecord
  2
ACAD_DSTYLE_DIM_LINETYPE
 70
     0
  0
APPID
  5
1A53
330
32
100
AcDbSymbolTableRecord
100
AcDbRegAppTableRecord
  2
ACAD_DSTYLE_DIM_EXT1_LINETYPE
 70
     0
  0
APPID
  5
1A54
330
32
100
AcDbSymbolTableRecord
100
AcDbRegAppTableRecord
  2
ACAD_DSTYLE_DIM_EXT2_LINETYPE
 70
     0
  0
APPID
  5
1A55
330
32
100
AcDbSymbolTableRecord
100
AcDbRegAppTableRecord
  2
ACAD_DSTYLE_DIMINSPECT
 70
     0
  0
APPID
  5
1A56
330
32
100
AcDbSymbolTableRecord
100
AcDbRegAppTableRecord
  2
AcadAnnotative
 70
     0
  0
APPID
  5
1A57
330
32
100
AcDbSymbolTableRecord
100
AcDbRegAppTableRecord
  2
GENIUS_GENDTOL_13
 70
     0
  0
APPID
  5
1A58
330
32
100
AcDbSymbolTableRecord
100
AcDbRegAppTableRecord
  2
GENIUS_GENFIL_13
 70
     0
  0
APPID
  5
1A59
330
32
100
AcDbSymbolTableRecord
100
AcDbRegAppTableRecord
  2
GENIUS_GENOBJ-N-CHA_13
 70
     0
  0
APPID
  5
1A5A
330
32
100
AcDbSymbolTableRecord
100
AcDbRegAppTableRecord
  2
AcadAnnotativeDecomposition
 70
     0
  0
APPID
  5
1A5B
330
32
100
AcDbSymbolTableRecord
100
AcDbRegAppTableRecord
  2
MCAD_NO_VIS
 70
     0
  0
APPID
  5
1A5C
330
32
100
AcDbSymbolTableRecord
100
AcDbRegAppTableRecord
  2
ACAD_TEMP_GRAPHIC
 70
     0
  0
APPID
  5
1A5D
330
32
100
AcDbSymbolTableRecord
100
AcDbRegAppTableRecord
  2
ACATTRIBSERVICES
 70
     0
  0
APPID
  5
1A5E
330
32
100
AcDbSymbolTableRecord
100
AcDbRegAppTableRecord
  2
DESIGNERASSEMBLIES
 70
     0
  0
APPID
  5
1A5F
330
32
100
AcDbSymbolTableRecord
100
AcDbRegAppTableRecord
  2
GENIUS_GENDIMSH_14
 70
     0
  0
APPID
  5
1A60
330
32
100
AcDbSymbolTableRecord
100
AcDbRegAppTableRecord
  2
ACAD_DSTYLE_DIMARC_LENGTH_SYMBOL
 70
     0
  0
APPID
  5
1A61
330
32
100
AcDbSymbolTableRecord
100
AcDbRegAppTableRecord
  2
ACAD_SPLINE_DATA
 70
     0
  0
APPID
  5
1A62
330
32
100
AcDbSymbolTableRecord
100
AcDbRegAppTableRecord
  2
GENIUS_GENOREF_13
 70
     0
  0
APPID
  5
1A63
330
32
100
AcDbSymbolTableRecord
100
AcDbRegAppTableRecord
  2
ACAD_DSTYLE_DIMANGULAR_EXTENSION
 70
     0
  0
APPID
  5
318CC
330
32
100
AcDbSymbolTableRecord
100
AcDbRegAppTableRecord
  2
HATCHBACKGROUNDCOLOR
 70
     0
  0
ENDTAB
  0
TABLE
  2
DIMSTYLE
  5
33
330
0
100
AcDbSymbolTable
 70
     2
100
AcDbDimStyleTable
 71
     1
340
34
  0
DIMSTYLE
105
34
330
33
100
AcDbSymbolTableRecord
100
AcDbDimStyleTableRecord
  2
Standard
 70
     0
 41
2.5
 73
     0
 77
     3
 78
     8
140
2.5
141
-1.0
147
1.0
175
     1
176
     3
177
     3
178
     2
179
     8
271
     8
272
     8
275
     1
340
35
1001
ACAD_DSTYLE_DIMJOGGED_JOGANGLE_SYMBOL
1070
   384
1040
0.7853981633974483
1001
ACAD_DSTYLE_DIMJAG
1070
   388
1040
1.5
1001
ACAD_DSTYLE_DIMTALN
1070
   392
1070
     0
  0
DIMSTYLE
105
1A8
102
{ACAD_REACTORS
330
41A0D
330
41A2B
330
41CA3
102
}
330
33
100
AcDbSymbolTableRecord
100
AcDbDimStyleTableRecord
  2
Standard$0
 70
     0
 41
2.5
 73
     0
 77
     3
 78
     8
140
2.5
141
-1.0
147
1.0
175
     1
176
     3
177
     3
178
     2
179
     8
271
     8
272
     8
275
     1
340
35
  0
ENDTAB
  0
TABLE
  2
BLOCK_RECORD
  5
1
330
0
100
AcDbSymbolTable
 70
     3
  0
BLOCK_RECORD
  5
2
102
{ACAD_XDICTIONARY
360
3
102
}
330
1
100
AcDbSymbolTableRecord
100
AcDbBlockTableRecord
  2
*Model_Space
340
16
 70
     0
280
     1
281
     0
  0
BLOCK_RECORD
  5
1B
330
1
100
AcDbSymbolTableRecord
100
AcDbBlockTableRecord
  2
*Paper_Space
340
1E
 70
     0
280
     1
281
     0
  0
BLOCK_RECORD
  5
41A43
330
1
100
AcDbSymbolTableRecord
100
AcDbBlockTableRecord
  2
*D0
340
0
 70
     0
280
     1
281
     0
  0
BLOCK_RECORD
  5
41A6B
330
1
100
AcDbSymbolTableRecord
100
AcDbBlockTableRecord
  2
*D1
340
0
 70
     0
280
     1
281
     0
  0
BLOCK_RECORD
  5
41CA4
330
1
100
AcDbSymbolTableRecord
100
AcDbBlockTableRecord
  2
*D2
340
0
 70
     0
280
     1
281
     0
  0
ENDTAB
  0
ENDSEC
  0
SECTION
  2
BLOCKS
  0
BLOCK
  5
5
330
2
100
AcDbEntity
  8
0
100
AcDbBlockBegin
  2
*Model_Space
 70
     0
 10
0.0
 20
0.0
 30
0.0
  3
*Model_Space
  1

  0
ENDBLK
  5
15
330
2
100
AcDbEntity
  8
0
100
AcDbBlockEnd
  0
BLOCK
  5
1C
330
1B
100
AcDbEntity
 67
     1
  8
0
100
AcDbBlockBegin
  2
*Paper_Space
 70
     0
 10
0.0
 20
0.0
 30
0.0
  3
*Paper_Space
  1

  0
ENDBLK
  5
1D
330
1B
100
AcDbEntity
 67
     1
  8
0
100
AcDbBlockEnd
  0
BLOCK
  5
41A44
330
41A43
100
AcDbEntity
  8
0
 62
     7
100
AcDbBlockBegin
  2
*D0
 70
     1
 10
0.0
 20
0.0
 30
0.0
  3
*D0
  1

  0
LINE
  5
41D3F
330
41A43
100
AcDbEntity
  8
0
  6
Continuous
 62
     3
440
 16777216
100
AcDbLine
 10
177.239050767101
 20
74.15651024613623
 30
0.0
 11
207.2856139235713
 21
74.15651024613623
 31
0.0
  0
LINE
  5
41D40
330
41A43
100
AcDbEntity
  8
0
  6
Continuous
 62
     3
440
 16777216
100
AcDbLine
 10
177.239050767101
 20
114.156510246133
 30
0.0
 11
207.2856139235713
 21
114.156510246133
 31
0.0
  0
LINE
  5
41D41
330
41A43
100
AcDbEntity
  8
0
  6
Continuous
 62
     3
440
 16777216
100
AcDbLine
 10
206.0356139235713
 20
76.65651024613623
 30
0.0
 11
206.0356139235713
 21
111.656510246133
 31
0.0
  0
SOLID
  5
41D42
330
41A43
100
AcDbEntity
  8
0
  6
Continuous
 62
     3
440
 16777216
100
AcDbTrace
 10
205.6189472569046
 20
76.65651024613623
 30
0.0
 11
206.4522805902379
 21
76.65651024613623
 31
0.0
 12
206.0356139235713
 22
74.15651024613623
 32
0.0
 13
206.0356139235713
 23
74.15651024613623
 33
0.0
  0
SOLID
  5
41D43
330
41A43
100
AcDbEntity
  8
0
  6
Continuous
 62
     3
440
 16777216
100
AcDbTrace
 10
205.6189472569046
 20
111.656510246133
 30
0.0
 11
206.4522805902379
 21
111.656510246133
 31
0.0
 12
206.0356139235713
 22
114.156510246133
 32
0.0
 13
206.0356139235713
 23
114.156510246133
 33
0.0
  0
MTEXT
  5
41D44
330
41A43
100
AcDbEntity
  8
0
  6
Continuous
 62
     2
440
 16777216
100
AcDbMText
 10
203.9106139235713
 20
95.62893804800808
 30
0.0
 40
3.0
 41
0.0
 46
0.0
 71
     5
 72
     1
  1
%%C1.5748
 11
0.0000000000000001
 21
1.0
 31
0.0
 73
     1
 44
1.0
  0
POINT
  5
41D45
330
41A43
100
AcDbEntity
  8
DEFPOINTS
  6
Continuous
 62
     0
440
 16777216
100
AcDbPoint
 10
176.614050767101
 20
74.15651024613623
 30
0.0
  0
POINT
  5
41D46
330
41A43
100
AcDbEntity
  8
DEFPOINTS
  6
Continuous
 62
     0
440
 16777216
100
AcDbPoint
 10
176.614050767101
 20
114.156510246133
 30
0.0
  0
POINT
  5
41D47
330
41A43
100
AcDbEntity
  8
DEFPOINTS
  6
Continuous
 62
     0
440
 16777216
100
AcDbPoint
 10
206.0356139235713
 20
114.156510246133
 30
0.0
  0
ENDBLK
  5
41A45
330
41A43
100
AcDbEntity
  8
0
 62
     7
100
AcDbBlockEnd
  0
BLOCK
  5
41A6C
330
41A6B
100
AcDbEntity
  8
0
 62
     7
100
AcDbBlockBegin
  2
*D1
 70
     1
 10
0.0
 20
0.0
 30
0.0
  3
*D1
  1

  0
LINE
  5
41D48
330
41A6B
100
AcDbEntity
  8
0
  6
Continuous
 62
     3
440
 16777216
100
AcDbLine
 10
181.3254205527715
 20
108.5710102461327
 30
0.0
 11
199.2856139235712
 21
108.5710102461327
 31
0.0
  0
LINE
  5
41D49
330
41A6B
100
AcDbEntity
  8
0
  6
Continuous
 62
     3
440
 16777216
100
AcDbLine
 10
181.325420552771
 20
79.74201024613342
 30
0.0
 11
199.2856139235712
 21
79.74201024613342
 31
0.0
  0
LINE
  5
41D4A
330
41A6B
100
AcDbEntity
  8
0
  6
Continuous
 62
     3
440
 16777216
100
AcDbLine
 10
198.0356139235712
 20
106.0710102461327
 30
0.0
 11
198.0356139235712
 21
82.24201024613341
 31
0.0
  0
SOLID
  5
41D4B
330
41A6B
100
AcDbEntity
  8
0
  6
Continuous
 62
     3
440
 16777216
100
AcDbTrace
 10
197.6189472569046
 20
106.0710102461327
 30
0.0
 11
198.4522805902379
 21
106.0710102461327
 31
0.0
 12
198.0356139235712
 22
108.5710102461327
 32
0.0
 13
198.0356139235712
 23
108.5710102461327
 33
0.0
  0
SOLID
  5
41D4C
330
41A6B
100
AcDbEntity
  8
0
  6
Continuous
 62
     3
440
 16777216
100
AcDbTrace
 10
197.6189472569046
 20
82.24201024613341
 30
0.0
 11
198.4522805902379
 21
82.24201024613341
 31
0.0
 12
198.0356139235712
 22
79.74201024613342
 32
0.0
 13
198.0356139235712
 23
79.74201024613342
 33
0.0
  0
MTEXT
  5
41D4D
330
41A6B
100
AcDbEntity
  8
0
  6
Continuous
 62
     2
440
 16777216
100
AcDbMText
 10
195.9106139235712
 20
94.15651024613309
 30
0.0
 40
3.0
 41
0.0
 46
0.0
 71
     5
 72
     1
  1
%%c1.135
 11
0.0000000000000001
 21
1.0
 31
0.0
 73
     1
 44
1.0
  0
POINT
  5
41D4E
330
41A6B
100
AcDbEntity
  8
DEFPOINTS
  6
Continuous
 62
     0
440
 16777216
100
AcDbPoint
 10
180.7004205527715
 20
108.5710102461327
 30
0.0
  0
POINT
  5
41D4F
330
41A6B
100
AcDbEntity
  8
DEFPOINTS
  6
Continuous
 62
     0
440
 16777216
100
AcDbPoint
 10
180.700420552771
 20
79.74201024613342
 30
0.0
  0
POINT
  5
41D50
330
41A6B
100
AcDbEntity
  8
DEFPOINTS
  6
Continuous
 62
     0
440
 16777216
100
AcDbPoint
 10
198.0356139235712
 20
79.74201024613342
 30
0.0
  0
ENDBLK
  5
41A6D
330
41A6B
100
AcDbEntity
  8
0
 62
     7
100
AcDbBlockEnd
  0
BLOCK
  5
41CA5
330
41CA4
100
AcDbEntity
  8
0
 62
     7
100
AcDbBlockBegin
  2
*D2
 70
     1
 10
0.0
 20
0.0
 30
0.0
  3
*D2
  1

  0
LINE
  5
41D51
330
41CA4
100
AcDbEntity
  8
0
  6
Continuous
 62
     3
440
 16777216
100
AcDbLine
 10
118.700420552771
 20
107.3315102461341
 30
0.0
 11
118.700420552771
 21
133.3415574606643
 31
0.0
  0
LINE
  5
41D52
330
41CA4
100
AcDbEntity
  8
0
  6
Continuous
 62
     3
440
 16777216
100
AcDbLine
 10
180.700420552771
 20
109.1960102461336
 30
0.0
 11
180.700420552771
 21
133.3415574606643
 31
0.0
  0
LINE
  5
41D53
330
41CA4
100
AcDbEntity
  8
0
  6
Continuous
 62
     3
440
 16777216
100
AcDbLine
 10
121.200420552771
 20
132.0915574606643
 30
0.0
 11
178.200420552771
 21
132.0915574606643
 31
0.0
  0
SOLID
  5
41D54
330
41CA4
100
AcDbEntity
  8
0
  6
Continuous
 62
     3
440
 16777216
100
AcDbTrace
 10
121.200420552771
 20
132.508224127331
 30
0.0
 11
121.200420552771
 21
131.6748907939976
 31
0.0
 12
118.700420552771
 22
132.0915574606643
 32
0.0
 13
118.700420552771
 23
132.0915574606643
 33
0.0
  0
SOLID
  5
41D55
330
41CA4
100
AcDbEntity
  8
0
  6
Continuous
 62
     3
440
 16777216
100
AcDbTrace
 10
178.200420552771
 20
132.508224127331
 30
0.0
 11
178.200420552771
 21
131.6748907939976
 31
0.0
 12
180.700420552771
 22
132.0915574606643
 32
0.0
 13
180.700420552771
 23
132.0915574606643
 33
0.0
  0
MTEXT
  5
41D56
330
41CA4
100
AcDbEntity
  8
0
  6
Continuous
 62
     2
440
 16777216
100
AcDbMText
 10
149.700420552771
 20
134.2168527362548
 30
0.0
 40
3.0
 41
0.0
 46
0.0
 71
     5
 72
     1
  1
2.44
 73
     1
 44
1.0
  0
POINT
  5
41D57
330
41CA4
100
AcDbEntity
  8
DEFPOINTS
  6
Continuous
 62
     0
440
 16777216
100
AcDbPoint
 10
118.700420552771
 20
106.7065102461341
 30
0.0
  0
POINT
  5
41D58
330
41CA4
100
AcDbEntity
  8
DEFPOINTS
  6
Continuous
 62
     0
440
 16777216
100
AcDbPoint
 10
180.700420552771
 20
108.5710102461336
 30
0.0
  0
POINT
  5
41D59
330
41CA4
100
AcDbEntity
  8
DEFPOINTS
  6
Continuous
 62
     0
440
 16777216
100
AcDbPoint
 10
180.700420552771
 20
132.0915574606643
 30
0.0
  0
ENDBLK
  5
41CA6
330
41CA4
100
AcDbEntity
  8
0
 62
     7
100
AcDbBlockEnd
  0
ENDSEC
  0
SECTION
  2
ENTITIES
  0
LWPOLYLINE
  5
3C9CD
330
2
100
AcDbEntity
  8
0
 62
     0
100
AcDbPolyline
 90
        4
 70
     1
 43
0.0
 10
0.5
 20
0.5
 10
0.5
 20
185.9080841645593
 10
266.19025
 20
185.9080841645593
 10
266.19025
 20
0.5
  0
LINE
  5
3C9CE
330
2
100
AcDbEntity
  8
0
  6
Continuous
 62
     7
100
AcDbLine
 10
199.7676874999999
 20
-2.740124999999977
 30
0.0
 11
199.7676874999999
 21
0.5
 31
0.0
  0
LINE
  5
3C9CF
330
2
100
AcDbEntity
  8
0
  6
Continuous
 62
     7
100
AcDbLine
 10
196.5275624999998
 20
0.5
 30
0.0
 11
196.5275624999998
 21
26.57301183564113
 31
0.0
  0
LINE
  5
3C9D0
330
2
100
AcDbEntity
  8
0
  6
Continuous
 62
     7
100
AcDbLine
 10
66.92256250000003
 20
-2.740124999999977
 30
0.0
 11
66.92256250000003
 21
0.5
 31
0.0
  0
LINE
  5
3C9D1
330
2
100
AcDbEntity
  8
0
  6
Continuous
 62
     7
100
AcDbLine
 10
199.7676874999999
 20
189.1482091645592
 30
0.0
 11
199.7676874999999
 21
185.9080841645593
 31
0.0
  0
LINE
  5
3C9D2
330
2
100
AcDbEntity
  8
0
  6
Continuous
 62
     7
100
AcDbLine
 10
66.92256250000003
 20
189.1482091645592
 30
0.0
 11
66.92256250000003
 21
185.9080841645593
 31
0.0
  0
LINE
  5
3C9D3
330
2
100
AcDbEntity
  8
0
  6
Continuous
 62
     7
100
AcDbLine
 10
-2.740124999999977
 20
46.85202104113983
 30
0.0
 11
0.5
 21
46.85202104113983
 31
0.0
  0
LINE
  5
3C9D4
330
2
100
AcDbEntity
  8
0
  6
Continuous
 62
     7
100
AcDbLine
 10
-2.740124999999977
 20
139.5560631234194
 30
0.0
 11
0.5
 21
139.5560631234194
 31
0.0
  0
LINE
  5
3C9D5
330
2
100
AcDbEntity
  8
0
  6
Continuous
 62
     7
100
AcDbLine
 10
269.430375
 20
46.85202104113983
 30
0.0
 11
266.19025
 21
46.85202104113983
 31
0.0
  0
LINE
  5
3C9D6
330
2
100
AcDbEntity
  8
0
  6
Continuous
 62
     7
100
AcDbLine
 10
269.430375
 20
139.5560631234194
 30
0.0
 11
266.19025
 21
139.5560631234194
 31
0.0
  0
LINE
  5
3C9D7
330
2
100
AcDbEntity
  8
0
  6
Continuous
 62
     7
100
AcDbLine
 10
196.5275624999998
 20
17.88200789042742
 30
0.0
 11
266.19025
 21
17.88200789042742
 31
0.0
  0
LINE
  5
3C9D8
330
2
100
AcDbEntity
  8
0
  6
Continuous
 62
     7
100
AcDbLine
 10
196.5275624999998
 20
26.57301183564113
 30
0.0
 11
266.19025
 21
26.57301183564113
 31
0.0
  0
LINE
  5
3C9D9
330
2
100
AcDbEntity
  8
0
  6
Continuous
 62
     7
100
AcDbLine
 10
196.5275624999998
 20
9.191003945213708
 30
0.0
 11
266.19025
 21
9.191003945213708
 31
0.0
  0
LINE
  5
3C9DA
330
2
100
AcDbEntity
  8
0
  6
Continuous
 62
     7
100
AcDbLine
 10
266.19025
 20
93.20404208227961
 30
0.0
 11
269.430375
 21
93.20404208227961
 31
0.0
  0
LINE
  5
3C9DB
330
2
100
AcDbEntity
  8
0
  6
Continuous
 62
     7
100
AcDbLine
 10
267.8103125
 20
92.10239958227958
 30
0.0
 11
267.8103125
 21
94.30568458227964
 31
0.0
  0
LINE
  5
3C9DC
330
2
100
AcDbEntity
  8
0
  6
Continuous
 62
     7
100
AcDbLine
 10
267.8103125
 20
92.10239958227958
 30
0.0
 11
266.19025
 21
93.20404208227961
 31
0.0
  0
LINE
  5
3C9DD
330
2
100
AcDbEntity
  8
0
  6
Continuous
 62
     7
100
AcDbLine
 10
266.19025
 20
93.20404208227961
 30
0.0
 11
267.8103125
 21
94.30568458227964
 31
0.0
  0
LINE
  5
3C9DE
330
2
100
AcDbEntity
  8
0
  6
Continuous
 62
     7
100
AcDbLine
 10
0.5
 20
93.20404208227961
 30
0.0
 11
-2.740124999999977
 21
93.20404208227961
 31
0.0
  0
LINE
  5
3C9DF
330
2
100
AcDbEntity
  8
0
  6
Continuous
 62
     7
100
AcDbLine
 10
-1.120062500000017
 20
92.10239958227958
 30
0.0
 11
-1.120062500000017
 21
94.30568458227964
 31
0.0
  0
LINE
  5
3C9E0
330
2
100
AcDbEntity
  8
0
  6
Continuous
 62
     7
100
AcDbLine
 10
-1.120062500000017
 20
92.10239958227958
 30
0.0
 11
0.5
 21
93.20404208227961
 31
0.0
  0
LINE
  5
3C9E1
330
2
100
AcDbEntity
  8
0
  6
Continuous
 62
     7
100
AcDbLine
 10
0.5
 20
93.20404208227961
 30
0.0
 11
-1.120062500000017
 21
94.30568458227964
 31
0.0
  0
LINE
  5
3C9E2
330
2
100
AcDbEntity
  8
0
  6
Continuous
 62
     7
100
AcDbLine
 10
133.345125
 20
185.9080841645593
 30
0.0
 11
133.345125
 21
189.1482091645592
 31
0.0
  0
LINE
  5
3C9E3
330
2
100
AcDbEntity
  8
0
  6
Continuous
 62
     7
100
AcDbLine
 10
132.2434824999999
 20
187.5281466645593
 30
0.0
 11
134.4467674999999
 21
187.5281466645593
 31
0.0
  0
LINE
  5
3C9E4
330
2
100
AcDbEntity
  8
0
  6
Continuous
 62
     7
100
AcDbLine
 10
132.2434824999999
 20
187.5281466645593
 30
0.0
 11
133.345125
 21
185.9080841645593
 31
0.0
  0
LINE
  5
3C9E5
330
2
100
AcDbEntity
  8
0
  6
Continuous
 62
     7
100
AcDbLine
 10
133.345125
 20
185.9080841645593
 30
0.0
 11
134.4467674999999
 21
187.5281466645593
 31
0.0
  0
LINE
  5
3C9E6
330
2
100
AcDbEntity
  8
0
  6
Continuous
 62
     7
100
AcDbLine
 10
133.345125
 20
0.5
 30
0.0
 11
133.345125
 21
-2.740124999999977
 31
0.0
  0
LINE
  5
3C9E7
330
2
100
AcDbEntity
  8
0
  6
Continuous
 62
     7
100
AcDbLine
 10
132.2434824999999
 20
-1.120062500000017
 30
0.0
 11
134.4467674999999
 21
-1.120062500000017
 31
0.0
  0
LINE
  5
3C9E8
330
2
100
AcDbEntity
  8
0
  6
Continuous
 62
     7
100
AcDbLine
 10
132.2434824999999
 20
-1.120062500000017
 30
0.0
 11
133.345125
 21
0.5
 31
0.0
  0
LINE
  5
3C9E9
330
2
100
AcDbEntity
  8
0
  6
Continuous
 62
     7
100
AcDbLine
 10
133.345125
 20
0.5
 30
0.0
 11
134.4467674999999
 21
-1.120062500000017
 31
0.0
  0
TEXT
  5
3C9EA
330
2
100
AcDbEntity
  8
0
 62
     2
100
AcDbText
 10
33.03277075827145
 20
-2.125273103603035
 30
0.0
 40
1.814469999999999
  1
4
  7
굴림
100
AcDbText
  0
TEXT
  5
3C9EB
330
2
100
AcDbEntity
  8
0
 62
     2
100
AcDbText
 10
99.51691577836767
 20
-2.125273103603035
 30
0.0
 40
1.814469999999999
  1
3
  7
굴림
100
AcDbText
  0
TEXT
  5
3C9EC
330
2
100
AcDbEntity
  8
0
 62
     2
100
AcDbText
 10
165.8535581136316
 20
-2.125273103603035
 30
0.0
 40
1.814469999999999
  1
2
  7
굴림
100
AcDbText
  0
TEXT
  5
3C9ED
330
2
100
AcDbEntity
  8
0
 62
     2
100
AcDbText
 10
232.4787020852428
 20
-2.125273103603035
 30
0.0
 40
1.814469999999999
  1
1
  7
굴림
100
AcDbText
  0
TEXT
  5
3C9EE
330
2
100
AcDbEntity
  8
0
 62
     2
100
AcDbText
 10
33.03277075827145
 20
186.9411548928954
 30
0.0
 40
1.814469999999999
  1
4
  7
굴림
100
AcDbText
  0
TEXT
  5
3C9EF
330
2
100
AcDbEntity
  8
0
 62
     2
100
AcDbText
 10
99.51691577836767
 20
186.9411548928954
 30
0.0
 40
1.814469999999999
  1
3
  7
굴림
100
AcDbText
  0
TEXT
  5
3C9F0
330
2
100
AcDbEntity
  8
0
 62
     2
100
AcDbText
 10
165.8535581136316
 20
186.9411548928954
 30
0.0
 40
1.814469999999999
  1
2
  7
굴림
100
AcDbText
  0
TEXT
  5
3C9F1
330
2
100
AcDbEntity
  8
0
 62
     2
100
AcDbText
 10
232.4787020852428
 20
186.9411548928954
 30
0.0
 40
1.814469999999999
  1
1
  7
굴림
100
AcDbText
  0
TEXT
  5
3C9F2
330
2
100
AcDbEntity
  8
0
 62
     2
100
AcDbText
 10
-2.119437416200298
 20
23.07183887467312
 30
0.0
 40
1.814469999999999
  1
A
  7
굴림
100
AcDbText
  0
TEXT
  5
3C9F3
330
2
100
AcDbEntity
  8
0
 62
     2
100
AcDbText
 10
-2.119437416200298
 20
69.03932239472533
 30
0.0
 40
1.814469999999999
  1
B
  7
굴림
100
AcDbText
  0
TEXT
  5
3C9F4
330
2
100
AcDbEntity
  8
0
 62
     2
100
AcDbText
 10
-2.119437416200298
 20
115.445442045324
 30
0.0
 40
1.814469999999999
  1
C
  7
굴림
100
AcDbText
  0
TEXT
  5
3C9F5
330
2
100
AcDbEntity
  8
0
 62
     2
100
AcDbText
 10
-2.119437416200298
 20
162.1373210017123
 30
0.0
 40
1.814469999999999
  1
D
  7
굴림
100
AcDbText
  0
TEXT
  5
3C9F6
330
2
100
AcDbEntity
  8
0
 62
     2
100
AcDbText
 10
267.1608767462983
 20
23.07183887467312
 30
0.0
 40
1.814469999999999
  1
A
  7
굴림
100
AcDbText
  0
TEXT
  5
3C9F7
330
2
100
AcDbEntity
  8
0
 62
     2
100
AcDbText
 10
267.1608767462983
 20
69.03932239472533
 30
0.0
 40
1.814469999999999
  1
B
  7
굴림
100
AcDbText
  0
TEXT
  5
3C9F8
330
2
100
AcDbEntity
  8
0
 62
     2
100
AcDbText
 10
267.1608767462983
 20
115.445442045324
 30
0.0
 40
1.814469999999999
  1
C
  7
굴림
100
AcDbText
  0
TEXT
  5
3C9F9
330
2
100
AcDbEntity
  8
0
 62
     2
100
AcDbText
 10
267.1608767462983
 20
162.1373210017123
 30
0.0
 40
1.814469999999999
  1
D
  7
굴림
100
AcDbText
  0
HATCH
  5
3C9FA
330
2
100
AcDbEntity
  8
0
  6
Continuous
 62
     0
100
AcDbHatch
 10
0.0
 20
0.0
 30
0.0
210
0.0
220
0.0
230
1.0
  2
SOLID
 70
     1
 71
     1
 91
        1
 92
        5
 93
       13
 72
     4
 94
        3
 73
     0
 74
     0
 95
        8
 96
        4
 40
1.0
 40
1.0
 40
1.0
 40
1.0
 40
2.0
 40
2.0
 40
2.0
 40
2.0
 10
217.2919402101582
 20
22.06683419947592
 10
217.2919402101582
 20
22.06683419947592
 10
216.5511997120237
 20
18.67468977108518
 10
216.5511997120237
 20
18.67468977108518
 97
        0
 72
     4
 94
        3
 73
     0
 74
     0
 95
        8
 96
        4
 40
0.0
 40
0.0
 40
0.0
 40
0.0
 40
1.0
 40
1.0
 40
1.0
 40
1.0
 10
216.5511997120237
 20
18.67468977108518
 10
216.5511997120237
 20
18.67468977108518
 10
218.180501275468
 20
18.67468977108518
 10
218.180501275468
 20
18.67468977108518
 97
        0
 72
     4
 94
        3
 73
     0
 74
     0
 95
        8
 96
        4
 40
12.0
 40
12.0
 40
12.0
 40
12.0
 40
13.0
 40
13.0
 40
13.0
 40
13.0
 10
218.180501275468
 20
18.67468977108518
 10
218.180501275468
 20
18.67468977108518
 10
219.0324878836319
 20
23.90349000964176
 10
219.0324878836319
 20
23.90349000964176
 97
        0
 72
     4
 94
        3
 73
     0
 74
     0
 95
        8
 96
        4
 40
11.0
 40
11.0
 40
11.0
 40
11.0
 40
12.0
 40
12.0
 40
12.0
 40
12.0
 10
219.0324878836319
 20
23.90349000964176
 10
219.0324878836319
 20
23.90349000964176
 10
217.2769139406475
 20
23.90349000964176
 10
217.2769139406475
 20
23.90349000964176
 97
        0
 72
     4
 94
        3
 73
     0
 74
     0
 95
        8
 96
        4
 40
10.0
 40
10.0
 40
10.0
 40
10.0
 40
11.0
 40
11.0
 40
11.0
 40
11.0
 10
217.2769139406475
 20
23.90349000964176
 10
217.2769139406475
 20
23.90349000964176
 10
215.469739271007
 20
21.02999287232188
 10
215.469739271007
 20
21.02999287232188
 97
        0
 72
     4
 94
        3
 73
     0
 74
     0
 95
        8
 96
        4
 40
9.0
 40
9.0
 40
9.0
 40
9.0
 40
10.0
 40
10.0
 40
10.0
 40
10.0
 10
215.469739271007
 20
21.02999287232188
 10
215.469739271007
 20
21.02999287232188
 10
215.1515738280522
 20
23.90349000964176
 10
215.1515738280522
 20
23.90349000964176
 97
        0
 72
     4
 94
        3
 73
     0
 74
     0
 95
        8
 96
        4
 40
8.0
 40
8.0
 40
8.0
 40
8.0
 40
9.0
 40
9.0
 40
9.0
 40
9.0
 10
215.1515738280522
 20
23.90349000964176
 10
215.1515738280522
 20
23.90349000964176
 10
213.4255926858178
 20
23.90349000964176
 10
213.4255926858178
 20
23.90349000964176
 97
        0
 72
     4
 94
        3
 73
     0
 74
     0
 95
        8
 96
        4
 40
7.0
 40
7.0
 40
7.0
 40
7.0
 40
8.0
 40
8.0
 40
8.0
 40
8.0
 10
213.4255926858178
 20
23.90349000964176
 10
213.4255926858178
 20
23.90349000964176
 10
211.5223130512451
 20
18.67468977108518
 10
211.5223130512451
 20
18.67468977108518
 97
        0
 72
     4
 94
        3
 73
     0
 74
     0
 95
        8
 96
        4
 40
6.0
 40
6.0
 40
6.0
 40
6.0
 40
7.0
 40
7.0
 40
7.0
 40
7.0
 10
211.5223130512451
 20
18.67468977108518
 10
211.5223130512451
 20
18.67468977108518
 10
213.1145805030982
 20
18.67468977108518
 10
213.1145805030982
 20
18.67468977108518
 97
        0
 72
     4
 94
        3
 73
     0
 74
     0
 95
        8
 96
        4
 40
5.0
 40
5.0
 40
5.0
 40
5.0
 40
6.0
 40
6.0
 40
6.0
 40
6.0
 10
213.1145805030982
 20
18.67468977108518
 10
213.1145805030982
 20
18.67468977108518
 10
214.188628394701
 20
22.14078757943872
 10
214.188628394701
 20
22.14078757943872
 97
        0
 72
     4
 94
        3
 73
     0
 74
     0
 95
        8
 96
        4
 40
4.0
 40
4.0
 40
4.0
 40
4.0
 40
5.0
 40
5.0
 40
5.0
 40
5.0
 10
214.188628394701
 20
22.14078757943872
 10
214.188628394701
 20
22.14078757943872
 10
214.5811501905731
 20
18.67468977108518
 10
214.5811501905731
 20
18.67468977108518
 97
        0
 72
     4
 94
        3
 73
     0
 74
     0
 95
        8
 96
        4
 40
3.0
 40
3.0
 40
3.0
 40
3.0
 40
4.0
 40
4.0
 40
4.0
 40
4.0
 10
214.5811501905731
 20
18.67468977108518
 10
214.5811501905731
 20
18.67468977108518
 10
215.0996563311084
 20
18.67468977108518
 10
215.0996563311084
 20
18.67468977108518
 97
        0
 72
     4
 94
        3
 73
     0
 74
     0
 95
        8
 96
        4
 40
2.0
 40
2.0
 40
2.0
 40
2.0
 40
3.0
 40
3.0
 40
3.0
 40
3.0
 10
215.0996563311084
 20
18.67468977108518
 10
215.0996563311084
 20
18.67468977108518
 10
217.2919402101582
 20
22.06683419947592
 10
217.2919402101582
 20
22.06683419947592
 97
        0
 97
       13
330
3CA07
330
3CA06
330
3CA05
330
3CA04
330
3CA03
330
3CA02
330
3CA01
330
3CA00
330
3C9FF
330
3C9FE
330
3C9FD
330
3C9FC
330
3C9FB
 75
     1
 76
     1
 47
0.0269459378258844
 98
        1
 10
217.3864434843398
 20
20.45240664472908
450
        0
451
        0
460
0.0
461
0.0
452
        0
462
1.0
453
        2
463
0.0
 63
     5
421
      255
463
1.0
 63
     2
421
 16776960
470
LINEAR
1001
GRADIENTCOLOR1ACI
1070
     5
1001
GRADIENTCOLOR2ACI
1070
     2
1001
ACAD
1010
0.0
1020
0.0
1030
0.0
  0
SPLINE
  5
3C9FB
102
{ACAD_REACTORS
330
3C9FA
102
}
330
2
100
AcDbEntity
  8
Layer 1
100
AcDbSpline
210
0.0
220
0.0
230
1.0
 70
    24
 71
     3
 72
     8
 73
     4
 74
     0
 42
0.000000001
 43
0.0000000001
 40
0.0
 40
0.0
 40
0.0
 40
0.0
 40
1.0
 40
1.0
 40
1.0
 40
1.0
 10
218.180501275468
 20
18.67468977108518
 30
0.0
 10
218.180501275468
 20
18.67468977108518
 30
0.0
 10
216.5511997120237
 20
18.67468977108518
 30
0.0
 10
216.5511997120237
 20
18.67468977108518
 30
0.0
  0
SPLINE
  5
3C9FC
102
{ACAD_REACTORS
330
3C9FA
102
}
330
2
100
AcDbEntity
  8
Layer 1
100
AcDbSpline
210
0.0
220
0.0
230
1.0
 70
    24
 71
     3
 72
     8
 73
     4
 74
     0
 42
0.000000001
 43
0.0000000001
 40
1.0
 40
1.0
 40
1.0
 40
1.0
 40
2.0
 40
2.0
 40
2.0
 40
2.0
 10
216.5511997120237
 20
18.67468977108518
 30
0.0
 10
216.5511997120237
 20
18.67468977108518
 30
0.0
 10
217.2919402101582
 20
22.06683419947592
 30
0.0
 10
217.2919402101582
 20
22.06683419947592
 30
0.0
  0
SPLINE
  5
3C9FD
102
{ACAD_REACTORS
330
3C9FA
102
}
330
2
100
AcDbEntity
  8
Layer 1
100
AcDbSpline
210
0.0
220
0.0
230
1.0
 70
    24
 71
     3
 72
     8
 73
     4
 74
     0
 42
0.000000001
 43
0.0000000001
 40
2.0
 40
2.0
 40
2.0
 40
2.0
 40
3.0
 40
3.0
 40
3.0
 40
3.0
 10
217.2919402101582
 20
22.06683419947592
 30
0.0
 10
217.2919402101582
 20
22.06683419947592
 30
0.0
 10
215.0996563311084
 20
18.67468977108518
 30
0.0
 10
215.0996563311084
 20
18.67468977108518
 30
0.0
  0
SPLINE
  5
3C9FE
102
{ACAD_REACTORS
330
3C9FA
102
}
330
2
100
AcDbEntity
  8
Layer 1
100
AcDbSpline
210
0.0
220
0.0
230
1.0
 70
    24
 71
     3
 72
     8
 73
     4
 74
     0
 42
0.000000001
 43
0.0000000001
 40
3.0
 40
3.0
 40
3.0
 40
3.0
 40
4.0
 40
4.0
 40
4.0
 40
4.0
 10
215.0996563311084
 20
18.67468977108518
 30
0.0
 10
215.0996563311084
 20
18.67468977108518
 30
0.0
 10
214.5811501905731
 20
18.67468977108518
 30
0.0
 10
214.5811501905731
 20
18.67468977108518
 30
0.0
  0
SPLINE
  5
3C9FF
102
{ACAD_REACTORS
330
3C9FA
102
}
330
2
100
AcDbEntity
  8
Layer 1
100
AcDbSpline
210
0.0
220
0.0
230
1.0
 70
    24
 71
     3
 72
     8
 73
     4
 74
     0
 42
0.000000001
 43
0.0000000001
 40
4.0
 40
4.0
 40
4.0
 40
4.0
 40
5.0
 40
5.0
 40
5.0
 40
5.0
 10
214.5811501905731
 20
18.67468977108518
 30
0.0
 10
214.5811501905731
 20
18.67468977108518
 30
0.0
 10
214.188628394701
 20
22.14078757943872
 30
0.0
 10
214.188628394701
 20
22.14078757943872
 30
0.0
  0
SPLINE
  5
3CA00
102
{ACAD_REACTORS
330
3C9FA
102
}
330
2
100
AcDbEntity
  8
Layer 1
100
AcDbSpline
210
0.0
220
0.0
230
1.0
 70
    24
 71
     3
 72
     8
 73
     4
 74
     0
 42
0.000000001
 43
0.0000000001
 40
5.0
 40
5.0
 40
5.0
 40
5.0
 40
6.0
 40
6.0
 40
6.0
 40
6.0
 10
214.188628394701
 20
22.14078757943872
 30
0.0
 10
214.188628394701
 20
22.14078757943872
 30
0.0
 10
213.1145805030982
 20
18.67468977108518
 30
0.0
 10
213.1145805030982
 20
18.67468977108518
 30
0.0
  0
SPLINE
  5
3CA01
102
{ACAD_REACTORS
330
3C9FA
102
}
330
2
100
AcDbEntity
  8
Layer 1
100
AcDbSpline
210
0.0
220
0.0
230
1.0
 70
    24
 71
     3
 72
     8
 73
     4
 74
     0
 42
0.000000001
 43
0.0000000001
 40
6.0
 40
6.0
 40
6.0
 40
6.0
 40
7.0
 40
7.0
 40
7.0
 40
7.0
 10
213.1145805030982
 20
18.67468977108518
 30
0.0
 10
213.1145805030982
 20
18.67468977108518
 30
0.0
 10
211.5223130512451
 20
18.67468977108518
 30
0.0
 10
211.5223130512451
 20
18.67468977108518
 30
0.0
  0
SPLINE
  5
3CA02
102
{ACAD_REACTORS
330
3C9FA
102
}
330
2
100
AcDbEntity
  8
Layer 1
100
AcDbSpline
210
0.0
220
0.0
230
1.0
 70
    24
 71
     3
 72
     8
 73
     4
 74
     0
 42
0.000000001
 43
0.0000000001
 40
7.0
 40
7.0
 40
7.0
 40
7.0
 40
8.0
 40
8.0
 40
8.0
 40
8.0
 10
211.5223130512451
 20
18.67468977108518
 30
0.0
 10
211.5223130512451
 20
18.67468977108518
 30
0.0
 10
213.4255926858178
 20
23.90349000964176
 30
0.0
 10
213.4255926858178
 20
23.90349000964176
 30
0.0
  0
SPLINE
  5
3CA03
102
{ACAD_REACTORS
330
3C9FA
102
}
330
2
100
AcDbEntity
  8
Layer 1
100
AcDbSpline
210
0.0
220
0.0
230
1.0
 70
    24
 71
     3
 72
     8
 73
     4
 74
     0
 42
0.000000001
 43
0.0000000001
 40
8.0
 40
8.0
 40
8.0
 40
8.0
 40
9.0
 40
9.0
 40
9.0
 40
9.0
 10
213.4255926858178
 20
23.90349000964176
 30
0.0
 10
213.4255926858178
 20
23.90349000964176
 30
0.0
 10
215.1515738280522
 20
23.90349000964176
 30
0.0
 10
215.1515738280522
 20
23.90349000964176
 30
0.0
  0
SPLINE
  5
3CA04
102
{ACAD_REACTORS
330
3C9FA
102
}
330
2
100
AcDbEntity
  8
Layer 1
100
AcDbSpline
210
0.0
220
0.0
230
1.0
 70
    24
 71
     3
 72
     8
 73
     4
 74
     0
 42
0.000000001
 43
0.0000000001
 40
9.0
 40
9.0
 40
9.0
 40
9.0
 40
10.0
 40
10.0
 40
10.0
 40
10.0
 10
215.1515738280522
 20
23.90349000964176
 30
0.0
 10
215.1515738280522
 20
23.90349000964176
 30
0.0
 10
215.469739271007
 20
21.02999287232188
 30
0.0
 10
215.469739271007
 20
21.02999287232188
 30
0.0
  0
SPLINE
  5
3CA05
102
{ACAD_REACTORS
330
3C9FA
102
}
330
2
100
AcDbEntity
  8
Layer 1
100
AcDbSpline
210
0.0
220
0.0
230
1.0
 70
    24
 71
     3
 72
     8
 73
     4
 74
     0
 42
0.000000001
 43
0.0000000001
 40
10.0
 40
10.0
 40
10.0
 40
10.0
 40
11.0
 40
11.0
 40
11.0
 40
11.0
 10
215.469739271007
 20
21.02999287232188
 30
0.0
 10
215.469739271007
 20
21.02999287232188
 30
0.0
 10
217.2769139406475
 20
23.90349000964176
 30
0.0
 10
217.2769139406475
 20
23.90349000964176
 30
0.0
  0
SPLINE
  5
3CA06
102
{ACAD_REACTORS
330
3C9FA
102
}
330
2
100
AcDbEntity
  8
Layer 1
100
AcDbSpline
210
0.0
220
0.0
230
1.0
 70
    24
 71
     3
 72
     8
 73
     4
 74
     0
 42
0.000000001
 43
0.0000000001
 40
11.0
 40
11.0
 40
11.0
 40
11.0
 40
12.0
 40
12.0
 40
12.0
 40
12.0
 10
217.2769139406475
 20
23.90349000964176
 30
0.0
 10
217.2769139406475
 20
23.90349000964176
 30
0.0
 10
219.0324878836319
 20
23.90349000964176
 30
0.0
 10
219.0324878836319
 20
23.90349000964176
 30
0.0
  0
SPLINE
  5
3CA07
102
{ACAD_REACTORS
330
3C9FA
102
}
330
2
100
AcDbEntity
  8
Layer 1
100
AcDbSpline
210
0.0
220
0.0
230
1.0
 70
    24
 71
     3
 72
     8
 73
     4
 74
     0
 42
0.000000001
 43
0.0000000001
 40
12.0
 40
12.0
 40
12.0
 40
12.0
 40
13.0
 40
13.0
 40
13.0
 40
13.0
 10
219.0324878836319
 20
23.90349000964176
 30
0.0
 10
219.0324878836319
 20
23.90349000964176
 30
0.0
 10
218.180501275468
 20
18.67468977108518
 30
0.0
 10
218.180501275468
 20
18.67468977108518
 30
0.0
  0
HATCH
  5
3CA08
330
2
100
AcDbEntity
  8
0
  6
Continuous
 62
     0
100
AcDbHatch
 10
0.0
 20
0.0
 30
0.0
210
0.0
220
0.0
230
1.0
  2
SOLID
 70
     1
 71
     0
 91
        1
 92
        5
 93
        1
 72
     4
 94
        3
 73
     0
 74
     0
 95
       41
 96
       37
 40
0.0
 40
0.0
 40
0.0
 40
0.0
 40
1.0
 40
1.0
 40
1.0
 40
2.0
 40
2.0
 40
2.0
 40
3.0
 40
3.0
 40
3.0
 40
4.0
 40
4.0
 40
4.0
 40
5.0
 40
5.0
 40
5.0
 40
6.0
 40
6.0
 40
6.0
 40
7.0
 40
7.0
 40
7.0
 40
8.0
 40
8.0
 40
8.0
 40
9.0
 40
9.0
 40
9.0
 40
10.0
 40
10.0
 40
10.0
 40
11.0
 40
11.0
 40
11.0
 40
12.0
 40
12.0
 40
12.0
 40
12.0
 10
220.0391904790142
 20
18.67468977108518
 10
220.0391904790142
 20
18.67468977108518
 10
218.3432331884863
 20
18.67468977108518
 10
218.3432331884863
 20
18.67468977108518
 10
218.3432331884863
 20
18.67468977108518
 10
221.7352635897299
 20
23.91078444267998
 10
221.7352635897299
 20
23.91078444267998
 10
221.7352635897299
 20
23.91078444267998
 10
223.4832526148247
 20
23.91078444267998
 10
223.4832526148247
 20
23.91078444267998
 10
223.4832526148247
 20
23.91078444267998
 10
223.8759171146865
 20
18.67468977108518
 10
223.8759171146865
 20
18.67468977108518
 10
223.8759171146865
 20
18.67468977108518
 10
222.2982450088152
 20
18.67468977108518
 10
222.2982450088152
 20
18.67468977108518
 10
222.2982450088152
 20
18.67468977108518
 10
222.2463282420739
 20
19.51909141720182
 10
222.2463282420739
 20
19.51909141720182
 10
222.2463282420739
 20
19.51909141720182
 10
221.1026940970015
 20
19.51909141720182
 10
221.1026940970015
 20
19.51909141720182
 10
221.1026940970015
 20
19.51909141720182
 10
221.6704457448039
 20
20.60756220192883
 10
221.6704457448039
 20
20.60756220192883
 10
221.6704457448039
 20
20.60756220192883
 10
222.1945551299167
 20
20.60756220192883
 10
222.1945551299167
 20
20.60756220192883
 10
222.1945551299167
 20
20.60756220192883
 10
222.1277844791654
 20
22.14078757943872
 10
222.1277844791654
 20
22.14078757943872
 10
222.1277844791654
 20
22.14078757943872
 10
220.0476094915368
 20
18.6864694469923
 10
220.0476094915368
 20
18.6864694469923
 10
220.0476094915368
 20
18.6864694469923
 10
220.0391904790142
 20
18.67468977108518
 10
220.0391904790142
 20
18.67468977108518
 97
        0
 97
        0
 75
     1
 76
     1
 47
0.0269459378258844
 98
        1
 10
223.2263372927054
 20
20.83641396663472
450
        0
451
        0
460
0.0
461
0.0
452
        0
462
1.0
453
        2
463
0.0
 63
     5
421
      255
463
1.0
 63
     2
421
 16776960
470
LINEAR
1001
GRADIENTCOLOR1ACI
1070
     5
1001
GRADIENTCOLOR2ACI
1070
     2
1001
ACAD
1010
0.0
1020
0.0
1030
0.0
  0
SPLINE
  5
3CA09
330
2
100
AcDbEntity
  8
Layer 1
100
AcDbSpline
210
0.0
220
0.0
230
1.0
 70
    11
 71
     3
 72
    41
 73
    37
 74
     0
 42
0.000000001
 43
0.0000000001
 40
0.0
 40
0.0
 40
0.0
 40
0.0
 40
1.0
 40
1.0
 40
1.0
 40
2.0
 40
2.0
 40
2.0
 40
3.0
 40
3.0
 40
3.0
 40
4.0
 40
4.0
 40
4.0
 40
5.0
 40
5.0
 40
5.0
 40
6.0
 40
6.0
 40
6.0
 40
7.0
 40
7.0
 40
7.0
 40
8.0
 40
8.0
 40
8.0
 40
9.0
 40
9.0
 40
9.0
 40
10.0
 40
10.0
 40
10.0
 40
11.0
 40
11.0
 40
11.0
 40
12.0
 40
12.0
 40
12.0
 40
12.0
 10
220.0391904790142
 20
18.67468977108518
 30
0.0
 10
220.0391904790142
 20
18.67468977108518
 30
0.0
 10
218.3432331884863
 20
18.67468977108518
 30
0.0
 10
218.3432331884863
 20
18.67468977108518
 30
0.0
 10
218.3432331884863
 20
18.67468977108518
 30
0.0
 10
221.7352635897298
 20
23.91078444267998
 30
0.0
 10
221.7352635897298
 20
23.91078444267998
 30
0.0
 10
221.7352635897298
 20
23.91078444267998
 30
0.0
 10
223.4832526148247
 20
23.91078444267998
 30
0.0
 10
223.4832526148247
 20
23.91078444267998
 30
0.0
 10
223.4832526148247
 20
23.91078444267998
 30
0.0
 10
223.8759171146865
 20
18.67468977108518
 30
0.0
 10
223.8759171146865
 20
18.67468977108518
 30
0.0
 10
223.8759171146865
 20
18.67468977108518
 30
0.0
 10
222.2982450088152
 20
18.67468977108518
 30
0.0
 10
222.2982450088152
 20
18.67468977108518
 30
0.0
 10
222.2982450088152
 20
18.67468977108518
 30
0.0
 10
222.2463282420739
 20
19.51909141720182
 30
0.0
 10
222.2463282420739
 20
19.51909141720182
 30
0.0
 10
222.2463282420739
 20
19.51909141720182
 30
0.0
 10
221.1026940970015
 20
19.51909141720182
 30
0.0
 10
221.1026940970015
 20
19.51909141720182
 30
0.0
 10
221.1026940970015
 20
19.51909141720182
 30
0.0
 10
221.6704457448039
 20
20.60756220192883
 30
0.0
 10
221.6704457448039
 20
20.60756220192883
 30
0.0
 10
221.6704457448039
 20
20.60756220192883
 30
0.0
 10
222.1945551299167
 20
20.60756220192883
 30
0.0
 10
222.1945551299167
 20
20.60756220192883
 30
0.0
 10
222.1945551299167
 20
20.60756220192883
 30
0.0
 10
222.1277844791654
 20
22.14078757943872
 30
0.0
 10
222.1277844791654
 20
22.14078757943872
 30
0.0
 10
222.1277844791654
 20
22.14078757943872
 30
0.0
 10
220.0476094915368
 20
18.68646944699225
 30
0.0
 10
220.0476094915368
 20
18.68646944699225
 30
0.0
 10
220.0476094915368
 20
18.68646944699225
 30
0.0
 10
220.0391904790142
 20
18.67468977108518
 30
0.0
 10
220.0391904790142
 20
18.67468977108518
 30
0.0
  0
HATCH
  5
3CA0A
330
2
100
AcDbEntity
  8
0
  6
Continuous
 62
     0
100
AcDbHatch
 10
0.0
 20
0.0
 30
0.0
210
0.0
220
0.0
230
1.0
  2
SOLID
 70
     1
 71
     1
 91
        1
 92
        5
 93
        1
 72
     4
 94
        3
 73
     0
 74
     0
 95
       17
 96
       13
 40
0.0
 40
0.0
 40
0.0
 40
0.0
 40
1.0
 40
1.0
 40
1.0
 40
2.0
 40
2.0
 40
2.0
 40
3.0
 40
3.0
 40
3.0
 40
4.0
 40
4.0
 40
4.0
 40
4.0
 10
231.0966584622914
 20
18.67468977108518
 10
231.0966584622914
 20
18.67468977108518
 10
229.4820947261802
 20
18.67468977108518
 10
229.4820947261802
 20
18.67468977108518
 10
229.4820947261802
 20
18.67468977108518
 10
230.8820086495226
 20
23.90349000964176
 10
230.8820086495226
 20
23.90349000964176
 10
230.8820086495226
 20
23.90349000964176
 10
232.4964563289571
 20
23.90349000964176
 10
232.4964563289571
 20
23.90349000964176
 10
232.4964563289571
 20
23.90349000964176
 10
231.0966584622914
 20
18.67468977108518
 10
231.0966584622914
 20
18.67468977108518
 97
        0
 97
        1
330
3CA0B
 75
     1
 76
     1
 47
0.0269459378258844
 98
        1
 10
230.4253623566432
 20
20.10302470765629
450
        0
451
        0
460
0.0
461
0.0
452
        0
462
1.0
453
        2
463
0.0
 63
     5
421
      255
463
1.0
 63
     2
421
 16776960
470
LINEAR
1001
GRADIENTCOLOR1ACI
1070
     5
1001
GRADIENTCOLOR2ACI
1070
     2
1001
ACAD
1010
0.0
1020
0.0
1030
0.0
  0
SPLINE
  5
3CA0B
102
{ACAD_REACTORS
330
3CA0A
102
}
330
2
100
AcDbEntity
  8
Layer 1
100
AcDbSpline
210
0.0
220
0.0
230
1.0
 70
    11
 71
     3
 72
    17
 73
    13
 74
     0
 42
0.000000001
 43
0.0000000001
 40
0.0
 40
0.0
 40
0.0
 40
0.0
 40
1.0
 40
1.0
 40
1.0
 40
2.0
 40
2.0
 40
2.0
 40
3.0
 40
3.0
 40
3.0
 40
4.0
 40
4.0
 40
4.0
 40
4.0
 10
231.0966584622914
 20
18.67468977108518
 30
0.0
 10
231.0966584622914
 20
18.67468977108518
 30
0.0
 10
229.4820947261802
 20
18.67468977108518
 30
0.0
 10
229.4820947261802
 20
18.67468977108518
 30
0.0
 10
229.4820947261802
 20
18.67468977108518
 30
0.0
 10
230.8820086495226
 20
23.90349000964176
 30
0.0
 10
230.8820086495226
 20
23.90349000964176
 30
0.0
 10
230.8820086495226
 20
23.90349000964176
 30
0.0
 10
232.4964563289571
 20
23.90349000964176
 30
0.0
 10
232.4964563289571
 20
23.90349000964176
 30
0.0
 10
232.4964563289571
 20
23.90349000964176
 30
0.0
 10
231.0966584622914
 20
18.67468977108518
 30
0.0
 10
231.0966584622914
 20
18.67468977108518
 30
0.0
  0
HATCH
  5
3CA0C
330
2
100
AcDbEntity
  8
0
  6
Continuous
 62
     0
100
AcDbHatch
 10
0.0
 20
0.0
 30
0.0
210
0.0
220
0.0
230
1.0
  2
SOLID
 70
     1
 71
     1
 91
        1
 92
        5
 93
       14
 72
     4
 94
        3
 73
     0
 74
     0
 95
        8
 96
        4
 40
12.0
 40
12.0
 40
12.0
 40
12.0
 40
13.0
 40
13.0
 40
13.0
 40
13.0
 10
228.2575255883517
 20
20.82741117763772
 10
228.4905333239761
 20
20.8982616185811
 10
228.7217310118395
 20
21.00235373031569
 10
228.9262664088692
 20
21.15862118704342
 97
        0
 72
     4
 94
        3
 73
     0
 74
     0
 95
        8
 96
        4
 40
13.0
 40
13.0
 40
13.0
 40
13.0
 40
14.0
 40
14.0
 40
14.0
 40
14.0
 10
228.9262664088692
 20
21.15862118704342
 10
229.3781462690298
 20
21.50681116830532
 10
229.6152337948465
 20
22.0031664877443
 10
229.6152337948465
 20
22.49176445963468
 97
        0
 72
     4
 94
        3
 73
     0
 74
     0
 95
        8
 96
        4
 40
0.0
 40
0.0
 40
0.0
 40
0.0
 40
1.0
 40
1.0
 40
1.0
 40
1.0
 10
229.6152337948465
 20
22.49176445963468
 10
229.6152337948465
 20
23.54337347804778
 10
228.6894661922208
 20
23.9137437271151
 10
227.8822434043097
 20
23.9137437271151
 97
        0
 72
     4
 94
        3
 73
     0
 74
     0
 95
        8
 96
        4
 40
1.0
 40
1.0
 40
1.0
 40
1.0
 40
2.0
 40
2.0
 40
2.0
 40
2.0
 10
227.8822434043097
 20
23.9137437271151
 10
227.8822434043097
 20
23.9137437271151
 10
225.5714157039745
 20
23.9137437271151
 10
225.5714157039745
 20
23.9137437271151
 97
        0
 72
     4
 94
        3
 73
     0
 74
     0
 95
        8
 96
        4
 40
2.0
 40
2.0
 40
2.0
 40
2.0
 40
3.0
 40
3.0
 40
3.0
 40
3.0
 10
225.5714157039745
 20
23.9137437271151
 10
225.5714157039745
 20
23.9137437271151
 10
224.1642031343237
 20
18.68480614182073
 10
224.1642031343237
 20
18.68480614182073
 97
        0
 72
     4
 94
        3
 73
     0
 74
     0
 95
        8
 96
        4
 40
3.0
 40
3.0
 40
3.0
 40
3.0
 40
4.0
 40
4.0
 40
4.0
 40
4.0
 10
224.1642031343237
 20
18.68480614182073
 10
224.1642031343237
 20
18.68480614182073
 10
225.8235285058725
 20
18.68480614182073
 10
225.8235285058725
 20
18.68480614182073
 97
        0
 72
     4
 94
        3
 73
     0
 74
     0
 95
        8
 96
        4
 40
4.0
 40
4.0
 40
4.0
 40
4.0
 40
5.0
 40
5.0
 40
5.0
 40
5.0
 10
225.8235285058725
 20
18.68480614182073
 10
225.8235285058725
 20
18.68480614182073
 10
226.9118843669322
 20
22.74344729120946
 10
226.9118843669322
 20
22.74344729120946
 97
        0
 72
     4
 94
        3
 73
     0
 74
     0
 95
        8
 96
        4
 40
5.0
 40
5.0
 40
5.0
 40
5.0
 40
6.0
 40
6.0
 40
6.0
 40
6.0
 10
226.9118843669322
 20
22.74344729120946
 10
226.9118843669322
 20
22.74344729120946
 10
227.4007696479909
 20
22.74344729120946
 10
227.4007696479909
 20
22.74344729120946
 97
        0
 72
     4
 94
        3
 73
     0
 74
     0
 95
        8
 96
        4
 40
6.0
 40
6.0
 40
6.0
 40
6.0
 40
7.0
 40
7.0
 40
7.0
 40
7.0
 10
227.9859322314023
 20
22.32147631548588
 10
227.9859322314023
 20
22.67682029504255
 10
227.6894866313809
 20
22.74344729120946
 10
227.4007696479909
 20
22.74344729120946
 97
        0
 72
     4
 94
        3
 73
     0
 74
     0
 95
        8
 96
        4
 40
7.0
 40
7.0
 40
7.0
 40
7.0
 40
8.0
 40
8.0
 40
8.0
 40
8.0
 10
227.9859322314023
 20
22.32147631548588
 10
227.9859322314023
 20
22.12900790353166
 10
227.8379105478094
 20
21.81770841950055
 10
227.3490252667508
 20
21.83270595809432
 97
        0
 72
     4
 94
        3
 73
     0
 74
     0
 95
        8
 96
        4
 40
8.0
 40
8.0
 40
8.0
 40
8.0
 40
9.0
 40
9.0
 40
9.0
 40
9.0
 10
227.3490252667508
 20
21.83270595809432
 10
227.3490252667508
 20
21.83270595809432
 10
227.0358870040415
 20
20.68642856867234
 10
227.0358870040415
 20
20.68642856867234
 97
        0
 72
     4
 94
        3
 73
     0
 74
     0
 95
        8
 96
        4
 40
9.0
 40
9.0
 40
9.0
 40
9.0
 40
10.0
 40
10.0
 40
10.0
 40
10.0
 10
227.0358870040415
 20
20.68642856867234
 10
227.0358870040415
 20
20.68642856867234
 10
227.6339497691166
 20
18.6042702938945
 10
227.6339497691166
 20
18.6042702938945
 97
        0
 72
     4
 94
        3
 73
     0
 74
     0
 95
        8
 96
        4
 40
10.0
 40
10.0
 40
10.0
 40
10.0
 40
11.0
 40
11.0
 40
11.0
 40
11.0
 10
227.6339497691166
 20
18.6042702938945
 10
227.6339497691166
 20
18.6042702938945
 10
229.0021745712758
 20
18.6042702938945
 10
229.0021745712758
 20
18.6042702938945
 97
        0
 72
     4
 94
        3
 73
     0
 74
     0
 95
        8
 96
        4
 40
11.0
 40
11.0
 40
11.0
 40
11.0
 40
12.0
 40
12.0
 40
12.0
 40
12.0
 10
229.0021745712758
 20
18.6042702938945
 10
229.0021745712758
 20
18.6042702938945
 10
228.2575255883517
 20
20.82741117763772
 10
228.2575255883517
 20
20.82741117763772
 97
        0
 97
       13
330
3CA17
330
3CA18
330
3CA19
330
3CA0D
330
3CA0E
330
3CA0F
330
3CA10
330
3CA11
330
3CA12
330
3CA13
330
3CA14
330
3CA15
330
3CA16
 75
     1
 76
     1
 47
0.0269459378258844
 98
        1
 10
227.8917258167204
 20
20.55702736606975
450
        0
451
        0
460
0.0
461
0.0
452
        0
462
1.0
453
        2
463
0.0
 63
     5
421
      255
463
1.0
 63
     2
421
 16776960
470
LINEAR
1001
GRADIENTCOLOR1ACI
1070
     5
1001
GRADIENTCOLOR2ACI
1070
     2
1001
ACAD
1010
0.0
1020
0.0
1030
0.0
  0
SPLINE
  5
3CA0D
102
{ACAD_REACTORS
330
3CA0C
102
}
330
2
100
AcDbEntity
  8
Layer 1
100
AcDbSpline
210
0.0
220
0.0
230
1.0
 70
     8
 71
     3
 72
     8
 73
     4
 74
     0
 42
0.000000001
 43
0.0000000001
 40
0.0
 40
0.0
 40
0.0
 40
0.0
 40
1.0
 40
1.0
 40
1.0
 40
1.0
 10
229.6152337948465
 20
22.49176445963468
 30
0.0
 10
229.6152337948465
 20
23.54337347804778
 30
0.0
 10
228.6894661922208
 20
23.9137437271151
 30
0.0
 10
227.8822434043097
 20
23.9137437271151
 30
0.0
  0
SPLINE
  5
3CA0E
102
{ACAD_REACTORS
330
3CA0C
102
}
330
2
100
AcDbEntity
  8
Layer 1
100
AcDbSpline
210
0.0
220
0.0
230
1.0
 70
    24
 71
     3
 72
     8
 73
     4
 74
     0
 42
0.000000001
 43
0.0000000001
 40
1.0
 40
1.0
 40
1.0
 40
1.0
 40
2.0
 40
2.0
 40
2.0
 40
2.0
 10
227.8822434043097
 20
23.9137437271151
 30
0.0
 10
227.8822434043097
 20
23.9137437271151
 30
0.0
 10
225.5714157039745
 20
23.9137437271151
 30
0.0
 10
225.5714157039745
 20
23.9137437271151
 30
0.0
  0
SPLINE
  5
3CA0F
102
{ACAD_REACTORS
330
3CA0C
102
}
330
2
100
AcDbEntity
  8
Layer 1
100
AcDbSpline
210
0.0
220
0.0
230
1.0
 70
    24
 71
     3
 72
     8
 73
     4
 74
     0
 42
0.000000001
 43
0.0000000001
 40
2.0
 40
2.0
 40
2.0
 40
2.0
 40
3.0
 40
3.0
 40
3.0
 40
3.0
 10
225.5714157039745
 20
23.9137437271151
 30
0.0
 10
225.5714157039745
 20
23.9137437271151
 30
0.0
 10
224.1642031343237
 20
18.68480614182073
 30
0.0
 10
224.1642031343237
 20
18.68480614182073
 30
0.0
  0
SPLINE
  5
3CA10
102
{ACAD_REACTORS
330
3CA0C
102
}
330
2
100
AcDbEntity
  8
Layer 1
100
AcDbSpline
210
0.0
220
0.0
230
1.0
 70
    24
 71
     3
 72
     8
 73
     4
 74
     0
 42
0.000000001
 43
0.0000000001
 40
3.0
 40
3.0
 40
3.0
 40
3.0
 40
4.0
 40
4.0
 40
4.0
 40
4.0
 10
224.1642031343237
 20
18.68480614182073
 30
0.0
 10
224.1642031343237
 20
18.68480614182073
 30
0.0
 10
225.8235285058725
 20
18.68480614182073
 30
0.0
 10
225.8235285058725
 20
18.68480614182073
 30
0.0
  0
SPLINE
  5
3CA11
102
{ACAD_REACTORS
330
3CA0C
102
}
330
2
100
AcDbEntity
  8
Layer 1
100
AcDbSpline
210
0.0
220
0.0
230
1.0
 70
    24
 71
     3
 72
     8
 73
     4
 74
     0
 42
0.000000001
 43
0.0000000001
 40
4.0
 40
4.0
 40
4.0
 40
4.0
 40
5.0
 40
5.0
 40
5.0
 40
5.0
 10
225.8235285058725
 20
18.68480614182073
 30
0.0
 10
225.8235285058725
 20
18.68480614182073
 30
0.0
 10
226.9118843669322
 20
22.74344729120946
 30
0.0
 10
226.9118843669322
 20
22.74344729120946
 30
0.0
  0
SPLINE
  5
3CA12
102
{ACAD_REACTORS
330
3CA0C
102
}
330
2
100
AcDbEntity
  8
Layer 1
100
AcDbSpline
210
0.0
220
0.0
230
1.0
 70
    24
 71
     3
 72
     8
 73
     4
 74
     0
 42
0.000000001
 43
0.0000000001
 40
5.0
 40
5.0
 40
5.0
 40
5.0
 40
6.0
 40
6.0
 40
6.0
 40
6.0
 10
226.9118843669322
 20
22.74344729120946
 30
0.0
 10
226.9118843669322
 20
22.74344729120946
 30
0.0
 10
227.4007696479909
 20
22.74344729120946
 30
0.0
 10
227.4007696479909
 20
22.74344729120946
 30
0.0
  0
SPLINE
  5
3CA13
102
{ACAD_REACTORS
330
3CA0C
102
}
330
2
100
AcDbEntity
  8
Layer 1
100
AcDbSpline
210
0.0
220
0.0
230
1.0
 70
     8
 71
     3
 72
    11
 73
     7
 74
     0
 42
0.000000001
 43
0.0000000001
 40
6.0
 40
6.0
 40
6.0
 40
6.0
 40
7.0
 40
7.0
 40
7.0
 40
8.0
 40
8.0
 40
8.0
 40
8.0
 10
227.4007696479909
 20
22.74344729120946
 30
0.0
 10
227.6894866313809
 20
22.74344729120946
 30
0.0
 10
227.9859322314023
 20
22.67682029504255
 30
0.0
 10
227.9859322314023
 20
22.32147631548588
 30
0.0
 10
227.9859322314023
 20
22.12900790353166
 30
0.0
 10
227.8379105478094
 20
21.81770841950055
 30
0.0
 10
227.3490252667508
 20
21.83270595809432
 30
0.0
  0
SPLINE
  5
3CA14
102
{ACAD_REACTORS
330
3CA0C
102
}
330
2
100
AcDbEntity
  8
Layer 1
100
AcDbSpline
210
0.0
220
0.0
230
1.0
 70
    24
 71
     3
 72
     8
 73
     4
 74
     0
 42
0.000000001
 43
0.0000000001
 40
8.0
 40
8.0
 40
8.0
 40
8.0
 40
9.0
 40
9.0
 40
9.0
 40
9.0
 10
227.3490252667508
 20
21.83270595809432
 30
0.0
 10
227.3490252667508
 20
21.83270595809432
 30
0.0
 10
227.0358870040415
 20
20.68642856867234
 30
0.0
 10
227.0358870040415
 20
20.68642856867234
 30
0.0
  0
SPLINE
  5
3CA15
102
{ACAD_REACTORS
330
3CA0C
102
}
330
2
100
AcDbEntity
  8
Layer 1
100
AcDbSpline
210
0.0
220
0.0
230
1.0
 70
    24
 71
     3
 72
     8
 73
     4
 74
     0
 42
0.000000001
 43
0.0000000001
 40
9.0
 40
9.0
 40
9.0
 40
9.0
 40
10.0
 40
10.0
 40
10.0
 40
10.0
 10
227.0358870040415
 20
20.68642856867234
 30
0.0
 10
227.0358870040415
 20
20.68642856867234
 30
0.0
 10
227.6339497691166
 20
18.6042702938945
 30
0.0
 10
227.6339497691166
 20
18.6042702938945
 30
0.0
  0
SPLINE
  5
3CA16
102
{ACAD_REACTORS
330
3CA0C
102
}
330
2
100
AcDbEntity
  8
Layer 1
100
AcDbSpline
210
0.0
220
0.0
230
1.0
 70
    24
 71
     3
 72
     8
 73
     4
 74
     0
 42
0.000000001
 43
0.0000000001
 40
10.0
 40
10.0
 40
10.0
 40
10.0
 40
11.0
 40
11.0
 40
11.0
 40
11.0
 10
227.6339497691166
 20
18.6042702938945
 30
0.0
 10
227.6339497691166
 20
18.6042702938945
 30
0.0
 10
229.0021745712758
 20
18.6042702938945
 30
0.0
 10
229.0021745712758
 20
18.6042702938945
 30
0.0
  0
SPLINE
  5
3CA17
102
{ACAD_REACTORS
330
3CA0C
102
}
330
2
100
AcDbEntity
  8
Layer 1
100
AcDbSpline
210
0.0
220
0.0
230
1.0
 70
    24
 71
     3
 72
     8
 73
     4
 74
     0
 42
0.000000001
 43
0.0000000001
 40
11.0
 40
11.0
 40
11.0
 40
11.0
 40
12.0
 40
12.0
 40
12.0
 40
12.0
 10
229.0021745712758
 20
18.6042702938945
 30
0.0
 10
229.0021745712758
 20
18.6042702938945
 30
0.0
 10
228.2575255883517
 20
20.82741117763772
 30
0.0
 10
228.2575255883517
 20
20.82741117763772
 30
0.0
  0
SPLINE
  5
3CA18
102
{ACAD_REACTORS
330
3CA0C
102
}
330
2
100
AcDbEntity
  8
Layer 1
100
AcDbSpline
210
0.0
220
0.0
230
1.0
 70
     8
 71
     3
 72
     8
 73
     4
 74
     0
 42
0.000000001
 43
0.0000000001
 40
12.0
 40
12.0
 40
12.0
 40
12.0
 40
13.0
 40
13.0
 40
13.0
 40
13.0
 10
228.2575255883517
 20
20.82741117763772
 30
0.0
 10
228.4905333239761
 20
20.8982616185811
 30
0.0
 10
228.7217310118395
 20
21.00235373031569
 30
0.0
 10
228.9262664088692
 20
21.15862118704342
 30
0.0
  0
SPLINE
  5
3CA19
102
{ACAD_REACTORS
330
3CA0C
102
}
330
2
100
AcDbEntity
  8
Layer 1
100
AcDbSpline
210
0.0
220
0.0
230
1.0
 70
     8
 71
     3
 72
     8
 73
     4
 74
     0
 42
0.000000001
 43
0.0000000001
 40
13.0
 40
13.0
 40
13.0
 40
13.0
 40
14.0
 40
14.0
 40
14.0
 40
14.0
 10
228.9262664088692
 20
21.15862118704342
 30
0.0
 10
229.3781462690298
 20
21.50681116830532
 30
0.0
 10
229.6152337948465
 20
22.0031664877443
 30
0.0
 10
229.6152337948465
 20
22.49176445963468
 30
0.0
  0
LWPOLYLINE
  5
3CA1A
102
{ACAD_REACTORS
330
3CA1B
102
}
330
2
100
AcDbEntity
  8
Layer 1
 62
   103
100
AcDbPolyline
 90
        8
 70
     1
 43
0.0
 10
250.9880479132393
 20
25.60728762062803
 10
226.1418383336141
 20
25.60826447180085
 10
225.7712095062954
 20
24.38918293908989
 10
234.3816354378358
 20
24.38875520743688
 10
232.7338024330255
 20
18.67468977108518
 10
234.3485374216287
 20
18.67468977108518
 10
235.9960543863536
 20
24.38875520743688
 10
250.6155819333411
 20
24.38803370241601
  0
HATCH
  5
3CA1B
330
2
100
AcDbEntity
  8
0
  6
Continuous
 62
    93
100
AcDbHatch
 10
0.0
 20
0.0
 30
0.0
210
0.0
220
0.0
230
1.0
  2
SOLID
 70
     1
 71
     1
 91
        1
 92
        7
 72
     0
 73
     1
 93
        8
 10
226.1418383336141
 20
25.60826447180085
 10
225.7712095062954
 20
24.38918293908989
 10
234.3816354378358
 20
24.38875520743688
 10
232.7338024330255
 20
18.67468977108518
 10
234.3485374216287
 20
18.67468977108518
 10
235.9960543863536
 20
24.38875520743688
 10
250.6155819333411
 20
24.38803370241601
 10
250.9880479132393
 20
25.60728762062803
 97
        1
330
3CA1A
 75
     1
 76
     1
 47
0.0428322549537331
 98
        1
 10
237.0752894295143
 20
25.00589142586006
450
        0
451
        0
460
0.0
461
0.0
452
        0
462
1.0
453
        2
463
0.0
 63
     5
421
      255
463
1.0
 63
     2
421
 16776960
470
LINEAR
1001
GRADIENTCOLOR1ACI
1070
     5
1001
GRADIENTCOLOR2ACI
1070
     2
1001
ACAD
1010
0.0
1020
0.0
1030
0.0
  0
HATCH
  5
3CA1C
330
2
100
AcDbEntity
  8
0
  6
Continuous
 62
     0
100
AcDbHatch
 10
0.0
 20
0.0
 30
0.0
210
0.0
220
0.0
230
1.0
  2
SOLID
 70
     1
 71
     1
 91
        2
 92
        5
 93
        4
 72
     4
 94
        3
 73
     0
 74
     0
 95
        8
 96
        4
 40
0.0
 40
0.0
 40
0.0
 40
0.0
 40
1.0
 40
1.0
 40
1.0
 40
1.0
 10
236.0960954388125
 20
20.7948590488507
 10
236.0960954388125
 20
19.43982281762248
 10
237.0241040529523
 20
18.40125763545768
 10
238.6295589554144
 20
18.40125763545768
 97
        0
 72
     4
 94
        3
 73
     0
 74
     0
 95
        8
 96
        4
 40
3.0
 40
3.0
 40
3.0
 40
3.0
 40
4.0
 40
4.0
 40
4.0
 40
4.0
 10
238.6295589554144
 20
18.40125763545768
 10
240.7581176608991
 20
18.40125763545768
 10
241.8554662989316
 20
20.02889280572492
 10
241.8554662989316
 20
21.50189818152461
 97
        0
 72
     4
 94
        3
 73
     0
 74
     0
 95
        8
 96
        4
 40
2.0
 40
2.0
 40
2.0
 40
2.0
 40
3.0
 40
3.0
 40
3.0
 40
3.0
 10
241.8554662989316
 20
21.50189818152461
 10
241.8554662989316
 20
22.82033441716857
 10
240.927601339376
 20
23.91035347892722
 10
239.2557780189989
 20
23.91035347892722
 97
        0
 72
     4
 94
        3
 73
     0
 74
     0
 95
        8
 96
        4
 40
1.0
 40
1.0
 40
1.0
 40
1.0
 40
2.0
 40
2.0
 40
2.0
 40
2.0
 10
239.2557780189989
 20
23.91035347892722
 10
237.2008566533917
 20
23.91035347892722
 10
236.0960954388125
 20
22.27516207752945
 10
236.0960954388125
 20
20.7948590488507
 97
        0
 97
        1
330
3CA1D
 92
       20
 93
        4
 72
     4
 94
        3
 73
     0
 74
     0
 95
        8
 96
        4
 40
1.0
 40
1.0
 40
1.0
 40
1.0
 40
2.0
 40
2.0
 40
2.0
 40
2.0
 10
237.7089916487378
 20
20.78026374309275
 10
237.7089916487378
 20
21.57571106793955
 10
238.2615746864555
 20
22.71721596412863
 10
239.2705169793413
 20
22.71721596412863
 97
        0
 72
     4
 94
        3
 73
     0
 74
     0
 95
        8
 96
        4
 40
0.0
 40
0.0
 40
0.0
 40
0.0
 40
1.0
 40
1.0
 40
1.0
 40
1.0
 10
239.2705169793413
 20
22.71721596412863
 10
239.8008035115759
 20
22.71721596412863
 10
240.257452703933
 20
22.35641311037114
 10
240.257452703933
 20
21.59771578920743
 97
        0
 72
     4
 94
        3
 73
     0
 74
     0
 95
        8
 96
        4
 40
3.0
 40
3.0
 40
3.0
 40
3.0
 40
4.0
 40
4.0
 40
4.0
 40
4.0
 10
240.257452703933
 20
21.59771578920743
 10
240.257452703933
 20
20.83919085354478
 10
239.8156861265024
 20
19.65335099162513
 10
238.7254914867644
 20
19.65335099162513
 97
        0
 72
     4
 94
        3
 73
     0
 74
     0
 95
        8
 96
        4
 40
2.0
 40
2.0
 40
2.0
 40
2.0
 40
3.0
 40
3.0
 40
3.0
 40
3.0
 10
238.7254914867644
 20
19.65335099162513
 10
238.1804947251045
 20
19.65335099162513
 10
237.7089916487378
 20
20.01429749996697
 10
237.7089916487378
 20
20.78026374309275
 97
        0
 97
        1
330
3CA1E
 75
     1
 76
     1
 47
0.0269459378258844
 98
        2
 10
237.205025177107
 20
19.9982556782864
 10
237.205025177107
 20
19.9982556782864
450
        0
451
        0
460
0.0
461
0.0
452
        0
462
1.0
453
        2
463
0.0
 63
     5
421
      255
463
1.0
 63
     2
421
 16776960
470
LINEAR
1001
GRADIENTCOLOR1ACI
1070
     5
1001
GRADIENTCOLOR2ACI
1070
     2
1001
ACAD
1010
0.0
1020
0.0
1030
0.0
  0
SPLINE
  5
3CA1D
102
{ACAD_REACTORS
330
3CA1C
102
}
330
2
100
AcDbEntity
  8
Layer 1
100
AcDbSpline
210
0.0
220
0.0
230
1.0
 70
     9
 71
     3
 72
    17
 73
    13
 74
     0
 42
0.000000001
 43
0.0000000001
 40
0.0
 40
0.0
 40
0.0
 40
0.0
 40
1.0
 40
1.0
 40
1.0
 40
2.0
 40
2.0
 40
2.0
 40
3.0
 40
3.0
 40
3.0
 40
4.0
 40
4.0
 40
4.0
 40
4.0
 10
238.6295589554144
 20
18.40125763545768
 30
0.0
 10
237.0241040529523
 20
18.40125763545768
 30
0.0
 10
236.0960954388125
 20
19.43982281762248
 30
0.0
 10
236.0960954388125
 20
20.7948590488507
 30
0.0
 10
236.0960954388125
 20
22.27516207752945
 30
0.0
 10
237.2008566533917
 20
23.91035347892722
 30
0.0
 10
239.2557780189989
 20
23.91035347892722
 30
0.0
 10
240.927601339376
 20
23.91035347892722
 30
0.0
 10
241.8554662989316
 20
22.82033441716857
 30
0.0
 10
241.8554662989316
 20
21.50189818152461
 30
0.0
 10
241.8554662989316
 20
20.02889280572492
 30
0.0
 10
240.7581176608991
 20
18.40125763545768
 30
0.0
 10
238.6295589554144
 20
18.40125763545768
 30
0.0
  0
SPLINE
  5
3CA1E
102
{ACAD_REACTORS
330
3CA1C
102
}
330
2
100
AcDbEntity
  8
Layer 1
100
AcDbSpline
210
0.0
220
0.0
230
1.0
 70
     9
 71
     3
 72
    17
 73
    13
 74
     0
 42
0.000000001
 43
0.0000000001
 40
0.0
 40
0.0
 40
0.0
 40
0.0
 40
1.0
 40
1.0
 40
1.0
 40
2.0
 40
2.0
 40
2.0
 40
3.0
 40
3.0
 40
3.0
 40
4.0
 40
4.0
 40
4.0
 40
4.0
 10
240.257452703933
 20
21.59771578920743
 30
0.0
 10
240.257452703933
 20
22.35641311037114
 30
0.0
 10
239.8008035115759
 20
22.71721596412863
 30
0.0
 10
239.2705169793413
 20
22.71721596412863
 30
0.0
 10
238.2615746864555
 20
22.71721596412863
 30
0.0
 10
237.7089916487378
 20
21.57571106793955
 30
0.0
 10
237.7089916487378
 20
20.78026374309275
 30
0.0
 10
237.7089916487378
 20
20.01429749996697
 30
0.0
 10
238.1804947251045
 20
19.65335099162513
 30
0.0
 10
238.7254914867644
 20
19.65335099162513
 30
0.0
 10
239.8156861265024
 20
19.65335099162513
 30
0.0
 10
240.257452703933
 20
20.83919085354478
 30
0.0
 10
240.257452703933
 20
21.59771578920743
 30
0.0
  0
HATCH
  5
3CA1F
330
2
100
AcDbEntity
  8
0
  6
Continuous
 62
     0
100
AcDbHatch
 10
0.0
 20
0.0
 30
0.0
210
0.0
220
0.0
230
1.0
  2
SOLID
 70
     1
 71
     1
 91
        2
 92
        5
 93
        4
 72
     4
 94
        3
 73
     0
 74
     0
 95
        8
 96
        4
 40
0.0
 40
0.0
 40
0.0
 40
0.0
 40
1.0
 40
1.0
 40
1.0
 40
1.0
 10
242.0353218383899
 20
20.7948590488507
 10
242.0353218383899
 20
19.43982281762248
 10
242.9634453761972
 20
18.40125763545768
 10
244.5687566240748
 20
18.40125763545768
 97
        0
 72
     4
 94
        3
 73
     0
 74
     0
 95
        8
 96
        4
 40
3.0
 40
3.0
 40
3.0
 40
3.0
 40
4.0
 40
4.0
 40
4.0
 40
4.0
 10
244.5687566240748
 20
18.40125763545768
 10
246.6973440604765
 20
18.40125763545768
 10
247.794692698509
 20
20.02889280572492
 10
247.794692698509
 20
21.50189818152461
 97
        0
 72
     4
 94
        3
 73
     0
 74
     0
 95
        8
 96
        4
 40
2.0
 40
2.0
 40
2.0
 40
2.0
 40
3.0
 40
3.0
 40
3.0
 40
3.0
 10
247.794692698509
 20
21.50189818152461
 10
247.794692698509
 20
22.82033441716857
 10
246.8666840843692
 20
23.91035347892722
 10
245.1950044185766
 20
23.91035347892722
 97
        0
 72
     4
 94
        3
 73
     0
 74
     0
 95
        8
 96
        4
 40
1.0
 40
1.0
 40
1.0
 40
1.0
 40
2.0
 40
2.0
 40
2.0
 40
2.0
 10
245.1950044185766
 20
23.91035347892722
 10
243.139939398385
 20
23.91035347892722
 10
242.0353218383899
 20
22.27516207752945
 10
242.0353218383899
 20
20.7948590488507
 97
        0
 97
        1
330
3CA21
 92
       20
 93
        4
 72
     4
 94
        3
 73
     0
 74
     0
 95
        8
 96
        4
 40
1.0
 40
1.0
 40
1.0
 40
1.0
 40
2.0
 40
2.0
 40
2.0
 40
2.0
 10
243.6483344220739
 20
20.78026374309275
 10
243.6483344220739
 20
21.57571106793955
 10
244.2006561174384
 20
22.71721596412863
 10
245.209312415166
 20
22.71721596412863
 97
        0
 72
     4
 94
        3
 73
     0
 74
     0
 95
        8
 96
        4
 40
0.0
 40
0.0
 40
0.0
 40
0.0
 40
1.0
 40
1.0
 40
1.0
 40
1.0
 10
245.209312415166
 20
22.71721596412863
 10
245.7398862565691
 20
22.71721596412863
 10
246.1965354489264
 20
22.35641311037114
 10
246.1965354489264
 20
21.59771578920743
 97
        0
 72
     4
 94
        3
 73
     0
 74
     0
 95
        8
 96
        4
 40
3.0
 40
3.0
 40
3.0
 40
3.0
 40
4.0
 40
4.0
 40
4.0
 40
4.0
 10
246.1965354489264
 20
21.59771578920743
 10
246.1965354489264
 20
20.83919085354478
 10
245.7544815623271
 20
19.65335099162513
 10
244.6644305771735
 20
19.65335099162513
 97
        0
 72
     4
 94
        3
 73
     0
 74
     0
 95
        8
 96
        4
 40
2.0
 40
2.0
 40
2.0
 40
2.0
 40
3.0
 40
3.0
 40
3.0
 40
3.0
 10
244.6644305771735
 20
19.65335099162513
 10
244.1194338155135
 20
19.65335099162513
 10
243.6483344220739
 20
20.01429749996697
 10
243.6483344220739
 20
20.78026374309275
 97
        0
 97
        1
330
3CA20
 75
     1
 76
     1
 47
0.0269459378258844
 98
        2
 10
243.5478539098793
 20
20.41733482246053
 10
243.5478539098793
 20
20.41733482246053
450
        0
451
        0
460
0.0
461
0.0
452
        0
462
1.0
453
        2
463
0.0
 63
     5
421
      255
463
1.0
 63
     2
421
 16776960
470
LINEAR
1001
GRADIENTCOLOR1ACI
1070
     5
1001
GRADIENTCOLOR2ACI
1070
     2
1001
ACAD
1010
0.0
1020
0.0
1030
0.0
  0
SPLINE
  5
3CA20
102
{ACAD_REACTORS
330
3CA1F
102
}
330
2
100
AcDbEntity
  8
Layer 1
100
AcDbSpline
210
0.0
220
0.0
230
1.0
 70
     9
 71
     3
 72
    17
 73
    13
 74
     0
 42
0.000000001
 43
0.0000000001
 40
0.0
 40
0.0
 40
0.0
 40
0.0
 40
1.0
 40
1.0
 40
1.0
 40
2.0
 40
2.0
 40
2.0
 40
3.0
 40
3.0
 40
3.0
 40
4.0
 40
4.0
 40
4.0
 40
4.0
 10
246.1965354489264
 20
21.59771578920743
 30
0.0
 10
246.1965354489264
 20
22.35641311037114
 30
0.0
 10
245.7398862565691
 20
22.71721596412863
 30
0.0
 10
245.209312415166
 20
22.71721596412863
 30
0.0
 10
244.2006561174384
 20
22.71721596412863
 30
0.0
 10
243.6483344220739
 20
21.57571106793955
 30
0.0
 10
243.6483344220739
 20
20.78026374309275
 30
0.0
 10
243.6483344220739
 20
20.01429749996697
 30
0.0
 10
244.1194338155135
 20
19.65335099162513
 30
0.0
 10
244.6644305771735
 20
19.65335099162513
 30
0.0
 10
245.7544815623271
 20
19.65335099162513
 30
0.0
 10
246.1965354489264
 20
20.83919085354478
 30
0.0
 10
246.1965354489264
 20
21.59771578920743
 30
0.0
  0
SPLINE
  5
3CA21
102
{ACAD_REACTORS
330
3CA1F
102
}
330
2
100
AcDbEntity
  8
Layer 1
100
AcDbSpline
210
0.0
220
0.0
230
1.0
 70
     9
 71
     3
 72
    17
 73
    13
 74
     0
 42
0.000000001
 43
0.0000000001
 40
0.0
 40
0.0
 40
0.0
 40
0.0
 40
1.0
 40
1.0
 40
1.0
 40
2.0
 40
2.0
 40
2.0
 40
3.0
 40
3.0
 40
3.0
 40
4.0
 40
4.0
 40
4.0
 40
4.0
 10
244.5687566240748
 20
18.40125763545768
 30
0.0
 10
242.9634453761972
 20
18.40125763545768
 30
0.0
 10
242.0353218383899
 20
19.43982281762248
 30
0.0
 10
242.0353218383899
 20
20.7948590488507
 30
0.0
 10
242.0353218383899
 20
22.27516207752945
 30
0.0
 10
243.139939398385
 20
23.91035347892722
 30
0.0
 10
245.1950044185766
 20
23.91035347892722
 30
0.0
 10
246.8666840843692
 20
23.91035347892722
 30
0.0
 10
247.794692698509
 20
22.82033441716857
 30
0.0
 10
247.794692698509
 20
21.50189818152461
 30
0.0
 10
247.794692698509
 20
20.02889280572492
 30
0.0
 10
246.6973440604765
 20
18.40125763545768
 30
0.0
 10
244.5687566240748
 20
18.40125763545768
 30
0.0
  0
HATCH
  5
3CA22
330
2
100
AcDbEntity
  8
0
  6
Continuous
 62
     0
100
AcDbHatch
 10
0.0
 20
0.0
 30
0.0
210
0.0
220
0.0
230
1.0
  2
SOLID
 70
     1
 71
     1
 91
        1
 92
        5
 93
        6
 72
     4
 94
        3
 73
     0
 74
     0
 95
        8
 96
        4
 40
4.0
 40
4.0
 40
4.0
 40
4.0
 40
5.0
 40
5.0
 40
5.0
 40
5.0
 10
249.388197134655
 20
19.76373517414919
 10
249.388197134655
 20
19.76373517414919
 10
250.4562099114949
 20
23.75578114629343
 10
250.4562099114949
 20
23.75578114629343
 97
        0
 72
     4
 94
        3
 73
     0
 74
     0
 95
        8
 96
        4
 40
3.0
 40
3.0
 40
3.0
 40
3.0
 40
4.0
 40
4.0
 40
4.0
 40
4.0
 10
250.4562099114949
 20
23.75578114629343
 10
250.4562099114949
 20
23.75578114629343
 10
248.820874855513
 20
23.75578114629343
 10
248.820874855513
 20
23.75578114629343
 97
        0
 72
     4
 94
        3
 73
     0
 74
     0
 95
        8
 96
        4
 40
2.0
 40
2.0
 40
2.0
 40
2.0
 40
3.0
 40
3.0
 40
3.0
 40
3.0
 10
248.820874855513
 20
23.75578114629343
 10
248.820874855513
 20
23.75578114629343
 10
247.4290917816382
 20
18.55600235359253
 10
247.4290917816382
 20
18.55600235359253
 97
        0
 72
     4
 94
        3
 73
     0
 74
     0
 95
        8
 96
        4
 40
1.0
 40
1.0
 40
1.0
 40
1.0
 40
2.0
 40
2.0
 40
2.0
 40
2.0
 10
247.4290917816382
 20
18.55600235359253
 10
247.4290917816382
 20
18.55600235359253
 10
250.7951501681676
 20
18.55600235359253
 10
250.7951501681676
 20
18.55600235359253
 97
        0
 72
     4
 94
        3
 73
     0
 74
     0
 95
        8
 96
        4
 40
0.0
 40
0.0
 40
0.0
 40
0.0
 40
1.0
 40
1.0
 40
1.0
 40
1.0
 10
250.7951501681676
 20
18.55600235359253
 10
250.7951501681676
 20
18.55600235359253
 10
251.194680667199
 20
19.76373517414919
 10
251.194680667199
 20
19.76373517414919
 97
        0
 72
     4
 94
        3
 73
     0
 74
     0
 95
        8
 96
        4
 40
5.0
 40
5.0
 40
5.0
 40
5.0
 40
6.0
 40
6.0
 40
6.0
 40
6.0
 10
251.194680667199
 20
19.76373517414919
 10
251.194680667199
 20
19.76373517414919
 10
249.388197134655
 20
19.76373517414919
 10
249.388197134655
 20
19.76373517414919
 97
        0
 97
        6
330
3CA27
330
3CA26
330
3CA25
330
3CA24
330
3CA23
330
3CA28
 75
     1
 76
     1
 47
0.0168242271866721
 98
        1
 10
248.8874131184788
 20
20.10292785343307
450
        0
451
        0
460
0.0
461
0.0
452
        0
462
1.0
453
        2
463
0.0
 63
     5
421
      255
463
1.0
 63
     2
421
 16776960
470
LINEAR
1001
GRADIENTCOLOR1ACI
1070
     5
1001
GRADIENTCOLOR2ACI
1070
     2
1001
ACAD
1010
0.0
1020
0.0
1030
0.0
  0
SPLINE
  5
3CA23
102
{ACAD_REACTORS
330
3CA22
102
}
330
2
100
AcDbEntity
  8
Layer 1
100
AcDbSpline
210
0.0
220
0.0
230
1.0
 70
    24
 71
     3
 72
     8
 73
     4
 74
     0
 42
0.000000001
 43
0.0000000001
 40
0.0
 40
0.0
 40
0.0
 40
0.0
 40
1.0
 40
1.0
 40
1.0
 40
1.0
 10
251.194680667199
 20
19.76373517414919
 30
0.0
 10
251.194680667199
 20
19.76373517414919
 30
0.0
 10
250.7951501681676
 20
18.55600235359253
 30
0.0
 10
250.7951501681676
 20
18.55600235359253
 30
0.0
  0
SPLINE
  5
3CA24
102
{ACAD_REACTORS
330
3CA22
102
}
330
2
100
AcDbEntity
  8
Layer 1
100
AcDbSpline
210
0.0
220
0.0
230
1.0
 70
    24
 71
     3
 72
     8
 73
     4
 74
     0
 42
0.000000001
 43
0.0000000001
 40
1.0
 40
1.0
 40
1.0
 40
1.0
 40
2.0
 40
2.0
 40
2.0
 40
2.0
 10
250.7951501681676
 20
18.55600235359253
 30
0.0
 10
250.7951501681676
 20
18.55600235359253
 30
0.0
 10
247.4290917816382
 20
18.55600235359253
 30
0.0
 10
247.4290917816382
 20
18.55600235359253
 30
0.0
  0
SPLINE
  5
3CA25
102
{ACAD_REACTORS
330
3CA22
102
}
330
2
100
AcDbEntity
  8
Layer 1
100
AcDbSpline
210
0.0
220
0.0
230
1.0
 70
    24
 71
     3
 72
     8
 73
     4
 74
     0
 42
0.000000001
 43
0.0000000001
 40
2.0
 40
2.0
 40
2.0
 40
2.0
 40
3.0
 40
3.0
 40
3.0
 40
3.0
 10
247.4290917816382
 20
18.55600235359253
 30
0.0
 10
247.4290917816382
 20
18.55600235359253
 30
0.0
 10
248.820874855513
 20
23.75578114629343
 30
0.0
 10
248.820874855513
 20
23.75578114629343
 30
0.0
  0
SPLINE
  5
3CA26
102
{ACAD_REACTORS
330
3CA22
102
}
330
2
100
AcDbEntity
  8
Layer 1
100
AcDbSpline
210
0.0
220
0.0
230
1.0
 70
    24
 71
     3
 72
     8
 73
     4
 74
     0
 42
0.000000001
 43
0.0000000001
 40
3.0
 40
3.0
 40
3.0
 40
3.0
 40
4.0
 40
4.0
 40
4.0
 40
4.0
 10
248.820874855513
 20
23.75578114629343
 30
0.0
 10
248.820874855513
 20
23.75578114629343
 30
0.0
 10
250.4562099114949
 20
23.75578114629343
 30
0.0
 10
250.4562099114949
 20
23.75578114629343
 30
0.0
  0
SPLINE
  5
3CA27
102
{ACAD_REACTORS
330
3CA22
102
}
330
2
100
AcDbEntity
  8
Layer 1
100
AcDbSpline
210
0.0
220
0.0
230
1.0
 70
    24
 71
     3
 72
     8
 73
     4
 74
     0
 42
0.000000001
 43
0.0000000001
 40
4.0
 40
4.0
 40
4.0
 40
4.0
 40
5.0
 40
5.0
 40
5.0
 40
5.0
 10
250.4562099114949
 20
23.75578114629343
 30
0.0
 10
250.4562099114949
 20
23.75578114629343
 30
0.0
 10
249.388197134655
 20
19.76373517414919
 30
0.0
 10
249.388197134655
 20
19.76373517414919
 30
0.0
  0
SPLINE
  5
3CA28
102
{ACAD_REACTORS
330
3CA22
102
}
330
2
100
AcDbEntity
  8
Layer 1
100
AcDbSpline
210
0.0
220
0.0
230
1.0
 70
    24
 71
     3
 72
     8
 73
     4
 74
     0
 42
0.000000001
 43
0.0000000001
 40
5.0
 40
5.0
 40
5.0
 40
5.0
 40
6.0
 40
6.0
 40
6.0
 40
6.0
 10
249.388197134655
 20
19.76373517414919
 30
0.0
 10
249.388197134655
 20
19.76373517414919
 30
0.0
 10
251.194680667199
 20
19.76373517414919
 30
0.0
 10
251.194680667199
 20
19.76373517414919
 30
0.0
  0
TEXT
  5
3CA29
330
2
100
AcDbEntity
  8
0
 62
     2
100
AcDbText
 10
216.5107526826763
 20
12.44259612545357
 30
0.0
 40
2.540257999999999
  1
www.maritool.com
  7
굴림
100
AcDbText
  0
TEXT
  5
3CA2A
330
2
100
AcDbEntity
  8
0
 62
     2
100
AcDbText
 10
199.1432827353754
 20
3.933672850249706
 30
0.0
 40
2.032206399999999
  1
ITEM#
  7
굴림
100
AcDbText
  0
TEXT
  5
3CA2B
330
2
100
AcDbEntity
  8
0
 62
     2
100
AcDbText
 10
214.0085661489341
 20
3.450826278019405
 30
0.0
 40
3.048309599999998
  1
HSK63A-MG25-3.765
  7
굴림
100
AcDbText
  0
LINE
  5
40F69
330
2
100
AcDbEntity
  8
0
  6
Continuous
 62
     3
100
AcDbLine
 10
85.06942055277608
 20
62.45651024613346
 30
0.0
 11
85.06942055277608
 21
50.96847302950857
 31
0.0
  0
MTEXT
  5
40F6A
330
2
100
AcDbEntity
  8
0
  6
Continuous
 62
     2
100
AcDbMText
 10
85.06995472192278
 20
48.51965792571229
 30
0.0
 40
3.0
 41
0.0
 46
0.0
 71
     5
 72
     1
  1
0.00
 73
     1
 44
1.0
  0
LINE
  5
40F6B
330
2
100
AcDbEntity
  8
0
  6
Continuous
 62
     3
100
AcDbLine
 10
111.0694205527761
 20
62.45651024613346
 30
0.0
 11
111.0694205527761
 21
51.00123165009302
 31
0.0
  0
MTEXT
  5
40F6C
330
2
100
AcDbEntity
  8
0
  6
Continuous
 62
     2
100
AcDbMText
 10
110.7756066196288
 20
48.51965792571229
 30
0.0
 40
3.0
 41
0.0
 46
0.0
 71
     5
 72
     1
  1
1.02
 73
     1
 44
1.0
  0
LINE
  5
40F6D
330
2
100
AcDbEntity
  8
0
  6
Continuous
 62
     3
100
AcDbLine
 10
53.06942055277608
 20
71.88043740520072
 30
0.0
 11
53.06942055277608
 21
50.96847302950857
 31
0.0
  0
MTEXT
  5
40F6E
330
2
100
AcDbEntity
  8
0
  6
Continuous
 62
     2
100
AcDbMText
 10
53.06995472192278
 20
48.51965792571229
 30
0.0
 40
3.0
 41
0.0
 46
0.0
 71
     5
 72
     1
  1
1.26
 73
     1
 44
1.0
  0
LINE
  5
40F76
330
2
100
AcDbEntity
  8
0
  6
Continuous
 62
     3
100
AcDbLine
 10
180.700420552771
 20
78.55067037442466
 30
0.0
 11
180.7004205527728
 21
50.9528901801533
 31
0.0
  0
MTEXT
  5
40F77
330
2
100
AcDbEntity
  8
0
  6
Continuous
 62
     2
100
AcDbMText
 10
180.6782151543166
 20
48.51995320130356
 30
0.0
 40
3.0
 41
0.0
 46
0.0
 71
     5
 72
     1
  1
3.765
 73
     1
 44
1.0
  0
MULTILEADER
  5
41A0C
330
2
100
AcDbEntity
  8
0
  6
Continuous
 62
     7
160
               688
310
B0020000180000000C00000016000000020000C30C00000033000000000000000C00000013000000993A00000C00000016000000020000C3D4000000260000001E4FD08C2CF96840D05EF8DF99A04F40000000000000000000000000000000000000000000000000000000000000F03F000000000000F03F00000000000000
310
0000000000000000004D0047003200350020005400410050004500520000005C000A000000010000000000000000000440000000000000F03F0000000000000000000000000000F03F0000000000000000000000000000000000000000000000000000000001000000000000000000000072006F006D0061006E0073002E00
310
73006800780000006400000066000C00000033000000000000000C00000010000000000000000C00000016000000030000C30C00000012000000000000000C00000013000000010000000C0000001400000001000000540000000700000003000000AC41EAE1B3E965400A57CBD1E50A5A400000000000000000A2B48196C0
310
CF6540088F1ECD93A45A400000000000000000DC04F99038016640CBA0C09309245A4000000000000000000C000000130000008913000054000000060000000300000044A3713976F56540EBFBC5B277175A40000000000000000012FC2049399F6840682FFCEF4C2050400000000000000000128C9F8069E86840682FFCEF
310
4C20504000000000000000000C00000013000000112700003C0000000600000002000000128C9F8069E86840682FFCEF4C2050400000000000000000128C9F8069F86840682FFCEF4C20504000000000000000000C00000016000000030000C30C00000012000000000000000C00000017000000000000000C000000130000
310
009A3A00000C00000016000000070000C30C00000012000000000000000C00000017000000FFFFFFFF0C0000003300000000000000
100
AcDbMLeader
270
     2
300
CONTEXT_DATA{
 40
1.0
 10
199.7628787151485
 20
64.50469588878116
 30
0.0
 41
2.5
140
2.5
145
0.5
174
     2
175
     2
176
     0
177
     1
290
     1
304
MG25 TAPER
 11
0.0
 21
0.0
 31
1.0
340
35
 12
200.2628787151485
 22
65.75469588878116
 32
0.0
 13
1.0
 23
0.0
 33
0.0
 42
0.0
 43
0.0
 44
0.0
 45
1.0
170
     1
 90
-1023410174
171
     1
172
     5
 91
-1073741824
141
0.0
 92
        0
291
     0
292
     0
173
     0
293
     0
142
0.0
143
0.0
294
     0
295
     0
296
     0
110
180.4612592671692
120
106.5715210722375
130
0.0
111
1.0
121
0.0
131
0.0
112
0.0
122
1.0
132
0.0
297
     0
302
LEADER{
290
     1
291
     1
 10
199.2628787151484
 20
64.50469588878116
 30
0.0
 11
1.0
 21
0.0
 31
0.0
 90
        0
 40
0.5
304
LEADER_LINE{
 10
174.4922592671692
 20
106.5715210722375
 30
0.0
 10
196.9757428783637
 20
64.50469588878116
 30
0.0
 91
        0
305
}
271
     0
303
}
272
     9
273
     9
301
}
340
BD9
 90
   279552
170
     1
 91
-1023410173
341
28
171
    -1
290
     1
291
     1
 41
0.5
 42
2.5
172
     2
343
35
173
     2
 95
        2
174
     1
175
     0
 92
-1023410174
292
     0
 93
-1023410174
 10
1.0
 20
1.0
 30
1.0
 43
0.0
176
     1
293
     0
294
     0
178
     0
179
     1
 45
1.0
271
     0
272
     9
273
     9
295
     0
  0
DIMENSION
  5
41A0D
330
2
100
AcDbEntity
  8
0
  6
Continuous
 62
     7
100
AcDbDimension
280
     0
  2
*D0
 10
206.0356139235713
 20
114.156510246133
 30
0.0
 11
206.0356139235712
 21
95.62893804800808
 31
0.0
 70
   160
  1
%%C1.5748
 71
     5
 42
39.99999999999682
 73
     0
 74
     0
 75
     0
  3
Standard$0
100
AcDbAlignedDimension
 13
176.614050767101
 23
74.15651024613623
 33
0.0
 14
176.614050767101
 24
114.156510246133
 34
0.0
 50
90.0
100
AcDbRotatedDimension
1001
ACAD
1000
DSTYLE
1002
{
1070
    42
1040
0.625
1070
    43
1040
3.75
1070
    44
1040
1.25
1070
    48
1040
0.000000001
1070
    74
1070
     0
1070
    76
1070
     0
1070
    77
1070
     1
1070
    90
1070
     1
1070
   140
1040
3.0
1070
   141
1040
-0.5
1070
   143
1040
0.03937007874016
1070
   146
1040
0.7
1070
   147
1040
0.625
1070
   171
1070
     3
1070
   172
1070
     1
1070
   175
1070
     0
1070
   274
1070
     3
1070
   282
1070
     0
1070
   283
1070
     0
1070
   284
1070
     8
1070
   340
1005
25
1070
   371
1070
    -1
1070
   372
1070
    -1
1002
}
  0
DIMENSION
  5
41A2B
330
2
100
AcDbEntity
  8
0
  6
Continuous
 62
     7
100
AcDbDimension
280
     0
  2
*D1
 10
198.0356139235712
 20
79.74201024613342
 30
0.0
 11
195.9106139235712
 21
94.15651024613309
 31
0.0
 70
    32
  1
%%c1.135
 71
     5
 42
28.82899999999927
 73
     0
 74
     0
 75
     0
  3
Standard$0
100
AcDbAlignedDimension
 13
180.7004205527715
 23
108.5710102461327
 33
0.0
 14
180.700420552771
 24
79.74201024613342
 34
0.0
 50
90.0
100
AcDbRotatedDimension
1001
ACAD
1000
DSTYLE
1002
{
1070
    42
1040
0.625
1070
    43
1040
3.75
1070
    44
1040
1.25
1070
    48
1040
0.000000001
1070
    74
1070
     0
1070
    77
1070
     1
1070
    90
1070
     1
1070
   140
1040
3.0
1070
   141
1040
-0.5
1070
   143
1040
0.03937007874016
1070
   146
1040
0.7
1070
   147
1040
0.625
1070
   171
1070
     3
1070
   172
1070
     1
1070
   175
1070
     0
1070
   274
1070
     3
1070
   283
1070
     0
1070
   284
1070
     8
1070
   340
1005
25
1070
   371
1070
    -1
1070
   372
1070
    -1
1002
}
  0
MULTILEADER
  5
41A36
330
2
100
AcDbEntity
  8
0
  6
Continuous
 62
     7
160
               684
310
AC020000180000000C00000016000000020000C30C00000033000000000000000C00000013000000993A00000C00000016000000020000C3D0000000260000006CE219153ADD5D40A8B9ACA034234E40000000000000000000000000000000000000000000000000000000000000F03F000000000000F03F00000000000000
310
0000000000000000002E00310032003500780034003500B0000000610008000000010000000000000000000440000000000000F03F0000000000000000000000000000F03F0000000000000000000000000000000000000000000000000000000001000000000000000000000072006F006D0061006E0073002E0073006800
310
78000000300000002E000C00000033000000000000000C00000010000000000000000C00000016000000030000C30C00000012000000000000000C00000013000000010000000C000000140000000100000054000000070000000300000061927A9109525C40DC086F388A8351400000000000000000344A4A58FE245C403C
310
4ABD055E1F52400000000000000000760B002424825C401AB5EA63929A514000000000000000000C0000001300000089130000540000000600000003000000EC4EBDDA166A5C40FBDE2C4E0E8F51400000000000000000547845E4FE745D40A8B9ACA034C34E400000000000000000545CB8FCB3BB5D40A8B9ACA034C34E40
310
00000000000000000C00000013000000112700003C0000000600000002000000545CB8FCB3BB5D40A8B9ACA034C34E400000000000000000545CB8FCB3DB5D40A8B9ACA034C34E4000000000000000000C00000016000000030000C30C00000012000000000000000C00000017000000000000000C000000130000009A3A00
310
000C00000016000000070000C30C00000012000000000000000C00000017000000FFFFFFFF0C0000003300000000000000
100
AcDbMLeader
270
     2
300
CONTEXT_DATA{
 40
1.0
 10
119.4328605461499
 20
61.52504356798027
 30
0.0
 41
2.5
140
2.5
145
0.5
174
     2
175
     2
176
     0
177
     1
290
     1
304
.125x45%%D
 11
0.0
 21
0.0
 31
1.0
340
35
 12
119.9328605461499
 22
62.77504356798027
 32
0.0
 13
1.0
 23
0.0
 33
0.0
 42
0.0
 43
0.0
 44
0.0
 45
1.0
170
     1
 90
-1023410174
171
     1
172
     5
 91
-1073741824
141
0.0
 92
        0
291
     0
292
     0
173
     0
293
     0
142
0.0
143
0.0
294
     0
295
     0
296
     0
110
112.5780239797103
120
72.49011367307042
130
0.0
111
1.0
121
0.0
131
0.0
112
0.0
122
1.0
132
0.0
297
     0
302
LEADER{
290
     1
291
     1
 10
118.9328605461499
 20
61.52504356798027
 30
0.0
 11
1.0
 21
0.0
 31
0.0
 90
        0
 40
0.5
304
LEADER_LINE{
 10
112.5780239797103
 20
72.49011367307042
 30
0.0
 10
117.8280573538225
 20
61.52504356798027
 30
0.0
 91
        0
305
}
271
     0
303
}
272
     9
273
     9
301
}
340
BD9
 90
   279552
170
     1
 91
-1023410173
341
28
171
    -1
290
     1
291
     1
 41
0.5
 42
2.5
172
     2
343
35
173
     2
 95
        2
174
     1
175
     0
 92
-1023410174
292
     0
 93
-1023410174
 10
1.0
 20
1.0
 30
1.0
 43
0.0
176
     1
293
     0
294
     0
178
     0
179
     1
 45
1.0
271
     0
272
     9
273
     9
295
     0
  0
HATCH
  5
41B64
330
2
100
AcDbEntity
  8
0
  6
Continuous
 62
     4
100
AcDbHatch
 10
0.0
 20
0.0
 30
0.0
210
0.0
220
0.0
230
1.0
  2
ANSI31
 70
     0
 71
     0
 91
        2
 92
        7
 72
     1
 73
     1
 93
       60
 10
168.200420552771
 20
111.4105102461329
 42
0.0
 10
168.200420552771
 20
113.7755102461329
 42
0.0
 10
167.8194205527709
 20
114.156510246133
 42
0.0
 10
114.2444205527744
 20
114.1565102461297
 42
0.0
 10
111.0694205527736
 20
117.3315102461295
 42
0.0
 10
111.069420552771
 20
125.1565102461338
 42
0.4142135623730013
 10
110.5694205527711
 20
125.6565102461337
 42
0.0
 10
106.4469196275335
 20
125.6565102461337
 42
0.0
 10
104.9444205527711
 20
123.0541055103259
 42
0.0
 10
104.9444205527711
 20
121.6565102461337
 42
0.0
 10
101.1944205527711
 20
121.6565102461337
 42
0.0
 10
101.1944205527711
 20
123.0541055103259
 42
0.0
 10
99.94192147801591
 20
125.2234975442408
 42
0.0
 10
99.69192147801591
 20
125.6565102461337
 42
0.0
 10
97.06942055277108
 20
125.6565102461337
 42
0.0
 10
97.06942055277108
 20
121.0565102461333
 42
0.0
 10
87.06942055277108
 20
121.0565102461333
 42
0.0
 10
87.06942055277108
 20
125.6565102461337
 42
0.0
 10
85.56942055277108
 20
125.6565102461337
 42
0.4142135623730951
 10
85.06942055277107
 20
125.1565102461337
 42
0.0
 10
85.06942055277107
 20
118.4301989463907
 42
-0.2462240660889037
 10
84.57595667702339
 20
118.1715102461335
 42
0.0
 10
83.8158307142873
 20
118.1715102461331
 42
0.0
 10
83.06942055277108
 20
118.3715102461339
 42
0.0
 10
54.20949541244266
 20
116.9285139891177
 42
0.3996556434456893
 10
53.0694205527754
 20
115.7300111824644
 42
0.0
 10
53.06942055277426
 20
111.7338605153219
 42
0.0
 10
54.06942055277108
 20
111.1565102461337
 42
0.0
 10
66.07339514899144
 20
111.1565102461337
 42
0.0
 10
67.63224087580232
 20
113.8565102461331
 42
-0.2679491924312589
 10
68.15185611807322
 20
114.1565102461334
 42
0.0
 10
79.03307231894922
 20
114.1565102461337
 42
-0.2170550352312739
 10
85.06942055277425
 20
111.4065102461337
 42
0.0
 10
92.36559076553971
 20
111.4065102461337
 42
0.0
 10
94.43229121435042
 20
111.9959211751035
 42
-0.4981340880712616
 10
95.06942055277107
 20
111.5150931969821
 42
0.0
 10
95.06942055277107
 20
103.456510246133
 42
0.0
 10
95.36942055277171
 20
103.1565102461337
 42
0.0
 10
101.7694205527732
 20
103.1565102461337
 42
0.0
 10
102.0694205527711
 20
103.456510246133
 42
0.0
 10
102.0694205527711
 20
103.6565102461337
 42
0.0
 10
107.0694205527711
 20
103.6565102461337
 42
0.0
 10
107.0694205527711
 20
98.90651024614284
 42
0.0
 10
107.8194205527706
 20
98.15651024614329
 42
0.0
 10
115.0919813703313
 20
98.15651024613964
 42
0.0
 10
118.700420552771
 20
104.4065102461465
 42
0.0
 10
118.700420552771
 20
106.7065102461341
 42
0.0
 10
136.3278777643634
 20
106.7065102461341
 42
0.0
 10
137.5204205527712
 20
106.3869693690413
 42
0.0
 10
179.9832644507108
 20
106.5989304301196
 42
0.0
 10
180.3194205527701
 20
106.7930102461332
 42
0.0
 10
180.700420552771
 20
107.1740102461336
 42
0.0
 10
180.700420552771
 20
108.5710102461335
 42
0.0
 10
177.9064205527695
 20
113.410360202485
 42
0.0
 10
176.6140507671012
 20
114.156510246133
 42
0.0
 10
173.0814205527709
 20
114.156510246133
 42
0.0
 10
172.700420552771
 20
113.7755102461329
 42
0.0
 10
172.700420552771
 20
111.4105102461329
 42
0.0
 10
172.4464205527709
 20
111.156510246133
 42
0.0
 10
168.4544205527709
 20
111.156510246133
 42
0.0
 97
        0
 92
       23
 72
     0
 73
     1
 93
        4
 10
101.7694205527732
 20
103.1565102461337
 10
95.36942055277171
 20
103.1565102461337
 10
95.86942055277399
 20
102.6565102461337
 10
101.2694205527754
 20
102.6565102461337
 97
        0
 75
     1
 76
     1
 52
0.0
 41
1.0
 77
     0
 78
     1
 53
45.0
 43
-417.9353695361779
 44
1057.635992205727
 45
-2.245064030267288
 46
2.245064030267288
 79
     0
 47
0.2059274386369714
 98
        2
 10
108.5967565718901
 20
111.1792772006155
 10
100.086974150331
 20
102.8297856944917
1001
GRADIENTCOLOR1ACI
1070
     5
1001
GRADIENTCOLOR2ACI
1070
     2
1001
ACAD
1010
0.0
1020
0.0
1030
0.0
  0
LINE
  5
41B65
330
2
100
AcDbEntity
  8
0
 62
     7
100
AcDbLine
 10
83.06942055277108
 20
118.3715102461339
 30
0.0
 11
54.20949541244266
 21
116.9285139891163
 31
0.0
  0
LINE
  5
41B66
330
2
100
AcDbEntity
  8
0
 62
     7
100
AcDbLine
 10
83.06942055277108
 20
69.94151024613358
 30
0.0
 11
54.20949541244266
 21
71.3845065031511
 31
0.0
  0
LINE
  5
41B67
330
2
100
AcDbEntity
  8
0
 62
     7
100
AcDbLine
 10
83.06942055277108
 20
94.15651024613373
 30
0.0
 11
83.06942055277108
 21
69.94151024613358
 31
0.0
  0
LINE
  5
41B68
330
2
100
AcDbEntity
  8
0
 62
     7
100
AcDbLine
 10
53.06942055277108
 20
115.7300111824644
 30
0.0
 11
53.06942055277108
 21
101.4265102461342
 31
0.0
  0
ARC
  5
41B69
330
2
100
AcDbEntity
  8
0
 62
     7
100
AcDbCircle
 10
54.26942055277544
 20
115.7300111824644
 30
0.0
 40
1.199999999999999
100
AcDbArc
 50
92.86240522604741
 51
180.0
  0
ARC
  5
41B6A
330
2
100
AcDbEntity
  8
0
 62
     7
100
AcDbCircle
 10
54.26942055277544
 20
72.58300930980306
 30
0.0
 40
1.199999999999999
100
AcDbArc
 50
180.0
 51
267.1375947739526
  0
LINE
  5
41B6B
330
2
100
AcDbEntity
  8
0
 62
     7
100
AcDbLine
 10
54.06942055277108
 20
100.4265102461342
 30
0.0
 11
57.56942055277107
 21
100.4265102461342
 31
0.0
  0
LINE
  5
41B6C
330
2
100
AcDbEntity
  8
0
 62
     7
100
AcDbLine
 10
54.06942055277108
 20
87.88651024613329
 30
0.0
 11
57.56942055277107
 21
87.88651024613329
 31
0.0
  0
LINE
  5
41B6D
330
2
100
AcDbEntity
  8
0
 62
     7
100
AcDbLine
 10
54.06942055277108
 20
103.1295278152157
 30
0.0
 11
54.06942055277108
 21
100.4265102461342
 31
0.0
  0
LINE
  5
41B6E
330
2
100
AcDbEntity
  8
0
 62
     7
100
AcDbLine
 10
54.06942055277108
 20
87.88651024613329
 30
0.0
 11
53.06942055277108
 21
86.8865102461333
 31
0.0
  0
LINE
  5
41B6F
330
2
100
AcDbEntity
  8
0
 62
     7
100
AcDbLine
 10
54.06942055277108
 20
100.4265102461342
 30
0.0
 11
53.06942055277108
 21
101.4265102461342
 31
0.0
  0
LINE
  5
41B70
330
2
100
AcDbEntity
  8
0
 62
     7
100
AcDbLine
 10
54.06942055277108
 20
87.88651024613329
 30
0.0
 11
54.06942055277108
 21
85.18349267705174
 31
0.0
  0
LINE
  5
41B71
330
2
100
AcDbEntity
  8
0
 62
     7
100
AcDbLine
 10
53.06942055277108
 20
86.8865102461333
 30
0.0
 11
53.06942055277108
 21
72.58300930980306
 31
0.0
  0
LINE
  5
41B72
330
2
100
AcDbEntity
  8
0
 62
     7
100
AcDbLine
 10
59.06942055277108
 20
94.15651024613373
 30
0.0
 11
59.06942055277108
 21
84.06832687635153
 31
0.0
  0
ARC
  5
41B73
330
2
100
AcDbEntity
  8
0
 62
     7
100
AcDbCircle
 10
57.56942055277107
 20
89.3865102461333
 30
0.0
 40
1.5
100
AcDbArc
 50
270.0
 51
0.0
  0
LINE
  5
41B74
330
2
100
AcDbEntity
  8
2
 62
     7
100
AcDbLine
 10
63.06942055277471
 20
94.15651024613373
 30
0.0
 11
63.06942055277108
 21
89.3865102461333
 31
0.0
  0
ARC
  5
41B75
330
2
100
AcDbEntity
  8
2
  6
Continuous
 62
     7
100
AcDbCircle
 10
61.56942055277108
 20
98.92651024613417
 30
0.0
 40
1.5
100
AcDbArc
 50
0.0
 51
90.0
  0
ARC
  5
41B76
330
2
100
AcDbEntity
  8
2
 62
     7
100
AcDbCircle
 10
61.56942055277108
 20
89.3865102461333
 30
0.0
 40
1.5
100
AcDbArc
 50
270.0
 51
0.0
  0
LINE
  5
41B77
330
2
100
AcDbEntity
  8
2
 62
     7
100
AcDbLine
 10
61.56942055277108
 20
87.88651024613329
 30
0.0
 11
57.56942055277107
 21
87.88651024613329
 31
0.0
  0
LINE
  5
41B78
330
2
100
AcDbEntity
  8
2
  6
Continuous
 62
     7
100
AcDbLine
 10
61.56942055277108
 20
100.4265102461342
 30
0.0
 11
57.56942055277107
 21
100.4265102461342
 31
0.0
  0
LINE
  5
41B79
330
2
100
AcDbEntity
  8
0
 62
     7
100
AcDbLine
 10
59.06942055277108
 20
84.06832687635153
 30
0.0
 11
53.06942055277108
 21
85.40652583719213
 31
0.0
  0
LINE
  5
41B7A
330
2
100
AcDbEntity
  8
0
 62
     7
100
AcDbLine
 10
106.4469196275335
 20
125.6565102461337
 30
0.0
 11
104.9444205527711
 21
123.0541055103259
 31
0.0
  0
LINE
  5
41B7B
330
2
100
AcDbEntity
  8
0
 62
     7
100
AcDbLine
 10
99.69192147801591
 20
125.6565102461337
 30
0.0
 11
101.1944205527711
 21
123.0541055103259
 31
0.0
  0
LINE
  5
41B7C
330
2
100
AcDbEntity
  8
0
 62
     7
100
AcDbLine
 10
101.1944205527711
 20
121.6565102461337
 30
0.0
 11
104.9444205527711
 21
121.6565102461337
 31
0.0
  0
LINE
  5
41B7D
330
2
100
AcDbEntity
  8
3
  6
CENTER2
 62
     3
100
AcDbLine
 10
92.06942055277108
 20
126.8481329520274
 30
0.0
 11
92.06942055277108
 21
118.3159965600917
 31
0.0
  0
LINE
  5
41B7E
330
2
100
AcDbEntity
  8
0
 62
     7
100
AcDbLine
 10
101.1944205527711
 20
66.65651024613373
 30
0.0
 11
104.9444205527711
 21
66.65651024613373
 31
0.0
  0
LINE
  5
41B7F
330
2
100
AcDbEntity
  8
0
 62
     7
100
AcDbLine
 10
99.69192147801591
 20
62.65651024613373
 30
0.0
 11
101.1944205527711
 21
65.25891498194153
 31
0.0
  0
LINE
  5
41B80
330
2
100
AcDbEntity
  8
0
 62
     7
100
AcDbLine
 10
106.4469196275335
 20
62.65651024613373
 30
0.0
 11
104.9444205527711
 21
65.25891498194153
 31
0.0
  0
LINE
  5
41B81
330
2
100
AcDbEntity
  8
0
 62
     7
100
AcDbLine
 10
101.1944205527711
 20
123.0541055103259
 30
0.0
 11
101.1944205527711
 21
121.6565102461337
 31
0.0
  0
LINE
  5
41B82
330
2
100
AcDbEntity
  8
0
 62
     7
100
AcDbLine
 10
104.9444205527711
 20
65.25891498194153
 30
0.0
 11
104.9444205527711
 21
86.15651024613374
 31
0.0
  0
LINE
  5
41B83
330
2
100
AcDbEntity
  8
0
 62
     7
100
AcDbLine
 10
97.18113445642888
 20
74.15651024613373
 30
0.0
 11
101.1944205527711
 21
74.15651024613373
 31
0.0
  0
LINE
  5
41B84
330
2
100
AcDbEntity
  8
0
 62
     7
100
AcDbLine
 10
104.9444205527711
 20
74.15651024613373
 30
0.0
 11
111.069420552771
 21
74.15651024613373
 31
0.0
  0
LINE
  5
41B85
330
2
100
AcDbEntity
  8
0
 62
     7
100
AcDbLine
 10
90.06942055277107
 20
69.82032319885741
 30
0.0
 11
99.69192147801591
 21
69.82032319885741
 31
0.0
  0
LINE
  5
41B86
330
2
100
AcDbEntity
  8
0
 62
     7
100
AcDbLine
 10
106.4469196275335
 20
69.82032319885741
 30
0.0
 11
104.9444205527711
 21
74.15651024613373
 31
0.0
  0
LINE
  5
41B87
330
2
100
AcDbEntity
  8
0
 62
     7
100
AcDbLine
 10
99.69192147801591
 20
69.82032319885741
 30
0.0
 11
101.1944205527711
 21
74.15651024613373
 31
0.0
  0
LINE
  5
41B88
330
2
100
AcDbEntity
  8
0
 62
     7
100
AcDbLine
 10
106.4469196275335
 20
69.82032319885741
 30
0.0
 11
106.4469196275335
 21
62.65651024613373
 31
0.0
  0
LINE
  5
41B89
330
2
100
AcDbEntity
  8
0
 62
     7
100
AcDbLine
 10
99.69192147801591
 20
69.82032319885741
 30
0.0
 11
99.69192147801591
 21
62.65651024613373
 31
0.0
  0
LINE
  5
41B8A
330
2
100
AcDbEntity
  8
0
 62
     7
100
AcDbLine
 10
106.4469196275335
 20
69.82032319885741
 30
0.0
 11
111.069420552771
 21
69.82032319885741
 31
0.0
  0
ARC
  5
41B8B
330
2
100
AcDbEntity
  8
0
 62
     7
100
AcDbCircle
 10
97.18113445642888
 20
66.15651024613374
 30
0.0
 40
8.0
100
AcDbArc
 50
90.0
 51
152.7433806908121
  0
LINE
  5
41B8C
330
2
100
AcDbEntity
  8
0
 62
     7
100
AcDbLine
 10
98.06942055277108
 20
86.15651024613374
 30
0.0
 11
111.069420552771
 21
86.15651024613374
 31
0.0
  0
ARC
  5
41B8D
330
2
100
AcDbEntity
  8
0
 62
     7
100
AcDbCircle
 10
98.06942055277108
 20
94.15651024613373
 30
0.0
 40
8.0
100
AcDbArc
 50
180.0
 51
270.0
  0
LINE
  5
41B8E
330
2
100
AcDbEntity
  8
0
 62
     7
100
AcDbLine
 10
101.1944205527711
 20
86.15651024613374
 30
0.0
 11
101.1944205527711
 21
65.25891498194153
 31
0.0
  0
LINE
  5
41B8F
330
2
100
AcDbEntity
  8
0
 62
     7
100
AcDbLine
 10
99.69192147801591
 20
86.15651024613374
 30
0.0
 11
99.69192147801591
 21
74.15651024613373
 31
0.0
  0
LINE
  5
41B90
330
2
100
AcDbEntity
  8
0
 62
     7
100
AcDbLine
 10
106.4469196275335
 20
86.15651024613374
 30
0.0
 11
106.4469196275335
 21
74.15651024613373
 31
0.0
  0
LINE
  5
41B91
330
2
100
AcDbEntity
  8
0
 62
     7
100
AcDbLine
 10
104.9444205527711
 20
121.6565102461337
 30
0.0
 11
104.9444205527711
 21
123.0541055103259
 31
0.0
  0
ARC
  5
41B92
330
2
100
AcDbEntity
  8
0
 62
     7
100
AcDbCircle
 10
83.89482221284055
 20
118.7715102461335
 30
0.0
 40
0.6
100
AcDbArc
 50
255.0000000000056
 51
270.0
  0
LINE
  5
41B93
330
2
100
AcDbEntity
  8
0
 62
     7
100
AcDbLine
 10
83.06942055277108
 20
118.3715102461339
 30
0.0
 11
83.73953078577546
 21
118.1919547503604
 31
0.0
  0
LINE
  5
41B94
330
2
100
AcDbEntity
  8
0
 62
     7
100
AcDbLine
 10
83.89482221284055
 20
118.1715102461331
 30
0.0
 11
84.57595667702339
 21
118.1715102461331
 31
0.0
  0
ARC
  5
41B95
330
2
100
AcDbEntity
  8
0
 62
     7
100
AcDbCircle
 10
84.57595667702339
 20
118.7715102461335
 30
0.0
 40
0.6
100
AcDbArc
 50
270.0
 51
325.3297774581745
  0
ARC
  5
41B96
330
2
100
AcDbEntity
  8
0
 62
     7
100
AcDbCircle
 10
83.89482221284055
 20
69.54151024613395
 30
0.0
 40
0.6
100
AcDbArc
 50
90.0
 51
104.9999999999944
  0
LINE
  5
41B97
330
2
100
AcDbEntity
  8
0
 62
     7
100
AcDbLine
 10
83.06942055277108
 20
69.94151024613358
 30
0.0
 11
83.73953078577546
 21
70.12106574190704
 31
0.0
  0
ARC
  5
41B98
330
2
100
AcDbEntity
  8
0
 62
     7
100
AcDbCircle
 10
84.57595667702339
 20
69.54151024613395
 30
0.0
 40
0.6
100
AcDbArc
 50
34.67022254182555
 51
90.0
  0
LINE
  5
41B99
330
2
100
AcDbEntity
  8
0
 62
     7
100
AcDbLine
 10
83.89482221284055
 20
70.14151024613432
 30
0.0
 11
84.57595667702339
 21
70.14151024613432
 31
0.0
  0
LINE
  5
41B9A
330
2
100
AcDbEntity
  8
3
 62
     3
100
AcDbLine
 10
76.06942055277108
 20
99.78503519389244
 30
0.0
 11
76.06942055277108
 21
88.52798529837503
 31
0.0
  0
CIRCLE
  5
41B9B
330
2
100
AcDbEntity
  8
0
 62
     7
100
AcDbCircle
 10
76.06942055277108
 20
94.15651024613373
 30
0.0
 40
3.75
  0
POINT
  5
41B9C
330
2
100
AcDbEntity
  8
DEFPOINTS
  6
ByBlock
 62
     7
100
AcDbPoint
 10
101.1944205527711
 20
66.65651024613373
 30
0.0
  0
POINT
  5
41B9D
330
2
100
AcDbEntity
  8
DEFPOINTS
  6
ByBlock
 62
     7
100
AcDbPoint
 10
101.1944205527711
 20
121.6565102461337
 30
0.0
  0
POINT
  5
41B9E
330
2
100
AcDbEntity
  8
DEFPOINTS
  6
ByBlock
 62
     7
100
AcDbPoint
 10
65.66442679107644
 20
117.5012605580488
 30
0.0
  0
POINT
  5
41B9F
330
2
100
AcDbEntity
  8
DEFPOINTS
  6
ByBlock
 62
     7
100
AcDbPoint
 10
58.6173955946237
 20
88.31331487172077
 30
0.0
  0
POINT
  5
41BA0
330
2
100
AcDbEntity
  8
DEFPOINTS
  6
ByBlock
 62
     7
100
AcDbPoint
 10
90.06942055277107
 20
94.15651024613373
 30
0.0
  0
POINT
  5
41BA1
330
2
100
AcDbEntity
  8
DEFPOINTS
  6
ByBlock
 62
     7
100
AcDbPoint
 10
101.1944205527711
 20
65.25891498194153
 30
0.0
  0
POINT
  5
41BA2
330
2
100
AcDbEntity
  8
DEFPOINTS
  6
ByBlock
 62
     7
100
AcDbPoint
 10
104.9444205527711
 20
65.25891498194153
 30
0.0
  0
POINT
  5
41BA3
330
2
100
AcDbEntity
  8
DEFPOINTS
  6
ByBlock
 62
     7
100
AcDbPoint
 10
78.41419546118635
 20
91.2299883123561
 30
0.0
  0
POINT
  5
41BA4
330
2
100
AcDbEntity
  8
DEFPOINTS
  6
ByBlock
 62
     7
100
AcDbPoint
 10
53.06942055277108
 20
72.58300930980306
 30
0.0
  0
POINT
  5
41BA5
330
2
100
AcDbEntity
  8
DEFPOINTS
  6
ByBlock
 62
     3
100
AcDbPoint
 10
76.06942055277108
 20
88.52798529837503
 30
0.0
  0
POINT
  5
41BA6
330
2
100
AcDbEntity
  8
DEFPOINTS
  6
ByBlock
 62
     7
100
AcDbPoint
 10
59.06942055277108
 20
84.06832687635153
 30
0.0
  0
POINT
  5
41BA7
330
2
100
AcDbEntity
  8
DEFPOINTS
  6
ByBlock
 62
     7
100
AcDbPoint
 10
53.06942055277108
 20
72.58300930980306
 30
0.0
  0
POINT
  5
41BA8
330
2
100
AcDbEntity
  8
DEFPOINTS
  6
ByBlock
 62
     7
100
AcDbPoint
 10
104.9444205527711
 20
123.0541055103259
 30
0.0
  0
POINT
  5
41BA9
330
2
100
AcDbEntity
  8
DEFPOINTS
  6
ByBlock
 62
     7
100
AcDbPoint
 10
101.1944205527711
 20
123.0541055103259
 30
0.0
  0
LINE
  5
41BAA
330
2
100
AcDbEntity
  8
0
 62
     7
100
AcDbLine
 10
85.56942055277108
 20
125.6565102461337
 30
0.0
 11
99.69192147801591
 21
125.6565102461337
 31
0.0
  0
ARC
  5
41BAB
330
2
100
AcDbEntity
  8
0
 62
     7
100
AcDbCircle
 10
85.56942055277108
 20
125.1565102461337
 30
0.0
 40
0.5
100
AcDbArc
 50
90.0
 51
180.0
1001
GENIUS_GENODEF_13
1002
{
1000
HIER
1070
     0
1002
}
1002
{
1000
MANEDIT
1070
     0
1002
}
1002
{
1000
NOSEL
1070
     0
1002
}
1002
{
1000
BEHIND
1070
     0
1002
}
1002
{
1000
OTHER
1070
     0
1002
}
1002
{
1000
REACTOR
1002
}
1001
GENIUS_GENOBJ-N-FIL_13
1002
{
1000
OWNER
1000
GEN
1002
}
  0
LINE
  5
41BAC
330
2
100
AcDbEntity
  8
0
 62
     7
100
AcDbLine
 10
85.06942055277107
 20
125.1565102461337
 30
0.0
 11
85.06942055277107
 21
118.430198946393
 31
0.0
  0
LINE
  5
41BAD
330
2
100
AcDbEntity
  8
0
 62
     7
100
AcDbLine
 10
85.06942055277107
 20
94.15651024613373
 30
0.0
 11
85.06942055277107
 21
63.15651024613373
 31
0.0
  0
ARC
  5
41BAE
330
2
100
AcDbEntity
  8
0
 62
     7
100
AcDbCircle
 10
83.89482221284055
 20
69.54151024613395
 30
0.0
 40
0.6
100
AcDbArc
 50
90.0
 51
104.9999999999944
  0
ARC
  5
41BAF
330
2
100
AcDbEntity
  8
0
 62
     7
100
AcDbCircle
 10
84.57595667702339
 20
69.54151024613395
 30
0.0
 40
0.6
100
AcDbArc
 50
34.67022254182555
 51
90.0
  0
LINE
  5
41BB0
330
2
100
AcDbEntity
  8
0
 62
     7
100
AcDbLine
 10
83.89482221284055
 20
70.14151024613432
 30
0.0
 11
84.57595667702339
 21
70.14151024613432
 31
0.0
  0
LINE
  5
41BB1
330
2
100
AcDbEntity
  8
0
 62
     7
100
AcDbLine
 10
85.56942055277108
 20
62.65651024613373
 30
0.0
 11
99.69192147801591
 21
62.65651024613373
 31
0.0
  0
ARC
  5
41BB2
330
2
100
AcDbEntity
  8
0
 62
     7
100
AcDbCircle
 10
85.56942055277108
 20
63.15651024613373
 30
0.0
 40
0.5
100
AcDbArc
 50
180.0
 51
270.0
1001
GENIUS_GENOBJ-N-FIL_13
1002
{
1000
OWNER
1000
GEN
1002
}
1001
GENIUS_GENODEF_13
1002
{
1000
HIER
1070
     0
1002
}
1002
{
1000
MANEDIT
1070
     0
1002
}
1002
{
1000
NOSEL
1070
     0
1002
}
1002
{
1000
BEHIND
1070
     0
1002
}
1002
{
1000
OTHER
1070
     0
1002
}
1002
{
1000
REACTOR
1002
}
  0
POINT
  5
41BB3
330
2
100
AcDbEntity
  8
DEFPOINTS
  6
ByBlock
 62
     7
100
AcDbPoint
 10
101.1944205527711
 20
65.25891498194153
 30
0.0
  0
LINE
  5
41BB4
330
2
100
AcDbEntity
  8
0
 62
     7
100
AcDbLine
 10
99.94192147801591
 20
63.08952294802669
 30
0.0
 11
101.1944205527711
 21
65.25891498194153
 31
0.0
  0
POINT
  5
41BB5
330
2
100
AcDbEntity
  8
DEFPOINTS
  6
ByBlock
 62
     7
100
AcDbPoint
 10
104.9444205527711
 20
65.25891498194153
 30
0.0
  0
LINE
  5
41BB6
330
2
100
AcDbEntity
  8
0
 62
     7
100
AcDbLine
 10
106.1969196275335
 20
63.08952294802669
 30
0.0
 11
104.9444205527711
 21
65.25891498194153
 31
0.0
  0
ARC
  5
41BB7
330
2
100
AcDbEntity
  8
0
 62
     7
100
AcDbCircle
 10
110.5694205527711
 20
125.1565102461337
 30
0.0
 40
0.5
100
AcDbArc
 50
0.0
 51
90.0
1001
GENIUS_GENODEF_13
1002
{
1000
HIER
1070
     0
1002
}
1002
{
1000
MANEDIT
1070
     0
1002
}
1002
{
1000
NOSEL
1070
     0
1002
}
1002
{
1000
BEHIND
1070
     0
1002
}
1002
{
1000
OTHER
1070
     0
1002
}
1002
{
1000
REACTOR
1002
}
1001
GENIUS_GENOBJ-N-FIL_13
1002
{
1000
OWNER
1000
GEN
1002
}
  0
LINE
  5
41BB8
330
2
100
AcDbEntity
  8
0
 62
     7
100
AcDbLine
 10
106.4469196275335
 20
62.65651024613373
 30
0.0
 11
110.5694205527711
 21
62.65651024613373
 31
0.0
  0
ARC
  5
41BB9
330
2
100
AcDbEntity
  8
0
 62
     7
100
AcDbCircle
 10
110.5694205527711
 20
63.15651024613373
 30
0.0
 40
0.5
100
AcDbArc
 50
270.0
 51
0.0
1001
GENIUS_GENOBJ-N-FIL_13
1002
{
1000
OWNER
1000
GEN
1002
}
1001
GENIUS_GENODEF_13
1002
{
1000
HIER
1070
     0
1002
}
1002
{
1000
MANEDIT
1070
     0
1002
}
1002
{
1000
NOSEL
1070
     0
1002
}
1002
{
1000
BEHIND
1070
     0
1002
}
1002
{
1000
OTHER
1070
     0
1002
}
1002
{
1000
REACTOR
1002
}
  0
LINE
  5
41BBA
330
2
100
AcDbEntity
  8
0
 62
     7
100
AcDbLine
 10
106.4469196275335
 20
125.6565102461337
 30
0.0
 11
110.5694205527711
 21
125.6565102461337
 31
0.0
  0
LINE
  5
41BBB
330
2
100
AcDbEntity
  8
0
 62
     7
100
AcDbLine
 10
101.1944205527711
 20
121.6565102461337
 30
0.0
 11
104.9444205527711
 21
121.6565102461337
 31
0.0
  0
POINT
  5
41BBC
330
2
100
AcDbEntity
  8
DEFPOINTS
  6
ByBlock
 62
     7
100
AcDbPoint
 10
101.1944205527711
 20
121.6565102461337
 30
0.0
  0
LINE
  5
41BBD
330
2
100
AcDbEntity
  8
0
 62
     7
100
AcDbLine
 10
99.94192147801591
 20
125.2234975442408
 30
0.0
 11
101.1944205527711
 21
123.0541055103259
 31
0.0
  0
POINT
  5
41BBE
330
2
100
AcDbEntity
  8
DEFPOINTS
  6
ByBlock
 62
     7
100
AcDbPoint
 10
101.1944205527711
 20
123.0541055103259
 30
0.0
  0
LINE
  5
41BBF
330
2
100
AcDbEntity
  8
0
 62
     7
100
AcDbLine
 10
106.1969196275335
 20
125.2234975442408
 30
0.0
 11
104.9444205527711
 21
123.0541055103259
 31
0.0
  0
POINT
  5
41BC0
330
2
100
AcDbEntity
  8
DEFPOINTS
  6
ByBlock
 62
     7
100
AcDbPoint
 10
104.9444205527711
 20
123.0541055103259
 30
0.0
  0
LINE
  5
41BC1
330
2
100
AcDbEntity
  8
0
 62
     7
100
AcDbLine
 10
111.0694205527736
 20
117.3315102461295
 30
0.0
 11
111.069420552771
 21
125.1565102461337
 31
0.0
  0
LINE
  5
41BC2
330
2
100
AcDbEntity
  8
0
  6
Continuous
 62
     7
100
AcDbLine
 10
114.2444205527744
 20
114.1565102461297
 30
0.0
 11
111.0694205527736
 21
117.3315102461295
 31
0.0
  0
LINE
  5
41BC3
330
2
100
AcDbEntity
  8
0
 62
     7
100
AcDbLine
 10
85.06942055277107
 20
111.4065102461337
 30
0.0
 11
85.06942055277107
 21
94.15651024613373
 31
0.0
  0
LINE
  5
41BC4
330
2
100
AcDbEntity
  8
0
 62
     7
100
AcDbLine
 10
66.07339514899144
 20
111.1565102461337
 30
0.0
 11
66.07339514899144
 21
94.15651024613373
 31
0.0
  0
LINE
  5
41BC5
330
2
100
AcDbEntity
  8
0
 62
     7
100
AcDbLine
 10
54.06942055277108
 20
100.4265102461342
 30
0.0
 11
54.06942055277108
 21
111.1565102461337
 31
0.0
  0
LINE
  5
41BC6
330
2
100
AcDbEntity
  8
0
 62
     7
100
AcDbLine
 10
68.15185611807322
 20
114.1565102461337
 30
0.0
 11
79.03307231894945
 21
114.1565102461337
 31
0.0
  0
LINE
  5
41BC7
330
2
100
AcDbEntity
  8
0
 62
     7
100
AcDbLine
 10
54.06942055277108
 20
111.1565102461337
 30
0.0
 11
66.07339514899144
 21
111.1565102461337
 31
0.0
  0
LINE
  5
41BC8
330
2
100
AcDbEntity
  8
0
 62
     7
100
AcDbLine
 10
54.06942055277108
 20
111.1565102461337
 30
0.0
 11
53.06942055277108
 21
111.7338605153237
 31
0.0
  0
ARC
  5
41BC9
330
2
100
AcDbEntity
  8
0
 62
     7
100
AcDbCircle
 10
68.15185611807322
 20
113.5565102461334
 30
0.0
 40
0.6
100
AcDbArc
 50
90.0
 51
149.9999999999397
  0
POINT
  5
41BCA
330
2
100
AcDbEntity
  8
DEFPOINTS
  6
ByBlock
 62
     7
100
AcDbPoint
 10
66.9394205527737
 20
112.6565102461337
 30
0.0
  0
POINT
  5
41BCB
330
2
100
AcDbEntity
  8
DEFPOINTS
  6
ByBlock
 62
     7
100
AcDbPoint
 10
66.9394205527737
 20
112.6565102461337
 30
0.0
  0
POINT
  5
41BCC
330
2
100
AcDbEntity
  8
DEFPOINTS
  6
ByBlock
 62
     7
100
AcDbPoint
 10
66.07339514899144
 20
111.1565102461337
 30
0.0
  0
LINE
  5
41BCD
330
2
100
AcDbEntity
  8
0
 62
     7
100
AcDbLine
 10
67.63224087580096
 20
113.8565102461326
 30
0.0
 11
66.07339514899144
 21
111.1565102461337
 31
0.0
  0
LINE
  5
41BCE
330
2
100
AcDbEntity
  8
0
 62
     7
100
AcDbLine
 10
85.06942055277107
 20
111.4065102461337
 30
0.0
 11
92.36559076553971
 21
111.4065102461337
 31
0.0
  0
ARC
  5
41BCF
330
2
100
AcDbEntity
  8
0
 62
     7
100
AcDbCircle
 10
79.03307231894945
 20
106.1565102461337
 30
0.0
 40
8.0
100
AcDbArc
 50
41.01449966567916
 51
90.0
  0
POINT
  5
41BD0
330
2
100
AcDbEntity
  8
DEFPOINTS
  6
ByBlock
 62
     7
100
AcDbPoint
 10
89.31942055277108
 20
111.4065102461337
 30
0.0
  0
LINE
  5
41BD1
330
2
100
AcDbEntity
  8
0
 62
     7
100
AcDbLine
 10
94.43229121434928
 20
111.995921175103
 30
0.0
 11
92.36559076553971
 21
111.4065102461337
 31
0.0
  0
ARC
  5
41BD2
330
2
100
AcDbEntity
  8
0
 62
     7
100
AcDbCircle
 10
94.56942055277108
 20
111.5150931969821
 30
0.0
 40
0.5
100
AcDbArc
 50
0.0
 51
105.9178410235529
  0
LINE
  5
41BD3
330
2
100
AcDbEntity
  8
0
 62
     7
100
AcDbLine
 10
95.06942055277107
 20
94.15651024613373
 30
0.0
 11
95.06942055277107
 21
111.5150931969821
 31
0.0
  0
LINE
  5
41BD4
330
2
100
AcDbEntity
  8
0
 62
     7
100
AcDbLine
 10
87.06942055277108
 20
125.6565102461337
 30
0.0
 11
87.06942055277108
 21
121.0565102461333
 31
0.0
  0
LINE
  5
41BD5
330
2
100
AcDbEntity
  8
0
 62
     7
100
AcDbLine
 10
87.06942055277108
 20
121.0565102461333
 30
0.0
 11
97.06942055277108
 21
121.0565102461333
 31
0.0
  0
LINE
  5
41BD6
330
2
100
AcDbEntity
  8
0
 62
     7
100
AcDbLine
 10
97.06942055277108
 20
121.0565102461333
 30
0.0
 11
97.06942055277108
 21
125.6565102461319
 31
0.0
  0
CIRCLE
  5
41BD7
330
2
100
AcDbEntity
  8
0
 62
     7
100
AcDbCircle
 10
92.06942055277108
 20
79.85580950433734
 30
0.0
 40
2.5
  0
ELLIPSE
  5
41BD8
330
2
100
AcDbEntity
  8
0
 62
     7
100
AcDbEllipse
 10
92.06942055277108
 20
79.85580950378983
 30
0.0
 11
2.5
 21
-0.0000000005483116
 31
0.0
210
0.0
220
0.0
230
1.0
 40
0.9090504792005958
 41
0.0
 42
6.283185307179586
  0
LINE
  5
41BD9
330
2
100
AcDbEntity
  8
0
 62
     3
100
AcDbLine
 10
91.56942055277108
 20
79.85580950433734
 30
0.0
 11
92.56942055277107
 21
79.85580950433734
 31
0.0
  0
LINE
  5
41BDA
330
2
100
AcDbEntity
  8
0
 62
     3
100
AcDbLine
 10
92.06942055277108
 20
79.35580950433735
 30
0.0
 11
92.06942055277108
 21
80.35580950433734
 31
0.0
  0
LINE
  5
41BDB
330
2
100
AcDbEntity
  8
0
 62
     3
100
AcDbLine
 10
91.06942055277107
 20
79.85580950433734
 30
0.0
 11
89.06942055277108
 21
79.85580950433734
 31
0.0
  0
LINE
  5
41BDC
330
2
100
AcDbEntity
  8
0
 62
     3
100
AcDbLine
 10
93.06942055277108
 20
79.85580950433734
 30
0.0
 11
95.06942055277107
 21
79.85580950433734
 31
0.0
  0
LINE
  5
41BDD
330
2
100
AcDbEntity
  8
0
 62
     3
100
AcDbLine
 10
92.06942055277108
 20
78.85580950433734
 30
0.0
 11
92.06942055277108
 21
76.85580950433735
 31
0.0
  0
LINE
  5
41BDE
330
2
100
AcDbEntity
  8
0
 62
     3
100
AcDbLine
 10
92.06942055277108
 20
80.85580950433735
 30
0.0
 11
92.06942055277108
 21
82.85580950433734
 31
0.0
  0
ELLIPSE
  5
41BDF
330
2
100
AcDbEntity
  8
0
 62
     7
100
AcDbEllipse
 10
92.06942055289477
 20
66.14762499879373
 30
0.0
 11
2.5
 21
-0.0000000005483116
 31
0.0
210
0.0
220
0.0
230
-1.0
 40
0.4662756487016396
 41
0.0
 42
6.283185307179586
  0
ELLIPSE
  5
41BE0
330
2
100
AcDbEntity
  8
0
 62
     7
100
AcDbEllipse
 10
92.06942055289477
 20
66.14762499879373
 30
0.0
 11
2.5
 21
-0.0000000005483116
 31
0.0
210
0.0
220
0.0
230
-1.0
 40
0.5410997159785893
 41
0.0
 42
6.283185307179586
  0
LINE
  5
41BE1
330
2
100
AcDbEntity
  8
0
 62
     3
100
AcDbLine
 10
91.56942055277108
 20
66.14762499824621
 30
0.0
 11
92.56942055277107
 21
66.14762499824621
 31
0.0
  0
LINE
  5
41BE2
330
2
100
AcDbEntity
  8
0
 62
     3
100
AcDbLine
 10
92.06942055277108
 20
65.64762499824621
 30
0.0
 11
92.06942055277108
 21
66.64762499824622
 31
0.0
  0
LINE
  5
41BE3
330
2
100
AcDbEntity
  8
0
 62
     3
100
AcDbLine
 10
91.06942055277107
 20
66.14762499824621
 30
0.0
 11
89.06942055277108
 21
66.14762499824621
 31
0.0
  0
LINE
  5
41BE4
330
2
100
AcDbEntity
  8
0
 62
     3
100
AcDbLine
 10
93.06942055277108
 20
66.14762499824621
 30
0.0
 11
95.06942055277107
 21
66.14762499824621
 31
0.0
  0
LINE
  5
41BE5
330
2
100
AcDbEntity
  8
0
 62
     3
100
AcDbLine
 10
92.06942055277108
 20
65.14762499824621
 30
0.0
 11
92.06942055277108
 21
63.14762499824621
 31
0.0
  0
LINE
  5
41BE6
330
2
100
AcDbEntity
  8
0
 62
     3
100
AcDbLine
 10
92.06942055277108
 20
67.14762499824622
 30
0.0
 11
92.06942055277108
 21
69.14762499824622
 31
0.0
  0
LINE
  5
41BE7
330
2
100
AcDbEntity
  8
0
  6
Continuous
 62
     7
100
AcDbLine
 10
63.06942055277108
 20
98.92651024613417
 30
0.0
 11
63.06942055277108
 21
94.15651024613373
 31
0.0
  0
ARC
  5
41BE8
330
2
100
AcDbEntity
  8
0
  6
Continuous
 62
     7
100
AcDbCircle
 10
76.06942055277108
 20
94.15651024613373
 30
0.0
 40
4.25
100
AcDbArc
 50
180.0
 51
0.0
  0
LINE
  5
41BE9
330
2
100
AcDbEntity
  8
0
 62
     7
100
AcDbLine
 10
92.36559076553971
 20
111.4065102461337
 30
0.0
 11
92.36559076553971
 21
94.15651024613373
 31
0.0
  0
LINE
  5
41BEA
330
2
100
AcDbEntity
  8
0
 62
     7
100
AcDbLine
 10
67.80174053420563
 20
114.0437669320146
 30
0.0
 11
67.80174053420563
 21
94.15651024613373
 31
0.0
  0
POINT
  5
41BEB
330
2
100
AcDbEntity
  8
DEFPOINTS
  6
Continuous
 62
     7
100
AcDbPoint
 10
116.069420552771
 20
94.15651024613373
 30
0.0
  0
LINE
  5
41BEC
330
2
100
AcDbEntity
  8
0
  6
Continuous
 62
     7
100
AcDbLine
 10
95.86942055277399
 20
102.6565102461337
 30
0.0
 11
101.2694205527718
 21
102.6565102461337
 31
0.0
  0
LINE
  5
41BED
330
2
100
AcDbEntity
  8
0
  6
Continuous
 62
     3
100
AcDbLine
 10
95.36942055277398
 20
103.1565102461337
 30
0.0
 11
101.7694205527754
 21
103.1565102461337
 31
0.0
  0
LINE
  5
41BEE
330
2
100
AcDbEntity
  8
0
  6
Continuous
 62
     7
100
AcDbLine
 10
95.86942055277399
 20
102.6565102461337
 30
0.0
 11
95.86942055277399
 21
94.15651024613373
 31
0.0
  0
LINE
  5
41BEF
330
2
100
AcDbEntity
  8
0
  6
Continuous
 62
     7
100
AcDbLine
 10
95.86942055277399
 20
102.6565102461337
 30
0.0
 11
95.06942055277107
 21
103.456510246133
 31
0.0
  0
LINE
  5
41BF0
330
2
100
AcDbEntity
  8
0
  6
Continuous
 62
     7
100
AcDbLine
 10
107.0694205527711
 20
103.6565102461337
 30
0.0
 11
107.0694205527711
 21
94.15651024613373
 31
0.0
  0
LINE
  5
41BF1
330
2
100
AcDbEntity
  8
0
  6
Continuous
 62
     7
100
AcDbLine
 10
102.0694205527711
 20
103.6565102461337
 30
0.0
 11
102.0694205527711
 21
94.15651024613373
 31
0.0
  0
POINT
  5
41BF2
330
2
100
AcDbEntity
  8
DEFPOINTS
  6
ByBlock
 62
     7
100
AcDbPoint
 10
101.2047963712779
 20
94.15651024613373
 30
0.0
  0
LINE
  5
41BF3
330
2
100
AcDbEntity
  8
0
  6
Continuous
 62
     7
100
AcDbLine
 10
102.0694205527711
 20
103.6565102461337
 30
0.0
 11
107.0694205527711
 21
103.6565102461337
 31
0.0
  0
LINE
  5
41BF4
330
2
100
AcDbEntity
  8
0
  6
Continuous
 62
     7
100
AcDbLine
 10
101.2694205527754
 20
102.6565102461337
 30
0.0
 11
101.2694205527754
 21
94.15651024613373
 31
0.0
  0
LINE
  5
41BF5
330
2
100
AcDbEntity
  8
0
  6
Continuous
 62
     7
100
AcDbLine
 10
101.2694205527754
 20
102.6565102461337
 30
0.0
 11
102.0694205527711
 21
103.456510246133
 31
0.0
  0
LINE
  5
41BF6
330
2
100
AcDbEntity
  8
0
  6
CENTER2
 62
     3
100
AcDbLine
 10
51.00716706151655
 20
94.15651024613373
 30
0.0
 11
181.7004205527715
 21
94.15651024613373
 31
0.0
  0
LINE
  5
41BF7
330
2
100
AcDbEntity
  8
0
  6
Continuous
 62
     7
100
AcDbLine
 10
115.0919813703313
 20
98.15651024613964
 30
0.0
 11
107.8194205527706
 21
98.15651024614329
 31
0.0
  0
LINE
  5
41BF8
330
2
100
AcDbEntity
  8
0
 62
     7
100
AcDbLine
 10
111.0694205527761
 20
94.15651024613373
 30
0.0
 11
111.069420552771
 21
63.15651024613373
 31
0.0
  0
LINE
  5
41BF9
330
2
100
AcDbEntity
  8
0
  6
Continuous
 62
     7
100
AcDbLine
 10
114.2444205527728
 20
74.15651024613271
 30
0.0
 11
111.0694205527724
 21
70.98151024613253
 31
0.0
  0
LINE
  5
41BFA
330
2
100
AcDbEntity
  8
0
  6
Continuous
 62
     7
100
AcDbLine
 10
107.8194205527706
 20
98.15651024614329
 30
0.0
 11
107.0694205527711
 21
98.90651024614284
 31
0.0
  0
LINE
  5
41BFB
330
2
100
AcDbEntity
  8
0
  6
Continuous
 62
     7
100
AcDbLine
 10
107.8194205527706
 20
98.15651024614329
 30
0.0
 11
107.8194205527706
 21
94.15651024613328
 31
0.0
  0
LINE
  5
41BFC
330
2
100
AcDbEntity
  8
0
  6
Continuous
 62
     7
100
AcDbLine
 10
180.700420552771
 20
79.74201024613342
 30
0.0
 11
180.700420552771
 21
94.15651024613623
 31
0.0
  0
LINE
  5
41BFD
330
2
100
AcDbEntity
  8
0
  6
Continuous
 62
     7
100
AcDbLine
 10
177.9064205527709
 20
74.90266028978533
 30
0.0
 11
177.9064205527709
 21
94.15651024613623
 31
0.0
  0
LINE
  5
41BFE
330
2
100
AcDbEntity
  8
0
  6
Continuous
 62
     7
100
AcDbLine
 10
118.700420552771
 20
104.4065102461467
 30
0.0
 11
115.0919813703313
 21
98.15651024613964
 31
0.0
  0
LINE
  5
41BFF
330
2
100
AcDbEntity
  8
0
  6
Continuous
 62
     7
100
AcDbLine
 10
176.614050767101
 20
74.15651024613623
 30
0.0
 11
173.0814205527709
 21
74.15651024613623
 31
0.0
  0
LINE
  5
41C00
330
2
100
AcDbEntity
  8
0
  6
Continuous
 62
     7
100
AcDbLine
 10
172.700420552771
 20
74.53751024613632
 30
0.0
 11
173.0814205527709
 21
74.15651024613623
 31
0.0
  0
LINE
  5
41C01
330
2
100
AcDbEntity
  8
0
  6
Continuous
 62
     7
100
AcDbLine
 10
172.700420552771
 20
74.53751024613632
 30
0.0
 11
172.700420552771
 21
94.15651024613351
 31
0.0
  0
LINE
  5
41C02
330
2
100
AcDbEntity
  8
0
  6
Continuous
 62
     7
100
AcDbLine
 10
172.4464205527709
 20
77.15651024613624
 30
0.0
 11
172.700420552771
 21
76.90251024613633
 31
0.0
  0
LINE
  5
41C03
330
2
100
AcDbEntity
  8
0
  6
Continuous
 62
     7
100
AcDbLine
 10
168.200420552771
 20
74.53751024613632
 30
0.0
 11
168.200420552771
 21
94.15651024613373
 31
0.0
  0
LINE
  5
41C04
330
2
100
AcDbEntity
  8
0
  6
Continuous
 62
     7
100
AcDbLine
 10
168.4544205527709
 20
77.15651024613624
 30
0.0
 11
168.200420552771
 21
76.90251024613633
 31
0.0
  0
LINE
  5
41C05
330
2
100
AcDbEntity
  8
0
  6
Continuous
 62
     7
100
AcDbLine
 10
167.8194205527709
 20
74.15651024613623
 30
0.0
 11
168.200420552771
 21
74.53751024613632
 31
0.0
  0
LINE
  5
41C06
330
2
100
AcDbEntity
  8
0
  6
Continuous
 62
     7
100
AcDbLine
 10
167.8194205527709
 20
74.15651024613623
 30
0.0
 11
114.2444205527728
 21
74.15651024613271
 31
0.0
  0
LINE
  5
41C07
330
2
100
AcDbEntity
  8
0
  6
Continuous
 62
     7
100
AcDbLine
 10
114.2444205527728
 20
74.15651024613271
 30
0.0
 11
114.2444205527731
 21
94.15651024613271
 31
0.0
  0
LINE
  5
41C08
330
2
100
AcDbEntity
  8
0
  6
Continuous
 62
     7
100
AcDbLine
 10
172.4464205527709
 20
77.15651024613624
 30
0.0
 11
168.4544205527709
 21
77.15651024613624
 31
0.0
  0
LINE
  5
41C09
330
2
100
AcDbEntity
  8
0
  6
Continuous
 62
     7
100
AcDbLine
 10
180.700420552771
 20
79.74201024613342
 30
0.0
 11
177.9064205527712
 21
74.9026602897851
 31
0.0
  0
LINE
  5
41C0A
330
2
100
AcDbEntity
  8
0
  6
Continuous
 62
     7
100
AcDbLine
 10
118.700420552771
 20
106.7065102461341
 30
0.0
 11
118.7004205527708
 21
94.15651024613714
 31
0.0
  0
LINE
  5
41C0B
330
2
100
AcDbEntity
  8
0
  6
Continuous
 62
     7
100
AcDbLine
 10
137.5204205527712
 20
106.3869693690413
 30
0.0
 11
137.5204205527712
 21
94.15651024613623
 31
0.0
  0
LINE
  5
41C0C
330
2
100
AcDbEntity
  8
0
  6
Continuous
 62
     7
100
AcDbLine
 10
136.3278777643634
 20
106.7065102461341
 30
0.0
 11
118.700420552771
 21
106.7065102461341
 31
0.0
  0
LINE
  5
41C0D
330
2
100
AcDbEntity
  8
0
  6
Continuous
 62
     7
100
AcDbLine
 10
115.0919813703313
 20
98.15651024613964
 30
0.0
 11
115.0919813703313
 21
94.15651024613669
 31
0.0
  0
LINE
  5
41C0E
330
2
100
AcDbEntity
  8
0
  6
Continuous
 62
     7
100
AcDbLine
 10
137.5204205527712
 20
106.3869693690413
 30
0.0
 11
136.3278777643634
 21
106.7065102461341
 31
0.0
  0
LINE
  5
41C10
330
2
100
AcDbEntity
  8
0
  6
Continuous
 62
     7
100
AcDbLine
 10
177.9064205527712
 20
74.90266028978533
 30
0.0
 11
176.6140507671012
 21
74.15651024613623
 31
0.0
  0
LINE
  5
41C11
330
2
100
AcDbEntity
  8
0
  6
Continuous
 62
     7
100
AcDbLine
 10
176.6140507671012
 20
74.15651024613623
 30
0.0
 11
176.6140507671014
 21
94.15651024613328
 31
0.0
  0
LINE
  5
41C12
330
2
100
AcDbEntity
  8
0
  6
Continuous
 62
     4
100
AcDbLine
 10
168.4544205527709
 20
77.15651024613624
 30
0.0
 11
168.4544205527714
 21
94.15651024613351
 31
0.0
  0
LINE
  5
41C13
330
2
100
AcDbEntity
  8
0
  6
Continuous
 62
     4
100
AcDbLine
 10
167.8194205527709
 20
74.15651024613623
 30
0.0
 11
167.8194205527712
 21
94.15651024613351
 31
0.0
  0
LINE
  5
41C14
330
2
100
AcDbEntity
  8
0
  6
Continuous
 62
     4
100
AcDbLine
 10
172.4464205527709
 20
77.15651024613624
 30
0.0
 11
172.4464205527707
 21
94.15651024613351
 31
0.0
  0
LINE
  5
41C15
330
2
100
AcDbEntity
  8
0
  6
Continuous
 62
     4
100
AcDbLine
 10
173.0814205527709
 20
74.15651024613623
 30
0.0
 11
173.0814205527704
 21
94.15651024613351
 31
0.0
  0
LINE
  5
41C16
330
2
100
AcDbEntity
  8
0
  6
Continuous
 62
     7
100
AcDbLine
 10
176.614050767101
 20
114.156510246133
 30
0.0
 11
173.0814205527709
 21
114.156510246133
 31
0.0
  0
LINE
  5
41C17
330
2
100
AcDbEntity
  8
0
  6
Continuous
 62
     7
100
AcDbLine
 10
172.700420552771
 20
113.7755102461329
 30
0.0
 11
173.0814205527709
 21
114.156510246133
 31
0.0
  0
LINE
  5
41C18
330
2
100
AcDbEntity
  8
0
  6
Continuous
 62
     7
100
AcDbLine
 10
172.700420552771
 20
113.7755102461329
 30
0.0
 11
172.700420552771
 21
111.4105102461327
 31
0.0
  0
LINE
  5
41C19
330
2
100
AcDbEntity
  8
0
  6
Continuous
 62
     7
100
AcDbLine
 10
172.4464205527709
 20
111.156510246133
 30
0.0
 11
172.700420552771
 21
111.4105102461329
 31
0.0
  0
LINE
  5
41C1A
330
2
100
AcDbEntity
  8
0
  6
Continuous
 62
     7
100
AcDbLine
 10
168.200420552771
 20
113.7755102461329
 30
0.0
 11
168.200420552771
 21
111.4105102461329
 31
0.0
  0
LINE
  5
41C1B
330
2
100
AcDbEntity
  8
0
  6
Continuous
 62
     7
100
AcDbLine
 10
168.4544205527709
 20
111.156510246133
 30
0.0
 11
168.200420552771
 21
111.4105102461329
 31
0.0
  0
LINE
  5
41C1C
330
2
100
AcDbEntity
  8
0
  6
Continuous
 62
     7
100
AcDbLine
 10
167.8194205527709
 20
114.156510246133
 30
0.0
 11
168.200420552771
 21
113.7755102461329
 31
0.0
  0
LINE
  5
41C1D
330
2
100
AcDbEntity
  8
0
  6
Continuous
 62
     7
100
AcDbLine
 10
167.8194205527709
 20
114.156510246133
 30
0.0
 11
114.2444205527744
 21
114.1565102461297
 31
0.0
  0
LINE
  5
41C1E
330
2
100
AcDbEntity
  8
0
  6
Continuous
 62
     7
100
AcDbLine
 10
172.4464205527709
 20
111.156510246133
 30
0.0
 11
168.4544205527709
 21
111.156510246133
 31
0.0
  0
LINE
  5
41C1F
330
2
100
AcDbEntity
  8
0
  6
Continuous
 62
     7
100
AcDbLine
 10
177.9064205527712
 20
113.4103602024839
 30
0.0
 11
176.6140507671012
 21
114.156510246133
 31
0.0
  0
LINE
  5
41C20
330
2
100
AcDbEntity
  8
0
  6
Continuous
 62
     7
100
AcDbLine
 10
180.7004205527715
 20
108.5710102461327
 30
0.0
 11
177.9064205527716
 21
113.4103602024812
 31
0.0
  0
LINE
  5
41C21
330
2
100
AcDbEntity
  8
0
  6
Continuous
 62
     7
100
AcDbLine
 10
180.700420552771
 20
108.5710102461336
 30
0.0
 11
180.700420552771
 21
94.15651024613078
 31
0.0
  0
LINE
  5
41C22
330
2
100
AcDbEntity
  8
0
  6
Continuous
 62
     7
100
AcDbLine
 10
180.3194205527709
 20
106.7930102461338
 30
0.0
 11
180.3194205527709
 21
94.15651024613078
 31
0.0
  0
LINE
  5
41C23
330
2
100
AcDbEntity
  8
0
  6
Continuous
 62
     4
100
AcDbLine
 10
180.700420552771
 20
106.6025102461279
 30
0.0
 11
180.0863389401407
 21
106.5994449453086
 31
0.0
  0
LINE
  5
41C24
330
2
100
AcDbEntity
  8
0
  6
Continuous
 62
     7
100
AcDbLine
 10
179.9832644507105
 20
106.5989304301196
 30
0.0
 11
137.5204205527712
 21
106.3869693690413
 31
0.0
  0
LINE
  5
41C25
330
2
100
AcDbEntity
  8
0
  6
Continuous
 62
     7
100
AcDbLine
 10
136.3278777643634
 20
106.7065102461341
 30
0.0
 11
136.3278777643632
 21
94.15651024613396
 31
0.0
  0
LINE
  5
41C27
330
2
100
AcDbEntity
  8
0
  6
Continuous
 62
     7
100
AcDbLine
 10
180.700420552771
 20
107.1740102461336
 30
0.0
 11
180.3194205527707
 21
106.7930102461338
 31
0.0
  0
LINE
  5
41C28
330
2
100
AcDbEntity
  8
0
  6
Continuous
 62
     7
100
AcDbLine
 10
180.3194205527712
 20
106.7930102461338
 30
0.0
 11
179.9832644507108
 21
106.5989304301196
 31
0.0
  0
LINE
  5
41C29
330
2
100
AcDbEntity
  8
0
  6
Continuous
 62
     7
100
AcDbLine
 10
179.9832644507105
 20
106.5989304301196
 30
0.0
 11
179.9832644507105
 21
94.15651024613373
 31
0.0
  0
DIMENSION
  5
41CA3
330
2
100
AcDbEntity
  8
0
  6
Continuous
 62
     7
100
AcDbDimension
280
     0
  2
*D2
 10
180.700420552771
 20
132.0915574606643
 30
0.0
 11
149.700420552771
 21
134.2168527362548
 31
0.0
 70
    32
  1
2.44
 71
     5
 42
62.0
 73
     0
 74
     0
 75
     0
  3
Standard$0
100
AcDbAlignedDimension
 13
118.700420552771
 23
106.7065102461341
 33
0.0
 14
180.700420552771
 24
108.5710102461336
 34
0.0
100
AcDbRotatedDimension
1001
ACAD
1000
DSTYLE
1002
{
1070
    42
1040
0.625
1070
    43
1040
3.75
1070
    44
1040
1.25
1070
    48
1040
0.000000001
1070
    74
1070
     0
1070
    77
1070
     1
1070
    90
1070
     1
1070
   140
1040
3.0
1070
   141
1040
-0.5
1070
   143
1040
0.03937007874016
1070
   146
1040
0.7
1070
   147
1040
0.625
1070
   171
1070
     3
1070
   172
1070
     1
1070
   175
1070
     0
1070
   179
1070
     0
1070
   274
1070
     3
1070
   283
1070
     0
1070
   284
1070
     8
1070
   340
1005
25
1070
   371
1070
    -1
1070
   372
1070
    -1
1002
}
  0
VIEWPORT
  5
2C7EC
102
{ACAD_XDICTIONARY
360
2C7ED
102
}
330
1B
100
AcDbEntity
 67
     1
  8
0
  6
Continuous
 62
     7
100
AcDbViewport
 10
212.4908200734394
 20
97.5
 30
0.0
 40
464.9816401468789
 41
210.0
 68
     1
 69
     1
 12
212.4908200734394
 22
97.5
 13
0.0
 23
0.0
 14
2.0
 24
2.0
 15
2.0
 25
2.0
 16
0.0
 26
0.0
 36
1.0
 17
0.0
 27
0.0
 37
0.0
 42
50.0
 43
0.0
 44
0.0
 45
210.0
 50
0.0
 51
0.0
 72
  1000
 90
   823328
  1

281
     0
 71
     1
 74
     0
110
0.0
120
0.0
130
0.0
111
1.0
121
0.0
131
0.0
112
0.0
122
1.0
132
0.0
 79
     0
146
0.0
170
     0
 61
     5
348
2E
292
     1
282
     1
141
0.0
142
0.0
 63
   250
421
  3355443
  0
ENDSEC
  0
SECTION
  2
OBJECTS
  0
DICTIONARY
  5
B
330
0
100
AcDbDictionary
281
     1
  3
ACAD_CIP_PREVIOUS_PRODUCT_INFO
350
BE4
  3
ACAD_COLOR
350
3F
  3
ACAD_DETAILVIEWSTYLE
350
BDC
  3
ACAD_GROUP
350
3A
  3
ACAD_LAYOUT
350
17
  3
ACAD_MATERIAL
350
D
  3
ACAD_MLEADERSTYLE
350
42
  3
ACAD_MLINESTYLE
350
3B
  3
ACAD_PLOTSETTINGS
350
3C
  3
ACAD_PLOTSTYLENAME
350
A
  3
ACAD_SCALELIST
350
40
  3
ACAD_SECTIONVIEWSTYLE
350
BDA
  3
ACAD_TABLESTYLE
350
41
  3
ACAD_VISUALSTYLE
350
2F
  3
ACDB_RECOMPOSE_DATA
350
41DCC
  3
AcDbVariableDictionary
350
BB8
  3
AEC_PROPERTY_SET_DEFS
350
24C9
  0
DICTIONARY
  5
31
330
2C
100
AcDbDictionary
280
     1
281
     1
  0
DICTIONARY
  5
22
330
21
100
AcDbDictionary
280
     1
281
     1
  3
ACAD_LAYERSTATES
360
23
  0
DICTIONARY
  5
7
330
6
100
AcDbDictionary
280
     1
281
     1
  3
ADSK_XREC_LAYER_RECONCILED
360
8
  0
DICTIONARY
  5
3
330
2
100
AcDbDictionary
280
     1
281
     1
  3
ACAD_SORTENTS
360
BB0
  0
DICTIONARY
  5
2C7ED
330
2C7EC
100
AcDbDictionary
280
     1
281
     1
  3
ASDK_XREC_ANNOTATION_SCALE_INFO
360
2C7EE
  0
XRECORD
  5
BE4
102
{ACAD_REACTORS
330
B
102
}
330
B
100
AcDbXrecord
280
     1
300
ACD
300
2014
300
ACD_F_S
  0
DICTIONARY
  5
3F
102
{ACAD_REACTORS
330
B
102
}
330
B
100
AcDbDictionary
281
     1
  0
DICTIONARY
  5
BDC
102
{ACAD_REACTORS
330
B
102
}
330
B
100
AcDbDictionary
281
     1
  3
Imperial24
350
283CD
  3
Metric50
350
BDD
  0
DICTIONARY
  5
3A
102
{ACAD_REACTORS
330
B
102
}
330
B
100
AcDbDictionary
281
     1
  0
DICTIONARY
  5
17
102
{ACAD_REACTORS
330
B
102
}
330
B
100
AcDbDictionary
281
     1
  3
Model
350
16
  3
배치1
350
1E
  0
DICTIONARY
  5
D
102
{ACAD_REACTORS
330
B
102
}
330
B
100
AcDbDictionary
281
     1
  3
ByBlock
350
3E
  3
ByLayer
350
3D
  3
Global
350
C
  0
DICTIONARY
  5
42
102
{ACAD_REACTORS
330
B
102
}
330
B
100
AcDbDictionary
281
     1
  3
Standard
350
BD9
  0
DICTIONARY
  5
3B
102
{ACAD_REACTORS
330
B
102
}
330
B
100
AcDbDictionary
281
     1
  3
Standard
350
43
  0
DICTIONARY
  5
3C
102
{ACAD_REACTORS
330
B
102
}
330
B
100
AcDbDictionary
281
     1
  0
ACDBDICTIONARYWDFLT
  5
A
102
{ACAD_REACTORS
330
B
102
}
330
B
100
AcDbDictionary
281
     1
  3
Normal
350
9
100
AcDbDictionaryWithDefault
340
9
  0
DICTIONARY
  5
40
102
{ACAD_REACTORS
330
B
102
}
330
B
100
AcDbDictionary
281
     1
  3
A0
350
48
  3
A1
350
49
  3
A2
350
4A
  3
A3
350
4B
  3
A4
350
4C
  3
A5
350
4D
  3
A6
350
4E
  3
A7
350
4F
  3
A8
350
50
  3
A9
350
51
  3
B0
350
52
  3
B1
350
53
  3
B2
350
54
  3
B3
350
55
  3
B4
350
56
  3
B5
350
57
  3
B6
350
58
  0
DICTIONARY
  5
BDA
102
{ACAD_REACTORS
330
B
102
}
330
B
100
AcDbDictionary
281
     1
  3
Imperial24
350
283CC
  3
Metric50
350
BDB
  0
DICTIONARY
  5
41
102
{ACAD_REACTORS
330
B
102
}
330
B
100
AcDbDictionary
281
     1
  3
Standard
350
44
  0
DICTIONARY
  5
2F
102
{ACAD_REACTORS
330
B
102
}
330
B
100
AcDbDictionary
281
     1
  3
2dWireframe
350
2E
  3
3D Hidden
350
1A64
  3
3dWireframe
350
47
  3
Basic
350
BC7
  3
Brighten
350
BCC
  3
ColorChange
350
BD0
  3
Conceptual
350
BCA
  3
Dim
350
BCB
  3
EdgeColorOff
350
BD8
  3
Facepattern
350
BCF
  3
Flat
350
BC3
  3
FlatWithEdges
350
BC4
  3
Gouraud
350
BC5
  3
GouraudWithEdges
350
BC6
  3
Hidden
350
BC9
  3
JitterOff
350
BD6
  3
Linepattern
350
BCE
  3
OverhangOff
350
BD7
  3
Realistic
350
46
  3
Shaded
350
BD5
  3
Shaded with edges
350
BD4
  3
Shades of Gray
350
BD1
  3
Sketchy
350
BD2
  3
Thicken
350
BCD
  3
Wireframe
350
BC8
  3
X-Ray
350
BD3
  0
XRECORD
  5
41DCC
102
{ACAD_REACTORS
330
B
102
}
330
B
100
AcDbXrecord
280
     1
 90
        1
330
44
330
BDB
330
BDD
330
283CC
330
283CD
  0
DICTIONARY
  5
BB8
102
{ACAD_REACTORS
330
B
102
}
330
B
100
AcDbDictionary
281
     1
  3
CANNOSCALE
350
BBE
  3
CMLEADERSTYLE
350
BBA
  3
CTABLESTYLE
350
BB9
  3
CVIEWDETAILSTYLE
350
BBB
  3
CVIEWSECTIONSTYLE
350
BBC
  3
DIMASSOC
350
C3B
  3
HIDETEXT
350
C39
  3
HPCOLOR
350
FF3
  3
INDEXCTL
350
C38
  3
LAYEREVAL
350
BC0
  3
LAYERNOTIFY
350
BC1
  3
LIGHTINGUNITS
350
BBF
  3
MSLTSCALE
350
BBD
  3
SOLIDHIST
350
C3C
  3
SORTENTS
350
C37
  0
DICTIONARY
  5
24C9
102
{ACAD_REACTORS
330
B
102
}
330
B
100
AcDbDictionary
281
     1
  0
DICTIONARY
  5
23
102
{ACAD_REACTORS
330
22
102
}
330
22
100
AcDbDictionary
281
     1
  0
XRECORD
  5
8
102
{ACAD_REACTORS
330
7
102
}
330
7
100
AcDbXrecord
280
     1
290
     1
  0
SORTENTSTABLE
  5
BB0
102
{ACAD_REACTORS
330
3
102
}
330
3
100
AcDbSortentsTable
330
2
331
3CA16
  5
3CA1A
331
3C9D9
  5
3C9DD
331
3CA1D
  5
3CA21
331
3C9F5
  5
3C9F9
331
3C9FC
  5
3CA00
331
3C9D4
  5
3C9D8
331
3C9DB
  5
3C9DF
331
3CA1F
  5
3CA23
331
3C9F7
  5
3C9FB
331
3C9FE
  5
3CA02
331
3C9D6
  5
3C9DA
331
3C9DD
  5
3C9E1
331
3CA21
  5
3CA25
331
3CA28
  5
3D2E3
331
3CA00
  5
3CA04
331
3C9DF
  5
3C9E3
331
3CA23
  5
3CA27
331
3CA2A
  5
3EBDE
331
3CA02
  5
3CA06
331
3CA09
  5
3CA0D
331
3C9E1
  5
3C9E5
331
3C9E8
  5
3C9EC
331
3CA25
  5
3CA29
331
3CA04
  5
3CA08
331
3CA0B
  5
3CA0F
331
3C9E3
  5
3C9E7
331
3CA27
  5
3CA2B
331
3C9EA
  5
3C9EE
331
3CA06
  5
3CA0A
331
3CA0D
  5
3CA11
331
3C9E5
  5
3C9E9
331
3C9EC
  5
3C9F0
331
3CA0F
  5
3CA13
331
3C9E7
  5
3C9EB
331
3C9EE
  5
3C9F2
331
3C9CD
  5
3C9D1
331
3CA11
  5
3CA15
331
3CA18
  5
3CA1C
331
3C9F0
  5
3C9F4
331
3C9CF
  5
3C9D3
331
3CA13
  5
3CA17
331
3CA1A
  5
3CA1E
331
3C9F2
  5
3C9F6
331
3C9F9
  5
3C9FD
331
3C9D1
  5
3C9D5
331
3C9D8
  5
3C9DC
331
3CA15
  5
3CA19
331
3CA1C
  5
3CA20
331
3C9F4
  5
3C9F8
331
3C9FB
  5
3C9FF
331
3C9D3
  5
3C9D7
331
3CA17
  5
3CA1B
331
3C9DA
  5
3C9DE
331
3CA1E
  5
3CA22
331
3C9F6
  5
3C9FA
331
3C9FD
  5
3CA01
331
3C9D5
  5
3C9D9
331
3C9DC
  5
3C9E0
331
3CA20
  5
3CA24
331
3C9FF
  5
3CA03
331
3C9D7
  5
3C9DB
331
3C9DE
  5
3C9E2
331
3CA22
  5
3CA26
331
3CA29
  5
3EBDD
331
3CA01
  5
3CA05
331
3CA08
  5
3CA0C
331
3C9E0
  5
3C9E4
331
3CA24
  5
3CA28
331
3CA2B
  5
3FAF6
331
3CA03
  5
3CA07
331
3CA0A
  5
3CA0E
331
3C9E2
  5
3C9E6
331
3CA26
  5
3CA2A
331
3C9E9
  5
3C9ED
331
3CA05
  5
3CA09
331
3CA0C
  5
3CA10
331
3C9E4
  5
3C9E8
331
3C9EB
  5
3C9EF
331
3CA07
  5
3CA0B
331
3CA0E
  5
3CA12
331
3C9E6
  5
3C9EA
331
3C9ED
  5
3C9F1
331
3CA10
  5
3CA14
331
3C9EF
  5
3C9F3
331
3C9CE
  5
3C9D2
331
3CA12
  5
3CA16
331
3CA19
  5
3CA1D
331
3C9F1
  5
3C9F5
331
3C9F8
  5
3C9FC
331
3C9D0
  5
3C9D4
331
3CA14
  5
3CA18
331
3CA1B
  5
3CA1F
331
3C9F3
  5
3C9F7
331
3C9FA
  5
3C9FE
331
3C9D2
  5
3C9D6
  0
XRECORD
  5
2C7EE
102
{ACAD_REACTORS
330
2C7ED
102
}
330
2C7ED
100
AcDbXrecord
280
     1
 90
        1
340
48
  0
ACDBDETAILVIEWSTYLE
  5
283CD
102
{ACAD_XDICTIONARY
360
41DCA
102
}
102
{ACAD_REACTORS
330
BDC
102
}
330
BDC
100
AcDbModelDocViewStyle
 70
     0
  3
Imperial24
290
     0
100
AcDbDetailViewStyle
 70
     0
 71
     0
 90
        3
 71
     1
340
25
 62
   256
 40
0.24
340
0
 62
   256
 40
0.24
300

 40
0.36
280
     3
 71
     2
340
14
 90
       25
 62
   256
 71
     3
340
25
 62
   256
 40
0.24
 90
        1
 40
0.75
 90
        1
300
%<\AcVar ViewType \f "%tc1">% %<\AcVar ViewDetailId>%\PSCALE %<\AcVar ViewScale \f "%sn">%
 71
     4
340
14
 90
       25
 62
   256
340
14
 90
       25
 62
   256
280
     0
  0
ACDBDETAILVIEWSTYLE
  5
BDD
102
{ACAD_XDICTIONARY
360
41DC6
102
}
102
{ACAD_REACTORS
330
BDC
102
}
330
BDC
100
AcDbModelDocViewStyle
 70
     0
  3
Metric50
290
     0
100
AcDbDetailViewStyle
 70
     0
 71
     0
 90
        3
 71
     1
340
25
 62
   256
 40
5.0
340
0
 62
   256
 40
5.0
300

 40
0.0
280
     1
 71
     2
340
14
 90
       25
 62
   256
 71
     3
340
25
 62
   256
 40
5.0
 90
        0
 40
15.0
 90
        1
300
%<\AcVar ViewDetailId>% (%<\AcVar ViewScale \f "%sn">%)
 71
     4
340
14
 90
       25
 62
   256
340
14
 90
       25
 62
   256
280
     0
  0
LAYOUT
  5
16
102
{ACAD_XDICTIONARY
360
18
102
}
102
{ACAD_REACTORS
330
17
102
}
330
17
100
AcDbPlotSettings
  1

  2
DWG To PDF.pc3
  4
ISO_expand_A4_(297.00_x_210.00_MM)
  6

 40
5.793749809265136
 41
10.79374980926513
 42
5.79376220703125
 43
10.79374694824219
 44
297.0
 45
210.0
 46
10.74179700476176
 47
0.0
 48
214.2303289092835
 49
-5.650030662565313
140
426.8811481846322
141
146.1562857013982
142
1.0
143
0.8057125389846563
 70
 11956
 72
     1
 73
     0
 74
     4
  7
ksm0910.ctb
 75
     0
147
1.241137442468229
 76
     0
 77
     2
 78
   300
148
-214.2303289092835
149
5.650030662565313
100
AcDbLayout
  1
Model
 70
     1
 71
     0
 10
0.0
 20
0.0
 11
12.0
 21
9.0
 12
0.0
 22
0.0
 32
0.0
 14
0.0
 24
0.0
 34
0.0
 15
0.0
 25
0.0
 35
0.0
146
0.0
 13
0.0
 23
0.0
 33
0.0
 16
1.0
 26
0.0
 36
0.0
 17
0.0
 27
1.0
 37
0.0
 76
     0
330
2
331
2D
1001
ACAD_PSEXT
1000
DWG To PDF.pc3
1000
DWG To PDF
1000
파일
1000

1070
     0
  0
LAYOUT
  5
1E
102
{ACAD_XDICTIONARY
360
1F
102
}
102
{ACAD_REACTORS
330
17
102
}
330
17
100
AcDbPlotSettings
  1

  2
none_device
  4
ISO_A4_(210.00_x_297.00_MM)
  6

 40
7.5
 41
20.0
 42
7.5
 43
20.0
 44
210.0
 45
297.0
 46
0.0
 47
0.0
 48
0.0
 49
0.0
140
0.0
141
0.0
142
1.0
143
1.0
 70
   688
 72
     1
 73
     1
 74
     5
  7
ksm0910.ctb
 75
    16
147
1.0
 76
     0
 77
     2
 78
   300
148
0.0
149
0.0
100
AcDbLayout
  1
배치1
 70
     1
 71
     1
 10
-20.0
 20
-7.5
 11
277.0
 21
202.5
 12
0.0
 22
0.0
 32
0.0
 14
1.000000000000000E+20
 24
1.000000000000000E+20
 34
1.000000000000000E+20
 15
-1.000000000000000E+20
 25
-1.000000000000000E+20
 35
-1.000000000000000E+20
146
0.0
 13
0.0
 23
0.0
 33
0.0
 16
1.0
 26
0.0
 36
0.0
 17
0.0
 27
1.0
 37
0.0
 76
     0
330
1B
331
2C7EC
1001
ACAD_PSEXT
1000
없음
1000
없음
1000
해당 없음
1000
배치가 새로운 플로터 구성을 선택할 때까지 플롯되지 않습니다.
1070
     0
  0
MATERIAL
  5
3E
102
{ACAD_REACTORS
330
D
102
}
330
D
100
AcDbMaterial
  1
ByBlock
 94
       63
  0
MATERIAL
  5
3D
102
{ACAD_REACTORS
330
D
102
}
330
D
100
AcDbMaterial
  1
ByLayer
 94
       63
  0
MATERIAL
  5
C
102
{ACAD_XDICTIONARY
360
E
102
}
102
{ACAD_REACTORS
330
D
102
}
330
D
100
AcDbMaterial
  1
Global
 43
0.0007999999797903
 43
0.0
 43
0.0
 43
0.0
 43
0.0
 43
0.0007999999797903
 43
0.0
 43
0.0
 43
0.0
 43
0.0
 43
1.0
 43
0.0
 43
0.0
 43
0.0
 43
0.0
 43
1.0
 49
0.0007999999797903
 49
0.0
 49
0.0
 49
0.0
 49
0.0
 49
0.0007999999797903
 49
0.0
 49
0.0
 49
0.0
 49
0.0
 49
1.0
 49
0.0
 49
0.0
 49
0.0
 49
0.0
 49
1.0
142
0.0007999999797903
142
0.0
142
0.0
142
0.0
142
0.0
142
0.0007999999797903
142
0.0
142
0.0
142
0.0
142
0.0
142
1.0
142
0.0
142
0.0
142
0.0
142
0.0
142
1.0
144
0.0007999999797903
144
0.0
144
0.0
144
0.0
144
0.0
144
0.0007999999797903
144
0.0
144
0.0
144
0.0
144
0.0
144
1.0
144
0.0
144
0.0
144
0.0
144
0.0
144
1.0
 94
       63
1001
ACAD
1070
    -1
1070
     3
1070
     0
1000

1071
        0
1070
     0
  0
MLEADERSTYLE
  5
BD9
102
{ACAD_REACTORS
330
42
330
41A0C
330
41A36
102
}
330
42
100
AcDbMLeaderStyle
179
     2
170
     2
171
     1
172
     0
 90
        2
 40
0.0
 41
0.0
173
     1
 91
-1023410173
340
28
 92
       -2
290
     1
 42
2.0
291
     1
 43
0.36
  3
Standard
 44
4.0
300

342
25
174
     1
178
     6
175
     1
176
     0
 93
-1023410174
 45
3.0
292
     0
297
     0
 46
4.0
 94
-1056964608
 47
1.0
 49
1.0
140
1.0
293
     1
141
0.0
294
     1
177
     0
142
1.0
295
     0
296
     0
143
0.125
271
     0
272
     9
273
     9
298
     1
  0
MLINESTYLE
  5
43
102
{ACAD_REACTORS
330
3B
102
}
330
3B
100
AcDbMlineStyle
  2
STANDARD
 70
     0
  3

 62
   256
 51
90.0
 52
90.0
 71
     2
 49
0.5
 62
   256
  6
BYLAYER
 49
-0.5
 62
   256
  6
BYLAYER
  0
ACDBPLACEHOLDER
  5
9
102
{ACAD_REACTORS
330
A
102
}
330
A
  0
SCALE
  5
48
102
{ACAD_REACTORS
330
40
102
}
330
40
100
AcDbScale
 70
     0
300
1:1
140
1.0
141
1.0
290
     1
  0
SCALE
  5
49
102
{ACAD_REACTORS
330
40
102
}
330
40
100
AcDbScale
 70
     0
300
1:2
140
1.0
141
2.0
290
     0
  0
SCALE
  5
4A
102
{ACAD_REACTORS
330
40
102
}
330
40
100
AcDbScale
 70
     0
300
1:4
140
1.0
141
4.0
290
     0
  0
SCALE
  5
4B
102
{ACAD_REACTORS
330
40
102
}
330
40
100
AcDbScale
 70
     0
300
1:5
140
1.0
141
5.0
290
     0
  0
SCALE
  5
4C
102
{ACAD_REACTORS
330
40
102
}
330
40
100
AcDbScale
 70
     0
300
1:8
140
1.0
141
8.0
290
     0
  0
SCALE
  5
4D
102
{ACAD_REACTORS
330
40
102
}
330
40
100
AcDbScale
 70
     0
300
1:10
140
1.0
141
10.0
290
     0
  0
SCALE
  5
4E
102
{ACAD_REACTORS
330
40
102
}
330
40
100
AcDbScale
 70
     0
300
1:16
140
1.0
141
16.0
290
     0
  0
SCALE
  5
4F
102
{ACAD_REACTORS
330
40
102
}
330
40
100
AcDbScale
 70
     0
300
1:20
140
1.0
141
20.0
290
     0
  0
SCALE
  5
50
102
{ACAD_REACTORS
330
40
102
}
330
40
100
AcDbScale
 70
     0
300
1:30
140
1.0
141
30.0
290
     0
  0
SCALE
  5
51
102
{ACAD_REACTORS
330
40
102
}
330
40
100
AcDbScale
 70
     0
300
1:40
140
1.0
141
40.0
290
     0
  0
SCALE
  5
52
102
{ACAD_REACTORS
330
40
102
}
330
40
100
AcDbScale
 70
     0
300
1:50
140
1.0
141
50.0
290
     0
  0
SCALE
  5
53
102
{ACAD_REACTORS
330
40
102
}
330
40
100
AcDbScale
 70
     0
300
1:100
140
1.0
141
100.0
290
     0
  0
SCALE
  5
54
102
{ACAD_REACTORS
330
40
102
}
330
40
100
AcDbScale
 70
     0
300
2:1
140
2.0
141
1.0
290
     0
  0
SCALE
  5
55
102
{ACAD_REACTORS
330
40
102
}
330
40
100
AcDbScale
 70
     0
300
4:1
140
4.0
141
1.0
290
     0
  0
SCALE
  5
56
102
{ACAD_REACTORS
330
40
102
}
330
40
100
AcDbScale
 70
     0
300
8:1
140
8.0
141
1.0
290
     0
  0
SCALE
  5
57
102
{ACAD_REACTORS
330
40
102
}
330
40
100
AcDbScale
 70
     0
300
10:1
140
10.0
141
1.0
290
     0
  0
SCALE
  5
58
102
{ACAD_REACTORS
330
40
102
}
330
40
100
AcDbScale
 70
     0
300
100:1
140
100.0
141
1.0
290
     0
  0
ACDBSECTIONVIEWSTYLE
  5
283CC
102
{ACAD_XDICTIONARY
360
41DC8
102
}
102
{ACAD_REACTORS
330
BDA
102
}
330
BDA
100
AcDbModelDocViewStyle
 70
     0
  3
Imperial24
290
     0
100
AcDbSectionViewStyle
 70
     0
 71
     0
 90
       78
 71
     1
340
25
 62
   256
 40
0.24
340
0
340
0
 62
   256
 40
0.24
300
I, O, Q, S, X, Z
 40
0.48
 90
        3
 40
0.18
 90
        1
 71
     2
340
14
 90
       25
 62
   256
340
14
 90
       50
 62
   256
 40
0.24
 40
0.0
 40
0.24
 71
     3
340
25
 62
   256
 40
0.24
 90
        1
 40
0.75
 90
        1
300
%<\AcVar ViewType \f "%tc1">% %<\AcVar ViewSectionStartId>%-%<\AcVar ViewSectionEndId>%\PSCALE %<\AcVar ViewScale \f "%sn">%
 71
     4
 62
   256
 62
   257
300
ANSI31
 40
1.0
 90
        0
290
     0
290
     0
 90
        6
 40
0.0
 40
1.570796326794896
 40
0.2617993877991494
 40
1.308996938995747
 40
-0.2617993877991494
 40
1.832595714594046
  0
ACDBSECTIONVIEWSTYLE
  5
BDB
102
{ACAD_XDICTIONARY
360
41DC4
102
}
102
{ACAD_REACTORS
330
BDA
102
}
330
BDA
100
AcDbModelDocViewStyle
 70
     0
  3
Metric50
290
     0
100
AcDbSectionViewStyle
 70
     0
 71
     0
 90
      102
 71
     1
340
25
 62
   256
 40
5.0
340
0
340
0
 62
   256
 40
5.0
300
I, O, Q, S, X, Z
 40
10.0
 90
        0
 40
2.5
 90
        0
 71
     2
340
14
 90
       25
 62
   256
340
14
 90
       50
 62
   256
 40
5.0
 40
2.5
 40
5.0
 71
     3
340
25
 62
   256
 40
5.0
 90
        0
 40
15.0
 90
        1
300
%<\AcVar ViewSectionStartId>%-%<\AcVar ViewSectionEndId>% (%<\AcVar ViewScale \f "%sn">%)
 71
     4
 62
   256
 62
   257
300
ANSI31
 40
1.0
 90
        0
290
     0
290
     0
 90
        6
 40
0.0
 40
1.570796326794896
 40
0.2617993877991494
 40
1.308996938995747
 40
-0.2617993877991494
 40
1.832595714594046
  0
TABLESTYLE
  5
44
102
{ACAD_XDICTIONARY
360
45
102
}
102
{ACAD_REACTORS
330
41
102
}
330
41
100
AcDbTableStyle
280
     0
  3
Standard
 70
     0
 71
     0
 40
1.5
 41
1.5
280
     0
281
     0
  7
Standard
140
4.5
170
     2
 62
     0
 63
     7
283
     0
 90
      512
 91
        0
  1

274
    -2
284
     1
 64
     0
275
    -2
285
     1
 65
     0
276
    -2
286
     1
 66
     0
277
    -2
287
     1
 67
     0
278
    -2
288
     1
 68
     0
279
    -2
289
     1
 69
     0
  7
Standard
140
6.0
170
     5
 62
     0
 63
     7
283
     0
 90
      512
 91
        0
  1

274
    -2
284
     1
 64
     0
275
    -2
285
     1
 65
     0
276
    -2
286
     1
 66
     0
277
    -2
287
     1
 67
     0
278
    -2
288
     1
 68
     0
279
    -2
289
     1
 69
     0
  7
Standard
140
4.5
170
     5
 62
     0
 63
     7
283
     0
 90
      512
 91
        0
  1

274
    -2
284
     1
 64
     0
275
    -2
285
     1
 65
     0
276
    -2
286
     1
 66
     0
277
    -2
287
     1
 67
     0
278
    -2
288
     1
 68
     0
279
    -2
289
     1
 69
     0
  0
VISUALSTYLE
  5
2E
102
{ACAD_REACTORS
330
2F
102
}
330
2F
100
AcDbVisualStyle
  2
2dWireframe
 70
     4
177
     3
291
     0
 70
    58
 90
        0
176
     1
 90
        2
176
     1
 90
        1
176
     1
 90
        0
176
     1
 40
0.6
176
     1
 40
30.0
176
     1
 62
     7
176
     1
 90
        1
176
     1
 90
        4
176
     1
 62
     7
176
     1
 62
   257
176
     1
 90
        1
176
     1
 90
        1
176
     1
 40
1.0
176
     1
 90
        0
176
     1
 62
   257
176
     1
 40
1.0
176
     1
 90
        1
176
     1
 90
        6
176
     1
 90
        2
176
     1
 62
     7
176
     1
 90
        5
176
     1
 90
        0
176
     1
 90
        0
176
     1
290
     0
176
     1
 90
        1
176
     1
 40
0.0
176
     1
 90
        0
176
     1
290
     1
176
     1
290
     1
176
     1
290
     0
176
     1
290
     0
176
     1
290
     0
176
     1
290
     0
176
     1
290
     0
176
     1
290
     0
176
     1
290
     0
176
     1
 90
       50
176
     1
 40
0.0
176
     1
 40
1.0
176
     1
 90
        0
176
     1
 62
    18
420
        0
176
     1
 90
       50
176
     1
 90
        3
176
     1
 62
     5
420
      255
176
     1
290
     0
176
     1
 90
       50
176
     1
 90
       50
176
     1
 90
       50
176
     1
290
     0
176
     1
 90
       50
176
     1
 62
   256
176
     0
 40
1.0
176
     0
 90
        2
176
     1
  1
strokes_ogs.tif
176
     1
290
     0
176
     1
 40
1.0
176
     1
 40
1.0
176
     1
  0
VISUALSTYLE
  5
1A64
102
{ACAD_REACTORS
330
2F
102
}
330
2F
100
AcDbVisualStyle
  2
3D Hidden
 70
     6
177
     3
291
     0
 70
    58
 90
        1
176
     1
 90
        2
176
     1
 90
        2
176
     1
 90
        0
176
     1
 40
0.6
176
     1
 40
30.0
176
     1
 62
     7
176
     1
 90
        2
176
     1
 90
        2
176
     1
 62
     7
176
     1
 62
   257
176
     1
 90
        2
176
     1
 90
        1
176
     1
 40
40.0
176
     1
 90
        0
176
     1
 62
   257
176
     1
 40
1.0
176
     1
 90
        1
176
     1
 90
        6
176
     1
 90
        2
176
     1
 62
     7
176
     1
 90
        3
176
     1
 90
        0
176
     1
 90
        0
176
     1
290
     0
176
     1
 90
        1
176
     1
 40
0.0
176
     1
 90
        0
176
     1
290
     0
176
     1
290
     1
176
     1
290
     1
176
     1
290
     0
176
     1
290
     0
176
     1
290
     0
176
     1
290
     0
176
     1
290
     0
176
     1
290
     0
176
     1
 90
       50
176
     1
 40
0.0
176
     1
 40
1.0
176
     1
 90
        0
176
     1
 62
    18
420
        0
176
     1
 90
       50
176
     1
 90
        3
176
     1
 62
     5
420
      255
176
     1
290
     0
176
     1
 90
       50
176
     1
 90
       50
176
     1
 90
       50
176
     1
290
     0
176
     1
 90
       50
176
     1
 62
   256
176
     0
 40
1.0
176
     0
 90
        2
176
     1
  1
strokes_ogs.tif
176
     1
290
     0
176
     1
 40
1.0
176
     1
 40
1.0
176
     1
  0
VISUALSTYLE
  5
47
102
{ACAD_REACTORS
330
2F
102
}
330
2F
100
AcDbVisualStyle
  2
3dWireframe
 70
     5
177
     3
291
     0
 70
    58
 90
        0
176
     1
 90
        2
176
     1
 90
        1
176
     1
 90
        0
176
     1
 40
0.6
176
     1
 40
30.0
176
     1
 62
     7
176
     1
 90
        1
176
     1
 90
        4
176
     1
 62
     7
176
     1
 62
   257
176
     1
 90
        1
176
     1
 90
        1
176
     1
 40
1.0
176
     1
 90
        0
176
     1
 62
   257
176
     1
 40
1.0
176
     1
 90
        1
176
     1
 90
        6
176
     1
 90
        2
176
     1
 62
     7
176
     1
 90
        5
176
     1
 90
        0
176
     1
 90
        0
176
     1
290
     0
176
     1
 90
        1
176
     1
 40
0.0
176
     1
 90
        0
176
     1
290
     0
176
     1
290
     1
176
     1
290
     1
176
     1
290
     0
176
     1
290
     0
176
     1
290
     0
176
     1
290
     0
176
     1
290
     0
176
     1
290
     0
176
     1
 90
       50
176
     1
 40
0.0
176
     1
 40
1.0
176
     1
 90
        0
176
     1
 62
    18
420
        0
176
     1
 90
       50
176
     1
 90
        3
176
     1
 62
     5
420
      255
176
     1
290
     0
176
     1
 90
       50
176
     1
 90
       50
176
     1
 90
       50
176
     1
290
     0
176
     1
 90
       50
176
     1
 62
   256
176
     0
 40
1.0
176
     0
 90
        2
176
     1
  1
strokes_ogs.tif
176
     1
290
     0
176
     1
 40
1.0
176
     1
 40
1.0
176
     1
  0
VISUALSTYLE
  5
BC7
102
{ACAD_REACTORS
330
2F
102
}
330
2F
100
AcDbVisualStyle
  2
Basic
 70
     7
177
     3
291
     1
 70
    58
 90
        1
176
     1
 90
        0
176
     1
 90
        1
176
     1
 90
        0
176
     1
 40
0.6
176
     1
 40
30.0
176
     1
 62
     7
176
     1
 90
        0
176
     1
 90
        4
176
     1
 62
     7
176
     1
 62
   257
176
     1
 90
        1
176
     1
 90
        1
176
     1
 40
1.0
176
     1
 90
        8
176
     1
 62
     7
176
     1
 40
1.0
176
     1
 90
        1
176
     1
 90
        6
176
     1
 90
        2
176
     1
 62
     7
176
     1
 90
        5
176
     1
 90
        0
176
     1
 90
        0
176
     1
290
     0
176
     1
 90
        1
176
     1
 40
0.0
176
     1
 90
        0
176
     1
290
     0
176
     1
290
     1
176
     1
290
     1
176
     1
290
     0
176
     1
290
     0
176
     1
290
     0
176
     1
290
     0
176
     1
290
     0
176
     1
290
     0
176
     1
 90
       50
176
     1
 40
0.0
176
     1
 40
1.0
176
     1
 90
        0
176
     1
 62
    18
420
        0
176
     1
 90
       50
176
     1
 90
        3
176
     1
 62
     5
420
      255
176
     1
290
     0
176
     1
 90
       50
176
     1
 90
       50
176
     1
 90
       50
176
     1
290
     0
176
     1
 90
       50
176
     1
 62
   256
176
     0
 40
1.0
176
     0
 90
        2
176
     1
  1
strokes_ogs.tif
176
     1
290
     0
176
     1
 40
1.0
176
     1
 40
1.0
176
     1
  0
VISUALSTYLE
  5
BCC
102
{ACAD_REACTORS
330
2F
102
}
330
2F
100
AcDbVisualStyle
  2
Brighten
 70
    12
177
     3
291
     1
 70
    58
 90
        2
176
     1
 90
        2
176
     1
 90
        0
176
     1
 90
        0
176
     1
 40
0.6
176
     1
 40
30.0
176
     1
 62
     7
176
     1
 90
        1
176
     1
 90
        4
176
     1
 62
     7
176
     1
 62
   257
176
     1
 90
        1
176
     1
 90
        1
176
     1
 40
1.0
176
     1
 90
        8
176
     1
 62
     7
176
     1
 40
1.0
176
     1
 90
        1
176
     1
 90
        6
176
     1
 90
        2
176
     1
 62
     7
176
     1
 90
        5
176
     1
 90
        0
176
     1
 90
        0
176
     1
290
     0
176
     1
 90
        1
176
     1
 40
50.0
176
     1
 90
        0
176
     1
290
     0
176
     1
290
     1
176
     1
290
     1
176
     1
290
     0
176
     1
290
     0
176
     1
290
     0
176
     1
290
     0
176
     1
290
     0
176
     1
290
     0
176
     1
 90
       50
176
     1
 40
0.0
176
     1
 40
1.0
176
     1
 90
        0
176
     1
 62
    18
420
        0
176
     1
 90
       50
176
     1
 90
        3
176
     1
 62
     5
420
      255
176
     1
290
     0
176
     1
 90
       50
176
     1
 90
       50
176
     1
 90
       50
176
     1
290
     0
176
     1
 90
       50
176
     1
 62
   256
176
     0
 40
1.0
176
     0
 90
        2
176
     1
  1
strokes_ogs.tif
176
     1
290
     0
176
     1
 40
1.0
176
     1
 40
1.0
176
     1
  0
VISUALSTYLE
  5
BD0
102
{ACAD_REACTORS
330
2F
102
}
330
2F
100
AcDbVisualStyle
  2
ColorChange
 70
    16
177
     3
291
     1
 70
    58
 90
        2
176
     1
 90
        2
176
     1
 90
        3
176
     1
 90
        0
176
     1
 40
0.6
176
     1
 40
30.0
176
     1
 62
     8
176
     1
 90
        1
176
     1
 90
        4
176
     1
 62
     7
176
     1
 62
   257
176
     1
 90
        1
176
     1
 90
        1
176
     1
 40
1.0
176
     1
 90
        8
176
     1
 62
     8
176
     1
 40
1.0
176
     1
 90
        1
176
     1
 90
        6
176
     1
 90
        2
176
     1
 62
     7
176
     1
 90
        5
176
     1
 90
        0
176
     1
 90
        0
176
     1
290
     0
176
     1
 90
        1
176
     1
 40
0.0
176
     1
 90
        0
176
     1
290
     0
176
     1
290
     1
176
     1
290
     1
176
     1
290
     0
176
     1
290
     0
176
     1
290
     0
176
     1
290
     0
176
     1
290
     0
176
     1
290
     0
176
     1
 90
       50
176
     1
 40
0.0
176
     1
 40
1.0
176
     1
 90
        0
176
     1
 62
    18
420
        0
176
     1
 90
       50
176
     1
 90
        3
176
     1
 62
     5
420
      255
176
     1
290
     0
176
     1
 90
       50
176
     1
 90
       50
176
     1
 90
       50
176
     1
290
     0
176
     1
 90
       50
176
     1
 62
   256
176
     0
 40
1.0
176
     0
 90
        2
176
     1
  1
strokes_ogs.tif
176
     1
290
     0
176
     1
 40
1.0
176
     1
 40
1.0
176
     1
  0
VISUALSTYLE
  5
BCA
102
{ACAD_REACTORS
330
2F
102
}
330
2F
100
AcDbVisualStyle
  2
Conceptual
 70
     9
177
     3
291
     0
 70
    58
 90
        3
176
     1
 90
        2
176
     1
 90
        0
176
     1
 90
        0
176
     1
 40
0.6
176
     1
 40
30.0
176
     1
 62
     7
176
     1
 90
        2
176
     1
 90
        2
176
     1
 62
     7
176
     1
 62
   257
176
     1
 90
        1
176
     1
 90
        1
176
     1
 40
179.0
176
     1
 90
        8
176
     1
 62
     7
176
     1
 40
1.0
176
     1
 90
        1
176
     1
 90
        6
176
     1
 90
        2
176
     1
 62
     7
176
     1
 90
        3
176
     1
 90
        0
176
     1
 90
        0
176
     1
290
     0
176
     1
 90
        1
176
     1
 40
0.0
176
     1
 90
        0
176
     1
290
     0
176
     1
290
     1
176
     1
290
     1
176
     1
290
     0
176
     1
290
     0
176
     1
290
     0
176
     1
290
     0
176
     1
290
     0
176
     1
290
     0
176
     1
 90
       50
176
     1
 40
0.0
176
     1
 40
1.0
176
     1
 90
        0
176
     1
 62
    18
420
        0
176
     1
 90
       50
176
     1
 90
        3
176
     1
 62
     5
420
      255
176
     1
290
     0
176
     1
 90
       50
176
     1
 90
       50
176
     1
 90
       50
176
     1
290
     0
176
     1
 90
       50
176
     1
 62
   256
176
     0
 40
1.0
176
     0
 90
        2
176
     1
  1
strokes_ogs.tif
176
     1
290
     0
176
     1
 40
1.0
176
     1
 40
1.0
176
     1
  0
VISUALSTYLE
  5
BCB
102
{ACAD_REACTORS
330
2F
102
}
330
2F
100
AcDbVisualStyle
  2
Dim
 70
    11
177
     3
291
     1
 70
    58
 90
        2
176
     1
 90
        2
176
     1
 90
        0
176
     1
 90
        0
176
     1
 40
0.6
176
     1
 40
30.0
176
     1
 62
     7
176
     1
 90
        1
176
     1
 90
        4
176
     1
 62
     7
176
     1
 62
   257
176
     1
 90
        1
176
     1
 90
        1
176
     1
 40
1.0
176
     1
 90
        8
176
     1
 62
     7
176
     1
 40
1.0
176
     1
 90
        1
176
     1
 90
        6
176
     1
 90
        2
176
     1
 62
     7
176
     1
 90
        5
176
     1
 90
        0
176
     1
 90
        0
176
     1
290
     0
176
     1
 90
        1
176
     1
 40
-50.0
176
     1
 90
        0
176
     1
290
     0
176
     1
290
     1
176
     1
290
     1
176
     1
290
     0
176
     1
290
     0
176
     1
290
     0
176
     1
290
     0
176
     1
290
     0
176
     1
290
     0
176
     1
 90
       50
176
     1
 40
0.0
176
     1
 40
1.0
176
     1
 90
        0
176
     1
 62
    18
420
        0
176
     1
 90
       50
176
     1
 90
        3
176
     1
 62
     5
420
      255
176
     1
290
     0
176
     1
 90
       50
176
     1
 90
       50
176
     1
 90
       50
176
     1
290
     0
176
     1
 90
       50
176
     1
 62
   256
176
     0
 40
1.0
176
     0
 90
        2
176
     1
  1
strokes_ogs.tif
176
     1
290
     0
176
     1
 40
1.0
176
     1
 40
1.0
176
     1
  0
VISUALSTYLE
  5
BD8
102
{ACAD_REACTORS
330
2F
102
}
330
2F
100
AcDbVisualStyle
  2
EdgeColorOff
 70
    22
177
     3
291
     1
 70
    58
 90
        2
176
     0
 90
        2
176
     0
 90
        0
176
     0
 90
        0
176
     0
 40
0.6
176
     0
 40
30.0
176
     0
 62
     7
176
     0
 90
        1
176
     0
 90
        4
176
     0
 62
     7
176
     0
 62
   257
176
     0
 90
        1
176
     0
 90
        1
176
     0
 40
1.0
176
     0
 90
        8
176
     2
 62
     7
176
     0
 40
1.0
176
     0
 90
        1
176
     0
 90
        6
176
     0
 90
        2
176
     0
 62
     7
176
     0
 90
        5
176
     0
 90
        0
176
     0
 90
        0
176
     0
290
     0
176
     0
 90
        1
176
     0
 40
0.0
176
     0
 90
        0
176
     0
290
     0
176
     0
290
     1
176
     0
290
     1
176
     0
290
     0
176
     0
290
     0
176
     0
290
     0
176
     0
290
     0
176
     0
290
     0
176
     0
290
     0
176
     0
 90
       50
176
     0
 40
0.0
176
     0
 40
1.0
176
     0
 90
        0
176
     0
 62
    18
420
        0
176
     0
 90
       50
176
     0
 90
        3
176
     0
 62
     5
420
      255
176
     0
290
     0
176
     0
 90
       50
176
     0
 90
       50
176
     0
 90
       50
176
     0
290
     0
176
     0
 90
       50
176
     0
 62
   256
176
     0
 40
1.0
176
     0
 90
        2
176
     0
  1
strokes_ogs.tif
176
     0
290
     0
176
     0
 40
1.0
176
     0
 40
1.0
176
     0
  0
VISUALSTYLE
  5
BCF
102
{ACAD_REACTORS
330
2F
102
}
330
2F
100
AcDbVisualStyle
  2
Facepattern
 70
    15
177
     3
291
     1
 70
    58
 90
        2
176
     1
 90
        2
176
     1
 90
        0
176
     1
 90
        0
176
     1
 40
0.6
176
     1
 40
30.0
176
     1
 62
     7
176
     1
 90
        1
176
     1
 90
        4
176
     1
 62
     7
176
     1
 62
   257
176
     1
 90
        1
176
     1
 90
        1
176
     1
 40
1.0
176
     1
 90
        8
176
     1
 62
     7
176
     1
 40
1.0
176
     1
 90
        1
176
     1
 90
        6
176
     1
 90
        2
176
     1
 62
     7
176
     1
 90
        5
176
     1
 90
        0
176
     1
 90
        0
176
     1
290
     0
176
     1
 90
        1
176
     1
 40
0.0
176
     1
 90
        0
176
     1
290
     0
176
     1
290
     1
176
     1
290
     1
176
     1
290
     0
176
     1
290
     0
176
     1
290
     0
176
     1
290
     0
176
     1
290
     0
176
     1
290
     0
176
     1
 90
       50
176
     1
 40
0.0
176
     1
 40
1.0
176
     1
 90
        0
176
     1
 62
    18
420
        0
176
     1
 90
       50
176
     1
 90
        3
176
     1
 62
     5
420
      255
176
     1
290
     0
176
     1
 90
       50
176
     1
 90
       50
176
     1
 90
       50
176
     1
290
     0
176
     1
 90
       50
176
     1
 62
   256
176
     0
 40
1.0
176
     0
 90
        2
176
     1
  1
strokes_ogs.tif
176
     1
290
     0
176
     1
 40
1.0
176
     1
 40
1.0
176
     1
  0
VISUALSTYLE
  5
BC3
102
{ACAD_REACTORS
330
2F
102
}
330
2F
100
AcDbVisualStyle
  2
Flat
 70
     0
177
     3
291
     1
 70
    58
 90
        2
176
     1
 90
        1
176
     1
 90
        1
176
     1
 90
        2
176
     1
 40
0.6
176
     1
 40
30.0
176
     1
 62
     7
176
     1
 90
        0
176
     1
 90
        0
176
     1
 62
     7
176
     1
 62
   257
176
     1
 90
        1
176
     1
 90
        1
176
     1
 40
1.0
176
     1
 90
        8
176
     1
 62
     7
176
     1
 40
1.0
176
     1
 90
        1
176
     1
 90
        6
176
     1
 90
        2
176
     1
 62
     7
176
     1
 90
        5
176
     1
 90
        0
176
     1
 90
        0
176
     1
290
     0
176
     1
 90
       13
176
     1
 40
0.0
176
     1
 90
        0
176
     1
290
     0
176
     1
290
     1
176
     1
290
     1
176
     1
290
     0
176
     1
290
     0
176
     1
290
     0
176
     1
290
     0
176
     1
290
     0
176
     1
290
     0
176
     1
 90
       50
176
     1
 40
0.0
176
     1
 40
1.0
176
     1
 90
        0
176
     1
 62
    18
420
        0
176
     1
 90
       50
176
     1
 90
        3
176
     1
 62
     5
420
      255
176
     1
290
     0
176
     1
 90
       50
176
     1
 90
       50
176
     1
 90
       50
176
     1
290
     0
176
     1
 90
       50
176
     1
 62
   256
176
     0
 40
1.0
176
     0
 90
        2
176
     1
  1
strokes_ogs.tif
176
     1
290
     0
176
     1
 40
1.0
176
     1
 40
1.0
176
     1
  0
VISUALSTYLE
  5
BC4
102
{ACAD_REACTORS
330
2F
102
}
330
2F
100
AcDbVisualStyle
  2
FlatWithEdges
 70
     1
177
     3
291
     1
 70
    58
 90
        2
176
     1
 90
        1
176
     1
 90
        1
176
     1
 90
        2
176
     1
 40
0.6
176
     1
 40
30.0
176
     1
 62
     7
176
     1
 90
        1
176
     1
 90
        0
176
     1
 62
     7
176
     1
 62
   257
176
     1
 90
        1
176
     1
 90
        1
176
     1
 40
1.0
176
     1
 90
        0
176
     1
 62
   257
176
     1
 40
1.0
176
     1
 90
        1
176
     1
 90
        6
176
     1
 90
        2
176
     1
 62
     7
176
     1
 90
        5
176
     1
 90
        0
176
     1
 90
        0
176
     1
290
     0
176
     1
 90
       13
176
     1
 40
0.0
176
     1
 90
        0
176
     1
290
     0
176
     1
290
     1
176
     1
290
     1
176
     1
290
     0
176
     1
290
     0
176
     1
290
     0
176
     1
290
     0
176
     1
290
     0
176
     1
290
     0
176
     1
 90
       50
176
     1
 40
0.0
176
     1
 40
1.0
176
     1
 90
        0
176
     1
 62
    18
420
        0
176
     1
 90
       50
176
     1
 90
        3
176
     1
 62
     5
420
      255
176
     1
290
     0
176
     1
 90
       50
176
     1
 90
       50
176
     1
 90
       50
176
     1
290
     0
176
     1
 90
       50
176
     1
 62
   256
176
     0
 40
1.0
176
     0
 90
        2
176
     1
  1
strokes_ogs.tif
176
     1
290
     0
176
     1
 40
1.0
176
     1
 40
1.0
176
     1
  0
VISUALSTYLE
  5
BC5
102
{ACAD_REACTORS
330
2F
102
}
330
2F
100
AcDbVisualStyle
  2
Gouraud
 70
     2
177
     3
291
     1
 70
    58
 90
        2
176
     1
 90
        2
176
     1
 90
        1
176
     1
 90
        2
176
     1
 40
0.6
176
     1
 40
30.0
176
     1
 62
     7
176
     1
 90
        0
176
     1
 90
        0
176
     1
 62
     7
176
     1
 62
   257
176
     1
 90
        1
176
     1
 90
        1
176
     1
 40
1.0
176
     1
 90
        0
176
     1
 62
     7
176
     1
 40
1.0
176
     1
 90
        1
176
     1
 90
        6
176
     1
 90
        2
176
     1
 62
     7
176
     1
 90
        5
176
     1
 90
        0
176
     1
 90
        0
176
     1
290
     0
176
     1
 90
       13
176
     1
 40
0.0
176
     1
 90
        0
176
     1
290
     0
176
     1
290
     1
176
     1
290
     1
176
     1
290
     0
176
     1
290
     0
176
     1
290
     0
176
     1
290
     0
176
     1
290
     0
176
     1
290
     0
176
     1
 90
       50
176
     1
 40
0.0
176
     1
 40
1.0
176
     1
 90
        0
176
     1
 62
    18
420
        0
176
     1
 90
       50
176
     1
 90
        3
176
     1
 62
     5
420
      255
176
     1
290
     0
176
     1
 90
       50
176
     1
 90
       50
176
     1
 90
       50
176
     1
290
     0
176
     1
 90
       50
176
     1
 62
   256
176
     0
 40
1.0
176
     0
 90
        2
176
     1
  1
strokes_ogs.tif
176
     1
290
     0
176
     1
 40
1.0
176
     1
 40
1.0
176
     1
  0
VISUALSTYLE
  5
BC6
102
{ACAD_REACTORS
330
2F
102
}
330
2F
100
AcDbVisualStyle
  2
GouraudWithEdges
 70
     3
177
     3
291
     1
 70
    58
 90
        2
176
     1
 90
        2
176
     1
 90
        1
176
     1
 90
        2
176
     1
 40
0.6
176
     1
 40
30.0
176
     1
 62
     7
176
     1
 90
        1
176
     1
 90
        0
176
     1
 62
     7
176
     1
 62
   257
176
     1
 90
        1
176
     1
 90
        1
176
     1
 40
1.0
176
     1
 90
        0
176
     1
 62
   257
176
     1
 40
1.0
176
     1
 90
        1
176
     1
 90
        6
176
     1
 90
        2
176
     1
 62
     7
176
     1
 90
        5
176
     1
 90
        0
176
     1
 90
        0
176
     1
290
     0
176
     1
 90
       13
176
     1
 40
0.0
176
     1
 90
        0
176
     1
290
     0
176
     1
290
     1
176
     1
290
     1
176
     1
290
     0
176
     1
290
     0
176
     1
290
     0
176
     1
290
     0
176
     1
290
     0
176
     1
290
     0
176
     1
 90
       50
176
     1
 40
0.0
176
     1
 40
1.0
176
     1
 90
        0
176
     1
 62
    18
420
        0
176
     1
 90
       50
176
     1
 90
        3
176
     1
 62
     5
420
      255
176
     1
290
     0
176
     1
 90
       50
176
     1
 90
       50
176
     1
 90
       50
176
     1
290
     0
176
     1
 90
       50
176
     1
 62
   256
176
     0
 40
1.0
176
     0
 90
        2
176
     1
  1
strokes_ogs.tif
176
     1
290
     0
176
     1
 40
1.0
176
     1
 40
1.0
176
     1
  0
VISUALSTYLE
  5
BC9
102
{ACAD_REACTORS
330
2F
102
}
330
2F
100
AcDbVisualStyle
  2
Hidden
 70
     6
177
     3
291
     0
 70
    58
 90
        1
176
     1
 90
        2
176
     1
 90
        2
176
     1
 90
        0
176
     1
 40
0.6
176
     1
 40
30.0
176
     1
 62
     7
176
     1
 90
        2
176
     1
 90
        2
176
     1
 62
     7
176
     1
 62
   257
176
     1
 90
        2
176
     1
 90
        1
176
     1
 40
40.0
176
     1
 90
        0
176
     1
 62
   257
176
     1
 40
1.0
176
     1
 90
        1
176
     1
 90
        6
176
     1
 90
        2
176
     1
 62
     7
176
     1
 90
        3
176
     1
 90
        0
176
     1
 90
        0
176
     1
290
     0
176
     1
 90
        1
176
     1
 40
0.0
176
     1
 90
        0
176
     1
290
     0
176
     1
290
     1
176
     1
290
     1
176
     1
290
     0
176
     1
290
     0
176
     1
290
     0
176
     1
290
     0
176
     1
290
     0
176
     1
290
     0
176
     1
 90
       50
176
     1
 40
0.0
176
     1
 40
1.0
176
     1
 90
        0
176
     1
 62
    18
420
        0
176
     1
 90
       50
176
     1
 90
        3
176
     1
 62
     5
420
      255
176
     1
290
     0
176
     1
 90
       50
176
     1
 90
       50
176
     1
 90
       50
176
     1
290
     0
176
     1
 90
       50
176
     1
 62
   256
176
     0
 40
1.0
176
     0
 90
        2
176
     1
  1
strokes_ogs.tif
176
     1
290
     0
176
     1
 40
1.0
176
     1
 40
1.0
176
     1
  0
VISUALSTYLE
  5
BD6
102
{ACAD_REACTORS
330
2F
102
}
330
2F
100
AcDbVisualStyle
  2
JitterOff
 70
    20
177
     3
291
     1
 70
    58
 90
        2
176
     0
 90
        2
176
     0
 90
        0
176
     0
 90
        0
176
     0
 40
0.6
176
     0
 40
30.0
176
     0
 62
     7
176
     0
 90
        1
176
     0
 90
        4
176
     0
 62
     7
176
     0
 62
   257
176
     0
 90
        1
176
     0
 90
        1
176
     0
 40
1.0
176
     0
 90
       10
176
     2
 62
     7
176
     0
 40
1.0
176
     0
 90
        1
176
     0
 90
        6
176
     0
 90
        2
176
     0
 62
     7
176
     0
 90
        5
176
     0
 90
        0
176
     0
 90
        0
176
     0
290
     0
176
     0
 90
        1
176
     0
 40
0.0
176
     0
 90
        0
176
     0
290
     0
176
     0
290
     1
176
     0
290
     1
176
     0
290
     0
176
     0
290
     0
176
     0
290
     0
176
     0
290
     0
176
     0
290
     0
176
     0
290
     0
176
     0
 90
       50
176
     0
 40
0.0
176
     0
 40
1.0
176
     0
 90
        0
176
     0
 62
    18
420
        0
176
     0
 90
       50
176
     0
 90
        3
176
     0
 62
     5
420
      255
176
     0
290
     0
176
     0
 90
       50
176
     0
 90
       50
176
     0
 90
       50
176
     0
290
     0
176
     0
 90
       50
176
     0
 62
   256
176
     0
 40
1.0
176
     0
 90
        2
176
     0
  1
strokes_ogs.tif
176
     0
290
     0
176
     0
 40
1.0
176
     0
 40
1.0
176
     0
  0
VISUALSTYLE
  5
BCE
102
{ACAD_REACTORS
330
2F
102
}
330
2F
100
AcDbVisualStyle
  2
Linepattern
 70
    14
177
     3
291
     1
 70
    58
 90
        2
176
     1
 90
        2
176
     1
 90
        0
176
     1
 90
        0
176
     1
 40
0.6
176
     1
 40
30.0
176
     1
 62
     7
176
     1
 90
        1
176
     1
 90
        4
176
     1
 62
     7
176
     1
 62
   257
176
     1
 90
        7
176
     1
 90
        7
176
     1
 40
1.0
176
     1
 90
        8
176
     1
 62
     7
176
     1
 40
1.0
176
     1
 90
        1
176
     1
 90
        6
176
     1
 90
        2
176
     1
 62
     7
176
     1
 90
        5
176
     1
 90
        0
176
     1
 90
        0
176
     1
290
     0
176
     1
 90
        1
176
     1
 40
0.0
176
     1
 90
        0
176
     1
290
     0
176
     1
290
     1
176
     1
290
     1
176
     1
290
     0
176
     1
290
     0
176
     1
290
     0
176
     1
290
     0
176
     1
290
     0
176
     1
290
     0
176
     1
 90
       50
176
     1
 40
0.0
176
     1
 40
1.0
176
     1
 90
        0
176
     1
 62
    18
420
        0
176
     1
 90
       50
176
     1
 90
        3
176
     1
 62
     5
420
      255
176
     1
290
     0
176
     1
 90
       50
176
     1
 90
       50
176
     1
 90
       50
176
     1
290
     0
176
     1
 90
       50
176
     1
 62
   256
176
     0
 40
1.0
176
     0
 90
        2
176
     1
  1
strokes_ogs.tif
176
     1
290
     0
176
     1
 40
1.0
176
     1
 40
1.0
176
     1
  0
VISUALSTYLE
  5
BD7
102
{ACAD_REACTORS
330
2F
102
}
330
2F
100
AcDbVisualStyle
  2
OverhangOff
 70
    21
177
     3
291
     1
 70
    58
 90
        2
176
     0
 90
        2
176
     0
 90
        0
176
     0
 90
        0
176
     0
 40
0.6
176
     0
 40
30.0
176
     0
 62
     7
176
     0
 90
        1
176
     0
 90
        4
176
     0
 62
     7
176
     0
 62
   257
176
     0
 90
        1
176
     0
 90
        1
176
     0
 40
1.0
176
     0
 90
        9
176
     2
 62
     7
176
     0
 40
1.0
176
     0
 90
        1
176
     0
 90
        6
176
     0
 90
        2
176
     0
 62
     7
176
     0
 90
        5
176
     0
 90
        0
176
     0
 90
        0
176
     0
290
     0
176
     0
 90
        1
176
     0
 40
0.0
176
     0
 90
        0
176
     0
290
     0
176
     0
290
     1
176
     0
290
     1
176
     0
290
     0
176
     0
290
     0
176
     0
290
     0
176
     0
290
     0
176
     0
290
     0
176
     0
290
     0
176
     0
 90
       50
176
     0
 40
0.0
176
     0
 40
1.0
176
     0
 90
        0
176
     0
 62
    18
420
        0
176
     0
 90
       50
176
     0
 90
        3
176
     0
 62
     5
420
      255
176
     0
290
     0
176
     0
 90
       50
176
     0
 90
       50
176
     0
 90
       50
176
     0
290
     0
176
     0
 90
       50
176
     0
 62
   256
176
     0
 40
1.0
176
     0
 90
        2
176
     0
  1
strokes_ogs.tif
176
     0
290
     0
176
     0
 40
1.0
176
     0
 40
1.0
176
     0
  0
VISUALSTYLE
  5
46
102
{ACAD_REACTORS
330
2F
102
}
330
2F
100
AcDbVisualStyle
  2
Realistic
 70
     8
177
     3
291
     0
 70
    58
 90
        2
176
     1
 90
        2
176
     1
 90
        1
176
     1
 90
        0
176
     1
 40
0.6
176
     1
 40
30.0
176
     1
 62
     7
176
     1
 90
        1
176
     1
 90
        0
176
     1
 62
     7
176
     1
 62
   257
176
     1
 90
        1
176
     1
 90
        1
176
     1
 40
1.0
176
     1
 90
        8
176
     1
 62
     8
176
     1
 40
1.0
176
     1
 90
        1
176
     1
 90
        6
176
     1
 90
        2
176
     1
 62
     7
176
     1
 90
        5
176
     1
 90
        0
176
     1
 90
        0
176
     1
290
     0
176
     1
 90
       13
176
     1
 40
0.0
176
     1
 90
        0
176
     1
290
     0
176
     1
290
     1
176
     1
290
     1
176
     1
290
     0
176
     1
290
     0
176
     1
290
     0
176
     1
290
     0
176
     1
290
     0
176
     1
290
     0
176
     1
 90
       50
176
     1
 40
0.0
176
     1
 40
1.0
176
     1
 90
        0
176
     1
 62
    18
420
        0
176
     1
 90
       50
176
     1
 90
        3
176
     1
 62
     5
420
      255
176
     1
290
     0
176
     1
 90
       50
176
     1
 90
       50
176
     1
 90
       50
176
     1
290
     0
176
     1
 90
       50
176
     1
 62
   256
176
     0
 40
1.0
176
     0
 90
        2
176
     1
  1
strokes_ogs.tif
176
     1
290
     0
176
     1
 40
1.0
176
     1
 40
1.0
176
     1
  0
VISUALSTYLE
  5
BD5
102
{ACAD_REACTORS
330
2F
102
}
330
2F
100
AcDbVisualStyle
  2
Shaded
 70
    27
177
     3
291
     0
 70
    58
 90
        2
176
     1
 90
        2
176
     1
 90
        1
176
     1
 90
        2
176
     1
 40
0.6
176
     1
 40
30.0
176
     1
 62
     7
176
     1
 90
        0
176
     1
 90
        4
176
     1
 62
     7
176
     1
 62
   257
176
     1
 90
        1
176
     1
 90
        1
176
     1
 40
1.0
176
     1
 90
        8
176
     1
 62
   257
176
     1
 40
1.0
176
     1
 90
        1
176
     1
 90
        6
176
     1
 90
        2
176
     1
 62
     8
176
     1
 90
        3
176
     1
 90
        0
176
     1
 90
        0
176
     1
290
     0
176
     1
 90
        5
176
     1
 40
0.0
176
     1
 90
        0
176
     1
290
     0
176
     1
290
     1
176
     1
290
     1
176
     1
290
     0
176
     1
290
     0
176
     1
290
     0
176
     1
290
     0
176
     1
290
     0
176
     1
290
     0
176
     1
 90
       50
176
     1
 40
0.0
176
     1
 40
1.0
176
     1
 90
        0
176
     1
 62
    18
420
        0
176
     1
 90
       50
176
     1
 90
        3
176
     1
 62
     5
420
      255
176
     1
290
     0
176
     1
 90
       50
176
     1
 90
       50
176
     1
 90
       50
176
     1
290
     0
176
     1
 90
       50
176
     1
 62
   256
176
     0
 40
1.0
176
     0
 90
        2
176
     1
  1
strokes_ogs.tif
176
     1
290
     0
176
     1
 40
1.0
176
     1
 40
1.0
176
     1
  0
VISUALSTYLE
  5
BD4
102
{ACAD_REACTORS
330
2F
102
}
330
2F
100
AcDbVisualStyle
  2
Shaded with edges
 70
    26
177
     3
291
     0
 70
    58
 90
        2
176
     1
 90
        2
176
     1
 90
        1
176
     1
 90
        2
176
     1
 40
0.6
176
     1
 40
30.0
176
     1
 62
     7
176
     1
 90
        1
176
     1
 90
       10
176
     1
 62
     7
176
     1
 62
   257
176
     1
 90
        2
176
     1
 90
        1
176
     1
 40
1.0
176
     1
 90
        8
176
     1
 62
   257
176
     1
 40
1.0
176
     1
 90
        1
176
     1
 90
        6
176
     1
 90
        2
176
     1
 62
     7
176
     1
 90
        3
176
     1
 90
        0
176
     1
 90
        0
176
     1
290
     0
176
     1
 90
        5
176
     1
 40
0.0
176
     1
 90
        0
176
     1
290
     0
176
     1
290
     1
176
     1
290
     1
176
     1
290
     0
176
     1
290
     0
176
     1
290
     0
176
     1
290
     0
176
     1
290
     0
176
     1
290
     0
176
     1
 90
       50
176
     1
 40
0.0
176
     1
 40
1.0
176
     1
 90
        0
176
     1
 62
    18
420
        0
176
     1
 90
       50
176
     1
 90
        3
176
     1
 62
     5
420
      255
176
     1
290
     0
176
     1
 90
       50
176
     1
 90
       50
176
     1
 90
       50
176
     1
290
     0
176
     1
 90
       50
176
     1
 62
   256
176
     0
 40
1.0
176
     0
 90
        2
176
     1
  1
strokes_ogs.tif
176
     1
290
     0
176
     1
 40
1.0
176
     1
 40
1.0
176
     1
  0
VISUALSTYLE
  5
BD1
102
{ACAD_REACTORS
330
2F
102
}
330
2F
100
AcDbVisualStyle
  2
Shades of Gray
 70
    23
177
     3
291
     0
 70
    58
 90
        2
176
     1
 90
        2
176
     1
 90
        3
176
     1
 90
        0
176
     1
 40
0.6
176
     1
 40
30.0
176
     1
 62
     7
176
     1
 90
        2
176
     1
 90
        2
176
     1
 62
     7
176
     1
 62
     7
176
     1
 90
        1
176
     1
 90
        1
176
     1
 40
40.0
176
     1
 90
        8
176
     1
 62
     7
176
     1
 40
1.0
176
     1
 90
        1
176
     1
 90
        6
176
     1
 90
        2
176
     1
 62
     7
176
     1
 90
        3
176
     1
 90
        0
176
     1
 90
        0
176
     1
290
     0
176
     1
 90
        1
176
     1
 40
0.0
176
     1
 90
        0
176
     1
290
     0
176
     1
290
     1
176
     1
290
     1
176
     1
290
     0
176
     1
290
     0
176
     1
290
     0
176
     1
290
     0
176
     1
290
     0
176
     1
290
     0
176
     1
 90
       50
176
     1
 40
0.0
176
     1
 40
1.0
176
     1
 90
        0
176
     1
 62
    18
420
        0
176
     1
 90
       50
176
     1
 90
        3
176
     1
 62
     5
420
      255
176
     1
290
     0
176
     1
 90
       50
176
     1
 90
       50
176
     1
 90
       50
176
     1
290
     0
176
     1
 90
       50
176
     1
 62
   256
176
     0
 40
1.0
176
     0
 90
        2
176
     1
  1
strokes_ogs.tif
176
     1
290
     0
176
     1
 40
1.0
176
     1
 40
1.0
176
     1
  0
VISUALSTYLE
  5
BD2
102
{ACAD_REACTORS
330
2F
102
}
330
2F
100
AcDbVisualStyle
  2
Sketchy
 70
    24
177
     3
291
     0
 70
    58
 90
        1
176
     1
 90
        2
176
     1
 90
        2
176
     1
 90
        0
176
     1
 40
0.6
176
     1
 40
30.0
176
     1
 62
     7
176
     1
 90
        2
176
     1
 90
        2
176
     1
 62
     7
176
     1
 62
     7
176
     1
 90
        1
176
     1
 90
        1
176
     1
 40
40.0
176
     1
 90
       11
176
     1
 62
     7
176
     1
 40
1.0
176
     1
 90
        1
176
     1
 90
        6
176
     1
 90
        2
176
     1
 62
     7
176
     1
 90
        6
176
     1
 90
        0
176
     1
 90
        0
176
     1
290
     0
176
     1
 90
        1
176
     1
 40
0.0
176
     1
 90
        0
176
     1
290
     0
176
     1
290
     1
176
     1
290
     1
176
     1
290
     0
176
     1
290
     0
176
     1
290
     0
176
     1
290
     0
176
     1
290
     0
176
     1
290
     0
176
     1
 90
       50
176
     1
 40
0.0
176
     1
 40
1.0
176
     1
 90
        0
176
     1
 62
    18
420
        0
176
     1
 90
       50
176
     1
 90
        3
176
     1
 62
     5
420
      255
176
     1
290
     0
176
     1
 90
       50
176
     1
 90
       50
176
     1
 90
       50
176
     1
290
     0
176
     1
 90
       50
176
     1
 62
   256
176
     0
 40
1.0
176
     0
 90
        2
176
     1
  1
strokes_ogs.tif
176
     1
290
     0
176
     1
 40
1.0
176
     1
 40
1.0
176
     1
  0
VISUALSTYLE
  5
BCD
102
{ACAD_REACTORS
330
2F
102
}
330
2F
100
AcDbVisualStyle
  2
Thicken
 70
    13
177
     3
291
     1
 70
    58
 90
        2
176
     1
 90
        2
176
     1
 90
        0
176
     1
 90
        0
176
     1
 40
0.6
176
     1
 40
30.0
176
     1
 62
     7
176
     1
 90
        1
176
     1
 90
        4
176
     1
 62
     7
176
     1
 62
   257
176
     1
 90
        1
176
     1
 90
        1
176
     1
 40
1.0
176
     1
 90
       12
176
     1
 62
     7
176
     1
 40
1.0
176
     1
 90
        1
176
     1
 90
        6
176
     1
 90
        2
176
     1
 62
     7
176
     1
 90
        5
176
     1
 90
        0
176
     1
 90
        0
176
     1
290
     0
176
     1
 90
        1
176
     1
 40
0.0
176
     1
 90
        0
176
     1
290
     0
176
     1
290
     1
176
     1
290
     1
176
     1
290
     0
176
     1
290
     0
176
     1
290
     0
176
     1
290
     0
176
     1
290
     0
176
     1
290
     0
176
     1
 90
       50
176
     1
 40
0.0
176
     1
 40
1.0
176
     1
 90
        0
176
     1
 62
    18
420
        0
176
     1
 90
       50
176
     1
 90
        3
176
     1
 62
     5
420
      255
176
     1
290
     0
176
     1
 90
       50
176
     1
 90
       50
176
     1
 90
       50
176
     1
290
     0
176
     1
 90
       50
176
     1
 62
   256
176
     0
 40
1.0
176
     0
 90
        2
176
     1
  1
strokes_ogs.tif
176
     1
290
     0
176
     1
 40
1.0
176
     1
 40
1.0
176
     1
  0
VISUALSTYLE
  5
BC8
102
{ACAD_REACTORS
330
2F
102
}
330
2F
100
AcDbVisualStyle
  2
Wireframe
 70
     5
177
     3
291
     0
 70
    58
 90
        0
176
     1
 90
        2
176
     1
 90
        0
176
     1
 90
        0
176
     1
 40
0.6
176
     1
 40
30.0
176
     1
 62
     7
176
     1
 90
        1
176
     1
 90
        4
176
     1
 62
     7
176
     1
 62
   257
176
     1
 90
        1
176
     1
 90
        1
176
     1
 40
1.0
176
     1
 90
        0
176
     1
 62
   257
176
     1
 40
1.0
176
     1
 90
        1
176
     1
 90
        6
176
     1
 90
        2
176
     1
 62
     7
176
     1
 90
        3
176
     1
 90
        0
176
     1
 90
        0
176
     1
290
     0
176
     1
 90
        1
176
     1
 40
0.0
176
     1
 90
        0
176
     1
290
     0
176
     1
290
     1
176
     1
290
     1
176
     1
290
     0
176
     1
290
     0
176
     1
290
     0
176
     1
290
     0
176
     1
290
     0
176
     1
290
     0
176
     1
 90
       50
176
     1
 40
0.0
176
     1
 40
1.0
176
     1
 90
        0
176
     1
 62
    18
420
        0
176
     1
 90
       50
176
     1
 90
        3
176
     1
 62
     5
420
      255
176
     1
290
     0
176
     1
 90
       50
176
     1
 90
       50
176
     1
 90
       50
176
     1
290
     0
176
     1
 90
       50
176
     1
 62
   256
176
     0
 40
1.0
176
     0
 90
        2
176
     1
  1
strokes_ogs.tif
176
     1
290
     0
176
     1
 40
1.0
176
     1
 40
1.0
176
     1
  0
VISUALSTYLE
  5
BD3
102
{ACAD_REACTORS
330
2F
102
}
330
2F
100
AcDbVisualStyle
  2
X-Ray
 70
    25
177
     3
291
     0
 70
    58
 90
        2
176
     1
 90
        2
176
     1
 90
        1
176
     1
 90
        1
176
     1
 40
0.5
176
     1
 40
30.0
176
     1
 62
     7
176
     1
 90
        1
176
     1
 90
        0
176
     1
 62
     7
176
     1
 62
   257
176
     1
 90
        1
176
     1
 90
        1
176
     1
 40
1.0
176
     1
 90
        8
176
     1
 62
     7
176
     1
 40
1.0
176
     1
 90
        1
176
     1
 90
        6
176
     1
 90
        2
176
     1
 62
     7
176
     1
 90
        3
176
     1
 90
        0
176
     1
 90
        0
176
     1
290
     0
176
     1
 90
       13
176
     1
 40
0.0
176
     1
 90
        0
176
     1
290
     0
176
     1
290
     1
176
     1
290
     1
176
     1
290
     0
176
     1
290
     0
176
     1
290
     0
176
     1
290
     0
176
     1
290
     0
176
     1
290
     0
176
     1
 90
       50
176
     1
 40
0.0
176
     1
 40
1.0
176
     1
 90
        0
176
     1
 62
    18
420
        0
176
     1
 90
       50
176
     1
 90
        3
176
     1
 62
     5
420
      255
176
     1
290
     0
176
     1
 90
       50
176
     1
 90
       50
176
     1
 90
       50
176
     1
290
     0
176
     1
 90
       50
176
     1
 62
   256
176
     0
 40
1.0
176
     0
 90
        2
176
     1
  1
strokes_ogs.tif
176
     1
290
     0
176
     1
 40
1.0
176
     1
 40
1.0
176
     1
  0
DICTIONARYVAR
  5
BBE
102
{ACAD_REACTORS
330
BB8
102
}
330
BB8
100
DictionaryVariables
280
     0
  1
1:1
  0
DICTIONARYVAR
  5
BBA
102
{ACAD_REACTORS
330
BB8
102
}
330
BB8
100
DictionaryVariables
280
     0
  1
STANDARD
  0
DICTIONARYVAR
  5
BB9
102
{ACAD_REACTORS
330
BB8
102
}
330
BB8
100
DictionaryVariables
280
     0
  1
STANDARD
  0
DICTIONARYVAR
  5
BBB
102
{ACAD_REACTORS
330
BB8
102
}
330
BB8
100
DictionaryVariables
280
     0
  1
Metric50
  0
DICTIONARYVAR
  5
BBC
102
{ACAD_REACTORS
330
BB8
102
}
330
BB8
100
DictionaryVariables
280
     0
  1
Metric50
  0
DICTIONARYVAR
  5
C3B
102
{ACAD_REACTORS
330
BB8
102
}
330
BB8
100
DictionaryVariables
280
     0
  1
1
  0
DICTIONARYVAR
  5
C39
102
{ACAD_REACTORS
330
BB8
102
}
330
BB8
100
DictionaryVariables
280
     0
  1
1
  0
DICTIONARYVAR
  5
FF3
102
{ACAD_REACTORS
330
BB8
102
}
330
BB8
100
DictionaryVariables
280
     0
  1
4
  0
DICTIONARYVAR
  5
C38
102
{ACAD_REACTORS
330
BB8
102
}
330
BB8
100
DictionaryVariables
280
     0
  1
0
  0
DICTIONARYVAR
  5
BC0
102
{ACAD_REACTORS
330
BB8
102
}
330
BB8
100
DictionaryVariables
280
     0
  1
1
  0
DICTIONARYVAR
  5
BC1
102
{ACAD_REACTORS
330
BB8
102
}
330
BB8
100
DictionaryVariables
280
     0
  1
15
  0
DICTIONARYVAR
  5
BBF
102
{ACAD_REACTORS
330
BB8
102
}
330
BB8
100
DictionaryVariables
280
     0
  1
0
  0
DICTIONARYVAR
  5
BBD
102
{ACAD_REACTORS
330
BB8
102
}
330
BB8
100
DictionaryVariables
280
     0
  1
0
  0
DICTIONARYVAR
  5
C3C
102
{ACAD_REACTORS
330
BB8
102
}
330
BB8
100
DictionaryVariables
280
     0
  1
1
  0
DICTIONARYVAR
  5
C37
102
{ACAD_REACTORS
330
BB8
102
}
330
BB8
100
DictionaryVariables
280
     0
  1
127
  0
DICTIONARY
  5
41DCA
330
283CD
100
AcDbDictionary
280
     1
281
     1
  3
ACAD_XREC_ROUNDTRIP
360
41DCB
  0
DICTIONARY
  5
41DC6
330
BDD
100
AcDbDictionary
280
     1
281
     1
  3
ACAD_XREC_ROUNDTRIP
360
41DC7
  0
DICTIONARY
  5
18
330
16
100
AcDbDictionary
280
     1
281
     1
  0
DICTIONARY
  5
1F
330
1E
100
AcDbDictionary
280
     1
281
     1
  0
DICTIONARY
  5
E
330
C
100
AcDbDictionary
280
     1
281
     1
  3
BUMPTILE
360
F
  3
DIFFUSETILE
360
10
  3
OPACITYTILE
360
11
  3
REFLECTIONTILE
360
12
  0
DICTIONARY
  5
41DC8
330
283CC
100
AcDbDictionary
280
     1
281
     1
  3
ACAD_XREC_ROUNDTRIP
360
41DC9
  0
DICTIONARY
  5
41DC4
330
BDB
100
AcDbDictionary
280
     1
281
     1
  3
ACAD_XREC_ROUNDTRIP
360
41DC5
  0
DICTIONARY
  5
45
330
44
100
AcDbDictionary
280
     1
281
     1
  3
ACAD_ROUNDTRIP_2008_TABLESTYLE_CELLSTYLEMAP
360
41DC3
  0
XRECORD
  5
41DCB
102
{ACAD_REACTORS
330
41DCA
102
}
330
41DCA
100
AcDbXrecord
280
     1
102
DISPLAYNAME
  1
Imperial24
102
FLAGS
 90
        0
  0
XRECORD
  5
41DC7
102
{ACAD_REACTORS
330
41DC6
102
}
330
41DC6
100
AcDbXrecord
280
     1
102
DISPLAYNAME
  1
Metric50
102
FLAGS
 90
        0
  0
XRECORD
  5
F
102
{ACAD_REACTORS
330
E
102
}
330
E
100
AcDbXrecord
280
     1
270
     1
271
     1
  0
XRECORD
  5
10
102
{ACAD_REACTORS
330
E
102
}
330
E
100
AcDbXrecord
280
     1
270
     1
271
     1
  0
XRECORD
  5
11
102
{ACAD_REACTORS
330
E
102
}
330
E
100
AcDbXrecord
280
     1
270
     1
271
     1
  0
XRECORD
  5
12
102
{ACAD_REACTORS
330
E
102
}
330
E
100
AcDbXrecord
280
     1
270
     1
271
     1
  0
XRECORD
  5
41DC9
102
{ACAD_REACTORS
330
41DC8
102
}
330
41DC8
100
AcDbXrecord
280
     1
102
DISPLAYNAME
  1
Imperial24
102
FLAGS
 90
        0
  0
XRECORD
  5
41DC5
102
{ACAD_REACTORS
330
41DC4
102
}
330
41DC4
100
AcDbXrecord
280
     1
102
DISPLAYNAME
  1
Metric50
102
FLAGS
 90
        0
  0
CELLSTYLEMAP
  5
41DC3
102
{ACAD_REACTORS
330
45
102
}
330
45
100
AcDbCellStyleMap
 90
        3
300
CELLSTYLE
  1
TABLEFORMAT_BEGIN
 90
        5
170
     1
 91
        0
 92
    32768
 62
   257
 93
        1
300
CONTENTFORMAT
  1
CONTENTFORMAT_BEGIN
 90
        0
 91
        0
 92
      512
 93
        0
300

 40
0.0
140
1.0
 94
        5
 62
     0
340
25
144
6.0
309
CONTENTFORMAT_END
171
     1
301
MARGIN
  1
CELLMARGIN_BEGIN
 40
1.5
 40
1.5
 40
1.5
 40
1.5
 40
0.18
 40
0.18
309
CELLMARGIN_END
 94
        6
 95
        1
302
GRIDFORMAT
  1
GRIDFORMAT_BEGIN
 90
        0
 91
        1
 62
     0
 92
       -2
340
28
 93
        0
 40
1.125
309
GRIDFORMAT_END
 95
        2
302
GRIDFORMAT
  1
GRIDFORMAT_BEGIN
 90
        0
 91
        1
 62
     0
 92
       -2
340
28
 93
        0
 40
1.125
309
GRIDFORMAT_END
 95
        4
302
GRIDFORMAT
  1
GRIDFORMAT_BEGIN
 90
        0
 91
        1
 62
     0
 92
       -2
340
28
 93
        0
 40
1.125
309
GRIDFORMAT_END
 95
        8
302
GRIDFORMAT
  1
GRIDFORMAT_BEGIN
 90
        0
 91
        1
 62
     0
 92
       -2
340
28
 93
        0
 40
1.125
309
GRIDFORMAT_END
 95
       16
302
GRIDFORMAT
  1
GRIDFORMAT_BEGIN
 90
        0
 91
        1
 62
     0
 92
       -2
340
28
 93
        0
 40
1.125
309
GRIDFORMAT_END
 95
       32
302
GRIDFORMAT
  1
GRIDFORMAT_BEGIN
 90
        0
 91
        1
 62
     0
 92
       -2
340
28
 93
        0
 40
1.125
309
GRIDFORMAT_END
309
TABLEFORMAT_END
  1
CELLSTYLE_BEGIN
 90
        1
 91
        1
300
_TITLE
309
CELLSTYLE_END
300
CELLSTYLE
  1
TABLEFORMAT_BEGIN
 90
        5
170
     1
 91
        0
 92
        0
 62
   257
 93
        1
300
CONTENTFORMAT
  1
CONTENTFORMAT_BEGIN
 90
        0
 91
        0
 92
      512
 93
        0
300

 40
0.0
140
1.0
 94
        5
 62
     0
340
25
144
4.5
309
CONTENTFORMAT_END
171
     1
301
MARGIN
  1
CELLMARGIN_BEGIN
 40
1.5
 40
1.5
 40
1.5
 40
1.5
 40
0.18
 40
0.18
309
CELLMARGIN_END
 94
        6
 95
        1
302
GRIDFORMAT
  1
GRIDFORMAT_BEGIN
 90
        0
 91
        1
 62
     0
 92
       -2
340
28
 93
        0
 40
1.125
309
GRIDFORMAT_END
 95
        2
302
GRIDFORMAT
  1
GRIDFORMAT_BEGIN
 90
        0
 91
        1
 62
     0
 92
       -2
340
28
 93
        0
 40
1.125
309
GRIDFORMAT_END
 95
        4
302
GRIDFORMAT
  1
GRIDFORMAT_BEGIN
 90
        0
 91
        1
 62
     0
 92
       -2
340
28
 93
        0
 40
1.125
309
GRIDFORMAT_END
 95
        8
302
GRIDFORMAT
  1
GRIDFORMAT_BEGIN
 90
        0
 91
        1
 62
     0
 92
       -2
340
28
 93
        0
 40
1.125
309
GRIDFORMAT_END
 95
       16
302
GRIDFORMAT
  1
GRIDFORMAT_BEGIN
 90
        0
 91
        1
 62
     0
 92
       -2
340
28
 93
        0
 40
1.125
309
GRIDFORMAT_END
 95
       32
302
GRIDFORMAT
  1
GRIDFORMAT_BEGIN
 90
        0
 91
        1
 62
     0
 92
       -2
340
28
 93
        0
 40
1.125
309
GRIDFORMAT_END
309
TABLEFORMAT_END
  1
CELLSTYLE_BEGIN
 90
        2
 91
        1
300
_HEADER
309
CELLSTYLE_END
300
CELLSTYLE
  1
TABLEFORMAT_BEGIN
 90
        5
170
     1
 91
        0
 92
        0
 62
   257
 93
        1
300
CONTENTFORMAT
  1
CONTENTFORMAT_BEGIN
 90
        0
 91
        0
 92
      512
 93
        0
300

 40
0.0
140
1.0
 94
        2
 62
     0
340
25
144
4.5
309
CONTENTFORMAT_END
171
     1
301
MARGIN
  1
CELLMARGIN_BEGIN
 40
1.5
 40
1.5
 40
1.5
 40
1.5
 40
0.18
 40
0.18
309
CELLMARGIN_END
 94
        6
 95
        1
302
GRIDFORMAT
  1
GRIDFORMAT_BEGIN
 90
        0
 91
        1
 62
     0
 92
       -2
340
28
 93
        0
 40
1.125
309
GRIDFORMAT_END
 95
        2
302
GRIDFORMAT
  1
GRIDFORMAT_BEGIN
 90
        0
 91
        1
 62
     0
 92
       -2
340
28
 93
        0
 40
1.125
309
GRIDFORMAT_END
 95
        4
302
GRIDFORMAT
  1
GRIDFORMAT_BEGIN
 90
        0
 91
        1
 62
     0
 92
       -2
340
28
 93
        0
 40
1.125
309
GRIDFORMAT_END
 95
        8
302
GRIDFORMAT
  1
GRIDFORMAT_BEGIN
 90
        0
 91
        1
 62
     0
 92
       -2
340
28
 93
        0
 40
1.125
309
GRIDFORMAT_END
 95
       16
302
GRIDFORMAT
  1
GRIDFORMAT_BEGIN
 90
        0
 91
        1
 62
     0
 92
       -2
340
28
 93
        0
 40
1.125
309
GRIDFORMAT_END
 95
       32
302
GRIDFORMAT
  1
GRIDFORMAT_BEGIN
 90
        0
 91
        1
 62
     0
 92
       -2
340
28
 93
        0
 40
1.125
309
GRIDFORMAT_END
309
TABLEFORMAT_END
  1
CELLSTYLE_BEGIN
 90
        3
 91
        2
300
_DATA
309
CELLSTYLE_END
  0
ENDSEC
  0
SECTION
  2
ACDSDATA
 70
     2
 71
     6
  0
ACDSSCHEMA
 90
        0
  1
AcDb_Thumbnail_Schema
  2
AcDbDs::ID
280
    10
 91
        8
  2
Thumbnail_Data
280
    15
 91
        0
101
ACDSRECORD
 95
        0
 90
        1
  2
AcDbDs::TreatedAsObjectData
280
     1
291
     1
101
ACDSRECORD
 95
        0
 90
        2
  2
AcDbDs::Legacy
280
     1
291
     1
101
ACDSRECORD
  1
AcDbDs::ID
 90
        3
  2
AcDs:Indexable
280
     1
291
     1
101
ACDSRECORD
  1
AcDbDs::ID
 90
        4
  2
AcDbDs::HandleAttribute
280
     7
282
     1
  0
ACDSSCHEMA
 90
        1
  1
AcDbDs::TreatedAsObjectDataSchema
  2
AcDbDs::TreatedAsObjectData
280
     1
 91
        0
  0
ACDSSCHEMA
 90
        2
  1
AcDbDs::LegacySchema
  2
AcDbDs::Legacy
280
     1
 91
        0
  0
ACDSSCHEMA
 90
        3
  1
AcDbDs::IndexedPropertySchema
  2
AcDs:Indexable
280
     1
 91
        0
  0
ACDSSCHEMA
 90
        4
  1
AcDbDs::HandleAttributeSchema
  2
AcDbDs::HandleAttribute
280
     7
 91
        1
284
     1
  0
ACDSRECORD
 90
        0
  2
AcDbDs::ID
280
    10
320
16
  2
Thumbnail_Data
280
    15
 94
     1727
310
89504E470D0A1A0A0000000D49484452000001000000007508030000009634CF9200000300504C5445000000000000C8C8C80000000000000000000000000000000000000000000000000000330000660000990000CC0000FF0033000033330033660033990033CC0033FF0066000066330066660066990066CC0066FF0099
310
000099330099660099990099CC0099FF00CC0000CC3300CC6600CC9900CCCC00CCFF00FF0000FF3300FF6600FF9900FFCC00FFFF3300003300333300663300993300CC3300FF3333003333333333663333993333CC3333FF3366003366333366663366993366CC3366FF3399003399333399663399993399CC3399FF33CC00
310
33CC3333CC6633CC9933CCCC33CCFF33FF0033FF3333FF6633FF9933FFCC33FFFF6600006600336600666600996600CC6600FF6633006633336633666633996633CC6633FF6666006666336666666666996666CC6666FF6699006699336699666699996699CC6699FF66CC0066CC3366CC6666CC9966CCCC66CCFF66FF0066
310
FF3366FF6666FF9966FFCC66FFFF9900009900339900669900999900CC9900FF9933009933339933669933999933CC9933FF9966009966339966669966999966CC9966FF9999009999339999669999999999CC9999FF99CC0099CC3399CC6699CC9999CCCC99CCFF99FF0099FF3399FF6699FF9999FFCC99FFFFCC0000CC00
310
33CC0066CC0099CC00CCCC00FFCC3300CC3333CC3366CC3399CC33CCCC33FFCC6600CC6633CC6666CC6699CC66CCCC66FFCC9900CC9933CC9966CC9999CC99CCCC99FFCCCC00CCCC33CCCC66CCCC99CCCCCCCCCCFFCCFF00CCFF33CCFF66CCFF99CCFFCCCCFFFFFF0000FF0033FF0066FF0099FF00CCFF00FFFF3300FF3333
310
FF3366FF3399FF33CCFF33FFFF6600FF6633FF6666FF6699FF66CCFF66FFFF9900FF9933FF9966FF9999FF99CCFF99FFFFCC00FFCC33FFCC66FFCC99FFCCCCFFCCFFFFFF00FFFF33FFFF66FFFF99FFFFCCFFFFFF0000000D0D0D1A1A1A2828283535354343435050505D5D5D6B6B6B787878868686939393A1A1A1AEAEAEBB
310
BBBBC9C9C9D6D6D6E4E4E4F1F1F1FFFFFF00000000000000000000000000000000000000000000000000000000000008F1915C0000037A4944415478DAEDDD5D7AEA20100660963337ECCC25B38DB96FF80D1034408D40F2717ADA471BFB382FC34042B5425CD3F8CBC7D51F3849AB06E0C500B8D094E2AAF6EDE3B878DC80
310
9E55AAEEB1DF3E4EA80199C277197B0000000000000000000000000000001ADA769E363D40F5A9140000801A0000000000000000000000000000D4FE749E1FE0E2A788210080AB4EB4C577CE63570120CA0174FB7CCCCD002A1ADF19E06B07016009007A32004BF7EB4BD2AC53243F0D40474C16627BB814F28919A03FB6D0
310
75163C3003B60F329F85E9FF4700E858D977FD768B6CF0D2392C0B70BE33B4653A4B1BB68B58469DEF602E0518BC351622E5C821895F7F4F32499F1FBCA74AF86A4A2777AD0C470370883FA4C421FEF47691C88C13491D19317A6F30742367B34016277D8CDF24C196261D2747A38B60E8784EEF6216491D343D7C083DFEEA
310
CB656B064C0B90C4ADB3FB7DFC9E20AE02CB03A4F18BB8E4BDAF8659F62F3F04A2BC8FBECD6FE740CEB27FF12140BA34BA6A28CF01B670EF05C0F64E177F3B80526A0900F7C21DDE57FC2900DBFEAF0010D1C2472D03E08F3261D9D540066027F93600B526006F21F03103CCFF1A003121C0D9BE53C5955EF38FF629BEB0E6
310
97527F6C66D401C0D7C6CF557DE0673E0AB990A6C7D919955931F602F0C80C4801985C394C1ED6092066C880AA21B6F77818F8A213C0CFFC0B15C1F4F5ABE4BB24EE970E80B516425CCCC9F8D5BDF50021E675000E4568BFED0BC2BD01CA55897A017CD08B0330B972D80EE0425F1CC05ED16807C8AE873E3303A2B01F5403
310
D800501A362D0CE0E707DE3F7F68FA74B9B42FB032805B0F72D36295EA337FB6952027B3FF7E76640B02B50134098CDE1BA422852E827BF25F0B30786B8CCA7D421C17C156801681D15B636500BF0E60777180DA0194F955CAD0A6AD0165806C1DD00CA0055DE02B02D82B23ECAF93DA75C11E4EDD0F533B80580CA0B4C9ED
310
3BB41E609569B01240D4C47F6B80C61A0000000000002B00145EF792577AD5F0BE8A2793C4A400EA04A03A2825E60338DB782B3DE37E80BE0CC0EB060500000000000000000000000000701F00AE6F370538DCF3CADA6F9EE0B07794E424174242BC8EFD7ED3B7D4E4E258103F07183F041280D7ABB01BFFA42218033CAE08
310
3E6D1A04405C89F30600AC0451045104EF0E10C6BA7ADF008021F00B80E9DB80EE299D7FD5FE5DC2D21356B57F47508939DABF00C460803F6C5761C7E576F0680000000049454E44AE426082
  0
ACDSRECORD
 90
        0
  2
AcDbDs::ID
280
    10
320
1E
  2
Thumbnail_Data
280
    15
 94
      882
310
89504E470D0A1A0A0000000D49484452000000B80000007F08030000006B00F8F900000300504C5445FFFFFF000000C8C8C80000000000000000000000000000000000000000000000000000330000660000990000CC0000FF0033000033330033660033990033CC0033FF0066000066330066660066990066CC0066FF0099
310
000099330099660099990099CC0099FF00CC0000CC3300CC6600CC9900CCCC00CCFF00FF0000FF3300FF6600FF9900FFCC00FFFF3300003300333300663300993300CC3300FF3333003333333333663333993333CC3333FF3366003366333366663366993366CC3366FF3399003399333399663399993399CC3399FF33CC00
310
33CC3333CC6633CC9933CCCC33CCFF33FF0033FF3333FF6633FF9933FFCC33FFFF6600006600336600666600996600CC6600FF6633006633336633666633996633CC6633FF6666006666336666666666996666CC6666FF6699006699336699666699996699CC6699FF66CC0066CC3366CC6666CC9966CCCC66CCFF66FF0066
310
FF3366FF6666FF9966FFCC66FFFF9900009900339900669900999900CC9900FF9933009933339933669933999933CC9933FF9966009966339966669966999966CC9966FF9999009999339999669999999999CC9999FF99CC0099CC3399CC6699CC9999CCCC99CCFF99FF0099FF3399FF6699FF9999FFCC99FFFFCC0000CC00
310
33CC0066CC0099CC00CCCC00FFCC3300CC3333CC3366CC3399CC33CCCC33FFCC6600CC6633CC6666CC6699CC66CCCC66FFCC9900CC9933CC9966CC9999CC99CCCC99FFCCCC00CCCC33CCCC66CCCC99CCCCCCCCCCFFCCFF00CCFF33CCFF66CCFF99CCFFCCCCFFFFFF0000FF0033FF0066FF0099FF00CCFF00FFFF3300FF3333
310
FF3366FF3399FF33CCFF33FFFF6600FF6633FF6666FF6699FF66CCFF66FFFF9900FF9933FF9966FF9999FF99CCFF99FFFFCC00FFCC33FFCC66FFCC99FFCCCCFFCCFFFFFF00FFFF33FFFF66FFFF99FFFFCCFFFFFF0000000D0D0D1A1A1A2828283535354343435050505D5D5D6B6B6B787878868686939393A1A1A1AEAEAEBB
310
BBBBC9C9C9D6D6D6E4E4E4F1F1F1FFFFFF000000000000000000000000000000000000000000000000000000000000B0E2D2350000002D4944415478DAEDC13101000000C2A0F54FED6F06A00000000000000000000000000000000000000000000080335BC70001E79522D80000000049454E44AE426082
  0
ENDSEC
  0
EOF
