  0
SECTION
  2
HEADER
  9
$ACADVER
  1
AC1027
  9
$ACADMAINTVER
 70
    55
  9
$DWGCODEPAGE
  3
ANSI_949
  9
$LASTSAVEDBY
  1
DESKTOP
  9
$REQUIREDVERSIONS
160
                 0
  9
$INSBASE
 10
0.0
 20
0.0
 30
0.0
  9
$EXTMIN
 10
-4.283775555476154
 20
-4.293954097465871
 30
-0.0000000000000087
  9
$EXTMAX
 10
355.3017911709587
 20
249.2438652366386
 30
0.0000000000000066
  9
$LIMMIN
 10
0.0
 20
0.0
  9
$LIMMAX
 10
420.0
 20
297.0
  9
$ORTHOMODE
 70
     0
  9
$REGENMODE
 70
     1
  9
$FILLMODE
 70
     1
  9
$QTEXTMODE
 70
     0
  9
$MIRRTEXT
 70
     0
  9
$LTSCALE
 40
5.0
  9
$ATTMODE
 70
     1
  9
$TEXTSIZE
 40
3.0
  9
$TRACEWID
 40
1.0
  9
$TEXTSTYLE
  7
Standard
  9
$CLAYER
  8
0
  9
$CELTYPE
  6
Continuous
  9
$CECOLOR
 62
     7
  9
$CELTSCALE
 40
1.0
  9
$DISPSILH
 70
     0
  9
$DIMSCALE
 40
1.0
  9
$DIMASZ
 40
2.5
  9
$DIMEXO
 40
0.625
  9
$DIMDLI
 40
3.75
  9
$DIMRND
 40
0.0
  9
$DIMDLE
 40
0.0
  9
$DIMEXE
 40
1.25
  9
$DIMTP
 40
0.0
  9
$DIMTM
 40
0.000000001
  9
$DIMTXT
 40
3.0
  9
$DIMCEN
 40
-0.5
  9
$DIMTSZ
 40
0.0
  9
$DIMTOL
 70
     0
  9
$DIMLIM
 70
     0
  9
$DIMTIH
 70
     0
  9
$DIMTOH
 70
     0
  9
$DIMSE1
 70
     0
  9
$DIMSE2
 70
     0
  9
$DIMTAD
 70
     1
  9
$DIMZIN
 70
     8
  9
$DIMBLK
  1

  9
$DIMASO
 70
     1
  9
$DIMSHO
 70
     1
  9
$DIMPOST
  1

  9
$DIMAPOST
  1

  9
$DIMALT
 70
     0
  9
$DIMALTD
 70
     3
  9
$DIMALTF
 40
0.03937007874016
  9
$DIMLFAC
 40
1.0
  9
$DIMTOFL
 70
     1
  9
$DIMTVP
 40
0.0
  9
$DIMTIX
 70
     0
  9
$DIMSOXD
 70
     0
  9
$DIMSAH
 70
     0
  9
$DIMBLK1
  1

  9
$DIMBLK2
  1

  9
$DIMSTYLE
  2
Standard
  9
$DIMCLRD
 70
     3
  9
$DIMCLRE
 70
     3
  9
$DIMCLRT
 70
     2
  9
$DIMTFAC
 40
0.7
  9
$DIMGAP
 40
0.625
  9
$DIMJUST
 70
     0
  9
$DIMSD1
 70
     0
  9
$DIMSD2
 70
     0
  9
$DIMTOLJ
 70
     0
  9
$DIMTZIN
 70
     8
  9
$DIMALTZ
 70
     0
  9
$DIMALTTZ
 70
     0
  9
$DIMUPT
 70
     0
  9
$DIMDEC
 70
     8
  9
$DIMTDEC
 70
     8
  9
$DIMALTU
 70
     2
  9
$DIMALTTD
 70
     3
  9
$DIMTXSTY
  7
Standard
  9
$DIMAUNIT
 70
     1
  9
$DIMADEC
 70
     0
  9
$DIMALTRND
 40
0.0
  9
$DIMAZIN
 70
     0
  9
$DIMDSEP
 70
    46
  9
$DIMATFIT
 70
     3
  9
$DIMFRAC
 70
     0
  9
$DIMLDRBLK
  1

  9
$DIMLUNIT
 70
     2
  9
$DIMLWD
 70
    -1
  9
$DIMLWE
 70
    -1
  9
$DIMTMOVE
 70
     0
  9
$DIMFXL
 40
1.0
  9
$DIMFXLON
 70
     0
  9
$DIMJOGANG
 40
0.7853981633974483
  9
$DIMTFILL
 70
     0
  9
$DIMTFILLCLR
 70
     0
  9
$DIMARCSYM
 70
     1
  9
$DIMLTYPE
  6

  9
$DIMLTEX1
  6

  9
$DIMLTEX2
  6

  9
$DIMTXTDIRECTION
 70
     0
  9
$LUNITS
 70
     2
  9
$LUPREC
 70
     4
  9
$SKETCHINC
 40
0.0
  9
$FILLETRAD
 40
0.0
  9
$AUNITS
 70
     0
  9
$AUPREC
 70
     0
  9
$MENU
  1
.
  9
$ELEVATION
 40
0.0
  9
$PELEVATION
 40
0.0
  9
$THICKNESS
 40
0.0
  9
$LIMCHECK
 70
     0
  9
$CHAMFERA
 40
1.5
  9
$CHAMFERB
 40
1.5
  9
$CHAMFERC
 40
0.0
  9
$CHAMFERD
 40
0.0087266462599716
  9
$SKPOLY
 70
     0
  9
$TDCREATE
 40
2455072.745932974
  9
$TDUCREATE
 40
2455072.370932974
  9
$TDUPDATE
 40
2460908.423838623
  9
$TDUUPDATE
 40
2460908.048838623
  9
$TDINDWG
 40
131.6295190162
  9
$TDUSRTIMER
 40
131.6295188310
  9
$USRTIMER
 70
     1
  9
$ANGBASE
 50
0.0
  9
$ANGDIR
 70
     0
  9
$PDMODE
 70
     0
  9
$PDSIZE
 40
0.0
  9
$PLINEWID
 40
0.0
  9
$SPLFRAME
 70
     0
  9
$SPLINETYPE
 70
     6
  9
$SPLINESEGS
 70
     8
  9
$HANDSEED
  5
26B32
  9
$SURFTAB1
 70
     6
  9
$SURFTAB2
 70
     6
  9
$SURFTYPE
 70
     6
  9
$SURFU
 70
     6
  9
$SURFV
 70
     6
  9
$UCSBASE
  2

  9
$UCSNAME
  2

  9
$UCSORG
 10
0.0
 20
0.0
 30
0.0
  9
$UCSXDIR
 10
1.0
 20
0.0
 30
0.0
  9
$UCSYDIR
 10
0.0
 20
1.0
 30
0.0
  9
$UCSORTHOREF
  2

  9
$UCSORTHOVIEW
 70
     0
  9
$UCSORGTOP
 10
0.0
 20
0.0
 30
0.0
  9
$UCSORGBOTTOM
 10
0.0
 20
0.0
 30
0.0
  9
$UCSORGLEFT
 10
0.0
 20
0.0
 30
0.0
  9
$UCSORGRIGHT
 10
0.0
 20
0.0
 30
0.0
  9
$UCSORGFRONT
 10
0.0
 20
0.0
 30
0.0
  9
$UCSORGBACK
 10
0.0
 20
0.0
 30
0.0
  9
$PUCSBASE
  2

  9
$PUCSNAME
  2

  9
$PUCSORG
 10
0.0
 20
0.0
 30
0.0
  9
$PUCSXDIR
 10
1.0
 20
0.0
 30
0.0
  9
$PUCSYDIR
 10
0.0
 20
1.0
 30
0.0
  9
$PUCSORTHOREF
  2

  9
$PUCSORTHOVIEW
 70
     0
  9
$PUCSORGTOP
 10
0.0
 20
0.0
 30
0.0
  9
$PUCSORGBOTTOM
 10
0.0
 20
0.0
 30
0.0
  9
$PUCSORGLEFT
 10
0.0
 20
0.0
 30
0.0
  9
$PUCSORGRIGHT
 10
0.0
 20
0.0
 30
0.0
  9
$PUCSORGFRONT
 10
0.0
 20
0.0
 30
0.0
  9
$PUCSORGBACK
 10
0.0
 20
0.0
 30
0.0
  9
$USERI1
 70
     0
  9
$USERI2
 70
     0
  9
$USERI3
 70
     0
  9
$USERI4
 70
     0
  9
$USERI5
 70
     0
  9
$USERR1
 40
0.0
  9
$USERR2
 40
0.0
  9
$USERR3
 40
0.0
  9
$USERR4
 40
0.0
  9
$USERR5
 40
0.0
  9
$WORLDVIEW
 70
     1
  9
$SHADEDGE
 70
     3
  9
$SHADEDIF
 70
    70
  9
$TILEMODE
 70
     1
  9
$MAXACTVP
 70
    64
  9
$PINSBASE
 10
0.0
 20
0.0
 30
0.0
  9
$PLIMCHECK
 70
     0
  9
$PEXTMIN
 10
1.000000000000000E+20
 20
1.000000000000000E+20
 30
1.000000000000000E+20
  9
$PEXTMAX
 10
-1.000000000000000E+20
 20
-1.000000000000000E+20
 30
-1.000000000000000E+20
  9
$PLIMMIN
 10
-20.0
 20
-7.5
  9
$PLIMMAX
 10
277.0
 20
202.5
  9
$UNITMODE
 70
     0
  9
$VISRETAIN
 70
     1
  9
$PLINEGEN
 70
     0
  9
$PSLTSCALE
 70
     1
  9
$TREEDEPTH
 70
  3020
  9
$CMLSTYLE
  2
Standard
  9
$CMLJUST
 70
     0
  9
$CMLSCALE
 40
20.0
  9
$PROXYGRAPHICS
 70
     1
  9
$MEASUREMENT
 70
     1
  9
$CELWEIGHT
370
    -1
  9
$ENDCAPS
280
     0
  9
$JOINSTYLE
280
     0
  9
$LWDISPLAY
290
     0
  9
$INSUNITS
 70
     4
  9
$HYPERLINKBASE
  1

  9
$STYLESHEET
  1
ksm0910.ctb
  9
$XEDIT
290
     1
  9
$CEPSNTYPE
380
     0
  9
$PSTYLEMODE
290
     1
  9
$FINGERPRINTGUID
  2
{D2C70C36-9B4F-4E20-9CCB-531AA1EE4AC8}
  9
$VERSIONGUID
  2
{A0B85F84-B117-4D32-967B-650AE954C41F}
  9
$EXTNAMES
290
     1
  9
$PSVPSCALE
 40
0.0
  9
$OLESTARTUP
290
     0
  9
$SORTENTS
280
   127
  9
$INDEXCTL
280
     0
  9
$HIDETEXT
280
     1
  9
$XCLIPFRAME
280
     2
  9
$HALOGAP
280
     0
  9
$OBSCOLOR
 70
   257
  9
$OBSLTYPE
280
     0
  9
$INTERSECTIONDISPLAY
280
     0
  9
$INTERSECTIONCOLOR
 70
   257
  9
$DIMASSOC
280
     1
  9
$PROJECTNAME
  1

  9
$CAMERADISPLAY
290
     0
  9
$LENSLENGTH
 40
50.0
  9
$CAMERAHEIGHT
 40
0.0
  9
$STEPSPERSEC
 40
2.0
  9
$STEPSIZE
 40
6.0
  9
$3DDWFPREC
 40
2.0
  9
$PSOLWIDTH
 40
5.0
  9
$PSOLHEIGHT
 40
80.0
  9
$LOFTANG1
 40
1.570796326794896
  9
$LOFTANG2
 40
1.570796326794896
  9
$LOFTMAG1
 40
0.0
  9
$LOFTMAG2
 40
0.0
  9
$LOFTPARAM
 70
     7
  9
$LOFTNORMALS
280
     1
  9
$LATITUDE
 40
37.795
  9
$LONGITUDE
 40
-122.394
  9
$NORTHDIRECTION
 40
0.0
  9
$TIMEZONE
 70
 -8000
  9
$LIGHTGLYPHDISPLAY
280
     1
  9
$TILEMODELIGHTSYNCH
280
     1
  9
$CMATERIAL
347
3D
  9
$SOLIDHIST
280
     1
  9
$SHOWHIST
280
     1
  9
$DWFFRAME
280
     2
  9
$DGNFRAME
280
     0
  9
$REALWORLDSCALE
290
     1
  9
$INTERFERECOLOR
 62
     1
  9
$INTERFEREOBJVS
345
46
  9
$INTERFEREVPVS
346
47
  9
$CSHADOW
280
     0
  9
$SHADOWPLANELOCATION
 40
0.0
  0
ENDSEC
  0
SECTION
  2
CLASSES
  0
CLASS
  1
ACDBDICTIONARYWDFLT
  2
AcDbDictionaryWithDefault
  3
ObjectDBX Classes
 90
        0
 91
        1
280
     0
281
     0
  0
CLASS
  1
DICTIONARYVAR
  2
AcDbDictionaryVar
  3
ObjectDBX Classes
 90
        0
 91
       18
280
     0
281
     0
  0
CLASS
  1
TABLESTYLE
  2
AcDbTableStyle
  3
ObjectDBX Classes
 90
     4095
 91
        1
280
     0
281
     0
  0
CLASS
  1
MATERIAL
  2
AcDbMaterial
  3
ObjectDBX Classes
 90
     1153
 91
        3
280
     0
281
     0
  0
CLASS
  1
VISUALSTYLE
  2
AcDbVisualStyle
  3
ObjectDBX Classes
 90
     4095
 91
       26
280
     0
281
     0
  0
CLASS
  1
SCALE
  2
AcDbScale
  3
ObjectDBX Classes
 90
     1153
 91
       17
280
     0
281
     0
  0
CLASS
  1
MLEADERSTYLE
  2
AcDbMLeaderStyle
  3
ACDB_MLEADERSTYLE_CLASS
 90
     4095
 91
        1
280
     0
281
     0
  0
CLASS
  1
CELLSTYLEMAP
  2
AcDbCellStyleMap
  3
ObjectDBX Classes
 90
     1152
 91
        2
280
     0
281
     0
  0
CLASS
  1
SORTENTSTABLE
  2
AcDbSortentsTable
  3
ObjectDBX Classes
 90
        0
 91
        1
280
     0
281
     0
  0
CLASS
  1
DIMASSOC
  2
AcDbDimAssoc
  3
"AcDbDimAssoc|Product Desc:     AcDim ARX App For Dimension|Company:          Autodesk, Inc.|WEB Address:      www.autodesk.com"
 90
        0
 91
        0
280
     0
281
     0
  0
CLASS
  1
SOLID_BACKGROUND
  2
AcDbSolidBackground
  3
SCENEOE
 90
     4095
 91
        0
280
     0
281
     0
  0
CLASS
  1
NPOCOLLECTION
  2
AcDbImpNonPersistentObjectsCollection
  3
ObjectDBX Classes
 90
     1153
 91
        0
280
     0
281
     0
  0
CLASS
  1
ACAD_EVALUATION_GRAPH
  2
AcDbEvalGraph
  3
ObjectDBX Classes
 90
     1153
 91
        0
280
     0
281
     0
  0
CLASS
  1
ACAECUSTOBJ
  2
AcAeEditorObj
  3
AcAeEditorObj
 90
     1024
 91
        0
280
     1
281
     0
  0
CLASS
  1
ACDB_DYNAMICBLOCKPURGEPREVENTER_VERSION
  2
AcDbDynamicBlockPurgePreventer
  3
ObjectDBX Classes
 90
     1153
 91
        0
280
     0
281
     0
  0
CLASS
  1
HELIX
  2
AcDbHelix
  3
ObjectDBX Classes
 90
     4095
 91
        0
280
     0
281
     1
  0
CLASS
  1
MULTILEADER
  2
AcDbMLeader
  3
ACDB_MLEADER_CLASS
 90
     1025
 91
        2
280
     0
281
     1
  0
CLASS
  1
ACMDIMBREAKPERSREACTOR
  2
AcmDimBreakPersReactor
  3
amgDimApp().moduleName()
 90
     1023
 91
        0
280
     1
281
     0
  0
CLASS
  1
ACDB_MTEXTOBJECTCONTEXTDATA_CLASS
  2
AcDbMTextObjectContextData
  3
ObjectDBX Classes
 90
     1153
 91
        0
280
     0
281
     0
  0
CLASS
  1
BREAKDATA
  2
AcDbBreakData
  3
ObjectDBX Classes
 90
     1024
 91
        0
280
     0
281
     0
  0
CLASS
  1
EXACXREFPANELOBJECT
  2
ExAcXREFPanelObject
  3
EXAC_ESW
 90
     1025
 91
        0
280
     1
281
     0
  0
CLASS
  1
ACDBSECTIONVIEWSTYLE
  2
AcDbSectionViewStyle
  3
ObjectDBX Classes
 90
     1025
 91
        1
280
     0
281
     0
  0
CLASS
  1
ACDBDETAILVIEWSTYLE
  2
AcDbDetailViewStyle
  3
ObjectDBX Classes
 90
     1025
 91
        1
280
     0
281
     0
  0
ENDSEC
  0
SECTION
  2
TABLES
  0
TABLE
  2
VPORT
  5
2C
102
{ACAD_XDICTIONARY
360
31
102
}
330
0
100
AcDbSymbolTable
 70
     1
  0
VPORT
  5
2D
330
2C
100
AcDbSymbolTableRecord
100
AcDbViewportTableRecord
  2
*Active
 70
     0
 10
0.0
 20
0.0
 11
1.0
 21
1.0
 12
175.500282895126
 22
122.4784593026354
 13
0.0
 23
0.0
 14
2.0
 24
2.0
 15
2.0
 25
2.0
 16
0.0
 26
0.0
 36
1.0
 17
0.0
 27
0.0
 37
0.0
 40
255.5092241821893
 41
2.15871121718377
 42
50.0
 43
0.0
 44
0.0
 50
0.0
 51
0.0
 71
     0
 72
  1000
 73
     1
 74
     3
 75
     0
 76
     0
 77
     0
 78
     1
281
     0
 65
     1
110
0.0
120
0.0
130
0.0
111
1.0
121
0.0
131
0.0
112
0.0
122
1.0
132
0.0
 79
     0
146
0.0
348
2E
 60
     3
 61
     5
292
     1
282
     1
141
0.0
142
0.0
 63
   250
421
  3355443
1001
ACAD_NAV_VCDISPLAY
1070
     3
  0
ENDTAB
  0
TABLE
  2
LTYPE
  5
27
330
0
100
AcDbSymbolTable
 70
     3
  0
LTYPE
  5
28
330
27
100
AcDbSymbolTableRecord
100
AcDbLinetypeTableRecord
  2
ByBlock
 70
     0
  3

 72
    65
 73
     0
 40
0.0
  0
LTYPE
  5
29
330
27
100
AcDbSymbolTableRecord
100
AcDbLinetypeTableRecord
  2
ByLayer
 70
     0
  3

 72
    65
 73
     0
 40
0.0
  0
LTYPE
  5
14
330
27
100
AcDbSymbolTableRecord
100
AcDbLinetypeTableRecord
  2
Continuous
 70
     0
  3
Solid line
 72
    65
 73
     0
 40
0.0
  0
LTYPE
  5
4DD
330
27
100
AcDbSymbolTableRecord
100
AcDbLinetypeTableRecord
  2
CENTER
 70
     0
  3
____ _ ____ _ ____ _ ____ _ ____ _ ____ _ ____ 
 72
    65
 73
     4
 40
2.0
 49
1.25
 74
     0
 49
-0.25
 74
     0
 49
0.25
 74
     0
 49
-0.25
 74
     0
  0
LTYPE
  5
251C9
330
27
100
AcDbSymbolTableRecord
100
AcDbLinetypeTableRecord
  2
HIDDEN
 70
     0
  3
Hidden __ __ __ __ __ __ __ __ __ __ __ __ __ _
 72
    65
 73
     2
 40
9.524999999999998
 49
6.349999999999999
 74
     0
 49
-3.174999999999999
 74
     0
  0
ENDTAB
  0
TABLE
  2
LAYER
  5
21
102
{ACAD_XDICTIONARY
360
22
102
}
330
0
100
AcDbSymbolTable
 70
     4
  0
LAYER
  5
6
102
{ACAD_XDICTIONARY
360
7
102
}
330
21
100
AcDbSymbolTableRecord
100
AcDbLayerTableRecord
  2
0
 70
     0
 62
     7
  6
Continuous
370
    -3
390
9
347
C
348
0
  0
LAYER
  5
1A4
330
21
100
AcDbSymbolTableRecord
100
AcDbLayerTableRecord
  2
DEFPOINTS
 70
     0
 62
     7
  6
Continuous
290
     0
370
    -3
390
9
347
C
348
0
  0
LAYER
  5
1DDF3
330
21
100
AcDbSymbolTableRecord
100
AcDbLayerTableRecord
  2
Layer 1
 70
     0
 62
     7
  6
Continuous
370
     0
390
9
347
C
348
0
  0
LAYER
  5
2665D
330
21
100
AcDbSymbolTableRecord
100
AcDbLayerTableRecord
  2
3
 70
     0
 62
     3
  6
CENTER
370
    -3
390
9
347
C
348
0
  0
ENDTAB
  0
TABLE
  2
STYLE
  5
24
330
0
100
AcDbSymbolTable
 70
     4
  0
STYLE
  5
25
330
24
100
AcDbSymbolTableRecord
100
AcDbTextStyleTableRecord
  2
Standard
 70
     0
 40
3.0
 41
1.0
 50
0.0
 71
     0
 42
3.0
  3
isocp.shx
  4
whgtxt.shx
  0
STYLE
  5
35
330
24
100
AcDbSymbolTableRecord
100
AcDbTextStyleTableRecord
  2
ROMANS
 70
     0
 40
2.5
 41
1.0
 50
0.0
 71
     0
 42
2.5
  3
romans.shx
  4

  0
STYLE
  5
5C
330
24
100
AcDbSymbolTableRecord
100
AcDbTextStyleTableRecord
  2
굴림
 70
     0
 40
3.0
 41
1.0
 50
0.0
 71
     0
 42
3.0
  3

  4

1001
ACAD
1000
Gulim
1071
    33074
  0
ENDTAB
  0
TABLE
  2
VIEW
  5
2A
330
0
100
AcDbSymbolTable
 70
     0
  0
ENDTAB
  0
TABLE
  2
UCS
  5
2B
330
0
100
AcDbSymbolTable
 70
     0
  0
ENDTAB
  0
TABLE
  2
APPID
  5
32
330
0
100
AcDbSymbolTable
 70
    45
  0
APPID
  5
13
330
32
100
AcDbSymbolTableRecord
100
AcDbRegAppTableRecord
  2
ACAD
 70
     0
  0
APPID
  5
1A
330
32
100
AcDbSymbolTableRecord
100
AcDbRegAppTableRecord
  2
ACAD_PSEXT
 70
     0
  0
APPID
  5
37
330
32
100
AcDbSymbolTableRecord
100
AcDbRegAppTableRecord
  2
ACAD_DSTYLE_DIMJAG
 70
     0
  0
APPID
  5
38
330
32
100
AcDbSymbolTableRecord
100
AcDbRegAppTableRecord
  2
ACAD_DSTYLE_DIMTALN
 70
     0
  0
APPID
  5
36
330
32
100
AcDbSymbolTableRecord
100
AcDbRegAppTableRecord
  2
ACAD_DSTYLE_DIMJOGGED_JOGANGLE_SYMBOL
 70
     0
  0
APPID
  5
183
330
32
100
AcDbSymbolTableRecord
100
AcDbRegAppTableRecord
  2
AcAecLayerStandard
 70
     0
  0
APPID
  5
3DE
330
32
100
AcDbSymbolTableRecord
100
AcDbRegAppTableRecord
  2
ACAD_DSTYLE_DIMRADIAL_EXTENSION
 70
     0
  0
APPID
  5
530
330
32
100
AcDbSymbolTableRecord
100
AcDbRegAppTableRecord
  2
GRADIENTCOLOR1ACI
 70
     0
  0
APPID
  5
531
330
32
100
AcDbSymbolTableRecord
100
AcDbRegAppTableRecord
  2
GRADIENTCOLOR2ACI
 70
     0
  0
APPID
  5
30
330
32
100
AcDbSymbolTableRecord
100
AcDbRegAppTableRecord
  2
ACAD_NAV_VCDISPLAY
 70
     0
  0
APPID
  5
C34
330
32
100
AcDbSymbolTableRecord
100
AcDbRegAppTableRecord
  2
ACAD_MLEADERVER
 70
     0
  0
APPID
  5
C97
330
32
100
AcDbSymbolTableRecord
100
AcDbRegAppTableRecord
  2
ACAD_EXEMPT_FROM_CAD_STANDARDS
 70
     0
  0
APPID
  5
D79
330
32
100
AcDbSymbolTableRecord
100
AcDbRegAppTableRecord
  2
AcadAnnoMonitorAlertIconDisabled
 70
     0
  0
APPID
  5
1A45
330
32
100
AcDbSymbolTableRecord
100
AcDbRegAppTableRecord
  2
GENIUS_GENODEF_13
 70
     0
  0
APPID
  5
1A46
330
32
100
AcDbSymbolTableRecord
100
AcDbRegAppTableRecord
  2
GENIUS_GENOBJ-N-FIL_13
 70
     0
  0
APPID
  5
1A47
330
32
100
AcDbSymbolTableRecord
100
AcDbRegAppTableRecord
  2
ACAD_DSTYLE_DIMBREAK
 70
     0
  0
APPID
  5
1A48
330
32
100
AcDbSymbolTableRecord
100
AcDbRegAppTableRecord
  2
GENIUS_GENOBJ-N-HTC_13
 70
     0
  0
APPID
  5
1A49
330
32
100
AcDbSymbolTableRecord
100
AcDbRegAppTableRecord
  2
GENIUS_GENHATCH_13
 70
     0
  0
APPID
  5
1A4A
330
32
100
AcDbSymbolTableRecord
100
AcDbRegAppTableRecord
  2
GENIUS_GENREC_14
 70
     0
  0
APPID
  5
1A4B
330
32
100
AcDbSymbolTableRecord
100
AcDbRegAppTableRecord
  2
GENIUS_GENOBJ-N-REC_13
 70
     0
  0
APPID
  5
1A4C
330
32
100
AcDbSymbolTableRecord
100
AcDbRegAppTableRecord
  2
ACAUTHENVIRON
 70
     0
  0
APPID
  5
1A4D
330
32
100
AcDbSymbolTableRecord
100
AcDbRegAppTableRecord
  2
AcDbDynamicBlockTrueName
 70
     0
  0
APPID
  5
1A4E
330
32
100
AcDbSymbolTableRecord
100
AcDbRegAppTableRecord
  2
AcDbDynamicBlockGUID
 70
     0
  0
APPID
  5
1A4F
330
32
100
AcDbSymbolTableRecord
100
AcDbRegAppTableRecord
  2
AcDbBlockRepETag
 70
     0
  0
APPID
  5
1A50
330
32
100
AcDbSymbolTableRecord
100
AcDbRegAppTableRecord
  2
DCO15
 70
     0
  0
APPID
  5
1A51
330
32
100
AcDbSymbolTableRecord
100
AcDbRegAppTableRecord
  2
ACAD_DSTYLE_DIMTEXT_FILL
 70
     0
  0
APPID
  5
1A52
330
32
100
AcDbSymbolTableRecord
100
AcDbRegAppTableRecord
  2
ACAD_DSTYLE_DIM_LINETYPE
 70
     0
  0
APPID
  5
1A53
330
32
100
AcDbSymbolTableRecord
100
AcDbRegAppTableRecord
  2
ACAD_DSTYLE_DIM_EXT1_LINETYPE
 70
     0
  0
APPID
  5
1A54
330
32
100
AcDbSymbolTableRecord
100
AcDbRegAppTableRecord
  2
ACAD_DSTYLE_DIM_EXT2_LINETYPE
 70
     0
  0
APPID
  5
1A55
330
32
100
AcDbSymbolTableRecord
100
AcDbRegAppTableRecord
  2
ACAD_DSTYLE_DIMINSPECT
 70
     0
  0
APPID
  5
1A56
330
32
100
AcDbSymbolTableRecord
100
AcDbRegAppTableRecord
  2
AcadAnnotative
 70
     0
  0
APPID
  5
1A57
330
32
100
AcDbSymbolTableRecord
100
AcDbRegAppTableRecord
  2
GENIUS_GENDTOL_13
 70
     0
  0
APPID
  5
1A58
330
32
100
AcDbSymbolTableRecord
100
AcDbRegAppTableRecord
  2
GENIUS_GENFIL_13
 70
     0
  0
APPID
  5
1A59
330
32
100
AcDbSymbolTableRecord
100
AcDbRegAppTableRecord
  2
GENIUS_GENOBJ-N-CHA_13
 70
     0
  0
APPID
  5
1A5A
330
32
100
AcDbSymbolTableRecord
100
AcDbRegAppTableRecord
  2
AcadAnnotativeDecomposition
 70
     0
  0
APPID
  5
1A5B
330
32
100
AcDbSymbolTableRecord
100
AcDbRegAppTableRecord
  2
MCAD_NO_VIS
 70
     0
  0
APPID
  5
1A5C
330
32
100
AcDbSymbolTableRecord
100
AcDbRegAppTableRecord
  2
ACAD_TEMP_GRAPHIC
 70
     0
  0
APPID
  5
1A5D
330
32
100
AcDbSymbolTableRecord
100
AcDbRegAppTableRecord
  2
ACATTRIBSERVICES
 70
     0
  0
APPID
  5
1A5E
330
32
100
AcDbSymbolTableRecord
100
AcDbRegAppTableRecord
  2
DESIGNERASSEMBLIES
 70
     0
  0
APPID
  5
1A5F
330
32
100
AcDbSymbolTableRecord
100
AcDbRegAppTableRecord
  2
GENIUS_GENDIMSH_14
 70
     0
  0
APPID
  5
1A60
330
32
100
AcDbSymbolTableRecord
100
AcDbRegAppTableRecord
  2
ACAD_DSTYLE_DIMARC_LENGTH_SYMBOL
 70
     0
  0
APPID
  5
1A61
330
32
100
AcDbSymbolTableRecord
100
AcDbRegAppTableRecord
  2
ACAD_SPLINE_DATA
 70
     0
  0
APPID
  5
1A62
330
32
100
AcDbSymbolTableRecord
100
AcDbRegAppTableRecord
  2
GENIUS_GENOREF_13
 70
     0
  0
APPID
  5
1A63
330
32
100
AcDbSymbolTableRecord
100
AcDbRegAppTableRecord
  2
ACAD_DSTYLE_DIMANGULAR_EXTENSION
 70
     0
  0
APPID
  5
23F4C
330
32
100
AcDbSymbolTableRecord
100
AcDbRegAppTableRecord
  2
HATCHBACKGROUNDCOLOR
 70
     0
  0
ENDTAB
  0
TABLE
  2
DIMSTYLE
  5
33
330
0
100
AcDbSymbolTable
 70
     3
100
AcDbDimStyleTable
 71
     1
340
34
  0
DIMSTYLE
105
34
102
{ACAD_REACTORS
330
2692D
330
26930
330
26931
102
}
330
33
100
AcDbSymbolTableRecord
100
AcDbDimStyleTableRecord
  2
Standard
 70
     0
 41
2.5
 73
     0
 77
     3
 78
     8
140
2.5
141
-1.0
147
1.0
175
     1
176
     3
177
     3
178
     2
179
     8
271
     8
272
     8
275
     1
340
35
1001
ACAD_DSTYLE_DIMJOGGED_JOGANGLE_SYMBOL
1070
   384
1040
0.7853981633974483
1001
ACAD_DSTYLE_DIMJAG
1070
   388
1040
1.5
1001
ACAD_DSTYLE_DIMTALN
1070
   392
1070
     0
  0
DIMSTYLE
105
1A8
102
{ACAD_REACTORS
330
268B2
330
26924
330
26925
330
2692C
330
26933
330
269CE
330
269CF
330
269D0
102
}
330
33
100
AcDbSymbolTableRecord
100
AcDbDimStyleTableRecord
  2
Standard$0
 70
     0
 41
2.5
 73
     0
 77
     3
 78
     8
140
2.5
141
-1.0
147
1.0
175
     1
176
     3
177
     3
178
     2
179
     8
271
     8
272
     8
275
     1
340
35
  0
ENDTAB
  0
TABLE
  2
BLOCK_RECORD
  5
1
330
0
100
AcDbSymbolTable
 70
    13
  0
BLOCK_RECORD
  5
2
102
{ACAD_XDICTIONARY
360
3
102
}
330
1
100
AcDbSymbolTableRecord
100
AcDbBlockTableRecord
  2
*Model_Space
340
16
 70
     0
280
     1
281
     0
  0
BLOCK_RECORD
  5
1B
330
1
100
AcDbSymbolTableRecord
100
AcDbBlockTableRecord
  2
*Paper_Space
340
1E
 70
     0
280
     1
281
     0
  0
BLOCK_RECORD
  5
25D72
330
1
100
AcDbSymbolTableRecord
100
AcDbBlockTableRecord
  2
_DetailCallout
340
0
 70
     4
280
     1
281
     0
  0
BLOCK_RECORD
  5
269D2
330
1
100
AcDbSymbolTableRecord
100
AcDbBlockTableRecord
  2
*D1
340
0
 70
     0
280
     1
281
     0
  0
BLOCK_RECORD
  5
269DE
330
1
100
AcDbSymbolTableRecord
100
AcDbBlockTableRecord
  2
*D2
340
0
 70
     0
280
     1
281
     0
  0
BLOCK_RECORD
  5
269E7
330
1
100
AcDbSymbolTableRecord
100
AcDbBlockTableRecord
  2
*D3
340
0
 70
     0
280
     1
281
     0
  0
BLOCK_RECORD
  5
269F3
330
1
100
AcDbSymbolTableRecord
100
AcDbBlockTableRecord
  2
*D4
340
0
 70
     0
280
     1
281
     0
  0
BLOCK_RECORD
  5
269FF
330
1
100
AcDbSymbolTableRecord
100
AcDbBlockTableRecord
  2
*D5
340
0
 70
     0
280
     1
281
     0
  0
BLOCK_RECORD
  5
26A0A
330
1
100
AcDbSymbolTableRecord
100
AcDbBlockTableRecord
  2
*D6
340
0
 70
     0
280
     1
281
     0
  0
BLOCK_RECORD
  5
26A14
330
1
100
AcDbSymbolTableRecord
100
AcDbBlockTableRecord
  2
*D7
340
0
 70
     0
280
     1
281
     0
  0
BLOCK_RECORD
  5
26A1E
330
1
100
AcDbSymbolTableRecord
100
AcDbBlockTableRecord
  2
*D8
340
0
 70
     0
280
     1
281
     0
  0
BLOCK_RECORD
  5
26A39
330
1
100
AcDbSymbolTableRecord
100
AcDbBlockTableRecord
  2
*D9
340
0
 70
     0
280
     1
281
     0
  0
BLOCK_RECORD
  5
26A41
330
1
100
AcDbSymbolTableRecord
100
AcDbBlockTableRecord
  2
*D10
340
0
 70
     0
280
     1
281
     0
  0
BLOCK_RECORD
  5
26A5D
330
1
100
AcDbSymbolTableRecord
100
AcDbBlockTableRecord
  2
*D11
340
0
 70
     0
280
     1
281
     0
  0
ENDTAB
  0
ENDSEC
  0
SECTION
  2
BLOCKS
  0
BLOCK
  5
5
330
2
100
AcDbEntity
  8
0
100
AcDbBlockBegin
  2
*Model_Space
 70
     0
 10
0.0
 20
0.0
 30
0.0
  3
*Model_Space
  1

  0
ENDBLK
  5
15
330
2
100
AcDbEntity
  8
0
100
AcDbBlockEnd
  0
BLOCK
  5
1C
330
1B
100
AcDbEntity
 67
     1
  8
0
100
AcDbBlockBegin
  2
*Paper_Space
 70
     0
 10
0.0
 20
0.0
 30
0.0
  3
*Paper_Space
  1

  0
ENDBLK
  5
1D
330
1B
100
AcDbEntity
 67
     1
  8
0
100
AcDbBlockEnd
  0
BLOCK
  5
25D73
330
25D72
100
AcDbEntity
  8
0
100
AcDbBlockBegin
  2
_DetailCallout
 70
     2
 10
0.0
 20
0.0
 30
0.0
  3
_DetailCallout
  1

  0
CIRCLE
  5
25D74
330
25D72
100
AcDbEntity
  8
0
  6
ByBlock
 62
     0
370
    -2
100
AcDbCircle
 10
0.0
 20
0.0
 30
0.0
 40
8.0
  0
LINE
  5
25D75
330
25D72
100
AcDbEntity
  8
0
  6
ByBlock
 62
     0
370
    -2
100
AcDbLine
 10
8.0
 20
0.0
 30
0.0
 11
-8.0
 21
0.0
 31
0.0
  0
ATTDEF
  5
25D76
330
25D72
100
AcDbEntity
  8
0
 62
     0
100
AcDbText
 10
-3.857142857142857
 20
1.0
 30
0.0
 40
3.0
  1
뷰번호
  7
ROMANS
 72
     1
 11
0.0
 21
1.0
 31
0.0
100
AcDbAttributeDefinition
280
     0
  3
뷰 번호 입력
  2
뷰번호
 70
     0
280
     0
  0
ATTDEF
  5
25D77
330
25D72
100
AcDbEntity
  8
0
 62
     0
100
AcDbText
 10
-5.142857142857142
 20
-6.0
 30
0.0
 40
3.0
  1
시트번호
  7
ROMANS
 72
     1
 11
0.0
 21
-6.0
 31
0.0
100
AcDbAttributeDefinition
280
     0
  3
시트 번호 입력
  2
시트번호
 70
     0
280
     0
  0
ENDBLK
  5
25D78
330
25D72
100
AcDbEntity
  8
0
100
AcDbBlockEnd
  0
BLOCK
  5
269D3
330
269D2
100
AcDbEntity
  8
0
 62
     7
100
AcDbBlockBegin
  2
*D1
 70
     1
 10
0.0
 20
0.0
 30
0.0
  3
*D1
  1

  0
ARC
  5
26A89
330
269D2
100
AcDbEntity
  8
0
  6
Continuous
 62
     3
440
 16777216
100
AcDbCircle
 10
385.6618090684292
 20
124.9247256335533
 30
0.0
 40
134.6588436086201
100
AcDbArc
 50
181.063736344034
 51
183.9362636559661
  0
SOLID
  5
26A8A
330
269D2
100
AcDbEntity
  8
0
  6
Continuous
 62
     3
440
 16777216
100
AcDbTrace
 10
250.6095235390455
 20
122.4209655479826
 30
0.0
 11
251.4428209679205
 21
122.4287011458739
 31
0.0
 12
251.002965459809
 22
124.9247256335533
 32
0.0
 13
251.002965459809
 23
124.9247256335533
 33
0.0
  0
SOLID
  5
26A8B
330
269D2
100
AcDbEntity
  8
0
  6
Continuous
 62
     3
440
 16777216
100
AcDbTrace
 10
251.7360218713233
 20
115.7132963957474
 30
0.0
 11
250.9052211889648
 21
115.64837590101
 31
0.0
 12
251.5153830143563
 22
113.1884341013029
 32
0.0
 13
251.5153830143563
 23
113.1884341013029
 33
0.0
  0
MTEXT
  5
26A8C
330
269D2
100
AcDbEntity
  8
0
  6
Continuous
 62
     2
440
 16777216
100
AcDbMText
 10
253.2541083118291
 20
119.1436805701718
 30
0.0
 40
3.0
 41
0.0
 46
0.0
 71
     5
 72
     1
  1
5°
 11
0.0436193873653378
 21
-0.9990482215818577
 31
0.0
 73
     1
 44
1.0
  0
POINT
  5
26A8D
330
269D2
100
AcDbEntity
  8
DEFPOINTS
  6
Continuous
 62
     0
440
 16777216
100
AcDbPoint
 10
251.0599328725286
 20
121.0082110409239
 30
0.0
  0
POINT
  5
26A8E
330
269D2
100
AcDbEntity
  8
DEFPOINTS
  6
Continuous
 62
     0
440
 16777216
100
AcDbPoint
 10
314.0595322434004
 20
118.6603381287181
 30
0.0
  0
POINT
  5
26A8F
330
269D2
100
AcDbEntity
  8
DEFPOINTS
  6
Continuous
 62
     0
440
 16777216
100
AcDbPoint
 10
121.4241376679644
 20
124.9247256335533
 30
0.0
  0
POINT
  5
26A90
330
269D2
100
AcDbEntity
  8
DEFPOINTS
  6
Continuous
 62
     0
440
 16777216
100
AcDbPoint
 10
317.4241376679636
 20
124.9247256335533
 30
0.0
  0
POINT
  5
26A91
330
269D2
100
AcDbEntity
  8
DEFPOINTS
  6
Continuous
 62
     0
440
 16777216
100
AcDbPoint
 10
231.356102981156
 20
111.4247256335533
 30
0.0
  0
ENDBLK
  5
269D4
330
269D2
100
AcDbEntity
  8
0
 62
     7
100
AcDbBlockEnd
  0
BLOCK
  5
269DF
330
269DE
100
AcDbEntity
  8
0
 62
     7
100
AcDbBlockBegin
  2
*D2
 70
     1
 10
0.0
 20
0.0
 30
0.0
  3
*D2
  1

  0
LINE
  5
26A92
330
269DE
100
AcDbEntity
  8
0
  6
Continuous
 62
     3
440
 16777216
100
AcDbLine
 10
324.4748525493408
 20
110.2094667455737
 30
0.0
 11
316.8349168026975
 21
117.4106180446758
 31
0.0
  0
MTEXT
  5
26A93
330
269DE
100
AcDbEntity
  8
0
  6
Continuous
 62
     2
440
 16777216
100
AcDbMText
 10
323.0220429665091
 20
114.4990174511062
 30
0.0
 40
3.0
 41
0.0
 46
0.0
 71
     5
 72
     1
  1
R.06
 11
0.7276947836829779
 21
-0.6859010874758723
 31
0.0
 73
     1
 44
1.0
  0
LINE
  5
26A94
330
269DE
100
AcDbEntity
  8
0
  6
Continuous
 62
     3
440
 16777216
100
AcDbLine
 10
313.9241376679654
 20
120.1542223945794
 30
0.0
 11
315.01567984349
 21
119.1253707633654
 31
0.0
  0
SOLID
  5
26A95
330
269DE
100
AcDbEntity
  8
0
  6
Continuous
 62
     3
440
 16777216
100
AcDbTrace
 10
317.1207089224791
 20
117.7138242045437
 30
0.0
 11
316.5491246829159
 21
117.1074118848078
 31
0.0
 12
315.01567984349
 22
119.1253707633654
 32
0.0
 13
315.01567984349
 23
119.1253707633654
 33
0.0
  0
POINT
  5
26A96
330
269DE
100
AcDbEntity
  8
DEFPOINTS
  6
Continuous
 62
     0
440
 16777216
100
AcDbPoint
 10
315.01567984349
 20
119.1253707633654
 30
0.0
  0
POINT
  5
26A97
330
269DE
100
AcDbEntity
  8
DEFPOINTS
  6
Continuous
 62
     0
440
 16777216
100
AcDbPoint
 10
313.9241376679654
 20
120.1542223945794
 30
0.0
  0
ENDBLK
  5
269E0
330
269DE
100
AcDbEntity
  8
0
 62
     7
100
AcDbBlockEnd
  0
BLOCK
  5
269E8
330
269E7
100
AcDbEntity
  8
0
 62
     7
100
AcDbBlockBegin
  2
*D3
 70
     1
 10
0.0
 20
0.0
 30
0.0
  3
*D3
  1

  0
LINE
  5
26AA4
330
269E7
100
AcDbEntity
  8
0
  6
Continuous
 62
     3
440
 16777216
100
AcDbLine
 10
26.40567574566671
 20
120.7997256335533
 30
0.0
 11
26.40567574566671
 21
73.04192229779562
 31
0.0
  0
LINE
  5
26AA5
330
269E7
100
AcDbEntity
  8
0
  6
Continuous
 62
     3
440
 16777216
100
AcDbLine
 10
55.40567574566671
 20
83.79972563355329
 30
0.0
 11
55.40567574566671
 21
73.04192229779562
 31
0.0
  0
LINE
  5
26AA6
330
269E7
100
AcDbEntity
  8
0
  6
Continuous
 62
     3
440
 16777216
100
AcDbLine
 10
28.90567574566671
 20
74.29192229779562
 30
0.0
 11
52.90567574566671
 21
74.29192229779562
 31
0.0
  0
SOLID
  5
26AA7
330
269E7
100
AcDbEntity
  8
0
  6
Continuous
 62
     3
440
 16777216
100
AcDbTrace
 10
28.90567574566671
 20
74.70858896446229
 30
0.0
 11
28.90567574566671
 21
73.87525563112895
 31
0.0
 12
26.40567574566671
 22
74.29192229779562
 32
0.0
 13
26.40567574566671
 23
74.29192229779562
 33
0.0
  0
SOLID
  5
26AA8
330
269E7
100
AcDbEntity
  8
0
  6
Continuous
 62
     3
440
 16777216
100
AcDbTrace
 10
52.90567574566671
 20
74.70858896446229
 30
0.0
 11
52.90567574566671
 21
73.87525563112895
 31
0.0
 12
55.40567574566671
 22
74.29192229779562
 32
0.0
 13
55.40567574566671
 23
74.29192229779562
 33
0.0
  0
MTEXT
  5
26AA9
330
269E7
100
AcDbEntity
  8
0
  6
Continuous
 62
     2
440
 16777216
100
AcDbMText
 10
40.90567574566671
 20
76.41721757338617
 30
0.0
 40
3.0
 41
0.0
 46
0.0
 71
     5
 72
     1
  1
29mm%%p.05
 73
     1
 44
1.0
  0
POINT
  5
26AAA
330
269E7
100
AcDbEntity
  8
DEFPOINTS
  6
Continuous
 62
     0
440
 16777216
100
AcDbPoint
 10
26.40567574566671
 20
121.4247256335533
 30
0.0
  0
POINT
  5
26AAB
330
269E7
100
AcDbEntity
  8
DEFPOINTS
  6
Continuous
 62
     0
440
 16777216
100
AcDbPoint
 10
55.40567574566671
 20
84.42472563355329
 30
0.0
  0
POINT
  5
26AAC
330
269E7
100
AcDbEntity
  8
DEFPOINTS
  6
Continuous
 62
     0
440
 16777216
100
AcDbPoint
 10
55.40567574566671
 20
74.29192229779562
 30
0.0
  0
ENDBLK
  5
269E9
330
269E7
100
AcDbEntity
  8
0
 62
     7
100
AcDbBlockEnd
  0
BLOCK
  5
269F4
330
269F3
100
AcDbEntity
  8
0
 62
     7
100
AcDbBlockBegin
  2
*D4
 70
     1
 10
0.0
 20
0.0
 30
0.0
  3
*D4
  1

  0
LINE
  5
26AAD
330
269F3
100
AcDbEntity
  8
0
  6
Continuous
 62
     3
440
 16777216
100
AcDbLine
 10
26.40567574566671
 20
120.7997256335533
 30
0.0
 11
26.40567574566671
 21
65.04192229779562
 31
0.0
  0
LINE
  5
26AAE
330
269F3
100
AcDbEntity
  8
0
  6
Continuous
 62
     3
440
 16777216
100
AcDbLine
 10
84.40567574566671
 20
120.7997256335533
 30
0.0
 11
84.40567574566671
 21
65.04192229779562
 31
0.0
  0
LINE
  5
26AAF
330
269F3
100
AcDbEntity
  8
0
  6
Continuous
 62
     3
440
 16777216
100
AcDbLine
 10
28.90567574566671
 20
66.29192229779562
 30
0.0
 11
81.90567574566671
 21
66.29192229779562
 31
0.0
  0
SOLID
  5
26AB0
330
269F3
100
AcDbEntity
  8
0
  6
Continuous
 62
     3
440
 16777216
100
AcDbTrace
 10
28.90567574566671
 20
66.7085889644623
 30
0.0
 11
28.90567574566671
 21
65.87525563112895
 31
0.0
 12
26.40567574566671
 22
66.29192229779562
 32
0.0
 13
26.40567574566671
 23
66.29192229779562
 33
0.0
  0
SOLID
  5
26AB1
330
269F3
100
AcDbEntity
  8
0
  6
Continuous
 62
     3
440
 16777216
100
AcDbTrace
 10
81.90567574566671
 20
66.7085889644623
 30
0.0
 11
81.90567574566671
 21
65.87525563112895
 31
0.0
 12
84.40567574566671
 22
66.29192229779562
 32
0.0
 13
84.40567574566671
 23
66.29192229779562
 33
0.0
  0
MTEXT
  5
26AB2
330
269F3
100
AcDbEntity
  8
0
  6
Continuous
 62
     2
440
 16777216
100
AcDbMText
 10
55.40567574566671
 20
68.41692229779562
 30
0.0
 40
3.0
 41
0.0
 46
0.0
 71
     5
 72
     1
  1
58mm%%p.05
 73
     1
 44
1.0
  0
POINT
  5
26AB3
330
269F3
100
AcDbEntity
  8
DEFPOINTS
  6
Continuous
 62
     0
440
 16777216
100
AcDbPoint
 10
26.40567574566671
 20
121.4247256335533
 30
0.0
  0
POINT
  5
26AB4
330
269F3
100
AcDbEntity
  8
DEFPOINTS
  6
Continuous
 62
     0
440
 16777216
100
AcDbPoint
 10
84.40567574566671
 20
121.4247256335533
 30
0.0
  0
POINT
  5
26AB5
330
269F3
100
AcDbEntity
  8
DEFPOINTS
  6
Continuous
 62
     0
440
 16777216
100
AcDbPoint
 10
84.40567574566671
 20
66.29192229779562
 30
0.0
  0
ENDBLK
  5
269F5
330
269F3
100
AcDbEntity
  8
0
 62
     7
100
AcDbBlockEnd
  0
BLOCK
  5
26A00
330
269FF
100
AcDbEntity
  8
0
 62
     7
100
AcDbBlockBegin
  2
*D5
 70
     1
 10
0.0
 20
0.0
 30
0.0
  3
*D5
  1

  0
LINE
  5
26A6A
330
269FF
100
AcDbEntity
  8
0
  6
Continuous
 62
     3
440
 16777216
100
AcDbLine
 10
199.954356119639
 20
111.4247256335533
 30
0.0
 11
211.1168045739285
 21
111.4247256335533
 31
0.0
  0
LINE
  5
26A6B
330
269FF
100
AcDbEntity
  8
0
  6
Continuous
 62
     3
440
 16777216
100
AcDbLine
 10
209.8668045739285
 20
116.4247256335533
 30
0.0
 11
209.8668045739285
 21
113.9247256335533
 31
0.0
  0
LINE
  5
26A6C
330
269FF
100
AcDbEntity
  8
0
  6
Continuous
 62
     3
440
 16777216
100
AcDbLine
 10
209.8668045739285
 20
111.4247256335533
 30
0.0
 11
209.8668045739285
 21
97.05046156484113
 31
0.0
  0
SOLID
  5
26A6D
330
269FF
100
AcDbEntity
  8
0
  6
Continuous
 62
     3
440
 16777216
100
AcDbTrace
 10
209.4501379072618
 20
113.9247256335533
 30
0.0
 11
210.2834712405951
 21
113.9247256335533
 31
0.0
 12
209.8668045739285
 22
111.4247256335533
 32
0.0
 13
209.8668045739285
 23
111.4247256335533
 33
0.0
  0
MTEXT
  5
26A6E
330
269FF
100
AcDbEntity
  8
0
  6
Continuous
 62
     2
440
 16777216
100
AcDbMText
 10
207.7418045739285
 20
102.9875935991971
 30
0.0
 40
3.0
 41
0.0
 46
0.0
 71
     5
 72
     1
  1
%%C1.063
 11
0.0000000000000001
 21
1.0
 31
0.0
 73
     1
 44
1.0
  0
POINT
  5
26A6F
330
269FF
100
AcDbEntity
  8
DEFPOINTS
  6
Continuous
 62
     0
440
 16777216
100
AcDbPoint
 10
199.329356119639
 20
111.4247256335533
 30
0.0
  0
POINT
  5
26A70
330
269FF
100
AcDbEntity
  8
DEFPOINTS
  6
Continuous
 62
     0
440
 16777216
100
AcDbPoint
 10
199.3293561196381
 20
138.4247256335533
 30
0.0
  0
POINT
  5
26A71
330
269FF
100
AcDbEntity
  8
DEFPOINTS
  6
Continuous
 62
     0
440
 16777216
100
AcDbPoint
 10
209.8668045739285
 20
138.4247256335533
 30
0.0
  0
ENDBLK
  5
26A01
330
269FF
100
AcDbEntity
  8
0
 62
     7
100
AcDbBlockEnd
  0
BLOCK
  5
26A0B
330
26A0A
100
AcDbEntity
  8
0
 62
     7
100
AcDbBlockBegin
  2
*D6
 70
     1
 10
0.0
 20
0.0
 30
0.0
  3
*D6
  1

  0
LINE
  5
26A72
330
26A0A
100
AcDbEntity
  8
0
  6
Continuous
 62
     3
440
 16777216
100
AcDbLine
 10
316.0491376679658
 20
131.0697256335528
 30
0.0
 11
335.9979228745836
 21
131.0697256335528
 31
0.0
  0
LINE
  5
26A73
330
26A0A
100
AcDbEntity
  8
0
  6
Continuous
 62
     3
440
 16777216
100
AcDbLine
 10
334.7479228745836
 20
128.5697256335528
 30
0.0
 11
334.7479228745835
 21
118.4833889642437
 31
0.0
  0
SOLID
  5
26A74
330
26A0A
100
AcDbEntity
  8
0
  6
Continuous
 62
     3
440
 16777216
100
AcDbTrace
 10
334.3312562079169
 20
128.5697256335528
 30
0.0
 11
335.1645895412503
 21
128.5697256335528
 31
0.0
 12
334.7479228745836
 22
131.0697256335528
 32
0.0
 13
334.7479228745836
 23
131.0697256335528
 33
0.0
  0
MTEXT
  5
26A75
330
26A0A
100
AcDbEntity
  8
0
  6
Continuous
 62
     2
440
 16777216
100
AcDbMText
 10
332.6229228745835
 20
123.9083889642437
 30
0.0
 40
3.0
 41
0.0
 46
0.0
 71
     5
 72
     1
  1
%%C.484
 11
0.0000000000000001
 21
1.0
 31
0.0
 73
     1
 44
1.0
  0
POINT
  5
26A76
330
26A0A
100
AcDbEntity
  8
DEFPOINTS
  6
Continuous
 62
     0
440
 16777216
100
AcDbPoint
 10
315.4241376679658
 20
131.0697256335528
 30
0.0
  0
POINT
  5
26A77
330
26A0A
100
AcDbEntity
  8
DEFPOINTS
  6
Continuous
 62
     0
440
 16777216
100
AcDbPoint
 10
315.4241376679658
 20
118.7797256335528
 30
0.0
  0
POINT
  5
26A78
330
26A0A
100
AcDbEntity
  8
DEFPOINTS
  6
Continuous
 62
     0
440
 16777216
100
AcDbPoint
 10
334.7479228745835
 20
118.7797256335528
 30
0.0
  0
ENDBLK
  5
26A0C
330
26A0A
100
AcDbEntity
  8
0
 62
     7
100
AcDbBlockEnd
  0
BLOCK
  5
26A15
330
26A14
100
AcDbEntity
  8
0
 62
     7
100
AcDbBlockBegin
  2
*D7
 70
     1
 10
0.0
 20
0.0
 30
0.0
  3
*D7
  1

  0
LINE
  5
26A79
330
26A14
100
AcDbEntity
  8
0
  6
Continuous
 62
     3
440
 16777216
100
AcDbLine
 10
315.5491376679636
 20
128.0997256335971
 30
0.0
 11
327.997922874584
 21
128.0997256335971
 31
0.0
  0
LINE
  5
26A7A
330
26A14
100
AcDbEntity
  8
0
  6
Continuous
 62
     3
440
 16777216
100
AcDbLine
 10
326.747922874584
 20
125.5997256335971
 30
0.0
 11
326.747922874584
 21
117.3873558199397
 31
0.0
  0
SOLID
  5
26A7B
330
26A14
100
AcDbEntity
  8
0
  6
Continuous
 62
     3
440
 16777216
100
AcDbTrace
 10
326.3312562079173
 20
125.5997256335971
 30
0.0
 11
327.1645895412507
 21
125.5997256335971
 31
0.0
 12
326.7479228745841
 22
128.0997256335971
 32
0.0
 13
326.7479228745841
 23
128.0997256335971
 33
0.0
  0
MTEXT
  5
26A7C
330
26A14
100
AcDbEntity
  8
0
  6
Continuous
 62
     2
440
 16777216
100
AcDbMText
 10
324.6226275989934
 20
122.513536922302
 30
0.0
 40
3.0
 41
0.0
 46
0.0
 71
     5
 72
     1
  1
%%c.250
 11
0.0000000000000001
 21
1.0
 31
0.0
 73
     1
 44
1.0
  0
POINT
  5
26A7D
330
26A14
100
AcDbEntity
  8
DEFPOINTS
  6
Continuous
 62
     0
440
 16777216
100
AcDbPoint
 10
314.9241376679636
 20
128.0997256335971
 30
0.0
  0
POINT
  5
26A7E
330
26A14
100
AcDbEntity
  8
DEFPOINTS
  6
Continuous
 62
     0
440
 16777216
100
AcDbPoint
 10
314.9241376679636
 20
121.7497256335976
 30
0.0
  0
POINT
  5
26A7F
330
26A14
100
AcDbEntity
  8
DEFPOINTS
  6
Continuous
 62
     0
440
 16777216
100
AcDbPoint
 10
326.747922874584
 20
121.7497256335976
 30
0.0
  0
ENDBLK
  5
26A16
330
26A14
100
AcDbEntity
  8
0
 62
     7
100
AcDbBlockEnd
  0
BLOCK
  5
26A1F
330
26A1E
100
AcDbEntity
  8
0
 62
     7
100
AcDbBlockBegin
  2
*D8
 70
     1
 10
0.0
 20
0.0
 30
0.0
  3
*D8
  1

  0
LINE
  5
26A80
330
26A1E
100
AcDbEntity
  8
0
  6
Continuous
 62
     3
440
 16777216
100
AcDbLine
 10
293.4241376679649
 20
128.7247256335562
 30
0.0
 11
293.4241376679649
 21
150.7922558865469
 31
0.0
  0
LINE
  5
26A81
330
26A1E
100
AcDbEntity
  8
0
  6
Continuous
 62
     3
440
 16777216
100
AcDbLine
 10
315.4241376679658
 20
131.6947256335519
 30
0.0
 11
315.4241376679658
 21
150.7922558865469
 31
0.0
  0
LINE
  5
26A82
330
26A1E
100
AcDbEntity
  8
0
  6
Continuous
 62
     3
440
 16777216
100
AcDbLine
 10
295.9241376679649
 20
149.5422558865469
 30
0.0
 11
312.9241376679658
 21
149.5422558865469
 31
0.0
  0
SOLID
  5
26A83
330
26A1E
100
AcDbEntity
  8
0
  6
Continuous
 62
     3
440
 16777216
100
AcDbTrace
 10
295.9241376679649
 20
149.9589225532136
 30
0.0
 11
295.9241376679649
 21
149.1255892198803
 31
0.0
 12
293.4241376679649
 22
149.5422558865469
 32
0.0
 13
293.4241376679649
 23
149.5422558865469
 33
0.0
  0
SOLID
  5
26A84
330
26A1E
100
AcDbEntity
  8
0
  6
Continuous
 62
     3
440
 16777216
100
AcDbTrace
 10
312.9241376679658
 20
149.9589225532136
 30
0.0
 11
312.9241376679658
 21
149.1255892198803
 31
0.0
 12
315.4241376679658
 22
149.5422558865469
 32
0.0
 13
315.4241376679658
 23
149.5422558865469
 33
0.0
  0
MTEXT
  5
26A85
330
26A1E
100
AcDbEntity
  8
0
  6
Continuous
 62
     2
440
 16777216
100
AcDbMText
 10
304.4241376679654
 20
151.6672558865469
 30
0.0
 40
3.0
 41
0.0
 46
0.0
 71
     5
 72
     1
  1
.866
 73
     1
 44
1.0
  0
POINT
  5
26A86
330
26A1E
100
AcDbEntity
  8
DEFPOINTS
  6
Continuous
 62
     0
440
 16777216
100
AcDbPoint
 10
293.4241376679649
 20
128.0997256335562
 30
0.0
  0
POINT
  5
26A87
330
26A1E
100
AcDbEntity
  8
DEFPOINTS
  6
Continuous
 62
     0
440
 16777216
100
AcDbPoint
 10
315.4241376679658
 20
131.0697256335519
 30
0.0
  0
POINT
  5
26A88
330
26A1E
100
AcDbEntity
  8
DEFPOINTS
  6
Continuous
 62
     0
440
 16777216
100
AcDbPoint
 10
315.4241376679658
 20
149.5422558865469
 30
0.0
  0
ENDBLK
  5
26A20
330
26A1E
100
AcDbEntity
  8
0
 62
     7
100
AcDbBlockEnd
  0
BLOCK
  5
26A3A
330
26A39
100
AcDbEntity
  8
0
 62
     7
100
AcDbBlockBegin
  2
*D9
 70
     1
 10
0.0
 20
0.0
 30
0.0
  3
*D9
  1

  0
LINE
  5
26A98
330
26A39
100
AcDbEntity
  8
0
  6
Continuous
 62
     3
440
 16777216
100
AcDbLine
 10
191.1240328236489
 20
148.0609629916351
 30
0.0
 11
184.0689006963665
 21
141.072863879436
 31
0.0
  0
MTEXT
  5
26A99
330
26A39
100
AcDbEntity
  8
0
  6
Continuous
 62
     2
440
 16777216
100
AcDbMText
 10
186.988938941626
 20
146.9565347357294
 30
0.0
 40
3.0
 41
0.0
 46
0.0
 71
     5
 72
     1
  1
R.12
 11
0.7104739431937912
 21
0.7037235082350636
 31
0.0
 73
     1
 44
1.0
  0
SOLID
  5
26A9A
330
26A39
100
AcDbEntity
  8
0
  6
Continuous
 62
     3
440
 16777216
100
AcDbTrace
 10
183.7756825679352
 20
141.3688946891001
 30
0.0
 11
184.3621188247978
 21
140.7768330697719
 31
0.0
 12
182.292715838382
 22
139.3135551088484
 32
0.0
 13
182.292715838382
 23
139.3135551088484
 33
0.0
  0
POINT
  5
26A9B
330
26A39
100
AcDbEntity
  8
DEFPOINTS
  6
Continuous
 62
     0
440
 16777216
100
AcDbPoint
 10
182.292715838382
 20
139.3135551088484
 30
0.0
  0
POINT
  5
26A9C
330
26A39
100
AcDbEntity
  8
DEFPOINTS
  6
Continuous
 62
     0
440
 16777216
100
AcDbPoint
 10
184.4241376679631
 20
141.4247256335533
 30
0.0
  0
ENDBLK
  5
26A3B
330
26A39
100
AcDbEntity
  8
0
 62
     7
100
AcDbBlockEnd
  0
BLOCK
  5
26A42
330
26A41
100
AcDbEntity
  8
0
 62
     7
100
AcDbBlockBegin
  2
*D10
 70
     1
 10
0.0
 20
0.0
 30
0.0
  3
*D10
  1

  0
LINE
  5
26A9D
330
26A41
100
AcDbEntity
  8
0
  6
Continuous
 62
     3
440
 16777216
100
AcDbLine
 10
155.7991376679645
 20
164.9247256335533
 30
0.0
 11
111.1845237570767
 21
164.9247256335533
 31
0.0
  0
LINE
  5
26A9E
330
26A41
100
AcDbEntity
  8
0
  6
Continuous
 62
     3
440
 16777216
100
AcDbLine
 10
112.4345237570767
 20
162.4247256335533
 30
0.0
 11
112.4345237570767
 21
117.7919528690617
 31
0.0
  0
SOLID
  5
26A9F
330
26A41
100
AcDbEntity
  8
0
  6
Continuous
 62
     3
440
 16777216
100
AcDbTrace
 10
112.01785709041
 20
162.4247256335533
 30
0.0
 11
112.8511904237434
 21
162.4247256335533
 31
0.0
 12
112.4345237570767
 22
164.9247256335533
 32
0.0
 13
112.4345237570767
 23
164.9247256335533
 33
0.0
  0
MTEXT
  5
26AA0
330
26A41
100
AcDbEntity
  8
0
  6
Continuous
 62
     2
440
 16777216
100
AcDbMText
 10
110.3095237570767
 20
123.9243430875643
 30
0.0
 40
3.0
 41
0.0
 46
0.0
 71
     5
 72
     1
  1
%%C3.149
 11
0.0000000000000001
 21
1.0
 31
0.0
 73
     1
 44
1.0
  0
POINT
  5
26AA1
330
26A41
100
AcDbEntity
  8
DEFPOINTS
  6
Continuous
 62
     0
440
 16777216
100
AcDbPoint
 10
156.4241376679644
 20
84.92472563355329
 30
0.0
  0
POINT
  5
26AA2
330
26A41
100
AcDbEntity
  8
DEFPOINTS
  6
Continuous
 62
     0
440
 16777216
100
AcDbPoint
 10
156.4241376679644
 20
164.9247256335533
 30
0.0
  0
POINT
  5
26AA3
330
26A41
100
AcDbEntity
  8
DEFPOINTS
  6
Continuous
 62
     0
440
 16777216
100
AcDbPoint
 10
112.4345237570767
 20
164.9247256335533
 30
0.0
  0
ENDBLK
  5
26A43
330
26A41
100
AcDbEntity
  8
0
 62
     7
100
AcDbBlockEnd
  0
BLOCK
  5
26A5E
330
26A5D
100
AcDbEntity
  8
0
 62
     7
100
AcDbBlockBegin
  2
*D11
 70
     1
 10
0.0
 20
0.0
 30
0.0
  3
*D11
  1

  0
LINE
  5
26AB6
330
26A5D
100
AcDbEntity
  8
0
  6
Continuous
 62
     3
440
 16777216
100
AcDbLine
 10
166.3241376679637
 20
121.799725633556
 30
0.0
 11
166.3241376679637
 21
108.107912802206
 31
0.0
  0
LINE
  5
26AB7
330
26A5D
100
AcDbEntity
  8
0
  6
Continuous
 62
     3
440
 16777216
100
AcDbLine
 10
155.4241376679636
 20
114.1427649662668
 30
0.0
 11
155.4241376679636
 21
108.107912802206
 31
0.0
  0
LINE
  5
26AB8
330
26A5D
100
AcDbEntity
  8
0
  6
Continuous
 62
     3
440
 16777216
100
AcDbLine
 10
163.8241376679636
 20
109.357912802206
 30
0.0
 11
157.9241376679636
 21
109.357912802206
 31
0.0
  0
LINE
  5
26AB9
330
26A5D
100
AcDbEntity
  8
0
  6
Continuous
 62
     3
440
 16777216
100
AcDbLine
 10
155.4241376679636
 20
109.357912802206
 30
0.0
 11
139.3658428241561
 21
109.357912802206
 31
0.0
  0
SOLID
  5
26ABA
330
26A5D
100
AcDbEntity
  8
0
  6
Continuous
 62
     3
440
 16777216
100
AcDbTrace
 10
163.8241376679636
 20
109.7745794688726
 30
0.0
 11
163.8241376679636
 21
108.9412461355393
 31
0.0
 12
166.3241376679637
 22
109.357912802206
 32
0.0
 13
166.3241376679637
 23
109.357912802206
 33
0.0
  0
SOLID
  5
26ABB
330
26A5D
100
AcDbEntity
  8
0
  6
Continuous
 62
     3
440
 16777216
100
AcDbTrace
 10
157.9241376679636
 20
109.7745794688726
 30
0.0
 11
157.9241376679636
 21
108.9412461355393
 31
0.0
 12
155.4241376679636
 22
109.357912802206
 32
0.0
 13
155.4241376679636
 23
109.357912802206
 33
0.0
  0
MTEXT
  5
26ABC
330
26A5D
100
AcDbEntity
  8
0
  6
Continuous
 62
     2
440
 16777216
100
AcDbMText
 10
146.1449032175353
 20
111.6336378407355
 30
0.0
 40
3.0
 41
0.0
 46
0.0
 71
     5
 72
     1
  1
(2-10.9)
 73
     1
 44
1.0
  0
POINT
  5
26ABD
330
26A5D
100
AcDbEntity
  8
DEFPOINTS
  6
Continuous
 62
     0
440
 16777216
100
AcDbPoint
 10
166.3241376679637
 20
122.424725633556
 30
0.0
  0
POINT
  5
26ABE
330
26A5D
100
AcDbEntity
  8
DEFPOINTS
  6
Continuous
 62
     0
440
 16777216
100
AcDbPoint
 10
155.4241376679636
 20
114.7677649662668
 30
0.0
  0
POINT
  5
26ABF
330
26A5D
100
AcDbEntity
  8
DEFPOINTS
  6
Continuous
 62
     0
440
 16777216
100
AcDbPoint
 10
155.4241376679636
 20
109.357912802206
 30
0.0
  0
ENDBLK
  5
26A5F
330
26A5D
100
AcDbEntity
  8
0
 62
     7
100
AcDbBlockEnd
  0
ENDSEC
  0
SECTION
  2
ENTITIES
  0
LWPOLYLINE
  5
24498
330
2
100
AcDbEntity
  8
0
 62
     0
100
AcDbPolyline
 90
        4
 70
     1
 43
0.0
 10
0.0
 20
0.0
 10
0.0
 20
244.9489638202782
 10
351.0124800000003
 20
244.9489638202782
 10
351.0124800000003
 20
0.0
  0
LINE
  5
24499
330
2
100
AcDbEntity
  8
0
  6
Continuous
 62
     7
100
AcDbLine
 10
263.2593600000008
 20
-4.280640000000363
 30
0.0
 11
263.2593600000008
 21
0.0
 31
0.0
  0
LINE
  5
2449A
330
2
100
AcDbEntity
  8
0
  6
Continuous
 62
     7
100
AcDbLine
 10
258.9787200000005
 20
0.0
 30
0.0
 11
258.9787200000005
 21
34.44594803722607
 31
0.0
  0
LINE
  5
2449B
330
2
100
AcDbEntity
  8
0
  6
Continuous
 62
     7
100
AcDbLine
 10
87.75312000000063
 20
-4.280640000000363
 30
0.0
 11
87.75312000000063
 21
0.0
 31
0.0
  0
LINE
  5
2449C
330
2
100
AcDbEntity
  8
0
  6
Continuous
 62
     7
100
AcDbLine
 10
263.2593600000008
 20
249.2296038202775
 30
0.0
 11
263.2593600000008
 21
244.9489638202782
 31
0.0
  0
LINE
  5
2449D
330
2
100
AcDbEntity
  8
0
  6
Continuous
 62
     7
100
AcDbLine
 10
87.75312000000063
 20
249.2296038202775
 30
0.0
 11
87.75312000000063
 21
244.9489638202782
 31
0.0
  0
LINE
  5
2449E
330
2
100
AcDbEntity
  8
0
  6
Continuous
 62
     7
100
AcDbLine
 10
-4.280639999999228
 20
61.2372409550687
 30
0.0
 11
0.0
 21
61.2372409550687
 31
0.0
  0
LINE
  5
2449F
330
2
100
AcDbEntity
  8
0
  6
Continuous
 62
     7
100
AcDbLine
 10
-4.280639999999228
 20
183.7117228652084
 30
0.0
 11
0.0
 21
183.7117228652084
 31
0.0
  0
LINE
  5
244A0
330
2
100
AcDbEntity
  8
0
  6
Continuous
 62
     7
100
AcDbLine
 10
355.2931200000006
 20
61.2372409550687
 30
0.0
 11
351.0124800000003
 21
61.2372409550687
 31
0.0
  0
LINE
  5
244A1
330
2
100
AcDbEntity
  8
0
  6
Continuous
 62
     7
100
AcDbLine
 10
355.2931200000006
 20
183.7117228652084
 30
0.0
 11
351.0124800000003
 21
183.7117228652084
 31
0.0
  0
LINE
  5
244A2
330
2
100
AcDbEntity
  8
0
  6
Continuous
 62
     7
100
AcDbLine
 10
351.0124800000003
 20
34.44594803722607
 30
0.0
 11
258.9787200000005
 21
34.44594803722607
 31
0.0
  0
LINE
  5
244A3
330
2
100
AcDbEntity
  8
0
  6
Continuous
 62
     7
100
AcDbLine
 10
258.9787200000005
 20
11.4819826790746
 30
0.0
 11
351.0124800000003
 21
11.4819826790746
 31
0.0
  0
LINE
  5
244A4
330
2
100
AcDbEntity
  8
0
  6
Continuous
 62
     7
100
AcDbLine
 10
258.9787200000005
 20
22.96396535815034
 30
0.0
 11
351.0124800000003
 21
22.96396535815034
 31
0.0
  0
LINE
  5
244A5
330
2
100
AcDbEntity
  8
0
  6
Continuous
 62
     7
100
AcDbLine
 10
258.9787200000005
 20
0.0
 30
0.0
 11
351.0124800000003
 21
0.0
 31
0.0
  0
LINE
  5
244A6
330
2
100
AcDbEntity
  8
0
  6
Continuous
 62
     7
100
AcDbLine
 10
351.0124800000003
 20
122.4744819101385
 30
0.0
 11
355.2931200000006
 21
122.4744819101385
 31
0.0
  0
LINE
  5
244A7
330
2
100
AcDbEntity
  8
0
  6
Continuous
 62
     7
100
AcDbLine
 10
353.1528000000005
 20
121.0190643101389
 30
0.0
 11
353.1528000000005
 21
123.9298995101381
 31
0.0
  0
LINE
  5
244A8
330
2
100
AcDbEntity
  8
0
  6
Continuous
 62
     7
100
AcDbLine
 10
353.1528000000005
 20
121.0190643101389
 30
0.0
 11
351.0124800000003
 21
122.4744819101385
 31
0.0
  0
LINE
  5
244A9
330
2
100
AcDbEntity
  8
0
  6
Continuous
 62
     7
100
AcDbLine
 10
351.0124800000003
 20
122.4744819101385
 30
0.0
 11
353.1528000000005
 21
123.9298995101381
 31
0.0
  0
LINE
  5
244AA
330
2
100
AcDbEntity
  8
0
  6
Continuous
 62
     7
100
AcDbLine
 10
0.0
 20
122.4744819101385
 30
0.0
 11
-4.280639999999228
 21
122.4744819101385
 31
0.0
  0
LINE
  5
244AB
330
2
100
AcDbEntity
  8
0
  6
Continuous
 62
     7
100
AcDbLine
 10
-2.140320000000181
 20
121.0190643101389
 30
0.0
 11
-2.140320000000181
 21
123.9298995101381
 31
0.0
  0
LINE
  5
244AC
330
2
100
AcDbEntity
  8
0
  6
Continuous
 62
     7
100
AcDbLine
 10
-2.140320000000181
 20
121.0190643101389
 30
0.0
 11
0.0
 21
122.4744819101385
 31
0.0
  0
LINE
  5
244AD
330
2
100
AcDbEntity
  8
0
  6
Continuous
 62
     7
100
AcDbLine
 10
0.0
 20
122.4744819101385
 30
0.0
 11
-2.140320000000181
 21
123.9298995101381
 31
0.0
  0
LINE
  5
244AE
330
2
100
AcDbEntity
  8
0
  6
Continuous
 62
     7
100
AcDbLine
 10
175.5062400000013
 20
244.9489638202782
 30
0.0
 11
175.5062400000013
 21
249.2296038202775
 31
0.0
  0
LINE
  5
244AF
330
2
100
AcDbEntity
  8
0
  6
Continuous
 62
     7
100
AcDbLine
 10
174.0508224000005
 20
247.0892838202773
 30
0.0
 11
176.9616576000008
 21
247.0892838202773
 31
0.0
  0
LINE
  5
244B0
330
2
100
AcDbEntity
  8
0
  6
Continuous
 62
     7
100
AcDbLine
 10
174.0508224000005
 20
247.0892838202773
 30
0.0
 11
175.5062400000013
 21
244.9489638202782
 31
0.0
  0
LINE
  5
244B1
330
2
100
AcDbEntity
  8
0
  6
Continuous
 62
     7
100
AcDbLine
 10
175.5062400000013
 20
244.9489638202782
 30
0.0
 11
176.9616576000008
 21
247.0892838202773
 31
0.0
  0
LINE
  5
244B2
330
2
100
AcDbEntity
  8
0
  6
Continuous
 62
     7
100
AcDbLine
 10
175.5062400000013
 20
0.0
 30
0.0
 11
175.5062400000013
 21
-4.280640000000363
 31
0.0
  0
LINE
  5
244B3
330
2
100
AcDbEntity
  8
0
  6
Continuous
 62
     7
100
AcDbLine
 10
174.0508224000005
 20
-2.140320000000181
 30
0.0
 11
176.9616576000008
 21
-2.140320000000181
 31
0.0
  0
LINE
  5
244B4
330
2
100
AcDbEntity
  8
0
  6
Continuous
 62
     7
100
AcDbLine
 10
174.0508224000005
 20
-2.140320000000181
 30
0.0
 11
175.5062400000013
 21
0.0
 31
0.0
  0
LINE
  5
244B5
330
2
100
AcDbEntity
  8
0
  6
Continuous
 62
     7
100
AcDbLine
 10
175.5062400000013
 20
0.0
 30
0.0
 11
176.9616576000008
 21
-2.140320000000181
 31
0.0
  0
TEXT
  5
244B6
330
2
100
AcDbEntity
  8
0
 62
     2
100
AcDbText
 10
42.98015657380208
 20
-3.468338122204353
 30
0.0
 40
2.397158399999999
  1
4
  7
굴림
100
AcDbText
  0
TEXT
  5
244B7
330
2
100
AcDbEntity
  8
0
 62
     2
100
AcDbText
 10
130.8146353481772
 20
-3.468338122204353
 30
0.0
 40
2.397158399999999
  1
3
  7
굴림
100
AcDbText
  0
TEXT
  5
244B8
330
2
100
AcDbEntity
  8
0
 62
     2
100
AcDbText
 10
218.4542432787428
 20
-3.468338122204353
 30
0.0
 40
2.397158399999999
  1
2
  7
굴림
100
AcDbText
  0
TEXT
  5
244B9
330
2
100
AcDbEntity
  8
0
 62
     2
100
AcDbText
 10
306.4750005923157
 20
-3.468338122204353
 30
0.0
 40
2.397158399999999
  1
1
  7
굴림
100
AcDbText
  0
TEXT
  5
244BA
330
2
100
AcDbEntity
  8
0
 62
     2
100
AcDbText
 10
42.98015657380208
 20
246.3137889065149
 30
0.0
 40
2.397158399999999
  1
4
  7
굴림
100
AcDbText
  0
TEXT
  5
244BB
330
2
100
AcDbEntity
  8
0
 62
     2
100
AcDbText
 10
130.8146353481772
 20
246.3137889065149
 30
0.0
 40
2.397158399999999
  1
3
  7
굴림
100
AcDbText
  0
TEXT
  5
244BC
330
2
100
AcDbEntity
  8
0
 62
     2
100
AcDbText
 10
218.4542432787428
 20
246.3137889065149
 30
0.0
 40
2.397158399999999
  1
2
  7
굴림
100
AcDbText
  0
TEXT
  5
244BD
330
2
100
AcDbEntity
  8
0
 62
     2
100
AcDbText
 10
306.4750005923157
 20
246.3137889065149
 30
0.0
 40
2.397158399999999
  1
1
  7
굴림
100
AcDbText
  0
TEXT
  5
244BE
330
2
100
AcDbEntity
  8
0
 62
     2
100
AcDbText
 10
-3.460628395905252
 20
29.82042864410486
 30
0.0
 40
2.397158399999999
  1
A
  7
굴림
100
AcDbText
  0
TEXT
  5
244BF
330
2
100
AcDbEntity
  8
0
 62
     2
100
AcDbText
 10
-3.460628395905252
 20
90.54964392292117
 30
0.0
 40
2.397158399999999
  1
B
  7
굴림
100
AcDbText
  0
TEXT
  5
244C0
330
2
100
AcDbEntity
  8
0
 62
     2
100
AcDbText
 10
-3.460628395905252
 20
151.8583564019574
 30
0.0
 40
2.397158399999999
  1
C
  7
굴림
100
AcDbText
  0
TEXT
  5
244C1
330
2
100
AcDbEntity
  8
0
 62
     2
100
AcDbText
 10
-3.460628395905252
 20
213.5445952772715
 30
0.0
 40
2.397158399999999
  1
D
  7
굴림
100
AcDbText
  0
TEXT
  5
244C2
330
2
100
AcDbEntity
  8
0
 62
     2
100
AcDbText
 10
352.294808205016
 20
29.82042864410486
 30
0.0
 40
2.397158399999999
  1
A
  7
굴림
100
AcDbText
  0
TEXT
  5
244C3
330
2
100
AcDbEntity
  8
0
 62
     2
100
AcDbText
 10
352.294808205016
 20
90.54964392292117
 30
0.0
 40
2.397158399999999
  1
B
  7
굴림
100
AcDbText
  0
TEXT
  5
244C4
330
2
100
AcDbEntity
  8
0
 62
     2
100
AcDbText
 10
352.294808205016
 20
151.8583564019574
 30
0.0
 40
2.397158399999999
  1
C
  7
굴림
100
AcDbText
  0
TEXT
  5
244C5
330
2
100
AcDbEntity
  8
0
 62
     2
100
AcDbText
 10
352.294808205016
 20
213.5445952772715
 30
0.0
 40
2.397158399999999
  1
D
  7
굴림
100
AcDbText
  0
TEXT
  5
244C6
330
2
100
AcDbEntity
  8
0
 62
     2
100
AcDbText
 10
285.3791962851971
 20
15.77777236324569
 30
0.0
 40
3.356021759999999
  1
www.maritool.com
  7
굴림
100
AcDbText
  0
TEXT
  5
244C7
330
2
100
AcDbEntity
  8
0
 62
     2
100
AcDbText
 10
262.4344375011333
 20
4.536342687300697
 30
0.0
 40
2.684817407999999
  1
ITEM#
  7
굴림
100
AcDbText
  0
TEXT
  5
244C8
330
2
100
AcDbEntity
  8
0
 62
     2
100
AcDbText
 10
277.1889077775843
 20
3.898437559889804
 30
0.0
 40
4.027226111999999
  1
HSK80F-SF.25-6.3
  7
굴림
100
AcDbText
  0
LWPOLYLINE
  5
24547
102
{ACAD_REACTORS
330
24548
102
}
330
2
100
AcDbEntity
  8
Layer 1
 62
   103
100
AcDbPolyline
 90
        8
 70
     1
 43
0.0
 10
330.9283306722212
 20
33.17009673403428
 10
298.1031530710711
 20
33.17138728554236
 10
297.6135026460495
 20
31.56081696119198
 10
308.989030954243
 20
31.56025187027097
 10
306.8120223901573
 20
24.01120451269535
 10
308.9453040325671
 20
24.01120451269535
 10
311.1218950652837
 20
31.56025187027097
 10
330.4362531220675
 20
31.55929866530112
  0
HATCH
  5
24548
330
2
100
AcDbEntity
  8
0
  6
Continuous
 62
    93
100
AcDbHatch
 10
0.0
 20
0.0
 30
0.0
210
0.0
220
0.0
230
0.9999999999999998
  2
SOLID
 70
     1
 71
     1
 91
        1
 92
        7
 72
     0
 73
     1
 93
        8
 10
298.1031530710711
 20
33.17138728554236
 10
297.6135026460495
 20
31.56081696119198
 10
308.989030954243
 20
31.56025187027097
 10
306.8120223901573
 20
24.01120451269535
 10
308.9453040325671
 20
24.01120451269535
 10
311.1218950652837
 20
31.56025187027097
 10
330.4362531220675
 20
31.55929866530112
 10
330.9283306722212
 20
33.17009673403428
 97
        1
330
24547
 75
     1
 76
     1
 47
0.0428322549537331
 98
        1
 10
312.5477094073707
 20
32.37557164405409
450
        0
451
        0
460
0.0
461
0.0
452
        0
462
1.0
453
        2
463
0.0
 63
     5
421
      255
463
1.0
 63
     2
421
 16776960
470
LINEAR
1001
GRADIENTCOLOR1ACI
1070
     5
1001
GRADIENTCOLOR2ACI
1070
     2
1001
ACAD
1010
0.0
1020
0.0
1030
0.0
  0
HATCH
  5
24549
330
2
100
AcDbEntity
  8
0
  6
Continuous
 62
     0
100
AcDbHatch
 10
0.0
 20
0.0
 30
0.0
210
0.0
220
0.0
230
0.9999999999999998
  2
SOLID
 70
     1
 71
     1
 91
        1
 92
        5
 93
       13
 72
     4
 94
        3
 73
     0
 74
     0
 95
        8
 96
        4
 40
1.0
 40
1.0
 40
1.0
 40
1.0
 40
2.0
 40
2.0
 40
2.0
 40
2.0
 10
286.4112498564757
 20
28.49268258096325
 10
286.4112498564757
 20
28.49268258096325
 10
285.4326322395831
 20
24.01120451269535
 10
285.4326322395831
 20
24.01120451269535
 97
        0
 72
     4
 94
        3
 73
     0
 74
     0
 95
        8
 96
        4
 40
0.0
 40
0.0
 40
0.0
 40
0.0
 40
1.0
 40
1.0
 40
1.0
 40
1.0
 10
285.4326322395831
 20
24.01120451269535
 10
285.4326322395831
 20
24.01120451269535
 10
287.5851582824187
 20
24.01120451269535
 10
287.5851582824187
 20
24.01120451269535
 97
        0
 72
     4
 94
        3
 73
     0
 74
     0
 95
        8
 96
        4
 40
12.0
 40
12.0
 40
12.0
 40
12.0
 40
13.0
 40
13.0
 40
13.0
 40
13.0
 10
287.5851582824187
 20
24.01120451269535
 10
287.5851582824187
 20
24.01120451269535
 10
288.7107469416131
 20
30.91915141387211
 10
288.7107469416131
 20
30.91915141387211
 97
        0
 72
     4
 94
        3
 73
     0
 74
     0
 95
        8
 96
        4
 40
11.0
 40
11.0
 40
11.0
 40
11.0
 40
12.0
 40
12.0
 40
12.0
 40
12.0
 10
288.7107469416131
 20
30.91915141387211
 10
288.7107469416131
 20
30.91915141387211
 10
286.3913981376936
 20
30.91915141387211
 10
286.3913981376936
 20
30.91915141387211
 97
        0
 72
     4
 94
        3
 73
     0
 74
     0
 95
        8
 96
        4
 40
10.0
 40
10.0
 40
10.0
 40
10.0
 40
11.0
 40
11.0
 40
11.0
 40
11.0
 10
286.3913981376936
 20
30.91915141387211
 10
286.3913981376936
 20
30.91915141387211
 10
284.0038778482447
 20
27.1228760276138
 10
284.0038778482447
 20
27.1228760276138
 97
        0
 72
     4
 94
        3
 73
     0
 74
     0
 95
        8
 96
        4
 40
9.0
 40
9.0
 40
9.0
 40
9.0
 40
10.0
 40
10.0
 40
10.0
 40
10.0
 10
284.0038778482447
 20
27.1228760276138
 10
284.0038778482447
 20
27.1228760276138
 10
283.5835385953676
 20
30.91915141387211
 10
283.5835385953676
 20
30.91915141387211
 97
        0
 72
     4
 94
        3
 73
     0
 74
     0
 95
        8
 96
        4
 40
8.0
 40
8.0
 40
8.0
 40
8.0
 40
9.0
 40
9.0
 40
9.0
 40
9.0
 10
283.5835385953676
 20
30.91915141387211
 10
283.5835385953676
 20
30.91915141387211
 10
281.3032858530524
 20
30.91915141387211
 10
281.3032858530524
 20
30.91915141387211
 97
        0
 72
     4
 94
        3
 73
     0
 74
     0
 95
        8
 96
        4
 40
7.0
 40
7.0
 40
7.0
 40
7.0
 40
8.0
 40
8.0
 40
8.0
 40
8.0
 10
281.3032858530524
 20
30.91915141387211
 10
281.3032858530524
 20
30.91915141387211
 10
278.7887980061516
 20
24.01120451269535
 10
278.7887980061516
 20
24.01120451269535
 97
        0
 72
     4
 94
        3
 73
     0
 74
     0
 95
        8
 96
        4
 40
6.0
 40
6.0
 40
6.0
 40
6.0
 40
7.0
 40
7.0
 40
7.0
 40
7.0
 10
278.7887980061516
 20
24.01120451269535
 10
278.7887980061516
 20
24.01120451269535
 10
280.8923970170241
 20
24.01120451269535
 10
280.8923970170241
 20
24.01120451269535
 97
        0
 72
     4
 94
        3
 73
     0
 74
     0
 95
        8
 96
        4
 40
5.0
 40
5.0
 40
5.0
 40
5.0
 40
6.0
 40
6.0
 40
6.0
 40
6.0
 10
280.8923970170241
 20
24.01120451269535
 10
280.8923970170241
 20
24.01120451269535
 10
282.311358435706
 20
28.59038492158321
 10
282.311358435706
 20
28.59038492158321
 97
        0
 72
     4
 94
        3
 73
     0
 74
     0
 95
        8
 96
        4
 40
4.0
 40
4.0
 40
4.0
 40
4.0
 40
5.0
 40
5.0
 40
5.0
 40
5.0
 10
282.311358435706
 20
28.59038492158321
 10
282.311358435706
 20
28.59038492158321
 10
282.8299324105637
 20
24.01120451269535
 10
282.8299324105637
 20
24.01120451269535
 97
        0
 72
     4
 94
        3
 73
     0
 74
     0
 95
        8
 96
        4
 40
3.0
 40
3.0
 40
3.0
 40
3.0
 40
4.0
 40
4.0
 40
4.0
 40
4.0
 10
282.8299324105637
 20
24.01120451269535
 10
282.8299324105637
 20
24.01120451269535
 10
283.5149486137714
 20
24.01120451269535
 10
283.5149486137714
 20
24.01120451269535
 97
        0
 72
     4
 94
        3
 73
     0
 74
     0
 95
        8
 96
        4
 40
2.0
 40
2.0
 40
2.0
 40
2.0
 40
3.0
 40
3.0
 40
3.0
 40
3.0
 10
283.5149486137714
 20
24.01120451269535
 10
283.5149486137714
 20
24.01120451269535
 10
286.4112498564757
 20
28.49268258096325
 10
286.4112498564757
 20
28.49268258096325
 97
        0
 97
       13
330
24557
330
24555
330
24554
330
24553
330
24552
330
24551
330
24550
330
2454F
330
2454E
330
2454D
330
2454C
330
2454B
330
2454A
 75
     1
 76
     1
 47
0.0269459378258844
 98
        1
 10
286.5361013654737
 20
26.35980709993985
450
        0
451
        0
460
0.0
461
0.0
452
        0
462
1.0
453
        2
463
0.0
 63
     5
421
      255
463
1.0
 63
     2
421
 16776960
470
LINEAR
1001
GRADIENTCOLOR1ACI
1070
     5
1001
GRADIENTCOLOR2ACI
1070
     2
1001
ACAD
1010
0.0
1020
0.0
1030
0.0
  0
SPLINE
  5
2454A
102
{ACAD_REACTORS
330
24549
102
}
330
2
100
AcDbEntity
  8
Layer 1
100
AcDbSpline
210
0.0
220
0.0
230
1.0
 70
    24
 71
     3
 72
     8
 73
     4
 74
     0
 42
0.000000001
 43
0.0000000001
 40
0.0
 40
0.0
 40
0.0
 40
0.0
 40
1.0
 40
1.0
 40
1.0
 40
1.0
 10
287.5851582824187
 20
24.01120451269535
 30
0.0
 10
287.5851582824187
 20
24.01120451269535
 30
0.0
 10
285.4326322395831
 20
24.01120451269535
 30
0.0
 10
285.4326322395831
 20
24.01120451269535
 30
0.0
  0
SPLINE
  5
2454B
102
{ACAD_REACTORS
330
24549
102
}
330
2
100
AcDbEntity
  8
Layer 1
100
AcDbSpline
210
0.0
220
0.0
230
1.0
 70
    24
 71
     3
 72
     8
 73
     4
 74
     0
 42
0.000000001
 43
0.0000000001
 40
1.0
 40
1.0
 40
1.0
 40
1.0
 40
2.0
 40
2.0
 40
2.0
 40
2.0
 10
285.4326322395831
 20
24.01120451269535
 30
0.0
 10
285.4326322395831
 20
24.01120451269535
 30
0.0
 10
286.4112498564757
 20
28.49268258096325
 30
0.0
 10
286.4112498564757
 20
28.49268258096325
 30
0.0
  0
SPLINE
  5
2454C
102
{ACAD_REACTORS
330
24549
102
}
330
2
100
AcDbEntity
  8
Layer 1
100
AcDbSpline
210
0.0
220
0.0
230
1.0
 70
    24
 71
     3
 72
     8
 73
     4
 74
     0
 42
0.000000001
 43
0.0000000001
 40
2.0
 40
2.0
 40
2.0
 40
2.0
 40
3.0
 40
3.0
 40
3.0
 40
3.0
 10
286.4112498564757
 20
28.49268258096325
 30
0.0
 10
286.4112498564757
 20
28.49268258096325
 30
0.0
 10
283.5149486137714
 20
24.01120451269535
 30
0.0
 10
283.5149486137714
 20
24.01120451269535
 30
0.0
  0
SPLINE
  5
2454D
102
{ACAD_REACTORS
330
24549
102
}
330
2
100
AcDbEntity
  8
Layer 1
100
AcDbSpline
210
0.0
220
0.0
230
1.0
 70
    24
 71
     3
 72
     8
 73
     4
 74
     0
 42
0.000000001
 43
0.0000000001
 40
3.0
 40
3.0
 40
3.0
 40
3.0
 40
4.0
 40
4.0
 40
4.0
 40
4.0
 10
283.5149486137714
 20
24.01120451269535
 30
0.0
 10
283.5149486137714
 20
24.01120451269535
 30
0.0
 10
282.8299324105637
 20
24.01120451269535
 30
0.0
 10
282.8299324105637
 20
24.01120451269535
 30
0.0
  0
SPLINE
  5
2454E
102
{ACAD_REACTORS
330
24549
102
}
330
2
100
AcDbEntity
  8
Layer 1
100
AcDbSpline
210
0.0
220
0.0
230
1.0
 70
    24
 71
     3
 72
     8
 73
     4
 74
     0
 42
0.000000001
 43
0.0000000001
 40
4.0
 40
4.0
 40
4.0
 40
4.0
 40
5.0
 40
5.0
 40
5.0
 40
5.0
 10
282.8299324105637
 20
24.01120451269535
 30
0.0
 10
282.8299324105637
 20
24.01120451269535
 30
0.0
 10
282.311358435706
 20
28.59038492158321
 30
0.0
 10
282.311358435706
 20
28.59038492158321
 30
0.0
  0
SPLINE
  5
2454F
102
{ACAD_REACTORS
330
24549
102
}
330
2
100
AcDbEntity
  8
Layer 1
100
AcDbSpline
210
0.0
220
0.0
230
1.0
 70
    24
 71
     3
 72
     8
 73
     4
 74
     0
 42
0.000000001
 43
0.0000000001
 40
5.0
 40
5.0
 40
5.0
 40
5.0
 40
6.0
 40
6.0
 40
6.0
 40
6.0
 10
282.311358435706
 20
28.59038492158321
 30
0.0
 10
282.311358435706
 20
28.59038492158321
 30
0.0
 10
280.8923970170241
 20
24.01120451269535
 30
0.0
 10
280.8923970170241
 20
24.01120451269535
 30
0.0
  0
SPLINE
  5
24550
102
{ACAD_REACTORS
330
24549
102
}
330
2
100
AcDbEntity
  8
Layer 1
100
AcDbSpline
210
0.0
220
0.0
230
1.0
 70
    24
 71
     3
 72
     8
 73
     4
 74
     0
 42
0.000000001
 43
0.0000000001
 40
6.0
 40
6.0
 40
6.0
 40
6.0
 40
7.0
 40
7.0
 40
7.0
 40
7.0
 10
280.8923970170241
 20
24.01120451269535
 30
0.0
 10
280.8923970170241
 20
24.01120451269535
 30
0.0
 10
278.7887980061516
 20
24.01120451269535
 30
0.0
 10
278.7887980061516
 20
24.01120451269535
 30
0.0
  0
SPLINE
  5
24551
102
{ACAD_REACTORS
330
24549
102
}
330
2
100
AcDbEntity
  8
Layer 1
100
AcDbSpline
210
0.0
220
0.0
230
1.0
 70
    24
 71
     3
 72
     8
 73
     4
 74
     0
 42
0.000000001
 43
0.0000000001
 40
7.0
 40
7.0
 40
7.0
 40
7.0
 40
8.0
 40
8.0
 40
8.0
 40
8.0
 10
278.7887980061516
 20
24.01120451269535
 30
0.0
 10
278.7887980061516
 20
24.01120451269535
 30
0.0
 10
281.3032858530524
 20
30.91915141387211
 30
0.0
 10
281.3032858530524
 20
30.91915141387211
 30
0.0
  0
SPLINE
  5
24552
102
{ACAD_REACTORS
330
24549
102
}
330
2
100
AcDbEntity
  8
Layer 1
100
AcDbSpline
210
0.0
220
0.0
230
1.0
 70
    24
 71
     3
 72
     8
 73
     4
 74
     0
 42
0.000000001
 43
0.0000000001
 40
8.0
 40
8.0
 40
8.0
 40
8.0
 40
9.0
 40
9.0
 40
9.0
 40
9.0
 10
281.3032858530524
 20
30.91915141387211
 30
0.0
 10
281.3032858530524
 20
30.91915141387211
 30
0.0
 10
283.5835385953676
 20
30.91915141387211
 30
0.0
 10
283.5835385953676
 20
30.91915141387211
 30
0.0
  0
SPLINE
  5
24553
102
{ACAD_REACTORS
330
24549
102
}
330
2
100
AcDbEntity
  8
Layer 1
100
AcDbSpline
210
0.0
220
0.0
230
1.0
 70
    24
 71
     3
 72
     8
 73
     4
 74
     0
 42
0.000000001
 43
0.0000000001
 40
9.0
 40
9.0
 40
9.0
 40
9.0
 40
10.0
 40
10.0
 40
10.0
 40
10.0
 10
283.5835385953676
 20
30.91915141387211
 30
0.0
 10
283.5835385953676
 20
30.91915141387211
 30
0.0
 10
284.0038778482447
 20
27.1228760276138
 30
0.0
 10
284.0038778482447
 20
27.1228760276138
 30
0.0
  0
SPLINE
  5
24554
102
{ACAD_REACTORS
330
24549
102
}
330
2
100
AcDbEntity
  8
Layer 1
100
AcDbSpline
210
0.0
220
0.0
230
1.0
 70
    24
 71
     3
 72
     8
 73
     4
 74
     0
 42
0.000000001
 43
0.0000000001
 40
10.0
 40
10.0
 40
10.0
 40
10.0
 40
11.0
 40
11.0
 40
11.0
 40
11.0
 10
284.0038778482447
 20
27.1228760276138
 30
0.0
 10
284.0038778482447
 20
27.1228760276138
 30
0.0
 10
286.3913981376936
 20
30.91915141387211
 30
0.0
 10
286.3913981376936
 20
30.91915141387211
 30
0.0
  0
SPLINE
  5
24555
102
{ACAD_REACTORS
330
24549
102
}
330
2
100
AcDbEntity
  8
Layer 1
100
AcDbSpline
210
0.0
220
0.0
230
1.0
 70
    24
 71
     3
 72
     8
 73
     4
 74
     0
 42
0.000000001
 43
0.0000000001
 40
11.0
 40
11.0
 40
11.0
 40
11.0
 40
12.0
 40
12.0
 40
12.0
 40
12.0
 10
286.3913981376936
 20
30.91915141387211
 30
0.0
 10
286.3913981376936
 20
30.91915141387211
 30
0.0
 10
288.7107469416131
 20
30.91915141387211
 30
0.0
 10
288.7107469416131
 20
30.91915141387211
 30
0.0
  0
SPLINE
  5
24556
102
{ACAD_REACTORS
330
2455C
102
}
330
2
100
AcDbEntity
  8
Layer 1
100
AcDbSpline
210
0.0
220
0.0
230
1.0
 70
     8
 71
     3
 72
     8
 73
     4
 74
     0
 42
0.000000001
 43
0.0000000001
 40
12.0
 40
12.0
 40
12.0
 40
12.0
 40
13.0
 40
13.0
 40
13.0
 40
13.0
 10
300.8982598926038
 20
26.85523841933281
 30
0.0
 10
301.2060943846134
 20
26.94884136104689
 30
0.0
 10
301.5115375605944
 20
27.08636101142312
 30
0.0
 10
301.7817562718915
 20
27.29281129527482
 30
0.0
  0
SPLINE
  5
24557
102
{ACAD_REACTORS
330
24549
102
}
330
2
100
AcDbEntity
  8
Layer 1
100
AcDbSpline
210
0.0
220
0.0
230
1.0
 70
    24
 71
     3
 72
     8
 73
     4
 74
     0
 42
0.000000001
 43
0.0000000001
 40
12.0
 40
12.0
 40
12.0
 40
12.0
 40
13.0
 40
13.0
 40
13.0
 40
13.0
 10
288.7107469416131
 20
30.91915141387211
 30
0.0
 10
288.7107469416131
 20
30.91915141387211
 30
0.0
 10
287.5851582824187
 20
24.01120451269535
 30
0.0
 10
287.5851582824187
 20
24.01120451269535
 30
0.0
  0
HATCH
  5
24558
330
2
100
AcDbEntity
  8
0
  6
Continuous
 62
     0
100
AcDbHatch
 10
0.0
 20
0.0
 30
0.0
210
0.0
220
0.0
230
0.9999999999999998
  2
SOLID
 70
     1
 71
     0
 91
        1
 92
        5
 93
        2
 72
     4
 94
        3
 73
     0
 74
     0
 95
       35
 96
       31
 40
9.999999403953552
 40
9.999999403953552
 40
9.999999403953552
 40
9.999999403953552
 40
10.9999988079071
 40
10.9999988079071
 40
10.9999988079071
 40
11.9999988079071
 40
11.9999988079071
 40
11.9999988079071
 40
12.9999988079071
 40
12.9999988079071
 40
12.9999988079071
 40
13.9999988079071
 40
13.9999988079071
 40
13.9999988079071
 40
14.9999988079071
 40
14.9999988079071
 40
14.9999988079071
 40
15.9999988079071
 40
15.9999988079071
 40
15.9999988079071
 40
16.9999988079071
 40
16.9999988079071
 40
16.9999988079071
 40
17.9999988079071
 40
17.9999988079071
 40
17.9999988079071
 40
18.9999988079071
 40
18.9999988079071
 40
18.9999988079071
 40
18.99999940395355
 40
18.99999940395355
 40
18.99999940395355
 40
18.99999940395355
 10
291.4457672032388
 20
25.12677241900558
 10
291.4457690043629
 20
25.12677241900558
 10
292.9566614023078
 20
25.12677241900558
 10
292.9566614023078
 20
25.12677241900558
 10
292.9566614023078
 20
25.12677241900558
 10
293.0252504192085
 20
24.01120451269534
 10
293.0252504192085
 20
24.01120451269534
 10
293.0252504192085
 20
24.01120451269534
 10
295.1095670191158
 20
24.01120451269534
 10
295.1095670191158
 20
24.01120451269534
 10
295.1095670191158
 20
24.01120451269534
 10
294.5908045131359
 20
30.92878833894112
 10
294.5908045131359
 20
30.92878833894112
 10
294.5908045131359
 20
30.92878833894112
 10
292.2814764037625
 20
30.92878833894112
 10
292.2814764037625
 20
30.92878833894112
 10
292.2814764037625
 20
30.92878833894112
 10
287.8001489806603
 20
24.01120451269534
 10
287.8001489806603
 20
24.01120451269534
 10
287.8001489806603
 20
24.01120451269534
 10
290.0407361852051
 20
24.01120451269534
 10
290.0407361852051
 20
24.01120451269534
 10
290.0407361852051
 20
24.01120451269534
 10
290.0518588307107
 20
24.02676704558314
 10
290.0518588307107
 20
24.02676704558314
 10
290.0518588307107
 20
24.02676704558314
 10
292.8000491810954
 20
28.5903849215832
 10
292.8000491810954
 20
28.5903849215832
 10
292.8000491810954
 20
28.5903849215832
 10
292.8000491810954
 20
28.59038492158248
 10
292.8000491810955
 20
28.59038492158104
 97
        0
 72
     4
 94
        3
 73
     0
 74
     0
 95
       17
 96
       13
 40
6.999999403953552
 40
6.999999403953552
 40
6.999999403953552
 40
6.999999403953552
 40
7.999998807907104
 40
7.999998807907104
 40
7.999998807907104
 40
8.999998807907104
 40
8.999998807907104
 40
8.999998807907104
 40
9.999998807907104
 40
9.999998807907104
 40
9.999998807907104
 40
9.999999403953552
 40
9.999999403953552
 40
9.999999403953552
 40
9.999999403953552
 10
292.8000491810955
 20
28.59038492158104
 10
292.8000492862535
 20
28.59038250688472
 10
292.8882621723944
 20
26.56478841528107
 10
292.8882621723944
 20
26.56478841528107
 10
292.8882621723944
 20
26.56478841528107
 10
292.1958433310568
 20
26.56478841528107
 10
292.1958433310568
 20
26.56478841528107
 10
292.1958433310568
 20
26.56478841528107
 10
291.4457672032371
 20
25.12677241900558
 10
291.4457672032371
 20
25.12677241900558
 10
291.4457672032371
 20
25.12677241900558
 10
291.4457672032377
 20
25.12677241900558
 10
291.4457672032388
 20
25.12677241900558
 97
        0
 97
        0
 75
     1
 76
     1
 47
0.0269459378258844
 98
        1
 10
294.2513848905983
 20
26.86713231191252
450
        0
451
        0
460
0.0
461
0.0
452
        0
462
1.0
453
        2
463
0.0
 63
     5
421
      255
463
1.0
 63
     2
421
 16776960
470
LINEAR
1001
GRADIENTCOLOR1ACI
1070
     5
1001
GRADIENTCOLOR2ACI
1070
     2
1001
ACAD
1010
0.0
1020
0.0
1030
0.0
  0
SPLINE
  5
24559
330
2
100
AcDbEntity
  8
Layer 1
100
AcDbSpline
210
0.0
220
0.0
230
1.0
 70
    11
 71
     3
 72
    41
 73
    37
 74
     0
 42
0.000000001
 43
0.0000000001
 40
0.0
 40
0.0
 40
0.0
 40
0.0
 40
1.0
 40
1.0
 40
1.0
 40
2.0
 40
2.0
 40
2.0
 40
3.0
 40
3.0
 40
3.0
 40
4.0
 40
4.0
 40
4.0
 40
5.0
 40
5.0
 40
5.0
 40
6.0
 40
6.0
 40
6.0
 40
7.0
 40
7.0
 40
7.0
 40
8.0
 40
8.0
 40
8.0
 40
9.0
 40
9.0
 40
9.0
 40
10.0
 40
10.0
 40
10.0
 40
11.0
 40
11.0
 40
11.0
 40
12.0
 40
12.0
 40
12.0
 40
12.0
 10
290.0407361852051
 20
24.01120451269535
 30
0.0
 10
290.0407361852051
 20
24.01120451269535
 30
0.0
 10
287.8001489806603
 20
24.01120451269535
 30
0.0
 10
287.8001489806603
 20
24.01120451269535
 30
0.0
 10
287.8001489806603
 20
24.01120451269535
 30
0.0
 10
292.2814764037625
 20
30.92878833894112
 30
0.0
 10
292.2814764037625
 20
30.92878833894112
 30
0.0
 10
292.2814764037625
 20
30.92878833894112
 30
0.0
 10
294.5908045131359
 20
30.92878833894112
 30
0.0
 10
294.5908045131359
 20
30.92878833894112
 30
0.0
 10
294.5908045131359
 20
30.92878833894112
 30
0.0
 10
295.1095670191158
 20
24.01120451269535
 30
0.0
 10
295.1095670191158
 20
24.01120451269535
 30
0.0
 10
295.1095670191158
 20
24.01120451269535
 30
0.0
 10
293.0252504192085
 20
24.01120451269535
 30
0.0
 10
293.0252504192085
 20
24.01120451269535
 30
0.0
 10
293.0252504192085
 20
24.01120451269535
 30
0.0
 10
292.9566614023078
 20
25.12677241900558
 30
0.0
 10
292.9566614023078
 20
25.12677241900558
 30
0.0
 10
292.9566614023078
 20
25.12677241900558
 30
0.0
 10
291.4457672032371
 20
25.12677241900558
 30
0.0
 10
291.4457672032371
 20
25.12677241900558
 30
0.0
 10
291.4457672032371
 20
25.12677241900558
 30
0.0
 10
292.1958433310568
 20
26.56478841528108
 30
0.0
 10
292.1958433310568
 20
26.56478841528108
 30
0.0
 10
292.1958433310568
 20
26.56478841528108
 30
0.0
 10
292.8882621723944
 20
26.56478841528108
 30
0.0
 10
292.8882621723944
 20
26.56478841528108
 30
0.0
 10
292.8882621723944
 20
26.56478841528108
 30
0.0
 10
292.8000491810954
 20
28.59038492158321
 30
0.0
 10
292.8000491810954
 20
28.59038492158321
 30
0.0
 10
292.8000491810954
 20
28.59038492158321
 30
0.0
 10
290.0518588307107
 20
24.02676704558315
 30
0.0
 10
290.0518588307107
 20
24.02676704558315
 30
0.0
 10
290.0518588307107
 20
24.02676704558315
 30
0.0
 10
290.0407361852051
 20
24.01120451269535
 30
0.0
 10
290.0407361852051
 20
24.01120451269535
 30
0.0
  0
HATCH
  5
2455A
330
2
100
AcDbEntity
  8
0
  6
Continuous
 62
     0
100
AcDbHatch
 10
0.0
 20
0.0
 30
0.0
210
0.0
220
0.0
230
0.9999999999999998
  2
SOLID
 70
     1
 71
     1
 91
        1
 92
        5
 93
        1
 72
     4
 94
        3
 73
     0
 74
     0
 95
       17
 96
       13
 40
0.0
 40
0.0
 40
0.0
 40
0.0
 40
1.0
 40
1.0
 40
1.0
 40
2.0
 40
2.0
 40
2.0
 40
3.0
 40
3.0
 40
3.0
 40
4.0
 40
4.0
 40
4.0
 40
4.0
 10
304.6491354747195
 20
24.01120451269535
 10
304.6491354747195
 20
24.01120451269535
 10
302.516080079836
 20
24.01120451269535
 10
302.516080079836
 20
24.01120451269535
 10
302.516080079836
 20
24.01120451269535
 10
304.3655542627194
 20
30.91915141387211
 10
304.3655542627194
 20
30.91915141387211
 10
304.3655542627194
 20
30.91915141387211
 10
306.4984563311567
 20
30.91915141387211
 10
306.4984563311567
 20
30.91915141387211
 10
306.4984563311567
 20
30.91915141387211
 10
304.6491354747195
 20
24.01120451269535
 10
304.6491354747195
 20
24.01120451269535
 97
        0
 97
        1
330
2455B
 75
     1
 76
     1
 47
0.0269459378258844
 98
        1
 10
303.7622632208152
 20
25.89822666859415
450
        0
451
        0
460
0.0
461
0.0
452
        0
462
1.0
453
        2
463
0.0
 63
     5
421
      255
463
1.0
 63
     2
421
 16776960
470
LINEAR
1001
GRADIENTCOLOR1ACI
1070
     5
1001
GRADIENTCOLOR2ACI
1070
     2
1001
ACAD
1010
0.0
1020
0.0
1030
0.0
  0
SPLINE
  5
2455B
102
{ACAD_REACTORS
330
2455A
102
}
330
2
100
AcDbEntity
  8
Layer 1
100
AcDbSpline
210
0.0
220
0.0
230
1.0
 70
    11
 71
     3
 72
    17
 73
    13
 74
     0
 42
0.000000001
 43
0.0000000001
 40
0.0
 40
0.0
 40
0.0
 40
0.0
 40
1.0
 40
1.0
 40
1.0
 40
2.0
 40
2.0
 40
2.0
 40
3.0
 40
3.0
 40
3.0
 40
4.0
 40
4.0
 40
4.0
 40
4.0
 10
304.6491354747195
 20
24.01120451269535
 30
0.0
 10
304.6491354747195
 20
24.01120451269535
 30
0.0
 10
302.516080079836
 20
24.01120451269535
 30
0.0
 10
302.516080079836
 20
24.01120451269535
 30
0.0
 10
302.516080079836
 20
24.01120451269535
 30
0.0
 10
304.3655542627194
 20
30.91915141387211
 30
0.0
 10
304.3655542627194
 20
30.91915141387211
 30
0.0
 10
304.3655542627194
 20
30.91915141387211
 30
0.0
 10
306.4984563311567
 20
30.91915141387211
 30
0.0
 10
306.4984563311567
 20
30.91915141387211
 30
0.0
 10
306.4984563311567
 20
30.91915141387211
 30
0.0
 10
304.6491354747195
 20
24.01120451269535
 30
0.0
 10
304.6491354747195
 20
24.01120451269535
 30
0.0
  0
HATCH
  5
2455C
330
2
100
AcDbEntity
  8
0
  6
Continuous
 62
     0
100
AcDbHatch
 10
0.0
 20
0.0
 30
0.0
210
0.0
220
0.0
230
0.9999999999999998
  2
SOLID
 70
     1
 71
     1
 91
        1
 92
        5
 93
       14
 72
     4
 94
        3
 73
     0
 74
     0
 95
        8
 96
        4
 40
11.0
 40
11.0
 40
11.0
 40
11.0
 40
12.0
 40
12.0
 40
12.0
 40
12.0
 10
301.8820411424834
 20
23.91817093194104
 10
301.8820411424834
 20
23.91817093194104
 10
300.8982598926038
 20
26.85523841933281
 10
300.8982598926038
 20
26.85523841933281
 97
        0
 72
     4
 94
        3
 73
     0
 74
     0
 95
        8
 96
        4
 40
12.0
 40
12.0
 40
12.0
 40
12.0
 40
13.0
 40
13.0
 40
13.0
 40
13.0
 10
300.8982598926038
 20
26.85523841933281
 10
301.2060943846134
 20
26.94884136104689
 10
301.5115375605944
 20
27.08636101142312
 10
301.7817562718915
 20
27.29281129527482
 97
        0
 72
     4
 94
        3
 73
     0
 74
     0
 95
        8
 96
        4
 40
13.0
 40
13.0
 40
13.0
 40
13.0
 40
14.0
 40
14.0
 40
14.0
 40
14.0
 10
301.7817562718915
 20
27.29281129527482
 10
302.378750216446
 20
27.75281699301516
 10
302.6919746588708
 20
28.40856898857127
 10
302.6919746588708
 20
29.05407248686042
 97
        0
 72
     4
 94
        3
 73
     0
 74
     0
 95
        8
 96
        4
 40
0.0
 40
0.0
 40
0.0
 40
0.0
 40
1.0
 40
1.0
 40
1.0
 40
1.0
 10
302.6919746588708
 20
29.05407248686042
 10
302.6919746588708
 20
30.44338914241503
 10
301.4689114034391
 20
30.93269795086192
 10
300.4024617587985
 20
30.93269795086192
 97
        0
 72
     4
 94
        3
 73
     0
 74
     0
 95
        8
 96
        4
 40
1.0
 40
1.0
 40
1.0
 40
1.0
 40
2.0
 40
2.0
 40
2.0
 40
2.0
 10
300.4024617587985
 20
30.93269795086192
 10
300.4024617587985
 20
30.93269795086192
 10
297.3495482177585
 20
30.93269795086192
 10
297.3495482177585
 20
30.93269795086192
 97
        0
 72
     4
 94
        3
 73
     0
 74
     0
 95
        8
 96
        4
 40
2.0
 40
2.0
 40
2.0
 40
2.0
 40
3.0
 40
3.0
 40
3.0
 40
3.0
 10
297.3495482177585
 20
30.93269795086192
 10
297.3495482177585
 20
30.93269795086192
 10
295.490431543509
 20
24.02456959621111
 10
295.490431543509
 20
24.02456959621111
 97
        0
 72
     4
 94
        3
 73
     0
 74
     0
 95
        8
 96
        4
 40
3.0
 40
3.0
 40
3.0
 40
3.0
 40
4.0
 40
4.0
 40
4.0
 40
4.0
 10
295.490431543509
 20
24.02456959621111
 10
295.490431543509
 20
24.02456959621111
 10
297.6826230665112
 20
24.02456959621111
 10
297.6826230665112
 20
24.02456959621111
 97
        0
 72
     4
 94
        3
 73
     0
 74
     0
 95
        8
 96
        4
 40
4.0
 40
4.0
 40
4.0
 40
4.0
 40
5.0
 40
5.0
 40
5.0
 40
5.0
 10
297.6826230665112
 20
24.02456959621111
 10
297.6826230665112
 20
24.02456959621111
 10
299.1204872331982
 20
29.38657928710757
 10
299.1204872331982
 20
29.38657928710757
 97
        0
 72
     4
 94
        3
 73
     0
 74
     0
 95
        8
 96
        4
 40
5.0
 40
5.0
 40
5.0
 40
5.0
 40
6.0
 40
6.0
 40
6.0
 40
6.0
 10
299.1204872331982
 20
29.38657928710757
 10
299.1204872331982
 20
29.38657928710757
 10
299.7663703054598
 20
29.38657928710757
 10
299.7663703054598
 20
29.38657928710757
 97
        0
 72
     4
 94
        3
 73
     0
 74
     0
 95
        8
 96
        4
 40
6.0
 40
6.0
 40
6.0
 40
6.0
 40
7.0
 40
7.0
 40
7.0
 40
7.0
 10
299.7663703054598
 20
29.38657928710757
 10
300.1478041908117
 20
29.38657928710757
 10
300.5394486160352
 20
29.29855608279594
 10
300.5394486160352
 20
28.8290989931312
 97
        0
 72
     4
 94
        3
 73
     0
 74
     0
 95
        8
 96
        4
 40
7.0
 40
7.0
 40
7.0
 40
7.0
 40
8.0
 40
8.0
 40
8.0
 40
8.0
 10
300.5394486160352
 20
28.8290989931312
 10
300.5394486160352
 20
28.57482238869542
 10
300.3438921052045
 20
28.16355398907367
 10
299.698009032944
 20
28.18336775045926
 97
        0
 72
     4
 94
        3
 73
     0
 74
     0
 95
        8
 96
        4
 40
8.0
 40
8.0
 40
8.0
 40
8.0
 40
9.0
 40
9.0
 40
9.0
 40
9.0
 10
299.698009032944
 20
28.18336775045926
 10
299.698009032944
 20
28.18336775045926
 10
299.2843113598958
 20
26.66898147083799
 10
299.2843113598958
 20
26.66898147083799
 97
        0
 72
     4
 94
        3
 73
     0
 74
     0
 95
        8
 96
        4
 40
9.0
 40
9.0
 40
9.0
 40
9.0
 40
10.0
 40
10.0
 40
10.0
 40
10.0
 10
299.2843113598958
 20
26.66898147083799
 10
299.2843113598958
 20
26.66898147083799
 10
300.0744325418533
 20
23.91817093194104
 10
300.0744325418533
 20
23.91817093194104
 97
        0
 72
     4
 94
        3
 73
     0
 74
     0
 95
        8
 96
        4
 40
10.0
 40
10.0
 40
10.0
 40
10.0
 40
11.0
 40
11.0
 40
11.0
 40
11.0
 10
300.0744325418533
 20
23.91817093194104
 10
300.0744325418533
 20
23.91817093194104
 10
301.8820411424834
 20
23.91817093194104
 10
301.8820411424834
 20
23.91817093194104
 97
        0
 97
       13
330
24567
330
24556
330
24568
330
2455D
330
2455E
330
2455F
330
24560
330
24561
330
24562
330
24563
330
24564
330
24565
330
24566
 75
     1
 76
     1
 47
0.0269459378258844
 98
        1
 10
300.41498929828
 20
26.49802511455241
450
        0
451
        0
460
0.0
461
0.0
452
        0
462
1.0
453
        2
463
0.0
 63
     5
421
      255
463
1.0
 63
     2
421
 16776960
470
LINEAR
1001
GRADIENTCOLOR1ACI
1070
     5
1001
GRADIENTCOLOR2ACI
1070
     2
1001
ACAD
1010
0.0
1020
0.0
1030
0.0
  0
SPLINE
  5
2455D
102
{ACAD_REACTORS
330
2455C
102
}
330
2
100
AcDbEntity
  8
Layer 1
100
AcDbSpline
210
0.0
220
0.0
230
1.0
 70
     8
 71
     3
 72
     8
 73
     4
 74
     0
 42
0.000000001
 43
0.0000000001
 40
0.0
 40
0.0
 40
0.0
 40
0.0
 40
1.0
 40
1.0
 40
1.0
 40
1.0
 10
302.6919746588708
 20
29.05407248686042
 30
0.0
 10
302.6919746588708
 20
30.44338914241503
 30
0.0
 10
301.4689114034391
 20
30.93269795086192
 30
0.0
 10
300.4024617587985
 20
30.93269795086192
 30
0.0
  0
SPLINE
  5
2455E
102
{ACAD_REACTORS
330
2455C
102
}
330
2
100
AcDbEntity
  8
Layer 1
100
AcDbSpline
210
0.0
220
0.0
230
1.0
 70
    24
 71
     3
 72
     8
 73
     4
 74
     0
 42
0.000000001
 43
0.0000000001
 40
1.0
 40
1.0
 40
1.0
 40
1.0
 40
2.0
 40
2.0
 40
2.0
 40
2.0
 10
300.4024617587985
 20
30.93269795086192
 30
0.0
 10
300.4024617587985
 20
30.93269795086192
 30
0.0
 10
297.3495482177585
 20
30.93269795086192
 30
0.0
 10
297.3495482177585
 20
30.93269795086192
 30
0.0
  0
SPLINE
  5
2455F
102
{ACAD_REACTORS
330
2455C
102
}
330
2
100
AcDbEntity
  8
Layer 1
100
AcDbSpline
210
0.0
220
0.0
230
1.0
 70
    24
 71
     3
 72
     8
 73
     4
 74
     0
 42
0.000000001
 43
0.0000000001
 40
2.0
 40
2.0
 40
2.0
 40
2.0
 40
3.0
 40
3.0
 40
3.0
 40
3.0
 10
297.3495482177585
 20
30.93269795086192
 30
0.0
 10
297.3495482177585
 20
30.93269795086192
 30
0.0
 10
295.490431543509
 20
24.02456959621111
 30
0.0
 10
295.490431543509
 20
24.02456959621111
 30
0.0
  0
SPLINE
  5
24560
102
{ACAD_REACTORS
330
2455C
102
}
330
2
100
AcDbEntity
  8
Layer 1
100
AcDbSpline
210
0.0
220
0.0
230
1.0
 70
    24
 71
     3
 72
     8
 73
     4
 74
     0
 42
0.000000001
 43
0.0000000001
 40
3.0
 40
3.0
 40
3.0
 40
3.0
 40
4.0
 40
4.0
 40
4.0
 40
4.0
 10
295.490431543509
 20
24.02456959621111
 30
0.0
 10
295.490431543509
 20
24.02456959621111
 30
0.0
 10
297.6826230665112
 20
24.02456959621111
 30
0.0
 10
297.6826230665112
 20
24.02456959621111
 30
0.0
  0
SPLINE
  5
24561
102
{ACAD_REACTORS
330
2455C
102
}
330
2
100
AcDbEntity
  8
Layer 1
100
AcDbSpline
210
0.0
220
0.0
230
1.0
 70
    24
 71
     3
 72
     8
 73
     4
 74
     0
 42
0.000000001
 43
0.0000000001
 40
4.0
 40
4.0
 40
4.0
 40
4.0
 40
5.0
 40
5.0
 40
5.0
 40
5.0
 10
297.6826230665112
 20
24.02456959621111
 30
0.0
 10
297.6826230665112
 20
24.02456959621111
 30
0.0
 10
299.1204872331982
 20
29.38657928710757
 30
0.0
 10
299.1204872331982
 20
29.38657928710757
 30
0.0
  0
SPLINE
  5
24562
102
{ACAD_REACTORS
330
2455C
102
}
330
2
100
AcDbEntity
  8
Layer 1
100
AcDbSpline
210
0.0
220
0.0
230
1.0
 70
    24
 71
     3
 72
     8
 73
     4
 74
     0
 42
0.000000001
 43
0.0000000001
 40
5.0
 40
5.0
 40
5.0
 40
5.0
 40
6.0
 40
6.0
 40
6.0
 40
6.0
 10
299.1204872331982
 20
29.38657928710757
 30
0.0
 10
299.1204872331982
 20
29.38657928710757
 30
0.0
 10
299.7663703054598
 20
29.38657928710757
 30
0.0
 10
299.7663703054598
 20
29.38657928710757
 30
0.0
  0
SPLINE
  5
24563
102
{ACAD_REACTORS
330
2455C
102
}
330
2
100
AcDbEntity
  8
Layer 1
100
AcDbSpline
210
0.0
220
0.0
230
1.0
 70
     8
 71
     3
 72
    11
 73
     7
 74
     0
 42
0.000000001
 43
0.0000000001
 40
6.0
 40
6.0
 40
6.0
 40
6.0
 40
7.0
 40
7.0
 40
7.0
 40
8.0
 40
8.0
 40
8.0
 40
8.0
 10
299.7663703054598
 20
29.38657928710757
 30
0.0
 10
300.1478041908117
 20
29.38657928710757
 30
0.0
 10
300.5394486160352
 20
29.29855608279594
 30
0.0
 10
300.5394486160352
 20
28.8290989931312
 30
0.0
 10
300.5394486160352
 20
28.57482238869542
 30
0.0
 10
300.3438921052045
 20
28.16355398907367
 30
0.0
 10
299.698009032944
 20
28.18336775045926
 30
0.0
  0
SPLINE
  5
24564
102
{ACAD_REACTORS
330
2455C
102
}
330
2
100
AcDbEntity
  8
Layer 1
100
AcDbSpline
210
0.0
220
0.0
230
1.0
 70
    24
 71
     3
 72
     8
 73
     4
 74
     0
 42
0.000000001
 43
0.0000000001
 40
8.0
 40
8.0
 40
8.0
 40
8.0
 40
9.0
 40
9.0
 40
9.0
 40
9.0
 10
299.698009032944
 20
28.18336775045926
 30
0.0
 10
299.698009032944
 20
28.18336775045926
 30
0.0
 10
299.2843113598958
 20
26.66898147083799
 30
0.0
 10
299.2843113598958
 20
26.66898147083799
 30
0.0
  0
SPLINE
  5
24565
102
{ACAD_REACTORS
330
2455C
102
}
330
2
100
AcDbEntity
  8
Layer 1
100
AcDbSpline
210
0.0
220
0.0
230
1.0
 70
    24
 71
     3
 72
     8
 73
     4
 74
     0
 42
0.000000001
 43
0.0000000001
 40
9.0
 40
9.0
 40
9.0
 40
9.0
 40
10.0
 40
10.0
 40
10.0
 40
10.0
 10
299.2843113598958
 20
26.66898147083799
 30
0.0
 10
299.2843113598958
 20
26.66898147083799
 30
0.0
 10
300.0744325418533
 20
23.91817093194104
 30
0.0
 10
300.0744325418533
 20
23.91817093194104
 30
0.0
  0
SPLINE
  5
24566
102
{ACAD_REACTORS
330
2455C
102
}
330
2
100
AcDbEntity
  8
Layer 1
100
AcDbSpline
210
0.0
220
0.0
230
1.0
 70
    24
 71
     3
 72
     8
 73
     4
 74
     0
 42
0.000000001
 43
0.0000000001
 40
10.0
 40
10.0
 40
10.0
 40
10.0
 40
11.0
 40
11.0
 40
11.0
 40
11.0
 10
300.0744325418533
 20
23.91817093194104
 30
0.0
 10
300.0744325418533
 20
23.91817093194104
 30
0.0
 10
301.8820411424834
 20
23.91817093194104
 30
0.0
 10
301.8820411424834
 20
23.91817093194104
 30
0.0
  0
SPLINE
  5
24567
102
{ACAD_REACTORS
330
2455C
102
}
330
2
100
AcDbEntity
  8
Layer 1
100
AcDbSpline
210
0.0
220
0.0
230
1.0
 70
    24
 71
     3
 72
     8
 73
     4
 74
     0
 42
0.000000001
 43
0.0000000001
 40
11.0
 40
11.0
 40
11.0
 40
11.0
 40
12.0
 40
12.0
 40
12.0
 40
12.0
 10
301.8820411424834
 20
23.91817093194104
 30
0.0
 10
301.8820411424834
 20
23.91817093194104
 30
0.0
 10
300.8982598926038
 20
26.85523841933281
 30
0.0
 10
300.8982598926038
 20
26.85523841933281
 30
0.0
  0
SPLINE
  5
24568
102
{ACAD_REACTORS
330
2455C
102
}
330
2
100
AcDbEntity
  8
Layer 1
100
AcDbSpline
210
0.0
220
0.0
230
1.0
 70
     8
 71
     3
 72
     8
 73
     4
 74
     0
 42
0.000000001
 43
0.0000000001
 40
13.0
 40
13.0
 40
13.0
 40
13.0
 40
14.0
 40
14.0
 40
14.0
 40
14.0
 10
301.7817562718915
 20
27.29281129527482
 30
0.0
 10
302.378750216446
 20
27.75281699301516
 30
0.0
 10
302.6919746588708
 20
28.40856898857127
 30
0.0
 10
302.6919746588708
 20
29.05407248686042
 30
0.0
  0
HATCH
  5
24569
330
2
100
AcDbEntity
  8
0
  6
Continuous
 62
     0
100
AcDbHatch
 10
0.0
 20
0.0
 30
0.0
210
0.0
220
0.0
230
0.9999999999999998
  2
SOLID
 70
     1
 71
     1
 91
        2
 92
        5
 93
        4
 72
     4
 94
        3
 73
     0
 74
     0
 95
        8
 96
        4
 40
0.0
 40
0.0
 40
0.0
 40
0.0
 40
1.0
 40
1.0
 40
1.0
 40
1.0
 10
311.2540627226425
 20
26.81223268820518
 10
311.2540627226425
 20
25.02204795988658
 10
312.4800866550616
 20
23.64996396270028
 10
314.601108058148
 20
23.64996396270028
 97
        0
 72
     4
 94
        3
 73
     0
 74
     0
 95
        8
 96
        4
 40
3.0
 40
3.0
 40
3.0
 40
3.0
 40
4.0
 40
4.0
 40
4.0
 40
4.0
 10
314.601108058148
 20
23.64996396270028
 10
317.4132197936661
 20
23.64996396270028
 10
318.862964625704
 20
25.80028847649322
 10
318.862964625704
 20
27.7463262780782
 97
        0
 72
     4
 94
        3
 73
     0
 74
     0
 95
        8
 96
        4
 40
2.0
 40
2.0
 40
2.0
 40
2.0
 40
3.0
 40
3.0
 40
3.0
 40
3.0
 10
318.862964625704
 20
27.7463262780782
 10
318.862964625704
 20
29.48815749994433
 10
317.6371304802712
 20
30.92821897798134
 10
315.4284274894491
 20
30.92821897798134
 97
        0
 72
     4
 94
        3
 73
     0
 74
     0
 95
        8
 96
        4
 40
1.0
 40
1.0
 40
1.0
 40
1.0
 40
2.0
 40
2.0
 40
2.0
 40
2.0
 10
315.4284274894491
 20
30.92821897798134
 10
312.7136005631808
 20
30.92821897798134
 10
311.2540627226425
 20
28.76791166870192
 10
311.2540627226425
 20
26.81223268820518
 97
        0
 97
        1
330
2456A
 92
       20
 93
        4
 72
     4
 94
        3
 73
     0
 74
     0
 95
        8
 96
        4
 40
2.0
 40
2.0
 40
2.0
 40
2.0
 40
3.0
 40
3.0
 40
3.0
 40
3.0
 10
314.7278478076941
 20
25.30414733653464
 10
314.0078339385281
 20
25.30414733653464
 10
313.3849150916257
 20
25.7810061186697
 10
313.3849150916257
 20
26.7929503303828
 97
        0
 72
     4
 94
        3
 73
     0
 74
     0
 95
        8
 96
        4
 40
1.0
 40
1.0
 40
1.0
 40
1.0
 40
2.0
 40
2.0
 40
2.0
 40
2.0
 10
313.3849150916257
 20
26.7929503303828
 10
313.3849150916257
 20
27.84384300786625
 10
314.1149514496602
 20
29.35192418338362
 10
315.4478996342577
 20
29.35192418338362
 97
        0
 72
     4
 94
        3
 73
     0
 74
     0
 95
        8
 96
        4
 40
0.0
 40
0.0
 40
0.0
 40
0.0
 40
1.0
 40
1.0
 40
1.0
 40
1.0
 10
315.4478996342577
 20
29.35192418338362
 10
316.1484793160115
 20
29.35192418338362
 10
316.7517741885156
 20
28.87525518823363
 10
316.7517741885156
 20
27.87291419803573
 97
        0
 72
     4
 94
        3
 73
     0
 74
     0
 95
        8
 96
        4
 40
3.0
 40
3.0
 40
3.0
 40
3.0
 40
4.0
 40
4.0
 40
4.0
 40
4.0
 10
316.7517741885156
 20
27.87291419803573
 10
316.7517741885156
 20
26.87080095222174
 10
316.1681412478074
 20
25.30414733653464
 10
314.7278478076941
 20
25.30414733653464
 97
        0
 97
        1
330
2456B
 75
     1
 76
     1
 47
0.0269459378258844
 98
        2
 10
312.7191077424897
 20
25.75981271916948
 10
312.7191077424897
 20
25.75981271916948
450
        0
451
        0
460
0.0
461
0.0
452
        0
462
1.0
453
        2
463
0.0
 63
     5
421
      255
463
1.0
 63
     2
421
 16776960
470
LINEAR
1001
GRADIENTCOLOR1ACI
1070
     5
1001
GRADIENTCOLOR2ACI
1070
     2
1001
ACAD
1010
0.0
1020
0.0
1030
0.0
  0
SPLINE
  5
2456A
102
{ACAD_REACTORS
330
24569
102
}
330
2
100
AcDbEntity
  8
Layer 1
100
AcDbSpline
210
0.0
220
0.0
230
1.0
 70
     9
 71
     3
 72
    17
 73
    13
 74
     0
 42
0.000000001
 43
0.0000000001
 40
0.0
 40
0.0
 40
0.0
 40
0.0
 40
1.0
 40
1.0
 40
1.0
 40
2.0
 40
2.0
 40
2.0
 40
3.0
 40
3.0
 40
3.0
 40
4.0
 40
4.0
 40
4.0
 40
4.0
 10
314.601108058148
 20
23.64996396270028
 30
0.0
 10
312.4800866550616
 20
23.64996396270028
 30
0.0
 10
311.2540627226425
 20
25.02204795988658
 30
0.0
 10
311.2540627226425
 20
26.81223268820518
 30
0.0
 10
311.2540627226425
 20
28.76791166870192
 30
0.0
 10
312.7136005631808
 20
30.92821897798134
 30
0.0
 10
315.4284274894491
 20
30.92821897798134
 30
0.0
 10
317.6371304802712
 20
30.92821897798134
 30
0.0
 10
318.862964625704
 20
29.48815749994433
 30
0.0
 10
318.862964625704
 20
27.7463262780782
 30
0.0
 10
318.862964625704
 20
25.80028847649322
 30
0.0
 10
317.4132197936661
 20
23.64996396270028
 30
0.0
 10
314.601108058148
 20
23.64996396270028
 30
0.0
  0
SPLINE
  5
2456B
102
{ACAD_REACTORS
330
24569
102
}
330
2
100
AcDbEntity
  8
Layer 1
100
AcDbSpline
210
0.0
220
0.0
230
1.0
 70
     9
 71
     3
 72
    17
 73
    13
 74
     0
 42
0.000000001
 43
0.0000000001
 40
0.0
 40
0.0
 40
0.0
 40
0.0
 40
1.0
 40
1.0
 40
1.0
 40
2.0
 40
2.0
 40
2.0
 40
3.0
 40
3.0
 40
3.0
 40
4.0
 40
4.0
 40
4.0
 40
4.0
 10
316.7517741885156
 20
27.87291419803573
 30
0.0
 10
316.7517741885156
 20
28.87525518823363
 30
0.0
 10
316.1484793160115
 20
29.35192418338362
 30
0.0
 10
315.4478996342577
 20
29.35192418338362
 30
0.0
 10
314.1149514496602
 20
29.35192418338362
 30
0.0
 10
313.3849150916257
 20
27.84384300786625
 30
0.0
 10
313.3849150916257
 20
26.7929503303828
 30
0.0
 10
313.3849150916257
 20
25.7810061186697
 30
0.0
 10
314.0078339385281
 20
25.30414733653464
 30
0.0
 10
314.7278478076941
 20
25.30414733653464
 30
0.0
 10
316.1681412478074
 20
25.30414733653464
 30
0.0
 10
316.7517741885156
 20
26.87080095222174
 30
0.0
 10
316.7517741885156
 20
27.87291419803573
 30
0.0
  0
HATCH
  5
2456C
330
2
100
AcDbEntity
  8
0
  6
Continuous
 62
     0
100
AcDbHatch
 10
0.0
 20
0.0
 30
0.0
210
0.0
220
0.0
230
0.9999999999999998
  2
SOLID
 70
     1
 71
     1
 91
        2
 92
        5
 93
        4
 72
     4
 94
        3
 73
     0
 74
     0
 95
        8
 96
        4
 40
0.0
 40
0.0
 40
0.0
 40
0.0
 40
1.0
 40
1.0
 40
1.0
 40
1.0
 10
319.1005779327302
 20
26.81223268820518
 10
319.1005779327302
 20
25.02204795988658
 10
320.3267536947389
 20
23.64996396270028
 10
322.4475853108391
 20
23.64996396270028
 97
        0
 72
     4
 94
        3
 73
     0
 74
     0
 95
        8
 96
        4
 40
3.0
 40
3.0
 40
3.0
 40
3.0
 40
4.0
 40
4.0
 40
4.0
 40
4.0
 10
322.4475853108391
 20
23.64996396270028
 10
325.2597350037549
 20
23.64996396270028
 10
326.7094798357928
 20
25.80028847649322
 10
326.7094798357928
 20
27.7463262780782
 97
        0
 72
     4
 94
        3
 73
     0
 74
     0
 95
        8
 96
        4
 40
2.0
 40
2.0
 40
2.0
 40
2.0
 40
3.0
 40
3.0
 40
3.0
 40
3.0
 10
326.7094798357928
 20
27.7463262780782
 10
326.7094798357928
 20
29.48815749994433
 10
325.4834559033726
 20
30.92821897798134
 10
323.2749426995367
 20
30.92821897798134
 97
        0
 72
     4
 94
        3
 73
     0
 74
     0
 95
        8
 96
        4
 40
1.0
 40
1.0
 40
1.0
 40
1.0
 40
2.0
 40
2.0
 40
2.0
 40
2.0
 10
323.2749426995367
 20
30.92821897798134
 10
320.5599259862832
 20
30.92821897798134
 10
319.1005779327302
 20
28.76791166870192
 10
319.1005779327302
 20
26.81223268820518
 97
        0
 97
        1
330
2456E
 92
       20
 93
        4
 72
     4
 94
        3
 73
     0
 74
     0
 95
        8
 96
        4
 40
2.0
 40
2.0
 40
2.0
 40
2.0
 40
3.0
 40
3.0
 40
3.0
 40
3.0
 10
322.5739834438103
 20
25.30414733653464
 10
321.8539695746433
 20
25.30414733653464
 10
321.2315840470689
 20
25.7810061186697
 10
321.2315840470689
 20
26.7929503303828
 97
        0
 72
     4
 94
        3
 73
     0
 74
     0
 95
        8
 96
        4
 40
1.0
 40
1.0
 40
1.0
 40
1.0
 40
2.0
 40
2.0
 40
2.0
 40
2.0
 10
321.2315840470689
 20
26.7929503303828
 10
321.2315840470689
 20
27.84384300786625
 10
321.9612751367784
 20
29.35192418338362
 10
323.2938454833866
 20
29.35192418338362
 97
        0
 72
     4
 94
        3
 73
     0
 74
     0
 95
        8
 96
        4
 40
0.0
 40
0.0
 40
0.0
 40
0.0
 40
1.0
 40
1.0
 40
1.0
 40
1.0
 10
323.2938454833866
 20
29.35192418338362
 10
323.9948047391141
 20
29.35192418338362
 10
324.5980996116182
 20
28.87525518823363
 10
324.5980996116182
 20
27.87291419803573
 97
        0
 72
     4
 94
        3
 73
     0
 74
     0
 95
        8
 96
        4
 40
3.0
 40
3.0
 40
3.0
 40
3.0
 40
4.0
 40
4.0
 40
4.0
 40
4.0
 10
324.5980996116182
 20
27.87291419803573
 10
324.5980996116182
 20
26.87080095222174
 10
324.0140870969365
 20
25.30414733653464
 10
322.5739834438103
 20
25.30414733653464
 97
        0
 97
        1
330
2456D
 75
     1
 76
     1
 47
0.0269459378258844
 98
        2
 10
321.0988358044172
 20
26.31347251554043
 10
321.0988358044172
 20
26.31347251554043
450
        0
451
        0
460
0.0
461
0.0
452
        0
462
1.0
453
        2
463
0.0
 63
     5
421
      255
463
1.0
 63
     2
421
 16776960
470
LINEAR
1001
GRADIENTCOLOR1ACI
1070
     5
1001
GRADIENTCOLOR2ACI
1070
     2
1001
ACAD
1010
0.0
1020
0.0
1030
0.0
  0
SPLINE
  5
2456D
102
{ACAD_REACTORS
330
2456C
102
}
330
2
100
AcDbEntity
  8
Layer 1
100
AcDbSpline
210
0.0
220
0.0
230
1.0
 70
     9
 71
     3
 72
    17
 73
    13
 74
     0
 42
0.000000001
 43
0.0000000001
 40
0.0
 40
0.0
 40
0.0
 40
0.0
 40
1.0
 40
1.0
 40
1.0
 40
2.0
 40
2.0
 40
2.0
 40
3.0
 40
3.0
 40
3.0
 40
4.0
 40
4.0
 40
4.0
 40
4.0
 10
324.5980996116182
 20
27.87291419803573
 30
0.0
 10
324.5980996116182
 20
28.87525518823363
 30
0.0
 10
323.9948047391141
 20
29.35192418338362
 30
0.0
 10
323.2938454833866
 20
29.35192418338362
 30
0.0
 10
321.9612751367784
 20
29.35192418338362
 30
0.0
 10
321.2315840470689
 20
27.84384300786625
 30
0.0
 10
321.2315840470689
 20
26.7929503303828
 30
0.0
 10
321.2315840470689
 20
25.7810061186697
 30
0.0
 10
321.8539695746433
 20
25.30414733653464
 30
0.0
 10
322.5739834438103
 20
25.30414733653464
 30
0.0
 10
324.0140870969365
 20
25.30414733653464
 30
0.0
 10
324.5980996116182
 20
26.87080095222174
 30
0.0
 10
324.5980996116182
 20
27.87291419803573
 30
0.0
  0
SPLINE
  5
2456E
102
{ACAD_REACTORS
330
2456C
102
}
330
2
100
AcDbEntity
  8
Layer 1
100
AcDbSpline
210
0.0
220
0.0
230
1.0
 70
     9
 71
     3
 72
    17
 73
    13
 74
     0
 42
0.000000001
 43
0.0000000001
 40
0.0
 40
0.0
 40
0.0
 40
0.0
 40
1.0
 40
1.0
 40
1.0
 40
2.0
 40
2.0
 40
2.0
 40
3.0
 40
3.0
 40
3.0
 40
4.0
 40
4.0
 40
4.0
 40
4.0
 10
322.4475853108391
 20
23.64996396270028
 30
0.0
 10
320.3267536947389
 20
23.64996396270028
 30
0.0
 10
319.1005779327302
 20
25.02204795988658
 30
0.0
 10
319.1005779327302
 20
26.81223268820518
 30
0.0
 10
319.1005779327302
 20
28.76791166870192
 30
0.0
 10
320.5599259862832
 20
30.92821897798134
 30
0.0
 10
323.2749426995367
 20
30.92821897798134
 30
0.0
 10
325.4834559033726
 20
30.92821897798134
 30
0.0
 10
326.7094798357928
 20
29.48815749994433
 30
0.0
 10
326.7094798357928
 20
27.7463262780782
 30
0.0
 10
326.7094798357928
 20
25.80028847649322
 30
0.0
 10
325.2597350037549
 20
23.64996396270028
 30
0.0
 10
322.4475853108391
 20
23.64996396270028
 30
0.0
  0
HATCH
  5
2456F
330
2
100
AcDbEntity
  8
0
  6
Continuous
 62
     0
100
AcDbHatch
 10
0.0
 20
0.0
 30
0.0
210
0.0
220
0.0
230
0.9999999999999998
  2
SOLID
 70
     1
 71
     1
 91
        1
 92
        5
 93
        6
 72
     4
 94
        3
 73
     0
 74
     0
 95
        8
 96
        4
 40
4.0
 40
4.0
 40
4.0
 40
4.0
 40
5.0
 40
5.0
 40
5.0
 40
5.0
 10
328.8147130689378
 20
25.44997965691685
 10
328.8147130689378
 20
25.44997965691685
 10
330.2257012910132
 20
30.72400818056879
 10
330.2257012910132
 20
30.72400818056879
 97
        0
 72
     4
 94
        3
 73
     0
 74
     0
 95
        8
 96
        4
 40
3.0
 40
3.0
 40
3.0
 40
3.0
 40
4.0
 40
4.0
 40
4.0
 40
4.0
 10
330.2257012910132
 20
30.72400818056879
 10
330.2257012910132
 20
30.72400818056879
 10
328.0652041947476
 20
30.72400818056879
 10
328.0652041947476
 20
30.72400818056879
 97
        0
 72
     4
 94
        3
 73
     0
 74
     0
 95
        8
 96
        4
 40
2.0
 40
2.0
 40
2.0
 40
2.0
 40
3.0
 40
3.0
 40
3.0
 40
3.0
 10
328.0652041947476
 20
30.72400818056879
 10
328.0652041947476
 20
30.72400818056879
 10
326.2264719552955
 20
23.85440250449561
 10
326.2264719552955
 20
23.85440250449561
 97
        0
 72
     4
 94
        3
 73
     0
 74
     0
 95
        8
 96
        4
 40
1.0
 40
1.0
 40
1.0
 40
1.0
 40
2.0
 40
2.0
 40
2.0
 40
2.0
 10
326.2264719552955
 20
23.85440250449561
 10
326.2264719552955
 20
23.85440250449561
 10
330.6734868611142
 20
23.85440250449561
 10
330.6734868611142
 20
23.85440250449561
 97
        0
 72
     4
 94
        3
 73
     0
 74
     0
 95
        8
 96
        4
 40
0.0
 40
0.0
 40
0.0
 40
0.0
 40
1.0
 40
1.0
 40
1.0
 40
1.0
 10
330.6734868611142
 20
23.85440250449561
 10
330.6734868611142
 20
23.85440250449561
 10
331.2013202735208
 20
25.44997965691685
 10
331.2013202735208
 20
25.44997965691685
 97
        0
 72
     4
 94
        3
 73
     0
 74
     0
 95
        8
 96
        4
 40
5.0
 40
5.0
 40
5.0
 40
5.0
 40
6.0
 40
6.0
 40
6.0
 40
6.0
 10
331.2013202735208
 20
25.44997965691685
 10
331.2013202735208
 20
25.44997965691685
 10
328.8147130689378
 20
25.44997965691685
 10
328.8147130689378
 20
25.44997965691685
 97
        0
 97
        6
330
24574
330
24573
330
24572
330
24571
330
24570
330
24575
 75
     1
 76
     1
 47
0.0168242271866721
 98
        1
 10
328.1531101705909
 20
25.89809871116685
450
        0
451
        0
460
0.0
461
0.0
452
        0
462
1.0
453
        2
463
0.0
 63
     5
421
      255
463
1.0
 63
     2
421
 16776960
470
LINEAR
1001
GRADIENTCOLOR1ACI
1070
     5
1001
GRADIENTCOLOR2ACI
1070
     2
1001
ACAD
1010
0.0
1020
0.0
1030
0.0
  0
SPLINE
  5
24570
102
{ACAD_REACTORS
330
2456F
102
}
330
2
100
AcDbEntity
  8
Layer 1
100
AcDbSpline
210
0.0
220
0.0
230
1.0
 70
    24
 71
     3
 72
     8
 73
     4
 74
     0
 42
0.000000001
 43
0.0000000001
 40
0.0
 40
0.0
 40
0.0
 40
0.0
 40
1.0
 40
1.0
 40
1.0
 40
1.0
 10
331.2013202735208
 20
25.44997965691685
 30
0.0
 10
331.2013202735208
 20
25.44997965691685
 30
0.0
 10
330.6734868611142
 20
23.85440250449561
 30
0.0
 10
330.6734868611142
 20
23.85440250449561
 30
0.0
  0
SPLINE
  5
24571
102
{ACAD_REACTORS
330
2456F
102
}
330
2
100
AcDbEntity
  8
Layer 1
100
AcDbSpline
210
0.0
220
0.0
230
1.0
 70
    24
 71
     3
 72
     8
 73
     4
 74
     0
 42
0.000000001
 43
0.0000000001
 40
1.0
 40
1.0
 40
1.0
 40
1.0
 40
2.0
 40
2.0
 40
2.0
 40
2.0
 10
330.6734868611142
 20
23.85440250449561
 30
0.0
 10
330.6734868611142
 20
23.85440250449561
 30
0.0
 10
326.2264719552955
 20
23.85440250449561
 30
0.0
 10
326.2264719552955
 20
23.85440250449561
 30
0.0
  0
SPLINE
  5
24572
102
{ACAD_REACTORS
330
2456F
102
}
330
2
100
AcDbEntity
  8
Layer 1
100
AcDbSpline
210
0.0
220
0.0
230
1.0
 70
    24
 71
     3
 72
     8
 73
     4
 74
     0
 42
0.000000001
 43
0.0000000001
 40
2.0
 40
2.0
 40
2.0
 40
2.0
 40
3.0
 40
3.0
 40
3.0
 40
3.0
 10
326.2264719552955
 20
23.85440250449561
 30
0.0
 10
326.2264719552955
 20
23.85440250449561
 30
0.0
 10
328.0652041947476
 20
30.72400818056879
 30
0.0
 10
328.0652041947476
 20
30.72400818056879
 30
0.0
  0
SPLINE
  5
24573
102
{ACAD_REACTORS
330
2456F
102
}
330
2
100
AcDbEntity
  8
Layer 1
100
AcDbSpline
210
0.0
220
0.0
230
1.0
 70
    24
 71
     3
 72
     8
 73
     4
 74
     0
 42
0.000000001
 43
0.0000000001
 40
3.0
 40
3.0
 40
3.0
 40
3.0
 40
4.0
 40
4.0
 40
4.0
 40
4.0
 10
328.0652041947476
 20
30.72400818056879
 30
0.0
 10
328.0652041947476
 20
30.72400818056879
 30
0.0
 10
330.2257012910132
 20
30.72400818056879
 30
0.0
 10
330.2257012910132
 20
30.72400818056879
 30
0.0
  0
SPLINE
  5
24574
102
{ACAD_REACTORS
330
2456F
102
}
330
2
100
AcDbEntity
  8
Layer 1
100
AcDbSpline
210
0.0
220
0.0
230
1.0
 70
    24
 71
     3
 72
     8
 73
     4
 74
     0
 42
0.000000001
 43
0.0000000001
 40
4.0
 40
4.0
 40
4.0
 40
4.0
 40
5.0
 40
5.0
 40
5.0
 40
5.0
 10
330.2257012910132
 20
30.72400818056879
 30
0.0
 10
330.2257012910132
 20
30.72400818056879
 30
0.0
 10
328.8147130689378
 20
25.44997965691685
 30
0.0
 10
328.8147130689378
 20
25.44997965691685
 30
0.0
  0
SPLINE
  5
24575
102
{ACAD_REACTORS
330
2456F
102
}
330
2
100
AcDbEntity
  8
Layer 1
100
AcDbSpline
210
0.0
220
0.0
230
1.0
 70
    24
 71
     3
 72
     8
 73
     4
 74
     0
 42
0.000000001
 43
0.0000000001
 40
5.0
 40
5.0
 40
5.0
 40
5.0
 40
6.0
 40
6.0
 40
6.0
 40
6.0
 10
328.8147130689378
 20
25.44997965691685
 30
0.0
 10
328.8147130689378
 20
25.44997965691685
 30
0.0
 10
331.2013202735208
 20
25.44997965691685
 30
0.0
 10
331.2013202735208
 20
25.44997965691685
 30
0.0
  0
HATCH
  5
2681C
330
2
100
AcDbEntity
  8
0
  6
Continuous
 62
     4
100
AcDbHatch
 10
0.0
 20
0.0
 30
0.0
210
0.0
220
0.0
230
1.0
  2
ANSI31
 70
     0
 71
     0
 91
       10
 92
        7
 72
     1
 73
     1
 93
       66
 10
181.4241376679636
 20
141.4247256335533
 42
0.0
 10
181.4241376679636
 20
163.9247256335533
 42
0.4142135623730951
 10
180.4241376679636
 20
164.9247256335533
 42
0.0
 10
176.9459743100203
 20
164.9247256335533
 42
0.0
 10
175.2991376679626
 20
162.0723208977446
 42
0.0
 10
175.2991376679636
 20
160.4247256335533
 42
-0.4142135623730992
 10
174.7991376679635
 20
159.9247256335533
 42
0.0
 10
173.4241376679636
 20
159.9247256335533
 42
0.0
 10
172.0491376679636
 20
159.9247256335533
 42
-0.4142135623730951
 10
171.5491376679636
 20
160.4247256335533
 42
0.0
 10
171.5491376679626
 20
162.0723208977455
 42
0.0
 10
169.9023010259086
 20
164.9247256335533
 42
0.0
 10
165.7397934100129
 20
164.9247256335542
 42
0.0
 10
165.4241376679699
 20
164.6090698915108
 42
0.0
 10
165.4231373248342
 20
164.6080695483755
 42
0.0
 10
165.4241376679699
 20
164.6070692052393
 42
0.0
 10
165.4241376679699
 20
164.6050685189679
 42
0.0
 10
165.4241376679704
 20
151.9247256335533
 42
0.0
 10
164.9741376679701
 20
151.1453027701467
 42
0.0
 10
164.9741376679701
 20
145.9247256335524
 42
0.0
 10
162.4241376679695
 20
144.4524824471194
 42
0.0
 10
159.8741376679702
 20
145.9247256335533
 42
0.0
 10
159.8741376679702
 20
151.1453027701467
 42
0.0
 10
159.4241376679695
 20
151.9247256335533
 42
0.0
 10
159.4241376679704
 20
164.6070692052393
 42
0.0
 10
159.4251380111056
 20
164.6080695483746
 42
0.0
 10
159.4241376679704
 20
164.6090698915099
 42
0.0
 10
159.1084819259274
 20
164.9247256335533
 42
0.0
 10
156.4241376679644
 20
164.9247256335533
 42
0.4142135623730951
 10
155.4241376679645
 20
163.9247256335533
 42
0.0
 10
155.4241376679636
 20
150.9147256335531
 42
0.0
 10
155.6241376679634
 20
149.4916516890765
 42
0.0
 10
155.6241376679638
 20
149.414725633553
 42
-0.2134217652858193
 10
155.4241376679599
 20
148.9675120380492
 42
-0.1844830881358518
 10
155.0241376679639
 20
148.8147256335527
 42
0.0
 10
154.0437529102344
 20
148.8147256335527
 42
0.0
 10
152.9229564541626
 20
149.1150421388369
 42
0.0
 10
124.5640943353476
 20
147.694295365682
 42
0.3996270516290838
 10
123.4241376679636
 20
146.4957984744854
 42
0.0
 10
123.4241376679636
 20
142.5020759027423
 42
0.0
 10
124.4241376679636
 20
141.9247256335533
 42
0.0
 10
136.4281122641794
 20
141.9247256335533
 42
0.0
 10
137.9869579909916
 20
144.6247256335531
 42
-0.1083505043629066
 10
138.1601630717484
 20
144.8146235821099
 42
-0.1550958778294636
 10
138.5065732332621
 20
144.9247256335533
 42
0.0
 10
149.3877894341392
 20
144.9247256335533
 42
-0.2277350772923724
 10
155.6327874325377
 20
141.9247256335533
 42
0.0
 10
163.0949814703751
 20
141.9247256335533
 42
-0.5982346904415551
 10
165.4241376679635
 20
140.6747256335533
 42
0.0
 10
165.4241376679635
 20
134.2247256335525
 42
0.0
 10
165.7241376679637
 20
133.9247256335533
 42
0.0
 10
172.1241376679638
 20
133.9247256335533
 42
0.0
 10
172.4241376679636
 20
134.2247256335525
 42
0.0
 10
172.4241376679636
 20
134.4247256335533
 42
0.0
 10
177.4241376679636
 20
134.4247256335533
 42
0.0
 10
177.4241376679645
 20
129.4747256335825
 42
0.0
 10
177.9741376679642
 20
128.9247256335824
 42
0.0
 10
197.6343409446451
 20
128.9247256335778
 42
0.0
 10
292.9478236958828
 20
128.9247256335578
 42
0.0
 10
293.4241376679665
 20
128.0997256335544
 42
0.0
 10
314.9241376679636
 20
128.0997256335571
 42
0.4142135623730992
 10
315.4241376679649
 20
128.5997256335571
 42
0.0
 10
315.4241376679654
 20
129.6952288725273
 42
0.3888787318529905
 10
314.0548712820869
 20
131.1895209196649
 42
0.0
 10
231.356102981156
 20
138.4247256335533
 42
0.0
 10
184.4241376679635
 20
138.4247256335533
 42
-0.4142135623730951
 97
        0
 92
        7
 72
     0
 73
     1
 93
        4
 10
172.1241376679634
 20
133.9247256335533
 10
165.7241376679633
 20
133.9247256335533
 10
166.2241376679637
 20
133.4247256335533
 10
171.6241376679634
 20
133.4247256335533
 97
        0
 92
        7
 72
     0
 73
     1
 93
        3
 10
159.4241376679695
 20
151.9247256335533
 10
159.8741376679702
 20
151.1453027701467
 10
159.8741376679702
 20
151.9247256335533
 97
        0
 92
        7
 72
     0
 73
     1
 93
        3
 10
164.9741376679701
 20
151.1453027701467
 10
165.4241376679704
 20
151.9247256335533
 10
164.9741376679701
 20
151.9247256335533
 97
        0
 92
        9
 93
        4
 72
     1
 10
108.0595237570762
 20
117.6667452358273
 11
108.0595237570762
 21
130.1819409393014
 72
     1
 10
108.0595237570762
 20
130.1819409393014
 11
112.5595237570762
 21
130.1819409393014
 72
     1
 10
112.5595237570762
 20
130.1819409393014
 11
112.5595237570762
 21
117.6667452358273
 72
     1
 10
112.5595237570762
 20
117.6667452358273
 11
108.0595237570762
 21
117.6667452358273
 97
        0
 92
        9
 93
        4
 72
     1
 10
182.6770703781728
 20
145.8529502841933
 11
188.1336361332694
 21
151.257671502863
 72
     1
 10
188.1336361332694
 20
151.257671502863
 11
191.3008075050763
 21
148.060119187265
 72
     1
 10
191.3008075050763
 20
148.060119187265
 11
185.8442417499798
 21
142.6553979685953
 72
     1
 10
185.8442417499798
 20
142.6553979685953
 11
182.6770703781728
 21
145.8529502841933
 97
        0
 92
        9
 93
        4
 72
     1
 10
300.4497282191465
 20
153.9172558865469
 11
308.3985471167841
 21
153.9172558865469
 72
     1
 10
308.3985471167841
 20
153.9172558865469
 11
308.3985471167841
 21
149.417255886547
 72
     1
 10
308.3985471167841
 20
149.417255886547
 11
300.4497282191465
 21
149.417255886547
 72
     1
 10
300.4497282191465
 20
149.417255886547
 11
300.4497282191465
 21
153.9172558865469
 97
        0
 92
        9
 93
        4
 72
     1
 10
322.3723323234035
 20
117.2623558199396
 11
322.3723323234035
 21
127.7647180246644
 72
     1
 10
322.3723323234035
 20
127.7647180246644
 11
326.8729228745847
 21
127.7647180246644
 72
     1
 10
326.8729228745847
 20
127.7647180246644
 11
326.8729228745847
 21
117.2623558199396
 72
     1
 10
326.8729228745847
 20
117.2623558199396
 11
322.3723323234035
 21
117.2623558199396
 97
        0
 92
        9
 93
        4
 72
     1
 10
330.3729228745835
 20
118.3583889642435
 11
330.3729228745835
 21
129.4583889642439
 72
     1
 10
330.3729228745835
 20
129.4583889642439
 11
334.8729228745835
 21
129.4583889642439
 72
     1
 10
334.8729228745835
 20
129.4583889642439
 11
334.8729228745835
 21
118.3583889642435
 72
     1
 10
334.8729228745835
 20
118.3583889642435
 11
330.3729228745835
 21
118.3583889642435
 97
        0
 92
        9
 93
        4
 72
     1
 10
205.491804573928
 20
96.92546156484093
 11
205.491804573928
 21
109.0497256335533
 72
     1
 10
205.491804573928
 20
109.0497256335533
 11
209.991804573928
 21
109.0497256335533
 72
     1
 10
209.991804573928
 20
109.0497256335533
 11
209.991804573928
 21
96.92546156484093
 72
     1
 10
209.991804573928
 20
96.92546156484093
 11
205.491804573928
 21
96.92546156484093
 97
        0
 75
     1
 76
     1
 52
0.0
 41
1.0
 77
     0
 78
     1
 53
45.0
 43
2274.410715034999
 44
6035.46835658626
 45
-2.245064030267288
 46
2.245064030267288
 79
     0
 47
0.0
 98
        4
 10
175.0737894836922
 20
146.1823498682555
 10
169.3822276382955
 20
133.6797860607897
 10
159.674452504006
 20
151.820530091339
 10
165.1263943921892
 20
151.7731219010069
1001
ACAD
1010
0.0
1020
0.0
1030
0.0
1001
HATCHBACKGROUNDCOLOR
1071
-939524096
1000
없음
1000

  0
DIMENSION
  5
268B2
330
2
100
AcDbEntity
  8
0
  6
Continuous
 62
     7
100
AcDbDimension
280
     0
  2
*D5
 10
209.8668045739285
 20
138.4247256335533
 30
0.0
 11
209.8668045739284
 21
102.9875935991971
 31
0.0
 70
   160
  1
%%C1.063
 71
     5
 42
27.00000000000001
 73
     0
 74
     0
 75
     0
  3
Standard$0
100
AcDbAlignedDimension
 13
199.329356119639
 23
111.4247256335533
 33
0.0
 14
199.3293561196381
 24
138.4247256335533
 34
0.0
 50
90.0
100
AcDbRotatedDimension
1001
ACAD
1000
DSTYLE
1002
{
1070
    76
1070
     1
1070
   282
1070
     1
1070
    42
1040
0.625
1070
    43
1040
3.75
1070
    44
1040
1.25
1070
    48
1040
0.000000001
1070
    74
1070
     0
1070
    77
1070
     1
1070
    90
1070
     1
1070
   140
1040
3.0
1070
   141
1040
-0.5
1070
   143
1040
0.03937007874016
1070
   146
1040
0.7
1070
   147
1040
0.625
1070
   171
1070
     3
1070
   172
1070
     1
1070
   175
1070
     0
1070
   274
1070
     3
1070
   283
1070
     0
1070
   284
1070
     8
1070
   340
1005
25
1070
   371
1070
    -1
1070
   372
1070
    -1
1002
}
  0
LINE
  5
268B3
330
2
100
AcDbEntity
  8
0
  6
Continuous
 62
     3
100
AcDbLine
 10
197.6343409446451
 20
128.9247256335569
 30
0.0
 11
197.6343409446451
 21
115.8303094483157
 31
0.0
  0
SOLID
  5
268B4
330
2
100
AcDbEntity
  8
0
  6
Continuous
 62
     3
100
AcDbTrace
 10
198.0510076113121
 20
126.4247256335569
 30
0.0
 11
197.2176742779786
 21
126.4247256335569
 31
0.0
 12
197.6343409446451
 22
128.9247256335569
 32
0.0
 13
197.6343409446451
 23
128.9247256335569
 33
0.0
  0
MTEXT
  5
268B5
330
2
100
AcDbEntity
  8
0
  6
Continuous
 62
     2
100
AcDbMText
 10
195.5093409446451
 20
120.2182764449156
 30
0.0
 40
3.0
 41
0.0
 46
0.0
 71
     5
 72
     1
  1
%%C.32
 11
0.0000000000000001
 21
1.0
 31
0.0
 73
     1
 44
1.0
  0
LINE
  5
268B6
330
2
100
AcDbEntity
  8
0
  6
CENTER
 62
     3
100
AcDbLine
 10
121.4241376679645
 20
124.9247256335533
 30
0.0
 11
317.4241376679636
 21
124.9247256335533
 31
0.0
  0
LINE
  5
268B7
330
2
100
AcDbEntity
  8
0
 62
     0
100
AcDbLine
 10
184.4241376679635
 20
138.4247256335533
 30
0.0
 11
231.356102981156
 21
138.4247256335533
 31
0.0
  0
ARC
  5
268B8
330
2
100
AcDbEntity
  8
0
  6
Continuous
 62
     7
100
AcDbCircle
 10
184.4241376679635
 20
141.4247256335533
 30
0.0
 40
3.0
100
AcDbArc
 50
180.0
 51
270.0
  0
LINE
  5
268B9
330
2
100
AcDbEntity
  8
0
  6
Continuous
100
AcDbLine
 10
137.9869579909907
 20
144.6247256335531
 30
0.0
 11
136.4281122641794
 21
141.9247256335533
 31
0.0
  0
LINE
  5
268BA
330
2
100
AcDbEntity
  8
0
  6
Continuous
100
AcDbLine
 10
123.4241376679636
 20
103.3536527926202
 30
0.0
 11
123.4241376679636
 21
124.9247256335533
 31
0.0
  0
ARC
  5
268BB
330
2
100
AcDbEntity
  8
0
  6
Continuous
100
AcDbCircle
 10
124.6241376679634
 20
103.3536527926202
 30
0.0
 40
1.199999999999999
100
AcDbArc
 50
180.0
 51
267.1319444444364
  0
LINE
  5
268BC
330
2
100
AcDbEntity
  8
0
  6
Continuous
100
AcDbLine
 10
136.4281122641794
 20
141.9247256335533
 30
0.0
 11
136.4281122641794
 21
124.9247256335533
 31
0.0
  0
LINE
  5
268BD
330
2
100
AcDbEntity
  8
0
  6
Continuous
100
AcDbLine
 10
123.4241376679636
 20
146.4957984744854
 30
0.0
 11
123.4241376679636
 21
124.9247256335533
 31
0.0
  0
LINE
  5
268BE
330
2
100
AcDbEntity
  8
0
  6
Continuous
100
AcDbLine
 10
124.4241376679636
 20
141.9247256335533
 30
0.0
 11
124.4241376679636
 21
124.9247256335533
 31
0.0
  0
LINE
  5
268BF
330
2
100
AcDbEntity
  8
0
  6
Continuous
100
AcDbLine
 10
124.4241376679636
 20
141.9247256335533
 30
0.0
 11
136.4281122641794
 21
141.9247256335533
 31
0.0
  0
LINE
  5
268C0
330
2
100
AcDbEntity
  8
0
  6
Continuous
100
AcDbLine
 10
124.4241376679636
 20
141.9247256335533
 30
0.0
 11
123.4241376679636
 21
142.5020759027423
 31
0.0
  0
POINT
  5
268C1
330
2
100
AcDbEntity
  8
DEFPOINTS
  6
ByBlock
 62
     0
100
AcDbPoint
 10
136.4281122641794
 20
141.9247256335533
 30
0.0
  0
LINE
  5
268C2
330
2
100
AcDbEntity
  8
0
  6
Continuous
100
AcDbLine
 10
171.5491376679636
 20
122.8229558332863
 30
0.0
 11
171.5491376679636
 21
87.77713036936109
 31
0.0
  0
ARC
  5
268C3
330
2
100
AcDbEntity
  8
0
  6
Continuous
100
AcDbCircle
 10
172.0491376679636
 20
89.42472563355238
 30
0.0
 40
0.5
100
AcDbArc
 50
90.0
 51
180.0
  0
LINE
  5
268C4
330
2
100
AcDbEntity
  8
0
  6
Continuous
100
AcDbLine
 10
155.4241376679636
 20
124.9247256335533
 30
0.0
 11
155.4241376679645
 21
85.92472563355329
 31
0.0
  0
ARC
  5
268C5
330
2
100
AcDbEntity
  8
0
  6
Continuous
100
AcDbCircle
 10
156.4241376679644
 20
85.92472563355329
 30
0.0
 40
1.0
100
AcDbArc
 50
180.0
 51
270.0
  0
LINE
  5
268C6
330
2
100
AcDbEntity
  8
0
  6
Continuous
100
AcDbLine
 10
175.2991376679731
 20
124.9247256335533
 30
0.0
 11
175.2991376679636
 21
87.777130369362
 31
0.0
  0
ARC
  5
268C7
330
2
100
AcDbEntity
  8
0
  6
Continuous
100
AcDbCircle
 10
174.799137667964
 20
89.42472563355238
 30
0.0
 40
0.5
100
AcDbArc
 50
0.0
 51
90.0
  0
LINE
  5
268C8
330
2
100
AcDbEntity
  8
0
  6
Continuous
100
AcDbLine
 10
181.4241376679636
 20
85.92472563355329
 30
0.0
 11
181.4241376679636
 21
124.9247256335533
 31
0.0
  0
LINE
  5
268C9
330
2
100
AcDbEntity
  8
0
  6
Continuous
100
AcDbLine
 10
171.5491376679636
 20
87.77713036936109
 30
0.0
 11
169.9023010259077
 21
84.92472563355329
 31
0.0
  0
LINE
  5
268CA
330
2
100
AcDbEntity
  8
0
  6
Continuous
100
AcDbLine
 10
156.4241376679644
 20
84.92472563355329
 30
0.0
 11
169.9023010259077
 21
84.92472563355329
 31
0.0
  0
LINE
  5
268CB
330
2
100
AcDbEntity
  8
0
  6
Continuous
100
AcDbLine
 10
169.9023010259077
 20
84.92472563355329
 30
0.0
 11
169.9023010259041
 21
120.3441938613854
 31
0.0
  0
LINE
  5
268CC
330
2
100
AcDbEntity
  8
0
  6
Continuous
100
AcDbLine
 10
176.9459743100212
 20
84.92472563355329
 30
0.0
 11
180.4241376679636
 21
84.92472563355329
 31
0.0
  0
LINE
  5
268CD
330
2
100
AcDbEntity
  8
0
  6
Continuous
100
AcDbLine
 10
176.9459743100212
 20
84.92472563355329
 30
0.0
 11
176.9459743100212
 21
124.9247256335533
 31
0.0
  0
LINE
  5
268CE
330
2
100
AcDbEntity
  8
0
  6
Continuous
100
AcDbLine
 10
175.2991376679636
 20
87.777130369362
 30
0.0
 11
176.9459743100212
 21
84.92472563355329
 31
0.0
  0
LINE
  5
268CF
330
2
100
AcDbEntity
  8
0
  6
Continuous
100
AcDbLine
 10
172.0491376679636
 20
89.92472563355239
 30
0.0
 11
173.4241376679636
 21
89.92472563355329
 31
0.0
  0
LINE
  5
268D0
330
2
100
AcDbEntity
  8
0
  6
Continuous
100
AcDbLine
 10
174.799137667964
 20
89.92472563355239
 30
0.0
 11
173.4241376679636
 21
89.92472563355329
 31
0.0
  0
ARC
  5
268D1
330
2
100
AcDbEntity
  8
0
  6
Continuous
100
AcDbCircle
 10
180.4241376679636
 20
85.92472563355329
 30
0.0
 40
1.0
100
AcDbArc
 50
270.0
 51
0.0
  0
LINE
  5
268D2
330
2
100
AcDbEntity
  8
0
  6
Continuous
100
AcDbLine
 10
154.0437529102344
 20
101.0347256335529
 30
0.0
 11
154.0437529102344
 21
124.9247256335533
 31
0.0
  0
LINE
  5
268D3
330
2
100
AcDbEntity
  8
0
  6
Continuous
 62
     7
100
AcDbLine
 10
152.9229564541626
 20
124.9247256335533
 30
0.0
 11
152.9229564541626
 21
100.7344091282688
 31
0.0
  0
LINE
  5
268D4
330
2
100
AcDbEntity
  8
0
  6
Continuous
100
AcDbLine
 10
152.9229564541626
 20
100.7344091282688
 30
0.0
 11
154.0437529102344
 21
101.0347256335529
 31
0.0
  0
LINE
  5
268D5
330
2
100
AcDbEntity
  8
0
  6
Continuous
100
AcDbLine
 10
154.0437529102344
 20
101.0347256335529
 30
0.0
 11
155.0241376679639
 21
101.0347256335529
 31
0.0
  0
ARC
  5
268D6
330
2
100
AcDbEntity
  8
0
  6
Continuous
100
AcDbCircle
 10
155.0241376679639
 20
100.4347256335535
 30
0.0
 40
0.6
100
AcDbArc
 50
48.18968510412814
 51
90.0
  0
ARC
  5
268D7
330
2
100
AcDbEntity
  8
0
  6
Continuous
100
AcDbCircle
 10
149.3877894341392
 20
136.9247256335533
 30
0.0
 40
8.0
100
AcDbArc
 50
38.68218745349355
 51
90.0
  0
LINE
  5
268D8
330
2
100
AcDbEntity
  8
0
  6
Continuous
100
AcDbLine
 10
138.1601630717484
 20
144.8146235821099
 30
0.0
 11
138.1601630717484
 21
124.9247256335533
 31
0.0
  0
POINT
  5
268D9
330
2
100
AcDbEntity
  8
DEFPOINTS
  6
ByBlock
 62
     0
100
AcDbPoint
 10
138.1601630717484
 20
124.9247256335533
 30
0.0
  0
LINE
  5
268DA
330
2
100
AcDbEntity
  8
0
  6
Continuous
100
AcDbLine
 10
138.5065732332621
 20
144.9247256335533
 30
0.0
 11
149.3877894341392
 21
144.9247256335533
 31
0.0
  0
ARC
  5
268DB
330
2
100
AcDbEntity
  8
0
  6
Continuous
100
AcDbCircle
 10
138.5065732332621
 20
144.3247256335529
 30
0.0
 40
0.6
100
AcDbArc
 50
90.0
 51
149.9999999999897
  0
POINT
  5
268DC
330
2
100
AcDbEntity
  8
DEFPOINTS
  6
ByBlock
 62
     0
100
AcDbPoint
 10
138.1601630717484
 20
144.8146235821099
 30
0.0
  0
POINT
  5
268DD
330
2
100
AcDbEntity
  8
DEFPOINTS
  6
ByBlock
 62
     0
100
AcDbPoint
 10
137.9869579909907
 20
144.6247256335531
 30
0.0
  0
LINE
  5
268DE
330
2
100
AcDbEntity
  8
0
  6
Continuous
100
AcDbLine
 10
165.4241376679635
 20
140.6747256335533
 30
0.0
 11
165.4241376679635
 21
124.9247256335533
 31
0.0
  0
LINE
  5
268DF
330
2
100
AcDbEntity
  8
0
  6
Continuous
100
AcDbLine
 10
155.6327874325377
 20
141.9247256335533
 30
0.0
 11
155.6327874325377
 21
124.9247256335533
 31
0.0
  0
LINE
  5
268E0
330
2
100
AcDbEntity
  8
0
  6
Continuous
100
AcDbLine
 10
163.0949814703751
 20
141.9247256335533
 30
0.0
 11
155.6327874325377
 21
141.9247256335533
 31
0.0
  0
ARC
  5
268E1
330
2
100
AcDbEntity
  8
0
  6
Continuous
100
AcDbCircle
 10
163.9241376679636
 20
140.6747256335533
 30
0.0
 40
1.5
100
AcDbArc
 50
0.0
 51
123.5573097619231
  0
LINE
  5
268E2
330
2
100
AcDbEntity
  8
0
  6
Continuous
100
AcDbLine
 10
181.4241376679636
 20
124.9247256335533
 30
0.0
 11
181.4241376679636
 21
118.4755204207152
 31
0.0
  0
LINE
  5
268E3
330
2
100
AcDbEntity
  8
0
  6
Continuous
100
AcDbLine
 10
171.5491376679626
 20
162.0723208977455
 30
0.0
 11
169.9023010259086
 21
164.9247256335533
 31
0.0
  0
LINE
  5
268E4
330
2
100
AcDbEntity
  8
0
  6
Continuous
100
AcDbLine
 10
156.4241376679644
 20
164.9247256335533
 30
0.0
 11
169.9023010259086
 21
164.9247256335533
 31
0.0
  0
ARC
  5
268E5
330
2
100
AcDbEntity
  8
0
  6
Continuous
100
AcDbCircle
 10
156.4241376679644
 20
163.9247256335533
 30
0.0
 40
1.0
100
AcDbArc
 50
90.0
 51
180.0
  0
LINE
  5
268E6
330
2
100
AcDbEntity
  8
0
  6
Continuous
100
AcDbLine
 10
155.4241376679645
 20
163.9247256335533
 30
0.0
 11
155.4241376679599
 21
148.9675120380528
 31
0.0
  0
LINE
  5
268E7
330
2
100
AcDbEntity
  8
0
  6
Continuous
100
AcDbLine
 10
155.6241376679634
 20
149.414725633553
 30
0.0
 11
155.6241376679634
 21
149.4916516890765
 31
0.0
  0
LINE
  5
268E8
330
2
100
AcDbEntity
  8
0
  6
Continuous
100
AcDbLine
 10
155.4241376679636
 20
150.9147256335531
 30
0.0
 11
155.6241376679634
 21
149.4916516890765
 31
0.0
  0
ARC
  5
268E9
330
2
100
AcDbEntity
  8
0
  6
Continuous
100
AcDbCircle
 10
155.0241376679639
 20
149.414725633553
 30
0.0
 40
0.6
100
AcDbArc
 50
270.0
 51
0.0
  0
LINE
  5
268EA
330
2
100
AcDbEntity
  8
0
  6
Continuous
100
AcDbLine
 10
176.9459743100203
 20
164.9247256335533
 30
0.0
 11
180.4241376679636
 21
164.9247256335533
 31
0.0
  0
LINE
  5
268EB
330
2
100
AcDbEntity
  8
0
  6
Continuous
100
AcDbLine
 10
171.5491376679636
 20
160.4247256335533
 30
0.0
 11
171.5491376679626
 21
162.0723208977455
 31
0.0
  0
LINE
  5
268EC
330
2
100
AcDbEntity
  8
0
  6
Continuous
100
AcDbLine
 10
175.2991376679636
 20
160.4247256335533
 30
0.0
 11
175.2991376679626
 21
162.0723208977446
 31
0.0
  0
LINE
  5
268ED
330
2
100
AcDbEntity
  8
0
  6
Continuous
100
AcDbLine
 10
174.7991376679635
 20
159.9247256335533
 30
0.0
 11
173.4241376679636
 21
159.9247256335533
 31
0.0
  0
LINE
  5
268EE
330
2
100
AcDbEntity
  8
0
  6
Continuous
100
AcDbLine
 10
172.0491376679636
 20
159.9247256335533
 30
0.0
 11
173.4241376679636
 21
159.9247256335533
 31
0.0
  0
ARC
  5
268EF
330
2
100
AcDbEntity
  8
0
  6
Continuous
100
AcDbCircle
 10
172.0491376679636
 20
160.4247256335533
 30
0.0
 40
0.5
100
AcDbArc
 50
180.0
 51
270.0
  0
ARC
  5
268F0
330
2
100
AcDbEntity
  8
0
  6
Continuous
100
AcDbCircle
 10
174.7991376679635
 20
160.4247256335533
 30
0.0
 40
0.5
100
AcDbArc
 50
270.0
 51
0.0
  0
LINE
  5
268F1
330
2
100
AcDbEntity
  8
0
  6
Continuous
100
AcDbLine
 10
175.2991376679626
 20
162.0723208977446
 30
0.0
 11
176.9459743100203
 21
164.9247256335533
 31
0.0
  0
LINE
  5
268F2
330
2
100
AcDbEntity
  8
0
  6
Continuous
100
AcDbLine
 10
181.4241376679636
 20
163.9247256335533
 30
0.0
 11
181.4241376679636
 21
141.4247256335533
 31
0.0
  0
ARC
  5
268F3
330
2
100
AcDbEntity
  8
0
  6
Continuous
100
AcDbCircle
 10
180.4241376679636
 20
163.9247256335533
 30
0.0
 40
1.0
100
AcDbArc
 50
0.0
 51
90.0
  0
LINE
  5
268F4
330
2
100
AcDbEntity
  8
0
  6
Continuous
 62
     7
100
AcDbLine
 10
163.0949814703751
 20
141.9247256335533
 30
0.0
 11
163.0949814703751
 21
124.9247256335533
 31
0.0
  0
LINE
  5
268F5
330
2
100
AcDbEntity
  8
0
100
AcDbLine
 10
124.5640943353471
 20
102.1551559014227
 30
0.0
 11
152.9229564541626
 21
100.7344091282688
 31
0.0
  0
LINE
  5
268F6
330
2
100
AcDbEntity
  8
0
  6
Continuous
100
AcDbLine
 10
152.9229564541626
 20
149.1150421388369
 30
0.0
 11
154.0437529102344
 21
148.8147256335527
 31
0.0
  0
LINE
  5
268F7
330
2
100
AcDbEntity
  8
0
  6
Continuous
100
AcDbLine
 10
154.0437529102344
 20
148.8147256335527
 30
0.0
 11
155.0241376679639
 21
148.8147256335527
 31
0.0
  0
LINE
  5
268F8
330
2
100
AcDbEntity
  8
0
100
AcDbLine
 10
124.5640943353471
 20
147.6942953656829
 30
0.0
 11
152.9229564541626
 21
149.1150421388369
 31
0.0
  0
ARC
  5
268F9
330
2
100
AcDbEntity
  8
0
  6
Continuous
100
AcDbCircle
 10
124.6241376679634
 20
146.4957984744854
 30
0.0
 40
1.199999999999999
100
AcDbArc
 50
92.86805555556354
 51
180.0
  0
LINE
  5
268FA
330
2
100
AcDbEntity
  8
0
  6
Continuous
100
AcDbLine
 10
166.2241376679637
 20
133.4247256335533
 30
0.0
 11
171.6241376679634
 21
133.4247256335533
 31
0.0
  0
LINE
  5
268FB
330
2
100
AcDbEntity
  8
0
  6
Continuous
 62
     3
100
AcDbLine
 10
165.7241376679637
 20
133.9247256335533
 30
0.0
 11
172.1241376679634
 21
133.9247256335533
 31
0.0
  0
LINE
  5
268FC
330
2
100
AcDbEntity
  8
0
  6
Continuous
100
AcDbLine
 10
165.4241376679635
 20
140.6747256335533
 30
0.0
 11
165.4241376679635
 21
124.9247256335533
 31
0.0
  0
LINE
  5
268FD
330
2
100
AcDbEntity
  8
0
  6
Continuous
100
AcDbLine
 10
166.2241376679637
 20
133.4247256335533
 30
0.0
 11
166.2241376679637
 21
124.9247256335533
 31
0.0
  0
LINE
  5
268FE
330
2
100
AcDbEntity
  8
0
  6
Continuous
100
AcDbLine
 10
166.2241376679637
 20
133.4247256335533
 30
0.0
 11
165.4241376679635
 21
134.2247256335525
 31
0.0
  0
LINE
  5
268FF
330
2
100
AcDbEntity
  8
0
  6
Continuous
100
AcDbLine
 10
177.4241376679636
 20
134.4247256335533
 30
0.0
 11
177.4241376679645
 21
124.9247256335533
 31
0.0
  0
LINE
  5
26900
330
2
100
AcDbEntity
  8
0
  6
Continuous
100
AcDbLine
 10
177.9741376679642
 20
128.9247256335824
 30
0.0
 11
177.4241376679645
 21
129.4747256335825
 31
0.0
  0
LINE
  5
26901
330
2
100
AcDbEntity
  8
0
  6
Continuous
100
AcDbLine
 10
172.4241376679636
 20
134.4247256335533
 30
0.0
 11
172.4241376679636
 21
124.9247256335533
 31
0.0
  0
LINE
  5
26902
330
2
100
AcDbEntity
  8
0
  6
Continuous
100
AcDbLine
 10
172.4241376679636
 20
134.4247256335533
 30
0.0
 11
177.4241376679636
 21
134.4247256335533
 31
0.0
  0
LINE
  5
26903
330
2
100
AcDbEntity
  8
0
  6
Continuous
100
AcDbLine
 10
171.6241376679634
 20
133.4247256335533
 30
0.0
 11
171.6241376679634
 21
124.9247256335533
 31
0.0
  0
LINE
  5
26904
330
2
100
AcDbEntity
  8
0
  6
Continuous
100
AcDbLine
 10
171.6241376679634
 20
133.4247256335533
 30
0.0
 11
172.4241376679636
 21
134.2247256335525
 31
0.0
  0
LINE
  5
26905
330
2
100
AcDbEntity
  8
0
  6
Continuous
 62
     7
100
AcDbLine
 10
177.9741376679642
 20
128.9247256335824
 30
0.0
 11
177.9741376679642
 21
124.9247256335533
 31
0.0
  0
ARC
  5
26906
330
2
100
AcDbEntity
  8
0
  6
Continuous
 62
     7
100
AcDbCircle
 10
314.9241376679636
 20
128.5997256335571
 30
0.0
 40
0.5
100
AcDbArc
 50
270.0
 51
0.0
  0
LINE
  5
26907
330
2
100
AcDbEntity
  8
0
  6
Continuous
 62
     7
100
AcDbLine
 10
314.924137667964
 20
128.099725633558
 30
0.0
 11
293.4241376679665
 21
128.0997256335544
 31
0.0
  0
LINE
  5
26908
330
2
100
AcDbEntity
  8
0
  6
Continuous
 62
     7
100
AcDbLine
 10
292.9478236958823
 20
128.9247256335578
 30
0.0
 11
177.9741376679642
 21
128.9247256335824
 31
0.0
  0
LINE
  5
26909
330
2
100
AcDbEntity
  8
0
  6
Continuous
 62
     7
100
AcDbLine
 10
315.4241376679636
 20
124.9247256335542
 30
0.0
 11
315.4241376679654
 21
129.6952288725264
 31
0.0
  0
LINE
  5
2690A
330
2
100
AcDbEntity
  8
0
  6
Continuous
 62
     7
100
AcDbLine
 10
293.4241376679643
 20
124.9247256335724
 30
0.0
 11
293.4241376679659
 21
128.0997256335553
 31
0.0
  0
ARC
  5
2690B
330
2
100
AcDbEntity
  8
0
  6
Continuous
 62
     7
100
AcDbCircle
 10
313.9241376679654
 20
129.6952288725273
 30
0.0
 40
1.5
100
AcDbArc
 50
0.0
 51
85.00000000000023
  0
LINE
  5
2690C
330
2
100
AcDbEntity
  8
0
  6
Continuous
 62
     7
100
AcDbLine
 10
314.0548712820869
 20
131.1895209196649
 30
0.0
 11
231.356102981156
 21
138.4247256335533
 31
0.0
  0
LINE
  5
2690D
330
2
100
AcDbEntity
  8
0
  6
Continuous
 62
     7
100
AcDbLine
 10
293.4241376679659
 20
128.0997256335553
 30
0.0
 11
292.9478236958828
 21
128.9247256335578
 31
0.0
  0
LINE
  5
2690E
330
2
100
AcDbEntity
  8
0
  6
Continuous
 62
     7
100
AcDbLine
 10
292.9478236958823
 20
128.9247256335578
 30
0.0
 11
292.9478236958823
 21
124.9247256335533
 31
0.0
  0
LINE
  5
2690F
330
2
100
AcDbEntity
  8
0
 62
     0
100
AcDbLine
 10
184.4241376679635
 20
111.4247256335533
 30
0.0
 11
231.356102981156
 21
111.4247256335533
 31
0.0
  0
ARC
  5
26910
330
2
100
AcDbEntity
  8
0
  6
Continuous
 62
     7
100
AcDbCircle
 10
184.4241376679635
 20
108.4247256335533
 30
0.0
 40
3.0
100
AcDbArc
 50
90.0
 51
180.0
  0
LINE
  5
26911
330
2
100
AcDbEntity
  8
0
  6
Continuous
 62
     7
100
AcDbLine
 10
315.4241376679636
 20
124.9247256335524
 30
0.0
 11
315.4241376679654
 21
120.1542223945802
 31
0.0
  0
LINE
  5
26912
330
2
100
AcDbEntity
  8
0
  6
Continuous
 62
     4
100
AcDbLine
 10
315.4241376679658
 20
119.5554322808578
 30
0.0
 11
315.4241376679658
 21
118.7797256335528
 31
0.0
  0
ARC
  5
26913
330
2
100
AcDbEntity
  8
0
  6
Continuous
 62
     7
100
AcDbCircle
 10
313.9241376679654
 20
120.1542223945793
 30
0.0
 40
1.5
100
AcDbArc
 50
274.9999999999998
 51
0.0
  0
LINE
  5
26914
330
2
100
AcDbEntity
  8
0
  6
Continuous
 62
     4
100
AcDbLine
 10
315.4241376679658
 20
118.7797256335528
 30
0.0
 11
314.6429114786993
 21
118.7113771983425
 31
0.0
  0
LINE
  5
26915
330
2
100
AcDbEntity
  8
0
  6
Continuous
 62
     7
100
AcDbLine
 10
314.0595322434003
 20
118.6603381287181
 30
0.0
 11
231.356102981156
 21
111.4247256335533
 31
0.0
  0
LINE
  5
26916
330
2
100
AcDbEntity
  8
0
  6
Continuous
 62
     7
100
AcDbLine
 10
231.356102981156
 20
111.4247256335533
 30
0.0
 11
231.356102981156
 21
124.9247256335533
 31
0.0
  0
LINE
  5
26917
330
2
100
AcDbEntity
  8
3
 62
     3
100
AcDbLine
 10
146.4241376679636
 20
130.553250581312
 30
0.0
 11
146.4241376679636
 21
119.2962006857946
 31
0.0
  0
CIRCLE
  5
26918
330
2
100
AcDbEntity
  8
0
 62
     7
100
AcDbCircle
 10
146.4241376679636
 20
124.9247256335533
 30
0.0
 40
3.75
  0
POINT
  5
26919
330
2
100
AcDbEntity
  8
DEFPOINTS
  6
ByBlock
 62
     7
100
AcDbPoint
 10
148.7689125763788
 20
121.9982036997756
 30
0.0
  0
POINT
  5
2691A
330
2
100
AcDbEntity
  8
DEFPOINTS
  6
ByBlock
 62
     3
100
AcDbPoint
 10
146.4241376679636
 20
119.2962006857946
 30
0.0
  0
ARC
  5
2691B
330
2
100
AcDbEntity
  8
0
  6
Continuous
 62
     7
100
AcDbCircle
 10
146.4241376679636
 20
124.9247256335533
 30
0.0
 40
4.25
100
AcDbArc
 50
180.0
 51
0.0
  0
LINE
  5
2691C
330
2
100
AcDbEntity
  8
0
  6
Continuous
 62
     3
100
AcDbLine
 10
155.4241376679645
 20
85.04921541767306
 30
0.0
 11
155.4241376679645
 21
73.5611782010477
 31
0.0
  0
MTEXT
  5
2691D
330
2
100
AcDbEntity
  8
0
  6
Continuous
 62
     2
100
AcDbMText
 10
155.4246718371121
 20
71.11236309725189
 30
0.0
 40
3.0
 41
0.0
 46
0.0
 71
     5
 72
     1
  1
0.00
 73
     1
 44
1.0
  0
LINE
  5
2691E
330
2
100
AcDbEntity
  8
0
  6
Continuous
 62
     3
100
AcDbLine
 10
181.4241376679644
 20
85.04921541767306
 30
0.0
 11
181.4241376679644
 21
73.59393682163261
 31
0.0
  0
MTEXT
  5
2691F
330
2
100
AcDbEntity
  8
0
  6
Continuous
 62
     2
100
AcDbMText
 10
181.1303237348172
 20
71.11236309725189
 30
0.0
 40
3.0
 41
0.0
 46
0.0
 71
     5
 72
     1
  1
1.02
 73
     1
 44
1.0
  0
LINE
  5
26920
330
2
100
AcDbEntity
  8
0
  6
Continuous
 62
     3
100
AcDbLine
 10
123.4241376679645
 20
102.2703730988181
 30
0.0
 11
123.4241376679645
 21
73.5611782010477
 31
0.0
  0
MTEXT
  5
26921
330
2
100
AcDbEntity
  8
0
  6
Continuous
 62
     2
100
AcDbMText
 10
123.4246718371121
 20
71.11236309725189
 30
0.0
 40
3.0
 41
0.0
 46
0.0
 71
     5
 72
     1
  1
1.26
 73
     1
 44
1.0
  0
LINE
  5
26922
330
2
100
AcDbEntity
  8
0
  6
Continuous
 62
     3
100
AcDbLine
 10
315.4241376679661
 20
118.1553330746232
 30
0.0
 11
315.4241376679661
 21
73.59393682163261
 31
0.0
  0
MTEXT
  5
26923
330
2
100
AcDbEntity
  8
0
  6
Continuous
 62
     2
100
AcDbMText
 10
315.1303237348188
 20
71.11236309725189
 30
0.0
 40
3.0
 41
0.0
 46
0.0
 71
     5
 72
     1
  1
6.30
 73
     1
 44
1.0
  0
DIMENSION
  5
26924
330
2
100
AcDbEntity
  8
0
  6
Continuous
 62
     7
100
AcDbDimension
280
     0
  2
*D6
 10
334.7479228745835
 20
118.7797256335528
 30
0.0
 11
334.7479228745835
 21
123.9083889642437
 31
0.0
 70
   160
  1
%%C.484
 71
     5
 42
12.28999999999995
 73
     0
 74
     0
 75
     0
  3
Standard$0
100
AcDbAlignedDimension
 13
315.4241376679658
 23
131.0697256335528
 33
0.0
 14
315.4241376679658
 24
118.7797256335528
 34
0.0
 50
90.0
100
AcDbRotatedDimension
1001
ACAD
1000
DSTYLE
1002
{
1070
    76
1070
     1
1070
   282
1070
     1
1070
    42
1040
0.625
1070
    43
1040
3.75
1070
    44
1040
1.25
1070
    48
1040
0.000000001
1070
    74
1070
     0
1070
    77
1070
     1
1070
    90
1070
     1
1070
   140
1040
3.0
1070
   141
1040
-0.5
1070
   143
1040
0.03937007874016
1070
   146
1040
0.7
1070
   147
1040
0.625
1070
   171
1070
     3
1070
   172
1070
     1
1070
   175
1070
     0
1070
   274
1070
     3
1070
   283
1070
     0
1070
   284
1070
     8
1070
   340
1005
25
1070
   371
1070
    -1
1070
   372
1070
    -1
1002
}
  0
DIMENSION
  5
26925
330
2
100
AcDbEntity
  8
0
  6
Continuous
 62
     7
100
AcDbDimension
280
     0
  2
*D7
 10
326.747922874584
 20
121.7497256335976
 30
0.0
 11
326.747922874584
 21
122.513536922302
 31
0.0
 70
   160
  1
%%c.250
 71
     5
 42
6.34999999999944
 73
     0
 74
     0
 75
     0
  3
Standard$0
100
AcDbAlignedDimension
 13
314.9241376679636
 23
128.0997256335971
 33
0.0
 14
314.9241376679636
 24
121.7497256335976
 34
0.0
 50
90.0
100
AcDbRotatedDimension
1001
ACAD
1000
DSTYLE
1002
{
1070
     3
1000
%%c<>
1070
    76
1070
     1
1070
   282
1070
     1
1070
    42
1040
0.625
1070
    43
1040
3.75
1070
    44
1040
1.25
1070
    48
1040
0.000000001
1070
    74
1070
     0
1070
    77
1070
     1
1070
    90
1070
     1
1070
   140
1040
3.0
1070
   141
1040
-0.5
1070
   143
1040
0.03937007874016
1070
   146
1040
0.7
1070
   147
1040
0.625
1070
   171
1070
     3
1070
   172
1070
     1
1070
   175
1070
     0
1070
   274
1070
     3
1070
   283
1070
     0
1070
   284
1070
     8
1070
   340
1005
25
1070
   371
1070
    -1
1070
   372
1070
    -1
1002
}
  0
LINE
  5
2692A
330
2
100
AcDbEntity
  8
0
  6
Continuous
 62
     4
100
AcDbLine
 10
315.4241376679658
 20
130.2940189862478
 30
0.0
 11
315.4241376679658
 21
131.0697256335519
 31
0.0
  0
LINE
  5
2692B
330
2
100
AcDbEntity
  8
0
  6
Continuous
 62
     4
100
AcDbLine
 10
315.4241376679658
 20
131.0697256335519
 30
0.0
 11
314.6429114786993
 21
131.1380740687622
 31
0.0
  0
DIMENSION
  5
2692C
330
2
100
AcDbEntity
  8
0
  6
Continuous
 62
     7
100
AcDbDimension
280
     0
  2
*D8
 10
315.4241376679658
 20
149.5422558865469
 30
0.0
 11
304.4241376679654
 21
151.6672558865469
 31
0.0
 70
    32
  1
.866
 71
     5
 42
22.00000000000091
 73
     0
 74
     0
 75
     0
  3
Standard$0
100
AcDbAlignedDimension
 13
293.4241376679649
 23
128.0997256335562
 33
0.0
 14
315.4241376679658
 24
131.0697256335519
 34
0.0
100
AcDbRotatedDimension
1001
ACAD
1000
DSTYLE
1002
{
1070
    42
1040
0.625
1070
    43
1040
3.75
1070
    44
1040
1.25
1070
    48
1040
0.000000001
1070
    74
1070
     0
1070
    77
1070
     1
1070
    90
1070
     1
1070
   140
1040
3.0
1070
   141
1040
-0.5
1070
   143
1040
0.03937007874016
1070
   146
1040
0.7
1070
   147
1040
0.625
1070
   171
1070
     3
1070
   172
1070
     1
1070
   175
1070
     0
1070
   179
1070
     1
1070
   274
1070
     3
1070
   283
1070
     0
1070
   284
1070
     8
1070
   340
1005
25
1070
   371
1070
    -1
1070
   372
1070
    -1
1002
}
  0
DIMENSION
  5
2692D
330
2
100
AcDbEntity
  8
0
  6
Continuous
 62
     7
100
AcDbDimension
280
     0
  2
*D1
 10
231.356102981156
 20
111.4247256335533
 30
0.0
 11
253.2541083118291
 21
119.1436805701718
 31
0.0
 70
    34
 71
     5
 42
0.0872664625997191
 73
     0
 74
     0
 75
     0
  3
Standard
100
AcDb2LineAngularDimension
 13
121.4241376679645
 23
124.9247256335533
 33
0.0
 14
317.4241376679636
 24
124.9247256335533
 34
0.0
 15
314.0595322434003
 25
118.6603381287181
 35
0.0
 16
251.0599328725286
 26
121.0082110409239
 36
0.0
1001
ACAD
1000
DSTYLE
1002
{
1070
    42
1040
0.625
1070
    43
1040
3.75
1070
    44
1040
1.25
1070
    48
1040
0.000000001
1070
    74
1070
     0
1070
    77
1070
     1
1070
    90
1070
     1
1070
   140
1040
3.0
1070
   141
1040
-0.5
1070
   143
1040
0.03937007874016
1070
   146
1040
0.7
1070
   147
1040
0.625
1070
   171
1070
     3
1070
   172
1070
     1
1070
   175
1070
     0
1070
   179
1070
     0
1070
   274
1070
     3
1070
   283
1070
     0
1070
   284
1070
     8
1070
   340
1005
25
1070
   371
1070
    -1
1070
   372
1070
    -1
1002
}
  0
LINE
  5
2692E
330
2
100
AcDbEntity
  8
0
  6
Continuous
 62
     3
100
AcDbLine
 10
231.356102981156
 20
110.6106709692288
 30
0.0
 11
231.356102981156
 21
73.59393682163261
 31
0.0
  0
MTEXT
  5
2692F
330
2
100
AcDbEntity
  8
0
  6
Continuous
 62
     2
100
AcDbMText
 10
231.0622890480088
 20
71.11236309725189
 30
0.0
 40
3.0
 41
0.0
 46
0.0
 71
     5
 72
     1
  1
2.99
 73
     1
 44
1.0
  0
DIMENSION
  5
26930
330
2
100
AcDbEntity
  8
0
  6
Continuous
 62
     7
100
AcDbDimension
280
     0
  2
*D2
 10
313.9241376679654
 20
120.1542223945794
 30
0.0
 11
323.0220429665091
 21
114.4990174511062
 31
0.0
 70
    36
  1
R.06
 71
     5
 42
1.500000000000227
 73
     0
 74
     0
 75
     0
  3
Standard
100
AcDbRadialDimension
 15
315.01567984349
 25
119.1253707633654
 35
0.0
 40
0.0
1001
ACAD
1000
DSTYLE
1002
{
1070
    42
1040
0.625
1070
    43
1040
3.75
1070
    44
1040
1.25
1070
    48
1040
0.000000001
1070
    74
1070
     0
1070
    77
1070
     1
1070
    90
1070
     1
1070
   140
1040
3.0
1070
   141
1040
-0.5
1070
   143
1040
0.03937007874016
1070
   146
1040
0.7
1070
   147
1040
0.625
1070
   171
1070
     3
1070
   172
1070
     1
1070
   175
1070
     0
1070
   179
1070
     0
1070
   274
1070
     3
1070
   283
1070
     0
1070
   284
1070
     8
1070
   288
1070
     1
1070
   340
1005
25
1070
   371
1070
    -1
1070
   372
1070
    -1
1002
}
1001
ACAD_DSTYLE_DIMRADIAL_EXTENSION
1070
   387
1070
     1
1070
   388
1040
4.799655442984406
1070
   390
1040
0.0000000000003979
  0
DIMENSION
  5
26931
330
2
100
AcDbEntity
  8
0
  6
Continuous
 62
     7
100
AcDbDimension
280
     0
  2
*D9
 10
184.4241376679631
 20
141.4247256335533
 30
0.0
 11
188.484559189
 21
145.4465678208294
 31
0.0
 70
   164
  1
R.12
 71
     5
 42
2.99999999999963
 73
     0
 74
     0
 75
     0
  3
Standard
100
AcDbRadialDimension
 15
182.292715838382
 25
139.3135551088484
 35
0.0
 40
0.0
1001
ACAD
1000
DSTYLE
1002
{
1070
    42
1040
0.625
1070
    43
1040
3.75
1070
    44
1040
1.25
1070
    48
1040
0.000000001
1070
    74
1070
     0
1070
    77
1070
     1
1070
    90
1070
     1
1070
   140
1040
3.0
1070
   141
1040
-0.5
1070
   143
1040
0.03937007874016
1070
   146
1040
0.7
1070
   147
1040
0.625
1070
   171
1070
     3
1070
   172
1070
     1
1070
   175
1070
     0
1070
   179
1070
     0
1070
   274
1070
     3
1070
   283
1070
     0
1070
   284
1070
     8
1070
   288
1070
     1
1070
   340
1005
25
1070
   371
1070
    -1
1070
   372
1070
    -1
1002
}
1001
ACAD_DSTYLE_DIMRADIAL_EXTENSION
1070
   387
1070
     1
1070
   388
1040
3.141592653589793
1070
   390
1040
4.712388980384689
  0
HATCH
  5
26932
330
2
100
AcDbEntity
  8
0
  6
Continuous
 62
     4
100
AcDbHatch
 10
0.0
 20
0.0
 30
0.0
210
0.0
220
0.0
230
1.0
  2
ANSI31
 70
     0
 71
     0
 91
        3
 92
        5
 93
       11
 72
     4
 94
        3
 73
     1
 74
     0
 95
       11
 96
        7
 40
0.0
 40
0.0
 40
0.0
 40
0.0
 40
4.674327730188298
 40
8.757798890259049
 40
13.53881954948476
 40
15.15923772326177
 40
15.15923772326177
 40
15.15923772326177
 40
15.15923772326177
 10
155.4241376679636
 20
117.4549861922945
 42
1.0
 10
156.9370720022587
 20
118.0037857113933
 42
1.0
 10
159.7716987975407
 20
119.0320139608369
 42
1.0
 10
164.2473363917913
 20
117.3574513245033
 42
1.0
 10
167.7343223332589
 20
118.6471938683129
 42
1.0
 10
169.5007906124203
 20
119.9721697458129
 42
1.0
 10
169.9023010216722
 20
120.3441938574645
 42
1.0
 97
        0
 72
     1
 10
169.9023010259041
 20
120.3441938565014
 11
169.9023010259041
 21
120.3466166031897
 72
     1
 10
169.9023010259041
 20
120.3466166031897
 11
169.9035090392501
 21
120.3453133983215
 72
     4
 94
        3
 73
     1
 74
     0
 95
        9
 96
        5
 40
15.16088458532654
 40
15.16088458532654
 40
15.16088458532654
 40
15.16088458532654
 40
17.06081490510214
 40
18.18681735974611
 40
18.18681735974611
 40
18.18681735974611
 40
18.18681735974611
 10
169.9035250684039
 20
120.3453282566846
 42
1.0
 10
170.3741847450044
 20
120.781611531825
 42
1.0
 10
171.0238010271434
 20
121.5566624828028
 42
1.0
 10
171.4225306154546
 20
122.4683809321299
 42
1.0
 10
171.5481065535866
 20
122.8200664000081
 42
1.0
 97
        0
 72
     4
 94
        3
 73
     1
 74
     0
 95
        8
 96
        4
 40
18.18681735974611
 40
18.18681735974611
 40
18.18681735974611
 40
18.18681735974611
 40
20.33639438704106
 40
20.33639438704106
 40
20.33639438704106
 40
20.33639438704106
 10
171.5481065535866
 20
122.8200664000081
 42
1.0
 10
171.7878352954528
 20
123.4914459333862
 42
1.0
 10
171.9444776315765
 20
124.2080857834702
 42
1.0
 10
172.1011199677002
 20
124.9247256335533
 42
1.0
 97
        0
 72
     1
 10
172.1011199677002
 20
124.9247256335533
 11
171.6241376679634
 21
124.9247256335533
 72
     1
 10
171.6241376679634
 20
124.9247256335533
 11
167.7675133409364
 21
124.9247256335533
 72
     1
 10
167.7675133409364
 20
124.9247256335542
 11
166.3241376679637
 21
122.424725633556
 72
     1
 10
166.3241376679637
 20
122.4247256335551
 11
155.9241376679654
 21
122.4247256335551
 72
     1
 10
155.9241376679654
 20
122.424725633556
 11
155.4241376679636
 21
121.9247256335533
 72
     1
 10
155.4241376679636
 20
121.9247256335533
 11
155.4241376679636
 21
117.4549861922945
 97
        0
 92
        9
 93
        4
 72
     1
 10
108.0595237570767
 20
117.6667452358273
 11
108.0595237570767
 21
130.1819409393023
 72
     1
 10
108.0595237570767
 20
130.1819409393023
 11
112.5595237570767
 21
130.1819409393023
 72
     1
 10
112.5595237570767
 20
130.1819409393023
 11
112.5595237570767
 21
117.6667452358273
 72
     1
 10
112.5595237570767
 20
117.6667452358273
 11
108.0595237570767
 21
117.6667452358273
 97
        0
 92
        9
 93
        4
 72
     1
 10
139.2406687671071
 20
114.0344826914692
 11
153.0491376679635
 21
114.0344826914692
 72
     1
 10
153.0491376679635
 20
114.0344826914692
 11
153.0491376679635
 21
109.232912802206
 72
     1
 10
153.0491376679635
 20
109.232912802206
 11
139.2406687671071
 21
109.232912802206
 72
     1
 10
139.2406687671071
 20
109.232912802206
 11
139.2406687671071
 21
114.0344826914692
 97
        0
 75
     1
 76
     1
 52
90.0
 41
1.0
 77
     0
 78
     1
 53
135.0
 43
-582.8759411019198
 44
2364.923745767175
 45
-2.245064030267288
 46
-2.245064030267287
 79
     0
 47
0.0
 98
        1
 10
158.2250198622239
 20
120.207536224861
1001
ACAD
1010
0.0
1020
0.0
1030
0.0
1001
HATCHBACKGROUNDCOLOR
1071
-939524096
1000
없음
1000

  0
DIMENSION
  5
26933
330
2
100
AcDbEntity
  8
0
  6
Continuous
 62
     7
100
AcDbDimension
280
     0
  2
*D10
 10
112.4345237570767
 20
164.9247256335533
 30
0.0
 11
112.4345237570767
 21
123.9243430875643
 31
0.0
 70
   160
  1
%%C3.149
 71
     5
 42
80.0
 73
     0
 74
     0
 75
     0
  3
Standard$0
100
AcDbAlignedDimension
 13
156.4241376679644
 23
84.92472563355329
 33
0.0
 14
156.4241376679644
 24
164.9247256335533
 34
0.0
 50
90.0
100
AcDbRotatedDimension
1001
ACAD
1000
DSTYLE
1002
{
1070
    75
1070
     1
1070
   281
1070
     1
1070
   282
1070
     0
1070
    42
1040
0.625
1070
    43
1040
3.75
1070
    44
1040
1.25
1070
    48
1040
0.000000001
1070
    74
1070
     0
1070
    77
1070
     1
1070
    90
1070
     1
1070
   140
1040
3.0
1070
   141
1040
-0.5
1070
   143
1040
0.03937007874016
1070
   146
1040
0.7
1070
   147
1040
0.625
1070
   171
1070
     3
1070
   172
1070
     1
1070
   175
1070
     0
1070
   179
1070
     0
1070
   274
1070
     3
1070
   283
1070
     0
1070
   284
1070
     8
1070
   340
1005
25
1070
   371
1070
    -1
1070
   372
1070
    -1
1002
}
  0
LINE
  5
26934
330
2
100
AcDbEntity
  8
0
 62
     0
100
AcDbLine
 10
164.9741376679701
 20
164.1590698915091
 30
0.0
 11
164.9741376679701
 21
145.9247256335533
 31
0.0
  0
LINE
  5
26935
330
2
100
AcDbEntity
  8
0
 62
     3
100
AcDbLine
 10
165.4241376679699
 20
164.6070692052393
 30
0.0
 11
165.4241376679704
 21
151.9247256335533
 31
0.0
  0
LINE
  5
26936
330
2
100
AcDbEntity
  8
0
  6
Continuous
 62
     7
100
AcDbLine
 10
164.9741376679705
 20
164.1590698915091
 30
0.0
 11
162.4261383542395
 21
164.1590698915091
 31
0.0
  0
LINE
  5
26937
330
2
100
AcDbEntity
  8
0
  6
Continuous
 62
     7
100
AcDbLine
 10
164.9741376679701
 20
164.1590698915109
 30
0.0
 11
165.7397934100129
 21
164.9247256335542
 31
0.0
  0
MULTILEADER
  5
26938
330
2
100
AcDbEntity
  8
0
  6
Continuous
 62
     7
160
               968
310
C80300001A0000000C00000016000000020000C30C00000033000000000000000C00000013000000993A00000C00000016000000020000C3F4000000260000000473C42AE5DB55406CB37D2CCAD16740000000000000000000000000000000000000000000000000000000000000F03F000000000000F03F00000000000000
310
00000000000000000036002D004D003600780031002E00300020005400480052004500410044002000780020002E00350031002000440045004500500000005C001A000000010000000000000000000440000000000000F03F0000000000000000000000000000F03F00000000000000000000000000000000000000000000
310
00000000000001000000000000000000000072006F006D0061006E0073002E0073006800780000000000000000000C00000016000000020000C3EC000000260000001036F536A8AC5740175E28D7744C6740000000000000000000000000000000000000000000000000000000000000F03F000000000000F03F0000000000
310
00000000000000000000004400520049004C004C002000052235002E0032006D006D002000780020002E003700350020004400450045005000000017000000010000000000000000000440000000000000F03F0000000000000000000000000000F03F00000000000000000000000000000000000000000000000000000000
310
01000000000000000000000072006F006D0061006E0073002E0073006800780000000000000010030C00000033000000000000000C00000010000000000000000C00000016000000030000C30C00000012000000000000000C00000013000000010000000C00000014000000010000005400000007000000030000006DCD18
310
66713D644022677A73E1EC64400000000000000000F8E0E6ECA24D6440ACD84205699D644000000000000000007F38A3498B246440CCC7CC4155E3644000000000000000000C0000001300000089130000540000000600000003000000F602DE57FE3064407797A35A1BE86440000000000000000038F0E638481D6340CC08
310
D3811FB767400000000000000000089B7A1B54866240CC08D3811FB7674000000000000000000C00000013000000112700003C0000000600000002000000089B7A1B54866240CC08D3811FB767400000000000000000089B7A1B54766240CC08D3811FB7674000000000000000000C00000016000000030000C30C00000012
310
000000000000000C00000017000000000000000C000000130000009A3A00000C00000016000000070000C30C00000012000000000000000C00000017000000FFFFFFFF0C0000003300000000000000
100
AcDbMLeader
270
     2
300
CONTEXT_DATA{
 40
1.0
 10
87.41205272350971
 20
189.722596084763
 30
0.0
 41
2.5
140
2.5
145
0.5
174
     2
175
     2
176
     2
177
     1
290
     1
304
6-M6x1.0 THREAD x .51 DEEP\PDRILL %%C5.2mm x .75 DEEP
 11
0.0
 21
0.0
 31
1.0
340
35
 12
147.197767009224
 22
193.0559294180961
 32
0.0
 13
1.0
 23
0.0
 33
0.0
 42
0.0
 43
61.62374361267189
 44
0.0
 45
1.0
170
     1
 90
-1023410174
171
     3
172
     5
 91
-939524096
141
1.5
 92
        0
291
     0
292
     0
173
     0
293
     0
142
0.0
143
0.0
294
     0
295
     0
296
     0
110
306.057865869491
120
182.5357536896466
130
0.0
111
1.0
121
0.0
131
0.0
112
0.0
122
1.0
132
0.0
297
     0
302
LEADER{
290
     1
291
     1
 10
148.197767009224
 20
189.722596084763
 30
0.0
 11
-1.0
 21
0.0
 31
0.0
 90
        0
 40
0.5
304
LEADER_LINE{
 10
162.4261383542395
 20
164.9190698915093
 30
0.0
 10
152.915066195537
 20
189.722596084763
 30
0.0
 91
        0
305
}
271
     0
303
}
272
     9
273
     9
301
}
340
BD9
 90
   314368
170
     1
 91
-1023410173
341
28
171
    -1
290
     1
291
     1
 41
0.5
 42
2.5
172
     2
343
35
173
     2
 95
        2
174
     1
175
     0
 92
-1023410174
292
     0
 93
-1023410174
 10
1.0
 20
1.0
 30
1.0
 43
0.0
176
     1
293
     0
294
     0
178
     0
179
     3
 45
1.0
271
     0
272
     9
273
     9
295
     0
  0
LINE
  5
26939
330
2
100
AcDbEntity
  8
0
  6
CENTER
 62
     3
100
AcDbLine
 10
162.4241376679699
 20
167.5267398590953
 30
0.0
 11
162.4241376679704
 21
143.4735924967002
 31
0.0
  0
LINE
  5
2693A
330
2
100
AcDbEntity
  8
0
  6
Continuous
100
AcDbLine
 10
162.4241376679704
 20
145.9247256335533
 30
0.0
 11
164.9741376679701
 21
145.9247256335533
 31
0.0
  0
LINE
  5
2693B
330
2
100
AcDbEntity
  8
0
  6
Continuous
100
AcDbLine
 10
162.4241376679704
 20
144.4524824471194
 30
0.0
 11
164.9741376679701
 21
145.9247256335524
 31
0.0
  0
LINE
  5
2693C
330
2
100
AcDbEntity
  8
0
 62
     0
100
AcDbLine
 10
159.8741376679702
 20
164.1590698915091
 30
0.0
 11
159.8741376679702
 21
145.9247256335533
 31
0.0
  0
LINE
  5
2693D
330
2
100
AcDbEntity
  8
0
  6
Continuous
100
AcDbLine
 10
162.4241376679699
 20
145.9247256335533
 30
0.0
 11
159.8741376679702
 21
145.9247256335533
 31
0.0
  0
LINE
  5
2693E
330
2
100
AcDbEntity
  8
0
  6
Continuous
100
AcDbLine
 10
162.4241376679695
 20
144.4524824471194
 30
0.0
 11
159.8741376679697
 21
145.9247256335524
 31
0.0
  0
LINE
  5
2693F
330
2
100
AcDbEntity
  8
0
  6
Continuous
 62
     7
100
AcDbLine
 10
159.8741376679693
 20
164.1590698915091
 30
0.0
 11
162.4221369817003
 21
164.1590698915091
 31
0.0
  0
LINE
  5
26940
330
2
100
AcDbEntity
  8
0
  6
Continuous
 62
     7
100
AcDbLine
 10
159.8741376679697
 20
164.1590698915109
 30
0.0
 11
159.1084819259265
 21
164.9247256335542
 31
0.0
  0
LINE
  5
26941
330
2
100
AcDbEntity
  8
0
  6
Continuous
 62
     2
100
AcDbLine
 10
162.423507147367
 20
151.9247256335533
 30
0.0
 11
165.4241376679704
 21
151.9247256335533
 31
0.0
  0
LINE
  5
26942
330
2
100
AcDbEntity
  8
0
  6
Continuous
 62
     3
100
AcDbLine
 10
164.9741376679701
 20
151.1453027701467
 30
0.0
 11
165.4241376679704
 21
151.9247256335533
 31
0.0
  0
LINE
  5
26943
330
2
100
AcDbEntity
  8
0
 62
     3
100
AcDbLine
 10
159.4241376679704
 20
164.6070692052393
 30
0.0
 11
159.4241376679695
 21
151.9247256335533
 31
0.0
  0
LINE
  5
26944
330
2
100
AcDbEntity
  8
0
  6
Continuous
 62
     2
100
AcDbLine
 10
162.4247681885733
 20
151.9247256335533
 30
0.0
 11
159.4241376679695
 21
151.9247256335533
 31
0.0
  0
LINE
  5
26945
330
2
100
AcDbEntity
  8
0
  6
Continuous
 62
     3
100
AcDbLine
 10
159.8741376679702
 20
151.1453027701467
 30
0.0
 11
159.4241376679695
 21
151.9247256335533
 31
0.0
  0
CIRCLE
  5
26946
330
2
100
AcDbEntity
  8
0
  6
Continuous
 62
     7
100
AcDbCircle
 10
55.40567574566671
 20
124.9247256335533
 30
0.0
 40
40.0
  0
LINE
  5
26947
330
2
100
AcDbEntity
  8
0
  6
Continuous
 62
     3
100
AcDbLine
 10
54.90567574566671
 20
124.9247256335533
 30
0.0
 11
55.90567574566671
 21
124.9247256335533
 31
0.0
  0
LINE
  5
26948
330
2
100
AcDbEntity
  8
0
  6
Continuous
 62
     3
100
AcDbLine
 10
55.40567574566671
 20
124.4247256335533
 30
0.0
 11
55.40567574566671
 21
125.4247256335533
 31
0.0
  0
LINE
  5
26949
330
2
100
AcDbEntity
  8
0
  6
Continuous
 62
     3
100
AcDbLine
 10
56.40567574566671
 20
124.9247256335533
 30
0.0
 11
95.90567574566671
 21
124.9247256335533
 31
0.0
  0
LINE
  5
2694A
330
2
100
AcDbEntity
  8
0
  6
Continuous
 62
     3
100
AcDbLine
 10
54.40567574566671
 20
124.9247256335533
 30
0.0
 11
14.90567574566671
 21
124.9247256335533
 31
0.0
  0
LINE
  5
2694B
330
2
100
AcDbEntity
  8
0
  6
Continuous
 62
     3
100
AcDbLine
 10
55.40567574566671
 20
125.9247256335533
 30
0.0
 11
55.40567574566671
 21
165.4247256335533
 31
0.0
  0
LINE
  5
2694C
330
2
100
AcDbEntity
  8
0
  6
Continuous
 62
     3
100
AcDbLine
 10
55.40567574566671
 20
123.9247256335533
 30
0.0
 11
55.40567574566671
 21
84.42472563355329
 31
0.0
  0
LINE
  5
2694D
330
2
100
AcDbEntity
  8
0
  6
HIDDEN
 62
     2
 48
0.05
100
AcDbLine
 10
57.95567574566644
 20
164.1590698915091
 30
0.0
 11
57.95567574566644
 21
145.9247256335533
 31
0.0
  0
LINE
  5
2694E
330
2
100
AcDbEntity
  8
0
  6
HIDDEN
 62
     2
 48
0.05
100
AcDbLine
 10
58.40567574566626
 20
164.6070692052393
 30
0.0
 11
58.40567574566716
 21
151.9247256335533
 31
0.0
  0
LINE
  5
2694F
330
2
100
AcDbEntity
  8
0
  6
HIDDEN
 62
     2
 48
0.05
100
AcDbLine
 10
57.95567574566689
 20
164.1590698915091
 30
0.0
 11
55.40767643193589
 21
164.1590698915091
 31
0.0
  0
LINE
  5
26950
330
2
100
AcDbEntity
  8
0
  6
HIDDEN
 62
     2
 48
0.05
100
AcDbLine
 10
57.95567574566644
 20
164.15906989151
 30
0.0
 11
58.59405682813508
 21
164.7974509739791
 31
0.0
  0
LINE
  5
26951
330
2
100
AcDbEntity
  8
0
  6
HIDDEN
 62
     2
 48
0.05
100
AcDbLine
 10
55.40567574566671
 20
145.9247256335533
 30
0.0
 11
57.95567574566644
 21
145.9247256335533
 31
0.0
  0
LINE
  5
26952
330
2
100
AcDbEntity
  8
0
  6
HIDDEN
 62
     2
 48
0.05
100
AcDbLine
 10
55.40567574566717
 20
144.4524824471194
 30
0.0
 11
57.95567574566689
 21
145.9247256335524
 31
0.0
  0
LINE
  5
26953
330
2
100
AcDbEntity
  8
0
  6
HIDDEN
 62
     2
 48
0.05
100
AcDbLine
 10
52.85567574566653
 20
164.1590698915091
 30
0.0
 11
52.85567574566653
 21
145.9247256335533
 31
0.0
  0
LINE
  5
26954
330
2
100
AcDbEntity
  8
0
  6
HIDDEN
 62
     2
 48
0.05
100
AcDbLine
 10
55.40567574566626
 20
145.9247256335533
 30
0.0
 11
52.85567574566653
 21
145.9247256335533
 31
0.0
  0
LINE
  5
26955
330
2
100
AcDbEntity
  8
0
  6
HIDDEN
 62
     2
 48
0.05
100
AcDbLine
 10
55.40567574566626
 20
144.4524824471194
 30
0.0
 11
52.85567574566653
 21
145.9247256335524
 31
0.0
  0
LINE
  5
26956
330
2
100
AcDbEntity
  8
0
  6
HIDDEN
 62
     2
 48
0.05
100
AcDbLine
 10
52.85567574566607
 20
164.1590698915091
 30
0.0
 11
55.40367505939707
 21
164.1590698915091
 31
0.0
  0
LINE
  5
26957
330
2
100
AcDbEntity
  8
0
  6
HIDDEN
 62
     2
 48
0.05
100
AcDbLine
 10
52.85567574566653
 20
164.15906989151
 30
0.0
 11
52.21729466319789
 21
164.7974509739791
 31
0.0
  0
LINE
  5
26958
330
2
100
AcDbEntity
  8
0
  6
HIDDEN
 62
     2
 48
0.05
100
AcDbLine
 10
55.4050452250633
 20
151.9247256335533
 30
0.0
 11
58.40567574566716
 21
151.9247256335533
 31
0.0
  0
LINE
  5
26959
330
2
100
AcDbEntity
  8
0
  6
HIDDEN
 62
     2
 48
0.05
100
AcDbLine
 10
57.95567574566644
 20
151.1453027701467
 30
0.0
 11
58.40567574566716
 21
151.9247256335533
 31
0.0
  0
LINE
  5
2695A
330
2
100
AcDbEntity
  8
0
  6
HIDDEN
 62
     2
 48
0.05
100
AcDbLine
 10
52.40567574566671
 20
164.6070692052393
 30
0.0
 11
52.40567574566625
 21
151.9247256335533
 31
0.0
  0
LINE
  5
2695B
330
2
100
AcDbEntity
  8
0
  6
HIDDEN
 62
     2
 48
0.05
100
AcDbLine
 10
55.40630626626967
 20
151.9247256335533
 30
0.0
 11
52.40567574566625
 21
151.9247256335533
 31
0.0
  0
LINE
  5
2695C
330
2
100
AcDbEntity
  8
0
  6
HIDDEN
 62
     2
 48
0.05
100
AcDbLine
 10
52.85567574566653
 20
151.1453027701467
 30
0.0
 11
52.40567574566625
 21
151.9247256335533
 31
0.0
  0
LINE
  5
2695D
330
2
100
AcDbEntity
  8
0
  6
CENTER
 62
     3
100
AcDbLine
 10
92.30010231737173
 20
146.2257327463243
 30
0.0
 11
70.60344025678228
 21
133.6991590651263
 31
0.0
  0
LINE
  5
2695E
330
2
100
AcDbEntity
  8
0
  6
CENTER
 62
     3
100
AcDbLine
 10
18.51124917396077
 20
146.2257327463243
 30
0.0
 11
40.20791123455069
 21
133.6991590651263
 31
0.0
  0
LINE
  5
2695F
330
2
100
AcDbEntity
  8
0
  6
CENTER
 62
     3
100
AcDbLine
 10
92.30010231737173
 20
103.6237185207823
 30
0.0
 11
70.60344025678228
 21
116.1502922019802
 31
0.0
  0
LINE
  5
26960
330
2
100
AcDbEntity
  8
0
  6
CENTER
 62
     3
100
AcDbLine
 10
18.51124917396077
 20
103.6237185207823
 30
0.0
 11
40.20791123455069
 21
116.1502922019802
 31
0.0
  0
LINE
  5
26961
330
2
100
AcDbEntity
  8
0
  6
HIDDEN
 62
     2
 48
0.05
100
AcDbLine
 10
22.70273691745229
 20
146.7502625421815
 30
0.0
 11
38.49414226619342
 21
137.633090413204
 31
0.0
  0
LINE
  5
26962
330
2
100
AcDbEntity
  8
0
  6
HIDDEN
 62
     2
 48
0.05
100
AcDbLine
 10
22.53975813088414
 20
147.3639736307499
 30
0.0
 11
33.52298984348704
 21
141.0228018449073
 31
0.0
  0
LINE
  5
26963
330
2
100
AcDbEntity
  8
0
  6
HIDDEN
 62
     2
 48
0.05
100
AcDbLine
 10
22.70273691745274
 20
146.7502625421824
 30
0.0
 11
21.42873726058701
 21
144.543630407666
 31
0.0
  0
LINE
  5
26964
330
2
100
AcDbEntity
  8
0
  6
HIDDEN
 62
     2
 48
0.05
100
AcDbLine
 10
22.70273691745183
 20
146.7502625421815
 30
0.0
 11
22.46907322397305
 21
147.6223073181294
 31
0.0
  0
LINE
  5
26965
330
2
100
AcDbEntity
  8
0
  6
HIDDEN
 62
     2
 48
0.05
100
AcDbLine
 10
37.21914226619333
 20
135.4247256335542
 30
0.0
 11
38.49414226619342
 21
137.633090413204
 31
0.0
  0
LINE
  5
26966
330
2
100
AcDbEntity
  8
0
  6
HIDDEN
 62
     2
 48
0.05
100
AcDbLine
 10
38.49414226619387
 20
134.6886040403364
 30
0.0
 11
38.49414226619387
 21
137.633090413204
 31
0.0
  0
LINE
  5
26967
330
2
100
AcDbEntity
  8
0
  6
HIDDEN
 62
     2
 48
0.05
100
AcDbLine
 10
20.15273691745256
 20
142.3335329828818
 30
0.0
 11
35.94414226619369
 21
133.2163608539034
 31
0.0
  0
LINE
  5
26968
330
2
100
AcDbEntity
  8
0
  6
HIDDEN
 62
     2
 48
0.05
100
AcDbLine
 10
37.21914226619333
 20
135.4247256335533
 30
0.0
 11
35.94414226619369
 21
133.2163608539034
 31
0.0
  0
LINE
  5
26969
330
2
100
AcDbEntity
  8
0
  6
HIDDEN
 62
     2
 48
0.05
100
AcDbLine
 10
38.49414226619342
 20
134.6886040403364
 30
0.0
 11
35.94414226619369
 21
133.2163608539025
 31
0.0
  0
LINE
  5
2696A
330
2
100
AcDbEntity
  8
0
  6
HIDDEN
 62
     2
 48
0.05
100
AcDbLine
 10
20.1527369174521
 20
142.3335329828809
 30
0.0
 11
21.42673657431737
 21
144.5401651173973
 31
0.0
  0
LINE
  5
2696B
330
2
100
AcDbEntity
  8
0
  6
HIDDEN
 62
     2
 48
0.05
100
AcDbLine
 10
20.15273691745165
 20
142.3335329828818
 30
0.0
 11
19.28069214150423
 21
142.0998692894021
 31
0.0
  0
LINE
  5
2696C
330
2
100
AcDbEntity
  8
0
  6
HIDDEN
 62
     2
 48
0.05
100
AcDbLine
 10
32.02267458318488
 20
138.4241795866941
 30
0.0
 11
33.52298984348704
 21
141.0228018449073
 31
0.0
  0
LINE
  5
2696D
330
2
100
AcDbEntity
  8
0
  6
HIDDEN
 62
     2
 48
0.05
100
AcDbLine
 10
33.97298984348732
 20
140.2433789814998
 30
0.0
 11
33.52298984348704
 21
141.0228018449073
 31
0.0
  0
LINE
  5
2696E
330
2
100
AcDbEntity
  8
0
  6
HIDDEN
 62
     2
 48
0.05
100
AcDbLine
 10
19.53975813088414
 20
142.1678212080436
 30
0.0
 11
30.52298984348658
 21
135.8266494222001
 31
0.0
  0
LINE
  5
2696F
330
2
100
AcDbEntity
  8
0
  6
HIDDEN
 62
     2
 48
0.05
100
AcDbLine
 10
32.02330510378829
 20
138.4252716804134
 30
0.0
 11
30.52298984348658
 21
135.8266494222001
 31
0.0
  0
LINE
  5
26970
330
2
100
AcDbEntity
  8
0
  6
HIDDEN
 62
     2
 48
0.05
100
AcDbLine
 10
31.42298984348759
 20
135.8266494222001
 30
0.0
 11
30.52298984348658
 21
135.8266494222001
 31
0.0
  0
LINE
  5
26971
330
2
100
AcDbEntity
  8
0
  6
HIDDEN
 62
     2
 48
0.05
100
AcDbLine
 10
20.1527369174521
 20
107.5159182842247
 30
0.0
 11
35.94414226619324
 21
116.6330904132031
 31
0.0
  0
LINE
  5
26972
330
2
100
AcDbEntity
  8
0
  6
HIDDEN
 62
     2
 48
0.05
100
AcDbLine
 10
19.53975813088414
 20
107.6816300590629
 30
0.0
 11
30.52298984348658
 21
114.0228018449064
 31
0.0
  0
LINE
  5
26973
330
2
100
AcDbEntity
  8
0
  6
HIDDEN
 62
     2
 48
0.05
100
AcDbLine
 10
20.1527369174521
 20
107.5159182842247
 30
0.0
 11
21.42673657431737
 21
105.3092861497092
 31
0.0
  0
LINE
  5
26974
330
2
100
AcDbEntity
  8
0
  6
HIDDEN
 62
     2
 48
0.05
100
AcDbLine
 10
20.15273691745165
 20
107.5159182842247
 30
0.0
 11
19.28069214150423
 21
107.7495819777035
 31
0.0
  0
LINE
  5
26975
330
2
100
AcDbEntity
  8
0
  6
HIDDEN
 62
     2
 48
0.05
100
AcDbLine
 10
37.21914226619333
 20
114.4247256335533
 30
0.0
 11
35.94414226619324
 21
116.6330904132031
 31
0.0
  0
LINE
  5
26976
330
2
100
AcDbEntity
  8
0
  6
HIDDEN
 62
     2
 48
0.05
100
AcDbLine
 10
38.49414226619342
 20
115.1608472267702
 30
0.0
 11
35.94414226619369
 21
116.633090413204
 31
0.0
  0
LINE
  5
26977
330
2
100
AcDbEntity
  8
0
  6
HIDDEN
 62
     2
 48
0.05
100
AcDbLine
 10
22.70273691745229
 20
103.0991887249241
 30
0.0
 11
38.49414226619342
 21
112.2163608539025
 31
0.0
  0
LINE
  5
26978
330
2
100
AcDbEntity
  8
0
  6
HIDDEN
 62
     2
 48
0.05
100
AcDbLine
 10
37.21914226619333
 20
114.4247256335524
 30
0.0
 11
38.49414226619342
 21
112.2163608539025
 31
0.0
  0
LINE
  5
26979
330
2
100
AcDbEntity
  8
0
  6
HIDDEN
 62
     2
 48
0.05
100
AcDbLine
 10
38.49414226619387
 20
115.1608472267693
 30
0.0
 11
38.49414226619387
 21
112.2163608539025
 31
0.0
  0
LINE
  5
2697A
330
2
100
AcDbEntity
  8
0
  6
HIDDEN
 62
     2
 48
0.05
100
AcDbLine
 10
22.70273691745274
 20
103.0991887249232
 30
0.0
 11
21.42873726058701
 21
105.3058208594406
 31
0.0
  0
LINE
  5
2697B
330
2
100
AcDbEntity
  8
0
  6
HIDDEN
 62
     2
 48
0.05
100
AcDbLine
 10
22.70273691745183
 20
103.0991887249241
 30
0.0
 11
22.46907322397305
 21
102.2271439489762
 31
0.0
  0
LINE
  5
2697C
330
2
100
AcDbEntity
  8
0
  6
HIDDEN
 62
     2
 48
0.05
100
AcDbLine
 10
32.02330510378829
 20
111.4241795866923
 30
0.0
 11
30.52298984348658
 21
114.0228018449064
 31
0.0
  0
LINE
  5
2697D
330
2
100
AcDbEntity
  8
0
  6
HIDDEN
 62
     2
 48
0.05
100
AcDbLine
 10
31.42298984348713
 20
114.0228018449064
 30
0.0
 11
30.52298984348658
 21
114.0228018449064
 31
0.0
  0
LINE
  5
2697E
330
2
100
AcDbEntity
  8
0
  6
HIDDEN
 62
     2
 48
0.05
100
AcDbLine
 10
22.53975813088368
 20
102.4854776363566
 30
0.0
 11
33.52298984348704
 21
108.8266494221992
 31
0.0
  0
LINE
  5
2697F
330
2
100
AcDbEntity
  8
0
  6
HIDDEN
 62
     2
 48
0.05
100
AcDbLine
 10
32.02267458318488
 20
111.4252716804125
 30
0.0
 11
33.52298984348704
 21
108.8266494221992
 31
0.0
  0
LINE
  5
26980
330
2
100
AcDbEntity
  8
0
  6
HIDDEN
 62
     2
 48
0.05
100
AcDbLine
 10
33.97298984348732
 20
109.6060722856058
 30
0.0
 11
33.52298984348704
 21
108.8266494221992
 31
0.0
  0
LINE
  5
26981
330
2
100
AcDbEntity
  8
0
  6
HIDDEN
 62
     2
 48
0.05
100
AcDbLine
 10
52.85567574566653
 20
85.69038137559743
 30
0.0
 11
52.85567574566653
 21
103.9247256335533
 31
0.0
  0
LINE
  5
26982
330
2
100
AcDbEntity
  8
0
  6
HIDDEN
 62
     2
 48
0.05
100
AcDbLine
 10
52.40567574566671
 20
85.24238206186726
 30
0.0
 11
52.40567574566625
 21
97.9247256335533
 31
0.0
  0
LINE
  5
26983
330
2
100
AcDbEntity
  8
0
  6
HIDDEN
 62
     2
 48
0.05
100
AcDbLine
 10
52.85567574566607
 20
85.69038137559743
 30
0.0
 11
55.40367505939707
 21
85.69038137559743
 31
0.0
  0
LINE
  5
26984
330
2
100
AcDbEntity
  8
0
  6
HIDDEN
 62
     2
 48
0.05
100
AcDbLine
 10
52.85567574566653
 20
85.69038137559653
 30
0.0
 11
52.21729466319835
 21
85.05200029312744
 31
0.0
  0
LINE
  5
26985
330
2
100
AcDbEntity
  8
0
  6
HIDDEN
 62
     2
 48
0.05
100
AcDbLine
 10
55.40567574566626
 20
103.9247256335533
 30
0.0
 11
52.85567574566653
 21
103.9247256335533
 31
0.0
  0
LINE
  5
26986
330
2
100
AcDbEntity
  8
0
  6
HIDDEN
 62
     2
 48
0.05
100
AcDbLine
 10
55.40567574566626
 20
105.3969688199871
 30
0.0
 11
52.85567574566653
 21
103.9247256335542
 31
0.0
  0
LINE
  5
26987
330
2
100
AcDbEntity
  8
0
  6
HIDDEN
 62
     2
 48
0.05
100
AcDbLine
 10
57.95567574566644
 20
85.69038137559743
 30
0.0
 11
57.95567574566644
 21
103.9247256335533
 31
0.0
  0
LINE
  5
26988
330
2
100
AcDbEntity
  8
0
  6
HIDDEN
 62
     2
 48
0.05
100
AcDbLine
 10
55.40567574566671
 20
103.9247256335533
 30
0.0
 11
57.95567574566644
 21
103.9247256335533
 31
0.0
  0
LINE
  5
26989
330
2
100
AcDbEntity
  8
0
  6
HIDDEN
 62
     2
 48
0.05
100
AcDbLine
 10
55.40567574566717
 20
105.3969688199871
 30
0.0
 11
57.95567574566689
 21
103.9247256335542
 31
0.0
  0
LINE
  5
2698A
330
2
100
AcDbEntity
  8
0
  6
HIDDEN
 62
     2
 48
0.05
100
AcDbLine
 10
57.95567574566735
 20
85.69038137559743
 30
0.0
 11
55.40767643193635
 21
85.69038137559743
 31
0.0
  0
LINE
  5
2698B
330
2
100
AcDbEntity
  8
0
  6
HIDDEN
 62
     2
 48
0.05
100
AcDbLine
 10
57.95567574566689
 20
85.69038137559653
 30
0.0
 11
58.59405682813553
 21
85.05200029312744
 31
0.0
  0
LINE
  5
2698C
330
2
100
AcDbEntity
  8
0
  6
HIDDEN
 62
     2
 48
0.05
100
AcDbLine
 10
55.40630626626967
 20
97.9247256335533
 30
0.0
 11
52.40567574566625
 21
97.9247256335533
 31
0.0
  0
LINE
  5
2698D
330
2
100
AcDbEntity
  8
0
  6
HIDDEN
 62
     2
 48
0.05
100
AcDbLine
 10
52.85567574566653
 20
98.70414849695988
 30
0.0
 11
52.40567574566625
 21
97.9247256335533
 31
0.0
  0
LINE
  5
2698E
330
2
100
AcDbEntity
  8
0
  6
HIDDEN
 62
     2
 48
0.05
100
AcDbLine
 10
58.40567574566626
 20
85.24238206186726
 30
0.0
 11
58.40567574566716
 21
97.9247256335533
 31
0.0
  0
LINE
  5
2698F
330
2
100
AcDbEntity
  8
0
  6
HIDDEN
 62
     2
 48
0.05
100
AcDbLine
 10
55.4050452250633
 20
97.9247256335533
 30
0.0
 11
58.40567574566716
 21
97.9247256335533
 31
0.0
  0
LINE
  5
26990
330
2
100
AcDbEntity
  8
0
  6
HIDDEN
 62
     2
 48
0.05
100
AcDbLine
 10
57.95567574566644
 20
98.70414849695988
 30
0.0
 11
58.40567574566716
 21
97.9247256335533
 31
0.0
  0
LINE
  5
26991
330
2
100
AcDbEntity
  8
0
  6
HIDDEN
 62
     2
 48
0.05
100
AcDbLine
 10
88.10861457388114
 20
103.099188724925
 30
0.0
 11
72.31720922514
 21
112.2163608539034
 31
0.0
  0
LINE
  5
26992
330
2
100
AcDbEntity
  8
0
  6
HIDDEN
 62
     2
 48
0.05
100
AcDbLine
 10
88.27159336044928
 20
102.4854776363566
 30
0.0
 11
77.28836164784638
 21
108.8266494222001
 31
0.0
  0
LINE
  5
26993
330
2
100
AcDbEntity
  8
0
  6
HIDDEN
 62
     2
 48
0.05
100
AcDbLine
 10
88.10861457388069
 20
103.099188724925
 30
0.0
 11
89.3826142307464
 21
105.3058208594406
 31
0.0
  0
LINE
  5
26994
330
2
100
AcDbEntity
  8
0
  6
HIDDEN
 62
     2
 48
0.05
100
AcDbLine
 10
88.1086145738816
 20
103.099188724925
 30
0.0
 11
88.34227826736038
 21
102.2271439489772
 31
0.0
  0
LINE
  5
26995
330
2
100
AcDbEntity
  8
0
  6
HIDDEN
 62
     2
 48
0.05
100
AcDbLine
 10
73.59220922513964
 20
114.4247256335533
 30
0.0
 11
72.31720922514
 21
112.2163608539034
 31
0.0
  0
LINE
  5
26996
330
2
100
AcDbEntity
  8
0
  6
HIDDEN
 62
     2
 48
0.05
100
AcDbLine
 10
72.31720922513955
 20
115.1608472267702
 30
0.0
 11
72.31720922513955
 21
112.2163608539034
 31
0.0
  0
LINE
  5
26997
330
2
100
AcDbEntity
  8
0
  6
HIDDEN
 62
     2
 48
0.05
100
AcDbLine
 10
90.65861457388086
 20
107.5159182842257
 30
0.0
 11
74.86720922513973
 21
116.633090413204
 31
0.0
  0
LINE
  5
26998
330
2
100
AcDbEntity
  8
0
  6
HIDDEN
 62
     2
 48
0.05
100
AcDbLine
 10
73.59220922514009
 20
114.4247256335542
 30
0.0
 11
74.86720922513973
 21
116.633090413204
 31
0.0
  0
LINE
  5
26999
330
2
100
AcDbEntity
  8
0
  6
HIDDEN
 62
     2
 48
0.05
100
AcDbLine
 10
72.31720922514
 20
115.1608472267702
 30
0.0
 11
74.86720922513973
 21
116.633090413204
 31
0.0
  0
LINE
  5
2699A
330
2
100
AcDbEntity
  8
0
  6
HIDDEN
 62
     2
 48
0.05
100
AcDbLine
 10
90.65861457388132
 20
107.5159182842266
 30
0.0
 11
89.38461491701605
 21
105.3092861497092
 31
0.0
  0
LINE
  5
2699B
330
2
100
AcDbEntity
  8
0
  6
HIDDEN
 62
     2
 48
0.05
100
AcDbLine
 10
90.65861457388178
 20
107.5159182842257
 30
0.0
 11
91.53065934982874
 21
107.7495819777044
 31
0.0
  0
LINE
  5
2699C
330
2
100
AcDbEntity
  8
0
  6
HIDDEN
 62
     2
 48
0.05
100
AcDbLine
 10
78.78867690814809
 20
111.4252716804134
 30
0.0
 11
77.28836164784638
 21
108.8266494222001
 31
0.0
  0
LINE
  5
2699D
330
2
100
AcDbEntity
  8
0
  6
HIDDEN
 62
     2
 48
0.05
100
AcDbLine
 10
76.83836164784612
 20
109.6060722856067
 30
0.0
 11
77.28836164784638
 21
108.8266494222001
 31
0.0
  0
LINE
  5
2699E
330
2
100
AcDbEntity
  8
0
  6
HIDDEN
 62
     2
 48
0.05
100
AcDbLine
 10
91.27159336044929
 20
107.6816300590629
 30
0.0
 11
80.28836164784683
 21
114.0228018449073
 31
0.0
  0
LINE
  5
2699F
330
2
100
AcDbEntity
  8
0
  6
HIDDEN
 62
     2
 48
0.05
100
AcDbLine
 10
78.78804638754513
 20
111.4241795866941
 30
0.0
 11
80.28836164784683
 21
114.0228018449073
 31
0.0
  0
LINE
  5
269A0
330
2
100
AcDbEntity
  8
0
  6
HIDDEN
 62
     2
 48
0.05
100
AcDbLine
 10
79.38836164784584
 20
114.0228018449064
 30
0.0
 11
80.28836164784683
 21
114.0228018449073
 31
0.0
  0
LINE
  5
269A1
330
2
100
AcDbEntity
  8
0
  6
HIDDEN
 62
     2
 48
0.05
100
AcDbLine
 10
90.65861457388086
 20
142.3335329828809
 30
0.0
 11
74.86720922513973
 21
133.2163608539025
 31
0.0
  0
LINE
  5
269A2
330
2
100
AcDbEntity
  8
0
  6
HIDDEN
 62
     2
 48
0.05
100
AcDbLine
 10
91.27159336044929
 20
142.1678212080436
 30
0.0
 11
80.28836164784683
 21
135.8266494221992
 31
0.0
  0
LINE
  5
269A3
330
2
100
AcDbEntity
  8
0
  6
HIDDEN
 62
     2
 48
0.05
100
AcDbLine
 10
90.65861457388132
 20
142.33353298288
 30
0.0
 11
89.38461491701559
 21
144.5401651173973
 31
0.0
  0
LINE
  5
269A4
330
2
100
AcDbEntity
  8
0
  6
HIDDEN
 62
     2
 48
0.05
100
AcDbLine
 10
90.65861457388132
 20
142.3335329828809
 30
0.0
 11
91.53065934982874
 21
142.0998692894021
 31
0.0
  0
LINE
  5
269A5
330
2
100
AcDbEntity
  8
0
  6
HIDDEN
 62
     2
 48
0.05
100
AcDbLine
 10
73.59220922514009
 20
135.4247256335533
 30
0.0
 11
74.86720922513973
 21
133.2163608539025
 31
0.0
  0
LINE
  5
269A6
330
2
100
AcDbEntity
  8
0
  6
HIDDEN
 62
     2
 48
0.05
100
AcDbLine
 10
72.31720922513955
 20
134.6886040403364
 30
0.0
 11
74.86720922513928
 21
133.2163608539025
 31
0.0
  0
LINE
  5
269A7
330
2
100
AcDbEntity
  8
0
  6
HIDDEN
 62
     2
 48
0.05
100
AcDbLine
 10
88.10861457388114
 20
146.7502625421815
 30
0.0
 11
72.31720922514
 21
137.633090413204
 31
0.0
  0
LINE
  5
269A8
330
2
100
AcDbEntity
  8
0
  6
HIDDEN
 62
     2
 48
0.05
100
AcDbLine
 10
73.59220922513964
 20
135.4247256335533
 30
0.0
 11
72.31720922514
 21
137.633090413204
 31
0.0
  0
LINE
  5
269A9
330
2
100
AcDbEntity
  8
0
  6
HIDDEN
 62
     2
 48
0.05
100
AcDbLine
 10
72.31720922513955
 20
134.6886040403364
 30
0.0
 11
72.31720922513955
 21
137.6330904132031
 31
0.0
  0
LINE
  5
269AA
330
2
100
AcDbEntity
  8
0
  6
HIDDEN
 62
     2
 48
0.05
100
AcDbLine
 10
88.10861457388069
 20
146.7502625421815
 30
0.0
 11
89.3826142307464
 21
144.543630407666
 31
0.0
  0
LINE
  5
269AB
330
2
100
AcDbEntity
  8
0
  6
HIDDEN
 62
     2
 48
0.05
100
AcDbLine
 10
88.10861457388114
 20
146.7502625421815
 30
0.0
 11
88.34227826736038
 21
147.6223073181294
 31
0.0
  0
LINE
  5
269AC
330
2
100
AcDbEntity
  8
0
  6
HIDDEN
 62
     2
 48
0.05
100
AcDbLine
 10
78.78804638754468
 20
138.4252716804125
 30
0.0
 11
80.28836164784683
 21
135.8266494221992
 31
0.0
  0
LINE
  5
269AD
330
2
100
AcDbEntity
  8
0
  6
HIDDEN
 62
     2
 48
0.05
100
AcDbLine
 10
79.38836164784584
 20
135.8266494221992
 30
0.0
 11
80.28836164784683
 21
135.8266494221992
 31
0.0
  0
LINE
  5
269AE
330
2
100
AcDbEntity
  8
0
  6
HIDDEN
 62
     2
 48
0.05
100
AcDbLine
 10
88.27159336044928
 20
147.3639736307499
 30
0.0
 11
77.28836164784638
 21
141.0228018449064
 31
0.0
  0
LINE
  5
269AF
330
2
100
AcDbEntity
  8
0
  6
HIDDEN
 62
     2
 48
0.05
100
AcDbLine
 10
78.78867690814809
 20
138.4241795866932
 30
0.0
 11
77.28836164784638
 21
141.0228018449064
 31
0.0
  0
LINE
  5
269B0
330
2
100
AcDbEntity
  8
0
  6
HIDDEN
 62
     2
 48
0.05
100
AcDbLine
 10
76.83836164784612
 20
140.2433789814998
 30
0.0
 11
77.28836164784638
 21
141.0228018449064
 31
0.0
  0
ARC
  5
269B1
330
2
100
AcDbEntity
  8
0
  6
Continuous
 62
     3
100
AcDbCircle
 10
55.40567574566671
 20
124.9247256335533
 30
0.0
 40
9.0
100
AcDbArc
 50
350.3225825841453
 51
283.1077429923449
  0
CIRCLE
  5
269B2
330
2
100
AcDbEntity
  8
0
  6
Continuous
 62
     7
100
AcDbCircle
 10
55.40567574566671
 20
124.9247256335533
 30
0.0
 40
8.5
  0
CIRCLE
  5
269B3
330
2
100
AcDbEntity
  8
0
  6
Continuous
 62
     7
100
AcDbCircle
 10
55.40567574566671
 20
124.9247256335533
 30
0.0
 40
9.5
  0
CIRCLE
  5
269B4
330
2
100
AcDbEntity
  8
0
  6
Continuous
 62
     7
100
AcDbCircle
 10
55.40567574566671
 20
124.9247256335533
 30
0.0
 40
4.15
  0
CIRCLE
  5
269B5
330
2
100
AcDbEntity
  8
0
  6
Continuous
 62
     7
100
AcDbCircle
 10
84.40567574566671
 20
124.9247256335533
 30
0.0
 40
2.5
  0
CIRCLE
  5
269B6
330
2
100
AcDbEntity
  8
0
  6
Continuous
 62
     7
100
AcDbCircle
 10
84.40567574566671
 20
124.9247256335533
 30
0.0
 40
3.0
  0
CIRCLE
  5
269B7
330
2
100
AcDbEntity
  8
0
  6
Continuous
 62
     7
100
AcDbCircle
 10
55.40567574566671
 20
124.9247256335533
 30
0.0
 40
24.19031650528405
  0
CIRCLE
  5
269B8
330
2
100
AcDbEntity
  8
0
  6
Continuous
 62
     7
100
AcDbCircle
 10
55.40567574566671
 20
124.9247256335533
 30
0.0
 40
17.0
  0
LINE
  5
269B9
330
2
100
AcDbEntity
  8
0
  6
Continuous
 62
     3
100
AcDbLine
 10
83.90567574566672
 20
124.9247256335533
 30
0.0
 11
84.90567574566671
 21
124.9247256335533
 31
0.0
  0
LINE
  5
269BA
330
2
100
AcDbEntity
  8
0
  6
Continuous
 62
     3
100
AcDbLine
 10
84.40567574566671
 20
124.4247256335533
 30
0.0
 11
84.40567574566671
 21
125.4247256335533
 31
0.0
  0
LINE
  5
269BB
330
2
100
AcDbEntity
  8
0
  6
Continuous
 62
     3
100
AcDbLine
 10
85.4056757456667
 20
124.9247256335533
 30
0.0
 11
87.9056757456667
 21
124.9247256335533
 31
0.0
  0
LINE
  5
269BC
330
2
100
AcDbEntity
  8
0
  6
Continuous
 62
     3
100
AcDbLine
 10
83.40567574566671
 20
124.9247256335533
 30
0.0
 11
80.90567574566671
 21
124.9247256335533
 31
0.0
  0
LINE
  5
269BD
330
2
100
AcDbEntity
  8
0
  6
Continuous
 62
     3
100
AcDbLine
 10
84.40567574566671
 20
125.9247256335533
 30
0.0
 11
84.40567574566671
 21
128.4247256335533
 31
0.0
  0
LINE
  5
269BE
330
2
100
AcDbEntity
  8
0
  6
Continuous
 62
     3
100
AcDbLine
 10
84.40567574566671
 20
123.9247256335533
 30
0.0
 11
84.40567574566671
 21
121.4247256335533
 31
0.0
  0
CIRCLE
  5
269BF
330
2
100
AcDbEntity
  8
0
  6
Continuous
 62
     7
100
AcDbCircle
 10
26.40567574566671
 20
124.9247256335533
 30
0.0
 40
2.5
  0
CIRCLE
  5
269C0
330
2
100
AcDbEntity
  8
0
  6
Continuous
 62
     7
100
AcDbCircle
 10
26.40567574566671
 20
124.9247256335533
 30
0.0
 40
3.0
  0
LINE
  5
269C1
330
2
100
AcDbEntity
  8
0
  6
Continuous
 62
     3
100
AcDbLine
 10
26.90567574566671
 20
124.9247256335533
 30
0.0
 11
25.90567574566672
 21
124.9247256335533
 31
0.0
  0
LINE
  5
269C2
330
2
100
AcDbEntity
  8
0
  6
Continuous
 62
     3
100
AcDbLine
 10
26.40567574566671
 20
124.4247256335533
 30
0.0
 11
26.40567574566671
 21
125.4247256335533
 31
0.0
  0
LINE
  5
269C3
330
2
100
AcDbEntity
  8
0
  6
Continuous
 62
     3
100
AcDbLine
 10
25.40567574566671
 20
124.9247256335533
 30
0.0
 11
22.90567574566671
 21
124.9247256335533
 31
0.0
  0
LINE
  5
269C4
330
2
100
AcDbEntity
  8
0
  6
Continuous
 62
     3
100
AcDbLine
 10
27.40567574566671
 20
124.9247256335533
 30
0.0
 11
29.90567574566671
 21
124.9247256335533
 31
0.0
  0
LINE
  5
269C5
330
2
100
AcDbEntity
  8
0
  6
Continuous
 62
     3
100
AcDbLine
 10
26.40567574566671
 20
125.9247256335533
 30
0.0
 11
26.40567574566671
 21
128.4247256335533
 31
0.0
  0
LINE
  5
269C6
330
2
100
AcDbEntity
  8
0
  6
Continuous
 62
     3
100
AcDbLine
 10
26.40567574566671
 20
123.9247256335533
 30
0.0
 11
26.40567574566671
 21
121.4247256335533
 31
0.0
  0
LINE
  5
269C7
330
2
100
AcDbEntity
  8
0
  6
Continuous
 62
     7
 48
0.05
100
AcDbLine
 10
155.9241376679654
 20
122.4247256335551
 30
0.0
 11
166.3241376679637
 21
122.4247256335551
 31
0.0
  0
LINE
  5
269C8
330
2
100
AcDbEntity
  8
0
  6
Continuous
 62
     7
 48
0.05
100
AcDbLine
 10
166.3241376679637
 20
122.4247256335551
 30
0.0
 11
166.3241376679637
 21
124.9247256335533
 31
0.0
  0
LINE
  5
269C9
330
2
100
AcDbEntity
  8
0
  6
Continuous
 62
     7
 48
0.05
100
AcDbLine
 10
166.3241376679637
 20
122.424725633556
 30
0.0
 11
167.7675133409364
 21
124.9247256335542
 31
0.0
  0
LINE
  5
269CA
330
2
100
AcDbEntity
  8
0
  6
Continuous
 62
     7
 48
0.05
100
AcDbLine
 10
155.4241376679636
 20
121.9247256335533
 30
0.0
 11
155.9241376679654
 21
122.424725633556
 31
0.0
  0
LINE
  5
269CB
330
2
100
AcDbEntity
  8
0
  6
Continuous
 62
     7
 48
0.05
100
AcDbLine
 10
155.9241376679654
 20
122.4247256335551
 30
0.0
 11
155.9241376679654
 21
124.9247256335533
 31
0.0
  0
SPLINE
  5
269CC
330
2
100
AcDbEntity
  8
0
  6
Continuous
 62
     2
100
AcDbSpline
210
0.0
220
0.0
230
1.0
 70
     8
 71
     3
 72
    12
 73
     8
 74
     0
 42
0.000000001
 43
0.0000000001
 40
0.0
 40
0.0
 40
0.0
 40
0.0
 40
4.674327730188298
 40
8.757798890259049
 40
13.53881954948476
 40
17.06081490510214
 40
20.33639438704106
 40
20.33639438704106
 40
20.33639438704106
 40
20.33639438704106
 10
155.4241376679636
 20
117.4549861922945
 30
0.0
 10
156.9370720022587
 20
118.0037857113933
 30
0.0
 10
159.7716987975407
 20
119.0320139608369
 30
0.0
 10
164.2473363917913
 20
117.3574513245033
 30
0.0
 10
168.3667333796172
 20
118.8811057467532
 30
0.0
 10
171.3670767560795
 20
121.5664724936436
 30
0.0
 10
171.8624244403033
 20
123.8326918245451
 30
0.0
 10
172.1011199677002
 20
124.9247256335533
 30
0.0
  0
MULTILEADER
  5
269CD
330
2
100
AcDbEntity
  8
0
  6
Continuous
 62
     7
160
               960
310
C00300001A0000000C00000016000000020000C30C00000033000000000000000C00000013000000993A00000C00000016000000020000C3E80000002600000012AA105A8A842A4078164E6104456640000000000000000000000000000000000000000000000000000000000000F03F000000000000F03F00000000000000
310
00000000000000000032002D0039003000B000200043002700530049004E004B00200054004F002000052236006D006D0000004F0014000000010000000000000000000440000000000000F03F0000000000000000000000000000F03F00000000000000000000000000000000000000000000000000000000010000000000
310
00000000000072006F006D0061006E0073002E0073006800780000006600000000000C00000016000000020000C3F00000002600000043B6D38A96472A4023C1F80BAFBF6540000000000000000000000000000000000000000000000000000000000000F03F000000000000F03F0000000000000000000000000000000044
310
00520049004C004C002000052235006D006D002B002E00300033002D002E00300031002000440050002E00340033000000784118000000010000000000000000000440000000000000F03F0000000000000000000000000000F03F000000000000000000000000000000000000000000000000000000000100000000000000
310
0000000072006F006D0061006E0073002E0073006800780000001003000000000C00000033000000000000000C00000010000000000000000C00000016000000030000C30C00000012000000000000000C00000013000000010000000C0000001400000001000000540000000700000003000000C900B675ACB33840960644
310
35274360400000000000000000C0977E2A3104394058131E6A5AE55F400000000000000000DE17F9D138E7374072BBA7EF893B604000000000000000000C0000001300000089130000540000000600000003000000548CD7A3724D384004E17592583F60400000000000000000806006C3704024404C0A8B30F83166400000
310
0000000000008085C7C7653B29404C0A8B30F831664000000000000000000C00000013000000112700003C00000006000000020000008085C7C7653B29404C0A8B30F831664000000000000000008085C7C7653B2A404C0A8B30F831664000000000000000000C00000016000000030000C30C00000012000000000000000C
310
00000017000000000000000C000000130000009A3A00000C00000016000000070000C30C00000012000000000000000C00000017000000FFFFFFFF0C0000003300000000000000
100
AcDbMLeader
270
     2
300
CONTEXT_DATA{
 40
1.0
 10
13.11601089773717
 20
177.5615465846662
 30
0.0
 41
2.5
140
2.5
145
0.5
174
     2
175
     2
176
     0
177
     1
290
     1
304
2-90%%d C'SINK TO %%c6mm\PDRILL %%C5mm+.03-.01 DP.43
 11
0.0
 21
0.0
 31
1.0
340
35
 12
13.61601089773717
 22
181.1329751560946
 32
0.0
 13
1.0
 23
0.0
 33
0.0
 42
0.0
 43
59.31167247817575
 44
0.0
 45
1.0
170
     1
 90
-1023410174
171
     1
172
     1
 91
-939524096
141
1.5
 92
        0
291
     0
292
     0
173
     0
293
     0
142
0.0
143
0.0
294
     0
295
     0
296
     0
110
-622.0511230446048
120
2674.566715779903
130
0.0
111
1.0
121
0.0
131
0.0
112
0.0
122
1.0
132
0.0
297
     0
302
LEADER{
290
     1
291
     1
 10
12.61601089773717
 20
177.5615465846662
 30
0.0
 11
1.0
 21
0.0
 31
0.0
 90
        0
 40
0.5
304
LEADER_LINE{
 10
25.01637521353382
 20
127.5836434644419
 30
0.0
 10
10.12586030438274
 20
177.5615465846662
 30
0.0
 91
        0
305
}
271
     0
303
}
272
     9
273
     9
301
}
340
BD9
 90
1124457664
170
     1
 91
-1023410173
341
28
171
    -1
290
     1
291
     1
 41
0.5
 42
2.5
172
     2
343
35
173
     2
 95
        2
174
     1
175
     0
 92
-1023410174
292
     0
344
25D72
 93
-1023410174
 10
1.0
 20
1.0
 30
1.0
 43
0.0
176
     0
293
     0
294
     0
178
     0
179
     1
 45
1.0
271
     0
272
     9
273
     9
295
     0
  0
DIMENSION
  5
269CE
330
2
100
AcDbEntity
  8
0
  6
Continuous
 62
     7
100
AcDbDimension
280
     0
  2
*D3
 10
55.40567574566671
 20
74.29192229779562
 30
0.0
 11
40.90567574566671
 21
76.41721757338617
 31
0.0
 70
    32
  1
29mm%%p.05
 71
     5
 42
29.0
 73
     0
 74
     0
 75
     0
  3
Standard$0
100
AcDbAlignedDimension
 13
26.40567574566671
 23
121.4247256335533
 33
0.0
 14
55.40567574566671
 24
84.42472563355329
 34
0.0
100
AcDbRotatedDimension
1001
ACAD
1000
DSTYLE
1002
{
1070
   171
1070
     3
1070
   143
1040
0.03937007874016
1070
   274
1070
     3
1070
   141
1040
-0.5
1070
    43
1040
3.75
1070
    44
1040
1.25
1070
    42
1040
0.625
1070
   147
1040
0.625
1070
   371
1070
    -1
1070
   372
1070
    -1
1070
   175
1070
     0
1070
    77
1070
     1
1070
   146
1040
0.7
1070
    48
1040
0.000000001
1070
   172
1070
     1
1070
    74
1070
     0
1070
   283
1070
     0
1070
   340
1005
25
1070
   140
1040
3.0
1070
   284
1070
     8
1070
    90
1070
     1
1002
}
  0
DIMENSION
  5
269CF
330
2
100
AcDbEntity
  8
0
  6
Continuous
 62
     7
100
AcDbDimension
280
     0
  2
*D4
 10
84.40567574566671
 20
66.29192229779562
 30
0.0
 11
55.40567574566671
 21
68.41692229779562
 31
0.0
 70
    32
  1
58mm%%p.05
 71
     5
 42
58.0
 73
     0
 74
     0
 75
     0
  3
Standard$0
100
AcDbAlignedDimension
 13
26.40567574566671
 23
121.4247256335533
 33
0.0
 14
84.40567574566671
 24
121.4247256335533
 34
0.0
100
AcDbRotatedDimension
1001
ACAD
1000
DSTYLE
1002
{
1070
   171
1070
     3
1070
   143
1040
0.03937007874016
1070
   274
1070
     3
1070
   141
1040
-0.5
1070
    43
1040
3.75
1070
    44
1040
1.25
1070
    42
1040
0.625
1070
   147
1040
0.625
1070
   371
1070
    -1
1070
   372
1070
    -1
1070
   175
1070
     0
1070
    77
1070
     1
1070
   146
1040
0.7
1070
    48
1040
0.000000001
1070
   172
1070
     1
1070
    74
1070
     0
1070
   283
1070
     0
1070
   340
1005
25
1070
   140
1040
3.0
1070
   284
1070
     8
1070
    90
1070
     1
1002
}
  0
DIMENSION
  5
269D0
330
2
100
AcDbEntity
  8
0
  6
Continuous
 62
     7
100
AcDbDimension
280
     0
  2
*D11
 10
155.4241376679636
 20
109.357912802206
 30
0.0
 11
146.1449032175353
 21
109.357912802206
 31
0.0
 70
   160
 71
     5
 42
10.90000000000009
 73
     0
 74
     0
 75
     0
  3
Standard$0
100
AcDbAlignedDimension
 13
166.3241376679637
 23
122.424725633556
 33
0.0
 14
155.4241376679636
 24
114.7677649662668
 34
0.0
100
AcDbRotatedDimension
1001
ACAD
1000
DSTYLE
1002
{
1070
     3
1000
(2-<>)
1070
   171
1070
     3
1070
   143
1040
0.03937007874016
1070
   274
1070
     3
1070
   141
1040
-0.5
1070
    43
1040
3.75
1070
    44
1040
1.25
1070
    42
1040
0.625
1070
   147
1040
0.625
1070
   371
1070
    -1
1070
   372
1070
    -1
1070
   175
1070
     0
1070
    77
1070
     1
1070
   146
1040
0.7
1070
    48
1040
0.000000001
1070
   172
1070
     1
1070
    74
1070
     0
1070
   283
1070
     0
1070
   340
1005
25
1070
   140
1040
3.0
1070
   284
1070
     8
1070
    90
1070
     1
1002
}
  0
CIRCLE
  5
269D1
330
2
100
AcDbEntity
  8
0
  6
HIDDEN
 62
     2
 48
0.05
100
AcDbCircle
 10
55.40567574566671
 20
124.9247256335533
 30
0.0
 40
20.0
  0
ENDSEC
  0
SECTION
  2
OBJECTS
  0
DICTIONARY
  5
B
330
0
100
AcDbDictionary
281
     1
  3
ACAD_CIP_PREVIOUS_PRODUCT_INFO
350
BE4
  3
ACAD_COLOR
350
3F
  3
ACAD_DETAILVIEWSTYLE
350
BDC
  3
ACAD_GROUP
350
3A
  3
ACAD_LAYOUT
350
17
  3
ACAD_MATERIAL
350
D
  3
ACAD_MLEADERSTYLE
350
42
  3
ACAD_MLINESTYLE
350
3B
  3
ACAD_PLOTSETTINGS
350
3C
  3
ACAD_PLOTSTYLENAME
350
A
  3
ACAD_SCALELIST
350
40
  3
ACAD_SECTIONVIEWSTYLE
350
BDA
  3
ACAD_TABLESTYLE
350
41
  3
ACAD_VISUALSTYLE
350
2F
  3
ACDB_RECOMPOSE_DATA
350
26B31
  3
AcDbVariableDictionary
350
BB8
  3
AEC_PROPERTY_SET_DEFS
350
24C9
  3
ASE_INDEX_DICTIONARY
350
23A5C
  0
DICTIONARY
  5
31
330
2C
100
AcDbDictionary
280
     1
281
     1
  0
DICTIONARY
  5
22
330
21
100
AcDbDictionary
280
     1
281
     1
  3
ACAD_LAYERSTATES
360
23
  0
DICTIONARY
  5
7
330
6
100
AcDbDictionary
280
     1
281
     1
  3
ADSK_XREC_LAYER_RECONCILED
360
8
  0
DICTIONARY
  5
3
330
2
100
AcDbDictionary
280
     1
281
     1
  3
ACAD_SORTENTS
360
BB0
  0
XRECORD
  5
BE4
102
{ACAD_REACTORS
330
B
102
}
330
B
100
AcDbXrecord
280
     1
300
ACD
300
2014
300
ACD_F_S
  0
DICTIONARY
  5
3F
102
{ACAD_REACTORS
330
B
102
}
330
B
100
AcDbDictionary
281
     1
  0
DICTIONARY
  5
BDC
102
{ACAD_REACTORS
330
B
102
}
330
B
100
AcDbDictionary
281
     1
  3
Metric50
350
BDD
  0
DICTIONARY
  5
3A
102
{ACAD_REACTORS
330
B
102
}
330
B
100
AcDbDictionary
281
     1
  0
DICTIONARY
  5
17
102
{ACAD_REACTORS
330
B
102
}
330
B
100
AcDbDictionary
281
     1
  3
Model
350
16
  3
배치1
350
1E
  0
DICTIONARY
  5
D
102
{ACAD_REACTORS
330
B
102
}
330
B
100
AcDbDictionary
281
     1
  3
ByBlock
350
3E
  3
ByLayer
350
3D
  3
Global
350
C
  0
DICTIONARY
  5
42
102
{ACAD_REACTORS
330
B
102
}
330
B
100
AcDbDictionary
281
     1
  3
Standard
350
BD9
  0
DICTIONARY
  5
3B
102
{ACAD_REACTORS
330
B
102
}
330
B
100
AcDbDictionary
281
     1
  3
Standard
350
43
  0
DICTIONARY
  5
3C
102
{ACAD_REACTORS
330
B
102
}
330
B
100
AcDbDictionary
281
     1
  0
ACDBDICTIONARYWDFLT
  5
A
102
{ACAD_REACTORS
330
B
102
}
330
B
100
AcDbDictionary
281
     1
  3
Normal
350
9
100
AcDbDictionaryWithDefault
340
9
  0
DICTIONARY
  5
40
102
{ACAD_REACTORS
330
B
102
}
330
B
100
AcDbDictionary
281
     1
  3
A0
350
48
  3
A1
350
49
  3
A2
350
4A
  3
A3
350
4B
  3
A4
350
4C
  3
A5
350
4D
  3
A6
350
4E
  3
A7
350
4F
  3
A8
350
50
  3
A9
350
51
  3
B0
350
52
  3
B1
350
53
  3
B2
350
54
  3
B3
350
55
  3
B4
350
56
  3
B5
350
57
  3
B6
350
58
  0
DICTIONARY
  5
BDA
102
{ACAD_REACTORS
330
B
102
}
330
B
100
AcDbDictionary
281
     1
  3
Metric50
350
BDB
  0
DICTIONARY
  5
41
102
{ACAD_REACTORS
330
B
102
}
330
B
100
AcDbDictionary
281
     1
  3
Standard
350
44
  0
DICTIONARY
  5
2F
102
{ACAD_REACTORS
330
B
102
}
330
B
100
AcDbDictionary
281
     1
  3
2dWireframe
350
2E
  3
3D Hidden
350
1A64
  3
3dWireframe
350
47
  3
Basic
350
BC7
  3
Brighten
350
BCC
  3
ColorChange
350
BD0
  3
Conceptual
350
BCA
  3
Dim
350
BCB
  3
EdgeColorOff
350
BD8
  3
Facepattern
350
BCF
  3
Flat
350
BC3
  3
FlatWithEdges
350
BC4
  3
Gouraud
350
BC5
  3
GouraudWithEdges
350
BC6
  3
Hidden
350
BC9
  3
JitterOff
350
BD6
  3
Linepattern
350
BCE
  3
OverhangOff
350
BD7
  3
Realistic
350
46
  3
Shaded
350
BD5
  3
Shaded with edges
350
BD4
  3
Shades of Gray
350
BD1
  3
Sketchy
350
BD2
  3
Thicken
350
BCD
  3
Wireframe
350
BC8
  3
X-Ray
350
BD3
  0
XRECORD
  5
26B31
102
{ACAD_REACTORS
330
B
102
}
330
B
100
AcDbXrecord
280
     1
 90
        1
330
44
330
BDB
330
BDD
  0
DICTIONARY
  5
BB8
102
{ACAD_REACTORS
330
B
102
}
330
B
100
AcDbDictionary
281
     1
  3
CANNOSCALE
350
BBE
  3
CMLEADERSTYLE
350
BBA
  3
CTABLESTYLE
350
BB9
  3
CVIEWDETAILSTYLE
350
BBB
  3
CVIEWSECTIONSTYLE
350
BBC
  3
DIMASSOC
350
C3B
  3
HIDETEXT
350
C39
  3
HPCOLOR
350
FF3
  3
INDEXCTL
350
C38
  3
LAYEREVAL
350
BC0
  3
LAYERNOTIFY
350
BC1
  3
LIGHTINGUNITS
350
BBF
  3
MSLTSCALE
350
BBD
  3
SOLIDHIST
350
C3C
  3
SORTENTS
350
C37
  0
DICTIONARY
  5
24C9
102
{ACAD_REACTORS
330
B
102
}
330
B
100
AcDbDictionary
281
     1
  0
DICTIONARY
  5
23A5C
102
{ACAD_REACTORS
330
B
102
}
330
B
100
AcDbDictionary
281
     1
  3
ASEBlockHierarchyIndexRecord
350
23A5D
1001
DCO15
1040
2083736454.057
  0
DICTIONARY
  5
23
102
{ACAD_REACTORS
330
22
102
}
330
22
100
AcDbDictionary
281
     1
  0
XRECORD
  5
8
102
{ACAD_REACTORS
330
7
102
}
330
7
100
AcDbXrecord
280
     1
290
     1
  0
SORTENTSTABLE
  5
BB0
102
{ACAD_REACTORS
330
3
102
}
330
3
100
AcDbSortentsTable
330
2
331
244AE
  5
244B3
331
2455D
  5
24562
331
244AA
  5
244AF
331
24559
  5
2455E
331
24555
  5
2455A
331
244A6
  5
244AB
331
24551
  5
24556
331
244A2
  5
244A7
331
2454D
  5
24552
331
2449E
  5
244A3
331
24549
  5
2454E
331
2449A
  5
2449F
331
244C5
  5
24538
331
244C1
  5
244C6
331
24573
  5
24955
331
2456F
  5
24574
331
2456B
  5
24570
331
244BD
  5
244C2
331
244B9
  5
244BE
331
244B5
  5
244BA
331
24564
  5
24569
331
244B1
  5
244B6
331
24560
  5
24565
331
244AD
  5
244B2
331
2455C
  5
24561
331
244A9
  5
244AE
331
24558
  5
2455D
331
24554
  5
24559
331
244A5
  5
244AA
331
24550
  5
24555
331
244A1
  5
244A6
331
2454C
  5
24551
331
2449D
  5
244A2
331
24548
  5
2454D
331
24499
  5
2449E
331
244C8
  5
2453B
331
244C4
  5
244DD
331
24572
  5
24954
331
244C0
  5
244C5
331
2456E
  5
24573
331
2456A
  5
2456F
331
244BC
  5
244C1
331
24567
  5
2456C
331
244B8
  5
244BD
331
24563
  5
24568
331
244B4
  5
244B9
331
244B0
  5
244B5
331
2455F
  5
24564
331
2455B
  5
24560
331
244AC
  5
244B1
331
24557
  5
2455C
331
244A8
  5
244AD
331
24553
  5
24558
331
244A4
  5
244A9
331
244A0
  5
244A5
331
2454F
  5
24554
331
2454B
  5
24550
331
2449C
  5
244A1
331
24547
  5
2454C
331
24498
  5
2449D
331
244C7
  5
2453A
331
244C3
  5
244C8
331
24575
  5
24A09
331
24571
  5
24953
331
2456D
  5
24572
331
24569
  5
2456E
331
244BF
  5
244C4
331
244BB
  5
244C0
331
24566
  5
2456B
331
244B7
  5
244BC
331
24562
  5
24567
331
244B3
  5
244B8
331
2455E
  5
24563
331
244AF
  5
244B4
331
2455A
  5
2455F
331
244AB
  5
244B0
331
24556
  5
2455B
331
244A7
  5
244AC
331
24552
  5
24557
331
244A3
  5
244A8
331
2454E
  5
24553
331
2449F
  5
244A4
331
2454A
  5
2454F
331
2449B
  5
244A0
331
244C6
  5
24539
331
244C2
  5
244C7
331
24574
  5
24956
331
24570
  5
24575
331
2456C
  5
24571
331
24568
  5
2456D
331
244BE
  5
244C3
331
244BA
  5
244BF
331
244B6
  5
244BB
331
24565
  5
2456A
331
244B2
  5
244B7
331
24561
  5
24566
  0
ACDBDETAILVIEWSTYLE
  5
BDD
102
{ACAD_XDICTIONARY
360
26B2F
102
}
102
{ACAD_REACTORS
330
BDC
102
}
330
BDC
100
AcDbModelDocViewStyle
 70
     0
  3
Metric50
290
     0
100
AcDbDetailViewStyle
 70
     0
 71
     0
 90
        3
 71
     1
340
25
 62
   256
 40
5.0
340
0
 62
   256
 40
5.0
300

 40
0.0
280
     1
 71
     2
340
14
 90
       25
 62
   256
 71
     3
340
25
 62
   256
 40
5.0
 90
        0
 40
15.0
 90
        1
300
%<\AcVar ViewDetailId>% (%<\AcVar ViewScale \f "%sn">%)
 71
     4
340
14
 90
       25
 62
   256
340
14
 90
       25
 62
   256
280
     0
  0
LAYOUT
  5
16
102
{ACAD_XDICTIONARY
360
18
102
}
102
{ACAD_REACTORS
330
17
102
}
330
17
100
AcDbPlotSettings
  1

  2
Samsung M267x 287x Series
  4
A4
  6

 40
5.027082920074462
 41
5.027099609375
 42
5.027069091796875
 43
5.027069091796875
 44
209.9733276367187
 45
296.9259948730469
 46
0.0
 47
0.3443247085572807
 48
5290.957610138349
 49
-1180.058350911508
140
5701.957610138348
141
-892.9458025305684
142
1.0
143
1.436143118755716
 70
 11956
 72
     1
 73
     1
 74
     4
  7
ksm0910.ctb
 75
     0
147
0.6963094324933345
 76
     0
 77
     2
 78
   300
148
-5290.957610138349
149
1180.058350911508
100
AcDbLayout
  1
Model
 70
     1
 71
     0
 10
0.0
 20
0.0
 11
12.0
 21
9.0
 12
0.0
 22
0.0
 32
0.0
 14
0.0
 24
0.0
 34
0.0
 15
0.0
 25
0.0
 35
0.0
146
0.0
 13
0.0
 23
0.0
 33
0.0
 16
1.0
 26
0.0
 36
0.0
 17
0.0
 27
1.0
 37
0.0
 76
     0
330
2
331
2D
1001
ACAD_PSEXT
1000
Samsung M267x 287x Series
1000
Samsung M267x 287x Series
1000
USB001
1000

1070
     0
  0
LAYOUT
  5
1E
102
{ACAD_XDICTIONARY
360
1F
102
}
102
{ACAD_REACTORS
330
17
102
}
330
17
100
AcDbPlotSettings
  1

  2
none_device
  4
ISO_A4_(210.00_x_297.00_MM)
  6

 40
7.5
 41
20.0
 42
7.5
 43
20.0
 44
210.0
 45
297.0
 46
0.0
 47
0.0
 48
0.0
 49
0.0
140
0.0
141
0.0
142
1.0
143
1.0
 70
   688
 72
     1
 73
     1
 74
     5
  7
ksm0910.ctb
 75
    16
147
1.0
 76
     0
 77
     2
 78
   300
148
0.0
149
0.0
100
AcDbLayout
  1
배치1
 70
     1
 71
     1
 10
-20.0
 20
-7.5
 11
277.0
 21
202.5
 12
0.0
 22
0.0
 32
0.0
 14
1.000000000000000E+20
 24
1.000000000000000E+20
 34
1.000000000000000E+20
 15
-1.000000000000000E+20
 25
-1.000000000000000E+20
 35
-1.000000000000000E+20
146
0.0
 13
0.0
 23
0.0
 33
0.0
 16
1.0
 26
0.0
 36
0.0
 17
0.0
 27
1.0
 37
0.0
 76
     0
330
1B
1001
ACAD_PSEXT
1000
없음
1000
없음
1000
해당 없음
1000
배치가 새로운 플로터 구성을 선택할 때까지 플롯되지 않습니다.
1070
     0
  0
MATERIAL
  5
3E
102
{ACAD_REACTORS
330
D
102
}
330
D
100
AcDbMaterial
  1
ByBlock
 94
       63
  0
MATERIAL
  5
3D
102
{ACAD_REACTORS
330
D
102
}
330
D
100
AcDbMaterial
  1
ByLayer
 94
       63
  0
MATERIAL
  5
C
102
{ACAD_XDICTIONARY
360
E
102
}
102
{ACAD_REACTORS
330
D
102
}
330
D
100
AcDbMaterial
  1
Global
 43
0.0007999999797903
 43
0.0
 43
0.0
 43
0.0
 43
0.0
 43
0.0007999999797903
 43
0.0
 43
0.0
 43
0.0
 43
0.0
 43
1.0
 43
0.0
 43
0.0
 43
0.0
 43
0.0
 43
1.0
 49
0.0007999999797903
 49
0.0
 49
0.0
 49
0.0
 49
0.0
 49
0.0007999999797903
 49
0.0
 49
0.0
 49
0.0
 49
0.0
 49
1.0
 49
0.0
 49
0.0
 49
0.0
 49
0.0
 49
1.0
142
0.0007999999797903
142
0.0
142
0.0
142
0.0
142
0.0
142
0.0007999999797903
142
0.0
142
0.0
142
0.0
142
0.0
142
1.0
142
0.0
142
0.0
142
0.0
142
0.0
142
1.0
144
0.0007999999797903
144
0.0
144
0.0
144
0.0
144
0.0
144
0.0007999999797903
144
0.0
144
0.0
144
0.0
144
0.0
144
1.0
144
0.0
144
0.0
144
0.0
144
0.0
144
1.0
 94
       63
1001
ACAD
1070
    -1
1070
     3
1070
     0
1000

1071
        0
1070
     0
  0
MLEADERSTYLE
  5
BD9
102
{ACAD_REACTORS
330
42
330
26938
330
269CD
102
}
330
42
100
AcDbMLeaderStyle
179
     2
170
     2
171
     1
172
     0
 90
        2
 40
0.0
 41
0.0
173
     1
 91
-1056964608
340
28
 92
       -2
290
     1
 42
2.0
291
     1
 43
0.36
  3
Standard
 44
4.0
300

342
25
174
     1
178
     6
175
     1
176
     0
 93
-1056964608
 45
4.0
292
     0
297
     0
 46
4.0
 94
-1056964608
 47
1.0
 49
1.0
140
1.0
293
     1
141
0.0
294
     1
177
     0
142
1.0
295
     0
296
     0
143
0.125
271
     0
272
     9
273
     9
298
     1
  0
MLINESTYLE
  5
43
102
{ACAD_REACTORS
330
3B
102
}
330
3B
100
AcDbMlineStyle
  2
STANDARD
 70
     0
  3

 62
   256
 51
90.0
 52
90.0
 71
     2
 49
0.5
 62
   256
  6
BYLAYER
 49
-0.5
 62
   256
  6
BYLAYER
  0
ACDBPLACEHOLDER
  5
9
102
{ACAD_REACTORS
330
A
102
}
330
A
  0
SCALE
  5
48
102
{ACAD_REACTORS
330
40
102
}
330
40
100
AcDbScale
 70
     0
300
1:1
140
1.0
141
1.0
290
     1
  0
SCALE
  5
49
102
{ACAD_REACTORS
330
40
102
}
330
40
100
AcDbScale
 70
     0
300
1:2
140
1.0
141
2.0
290
     0
  0
SCALE
  5
4A
102
{ACAD_REACTORS
330
40
102
}
330
40
100
AcDbScale
 70
     0
300
1:4
140
1.0
141
4.0
290
     0
  0
SCALE
  5
4B
102
{ACAD_REACTORS
330
40
102
}
330
40
100
AcDbScale
 70
     0
300
1:5
140
1.0
141
5.0
290
     0
  0
SCALE
  5
4C
102
{ACAD_REACTORS
330
40
102
}
330
40
100
AcDbScale
 70
     0
300
1:8
140
1.0
141
8.0
290
     0
  0
SCALE
  5
4D
102
{ACAD_REACTORS
330
40
102
}
330
40
100
AcDbScale
 70
     0
300
1:10
140
1.0
141
10.0
290
     0
  0
SCALE
  5
4E
102
{ACAD_REACTORS
330
40
102
}
330
40
100
AcDbScale
 70
     0
300
1:16
140
1.0
141
16.0
290
     0
  0
SCALE
  5
4F
102
{ACAD_REACTORS
330
40
102
}
330
40
100
AcDbScale
 70
     0
300
1:20
140
1.0
141
20.0
290
     0
  0
SCALE
  5
50
102
{ACAD_REACTORS
330
40
102
}
330
40
100
AcDbScale
 70
     0
300
1:30
140
1.0
141
30.0
290
     0
  0
SCALE
  5
51
102
{ACAD_REACTORS
330
40
102
}
330
40
100
AcDbScale
 70
     0
300
1:40
140
1.0
141
40.0
290
     0
  0
SCALE
  5
52
102
{ACAD_REACTORS
330
40
102
}
330
40
100
AcDbScale
 70
     0
300
1:50
140
1.0
141
50.0
290
     0
  0
SCALE
  5
53
102
{ACAD_REACTORS
330
40
102
}
330
40
100
AcDbScale
 70
     0
300
1:100
140
1.0
141
100.0
290
     0
  0
SCALE
  5
54
102
{ACAD_REACTORS
330
40
102
}
330
40
100
AcDbScale
 70
     0
300
2:1
140
2.0
141
1.0
290
     0
  0
SCALE
  5
55
102
{ACAD_REACTORS
330
40
102
}
330
40
100
AcDbScale
 70
     0
300
4:1
140
4.0
141
1.0
290
     0
  0
SCALE
  5
56
102
{ACAD_REACTORS
330
40
102
}
330
40
100
AcDbScale
 70
     0
300
8:1
140
8.0
141
1.0
290
     0
  0
SCALE
  5
57
102
{ACAD_REACTORS
330
40
102
}
330
40
100
AcDbScale
 70
     0
300
10:1
140
10.0
141
1.0
290
     0
  0
SCALE
  5
58
102
{ACAD_REACTORS
330
40
102
}
330
40
100
AcDbScale
 70
     0
300
100:1
140
100.0
141
1.0
290
     0
  0
ACDBSECTIONVIEWSTYLE
  5
BDB
102
{ACAD_XDICTIONARY
360
26B2D
102
}
102
{ACAD_REACTORS
330
BDA
102
}
330
BDA
100
AcDbModelDocViewStyle
 70
     0
  3
Metric50
290
     0
100
AcDbSectionViewStyle
 70
     0
 71
     0
 90
      102
 71
     1
340
25
 62
   256
 40
5.0
340
0
340
0
 62
   256
 40
5.0
300
I, O, Q, S, X, Z
 40
10.0
 90
        0
 40
2.5
 90
        0
 71
     2
340
14
 90
       25
 62
   256
340
14
 90
       50
 62
   256
 40
5.0
 40
2.5
 40
5.0
 71
     3
340
25
 62
   256
 40
5.0
 90
        0
 40
15.0
 90
        1
300
%<\AcVar ViewSectionStartId>%-%<\AcVar ViewSectionEndId>% (%<\AcVar ViewScale \f "%sn">%)
 71
     4
 62
   256
 62
   257
300
ANSI31
 40
1.0
 90
        0
290
     0
290
     0
 90
        6
 40
0.0
 40
1.570796326794896
 40
0.2617993877991494
 40
1.308996938995747
 40
-0.2617993877991494
 40
1.832595714594046
  0
TABLESTYLE
  5
44
102
{ACAD_XDICTIONARY
360
45
102
}
102
{ACAD_REACTORS
330
41
102
}
330
41
100
AcDbTableStyle
280
     0
  3
Standard
 70
     0
 71
     0
 40
1.5
 41
1.5
280
     0
281
     0
  7
Standard
140
4.5
170
     2
 62
     0
 63
     7
283
     0
 90
      512
 91
        0
  1

274
    -2
284
     1
 64
     0
275
    -2
285
     1
 65
     0
276
    -2
286
     1
 66
     0
277
    -2
287
     1
 67
     0
278
    -2
288
     1
 68
     0
279
    -2
289
     1
 69
     0
  7
Standard
140
6.0
170
     5
 62
     0
 63
     7
283
     0
 90
      512
 91
        0
  1

274
    -2
284
     1
 64
     0
275
    -2
285
     1
 65
     0
276
    -2
286
     1
 66
     0
277
    -2
287
     1
 67
     0
278
    -2
288
     1
 68
     0
279
    -2
289
     1
 69
     0
  7
Standard
140
4.5
170
     5
 62
     0
 63
     7
283
     0
 90
      512
 91
        0
  1

274
    -2
284
     1
 64
     0
275
    -2
285
     1
 65
     0
276
    -2
286
     1
 66
     0
277
    -2
287
     1
 67
     0
278
    -2
288
     1
 68
     0
279
    -2
289
     1
 69
     0
  0
VISUALSTYLE
  5
2E
102
{ACAD_REACTORS
330
2F
102
}
330
2F
100
AcDbVisualStyle
  2
2dWireframe
 70
     4
177
     3
291
     0
 70
    58
 90
        0
176
     1
 90
        2
176
     1
 90
        1
176
     1
 90
        0
176
     1
 40
0.6
176
     1
 40
30.0
176
     1
 62
     7
176
     1
 90
        1
176
     1
 90
        4
176
     1
 62
     7
176
     1
 62
   257
176
     1
 90
        1
176
     1
 90
        1
176
     1
 40
1.0
176
     1
 90
        0
176
     1
 62
   257
176
     1
 40
1.0
176
     1
 90
        1
176
     1
 90
        6
176
     1
 90
        2
176
     1
 62
     7
176
     1
 90
        5
176
     1
 90
        0
176
     1
 90
        0
176
     1
290
     0
176
     1
 90
        1
176
     1
 40
0.0
176
     1
 90
        0
176
     1
290
     1
176
     1
290
     1
176
     1
290
     0
176
     1
290
     0
176
     1
290
     0
176
     1
290
     0
176
     1
290
     0
176
     1
290
     0
176
     1
290
     0
176
     1
 90
       50
176
     1
 40
0.0
176
     1
 40
1.0
176
     1
 90
        0
176
     1
 62
    18
420
        0
176
     1
 90
       50
176
     1
 90
        3
176
     1
 62
     5
420
      255
176
     1
290
     0
176
     1
 90
       50
176
     1
 90
       50
176
     1
 90
       50
176
     1
290
     0
176
     1
 90
       50
176
     1
 62
   256
176
     0
 40
1.0
176
     0
 90
        2
176
     1
  1
strokes_ogs.tif
176
     1
290
     0
176
     1
 40
1.0
176
     1
 40
1.0
176
     1
  0
VISUALSTYLE
  5
1A64
102
{ACAD_REACTORS
330
2F
102
}
330
2F
100
AcDbVisualStyle
  2
3D Hidden
 70
     6
177
     3
291
     0
 70
    58
 90
        1
176
     1
 90
        2
176
     1
 90
        2
176
     1
 90
        0
176
     1
 40
0.6
176
     1
 40
30.0
176
     1
 62
     7
176
     1
 90
        2
176
     1
 90
        2
176
     1
 62
     7
176
     1
 62
   257
176
     1
 90
        2
176
     1
 90
        1
176
     1
 40
40.0
176
     1
 90
        0
176
     1
 62
   257
176
     1
 40
1.0
176
     1
 90
        1
176
     1
 90
        6
176
     1
 90
        2
176
     1
 62
     7
176
     1
 90
        3
176
     1
 90
        0
176
     1
 90
        0
176
     1
290
     0
176
     1
 90
        1
176
     1
 40
0.0
176
     1
 90
        0
176
     1
290
     0
176
     1
290
     1
176
     1
290
     1
176
     1
290
     0
176
     1
290
     0
176
     1
290
     0
176
     1
290
     0
176
     1
290
     0
176
     1
290
     0
176
     1
 90
       50
176
     1
 40
0.0
176
     1
 40
1.0
176
     1
 90
        0
176
     1
 62
    18
420
        0
176
     1
 90
       50
176
     1
 90
        3
176
     1
 62
     5
420
      255
176
     1
290
     0
176
     1
 90
       50
176
     1
 90
       50
176
     1
 90
       50
176
     1
290
     0
176
     1
 90
       50
176
     1
 62
   256
176
     0
 40
1.0
176
     0
 90
        2
176
     1
  1
strokes_ogs.tif
176
     1
290
     0
176
     1
 40
1.0
176
     1
 40
1.0
176
     1
  0
VISUALSTYLE
  5
47
102
{ACAD_REACTORS
330
2F
102
}
330
2F
100
AcDbVisualStyle
  2
3dWireframe
 70
     5
177
     3
291
     0
 70
    58
 90
        0
176
     1
 90
        2
176
     1
 90
        1
176
     1
 90
        0
176
     1
 40
0.6
176
     1
 40
30.0
176
     1
 62
     7
176
     1
 90
        1
176
     1
 90
        4
176
     1
 62
     7
176
     1
 62
   257
176
     1
 90
        1
176
     1
 90
        1
176
     1
 40
1.0
176
     1
 90
        0
176
     1
 62
   257
176
     1
 40
1.0
176
     1
 90
        1
176
     1
 90
        6
176
     1
 90
        2
176
     1
 62
     7
176
     1
 90
        5
176
     1
 90
        0
176
     1
 90
        0
176
     1
290
     0
176
     1
 90
        1
176
     1
 40
0.0
176
     1
 90
        0
176
     1
290
     0
176
     1
290
     1
176
     1
290
     1
176
     1
290
     0
176
     1
290
     0
176
     1
290
     0
176
     1
290
     0
176
     1
290
     0
176
     1
290
     0
176
     1
 90
       50
176
     1
 40
0.0
176
     1
 40
1.0
176
     1
 90
        0
176
     1
 62
    18
420
        0
176
     1
 90
       50
176
     1
 90
        3
176
     1
 62
     5
420
      255
176
     1
290
     0
176
     1
 90
       50
176
     1
 90
       50
176
     1
 90
       50
176
     1
290
     0
176
     1
 90
       50
176
     1
 62
   256
176
     0
 40
1.0
176
     0
 90
        2
176
     1
  1
strokes_ogs.tif
176
     1
290
     0
176
     1
 40
1.0
176
     1
 40
1.0
176
     1
  0
VISUALSTYLE
  5
BC7
102
{ACAD_REACTORS
330
2F
102
}
330
2F
100
AcDbVisualStyle
  2
Basic
 70
     7
177
     3
291
     1
 70
    58
 90
        1
176
     1
 90
        0
176
     1
 90
        1
176
     1
 90
        0
176
     1
 40
0.6
176
     1
 40
30.0
176
     1
 62
     7
176
     1
 90
        0
176
     1
 90
        4
176
     1
 62
     7
176
     1
 62
   257
176
     1
 90
        1
176
     1
 90
        1
176
     1
 40
1.0
176
     1
 90
        8
176
     1
 62
     7
176
     1
 40
1.0
176
     1
 90
        1
176
     1
 90
        6
176
     1
 90
        2
176
     1
 62
     7
176
     1
 90
        5
176
     1
 90
        0
176
     1
 90
        0
176
     1
290
     0
176
     1
 90
        1
176
     1
 40
0.0
176
     1
 90
        0
176
     1
290
     0
176
     1
290
     1
176
     1
290
     1
176
     1
290
     0
176
     1
290
     0
176
     1
290
     0
176
     1
290
     0
176
     1
290
     0
176
     1
290
     0
176
     1
 90
       50
176
     1
 40
0.0
176
     1
 40
1.0
176
     1
 90
        0
176
     1
 62
    18
420
        0
176
     1
 90
       50
176
     1
 90
        3
176
     1
 62
     5
420
      255
176
     1
290
     0
176
     1
 90
       50
176
     1
 90
       50
176
     1
 90
       50
176
     1
290
     0
176
     1
 90
       50
176
     1
 62
   256
176
     0
 40
1.0
176
     0
 90
        2
176
     1
  1
strokes_ogs.tif
176
     1
290
     0
176
     1
 40
1.0
176
     1
 40
1.0
176
     1
  0
VISUALSTYLE
  5
BCC
102
{ACAD_REACTORS
330
2F
102
}
330
2F
100
AcDbVisualStyle
  2
Brighten
 70
    12
177
     3
291
     1
 70
    58
 90
        2
176
     1
 90
        2
176
     1
 90
        0
176
     1
 90
        0
176
     1
 40
0.6
176
     1
 40
30.0
176
     1
 62
     7
176
     1
 90
        1
176
     1
 90
        4
176
     1
 62
     7
176
     1
 62
   257
176
     1
 90
        1
176
     1
 90
        1
176
     1
 40
1.0
176
     1
 90
        8
176
     1
 62
     7
176
     1
 40
1.0
176
     1
 90
        1
176
     1
 90
        6
176
     1
 90
        2
176
     1
 62
     7
176
     1
 90
        5
176
     1
 90
        0
176
     1
 90
        0
176
     1
290
     0
176
     1
 90
        1
176
     1
 40
50.0
176
     1
 90
        0
176
     1
290
     0
176
     1
290
     1
176
     1
290
     1
176
     1
290
     0
176
     1
290
     0
176
     1
290
     0
176
     1
290
     0
176
     1
290
     0
176
     1
290
     0
176
     1
 90
       50
176
     1
 40
0.0
176
     1
 40
1.0
176
     1
 90
        0
176
     1
 62
    18
420
        0
176
     1
 90
       50
176
     1
 90
        3
176
     1
 62
     5
420
      255
176
     1
290
     0
176
     1
 90
       50
176
     1
 90
       50
176
     1
 90
       50
176
     1
290
     0
176
     1
 90
       50
176
     1
 62
   256
176
     0
 40
1.0
176
     0
 90
        2
176
     1
  1
strokes_ogs.tif
176
     1
290
     0
176
     1
 40
1.0
176
     1
 40
1.0
176
     1
  0
VISUALSTYLE
  5
BD0
102
{ACAD_REACTORS
330
2F
102
}
330
2F
100
AcDbVisualStyle
  2
ColorChange
 70
    16
177
     3
291
     1
 70
    58
 90
        2
176
     1
 90
        2
176
     1
 90
        3
176
     1
 90
        0
176
     1
 40
0.6
176
     1
 40
30.0
176
     1
 62
     8
176
     1
 90
        1
176
     1
 90
        4
176
     1
 62
     7
176
     1
 62
   257
176
     1
 90
        1
176
     1
 90
        1
176
     1
 40
1.0
176
     1
 90
        8
176
     1
 62
     8
176
     1
 40
1.0
176
     1
 90
        1
176
     1
 90
        6
176
     1
 90
        2
176
     1
 62
     7
176
     1
 90
        5
176
     1
 90
        0
176
     1
 90
        0
176
     1
290
     0
176
     1
 90
        1
176
     1
 40
0.0
176
     1
 90
        0
176
     1
290
     0
176
     1
290
     1
176
     1
290
     1
176
     1
290
     0
176
     1
290
     0
176
     1
290
     0
176
     1
290
     0
176
     1
290
     0
176
     1
290
     0
176
     1
 90
       50
176
     1
 40
0.0
176
     1
 40
1.0
176
     1
 90
        0
176
     1
 62
    18
420
        0
176
     1
 90
       50
176
     1
 90
        3
176
     1
 62
     5
420
      255
176
     1
290
     0
176
     1
 90
       50
176
     1
 90
       50
176
     1
 90
       50
176
     1
290
     0
176
     1
 90
       50
176
     1
 62
   256
176
     0
 40
1.0
176
     0
 90
        2
176
     1
  1
strokes_ogs.tif
176
     1
290
     0
176
     1
 40
1.0
176
     1
 40
1.0
176
     1
  0
VISUALSTYLE
  5
BCA
102
{ACAD_REACTORS
330
2F
102
}
330
2F
100
AcDbVisualStyle
  2
Conceptual
 70
     9
177
     3
291
     0
 70
    58
 90
        3
176
     1
 90
        2
176
     1
 90
        0
176
     1
 90
        0
176
     1
 40
0.6
176
     1
 40
30.0
176
     1
 62
     7
176
     1
 90
        2
176
     1
 90
        2
176
     1
 62
     7
176
     1
 62
   257
176
     1
 90
        1
176
     1
 90
        1
176
     1
 40
179.0
176
     1
 90
        8
176
     1
 62
     7
176
     1
 40
1.0
176
     1
 90
        1
176
     1
 90
        6
176
     1
 90
        2
176
     1
 62
     7
176
     1
 90
        3
176
     1
 90
        0
176
     1
 90
        0
176
     1
290
     0
176
     1
 90
        1
176
     1
 40
0.0
176
     1
 90
        0
176
     1
290
     0
176
     1
290
     1
176
     1
290
     1
176
     1
290
     0
176
     1
290
     0
176
     1
290
     0
176
     1
290
     0
176
     1
290
     0
176
     1
290
     0
176
     1
 90
       50
176
     1
 40
0.0
176
     1
 40
1.0
176
     1
 90
        0
176
     1
 62
    18
420
        0
176
     1
 90
       50
176
     1
 90
        3
176
     1
 62
     5
420
      255
176
     1
290
     0
176
     1
 90
       50
176
     1
 90
       50
176
     1
 90
       50
176
     1
290
     0
176
     1
 90
       50
176
     1
 62
   256
176
     0
 40
1.0
176
     0
 90
        2
176
     1
  1
strokes_ogs.tif
176
     1
290
     0
176
     1
 40
1.0
176
     1
 40
1.0
176
     1
  0
VISUALSTYLE
  5
BCB
102
{ACAD_REACTORS
330
2F
102
}
330
2F
100
AcDbVisualStyle
  2
Dim
 70
    11
177
     3
291
     1
 70
    58
 90
        2
176
     1
 90
        2
176
     1
 90
        0
176
     1
 90
        0
176
     1
 40
0.6
176
     1
 40
30.0
176
     1
 62
     7
176
     1
 90
        1
176
     1
 90
        4
176
     1
 62
     7
176
     1
 62
   257
176
     1
 90
        1
176
     1
 90
        1
176
     1
 40
1.0
176
     1
 90
        8
176
     1
 62
     7
176
     1
 40
1.0
176
     1
 90
        1
176
     1
 90
        6
176
     1
 90
        2
176
     1
 62
     7
176
     1
 90
        5
176
     1
 90
        0
176
     1
 90
        0
176
     1
290
     0
176
     1
 90
        1
176
     1
 40
-50.0
176
     1
 90
        0
176
     1
290
     0
176
     1
290
     1
176
     1
290
     1
176
     1
290
     0
176
     1
290
     0
176
     1
290
     0
176
     1
290
     0
176
     1
290
     0
176
     1
290
     0
176
     1
 90
       50
176
     1
 40
0.0
176
     1
 40
1.0
176
     1
 90
        0
176
     1
 62
    18
420
        0
176
     1
 90
       50
176
     1
 90
        3
176
     1
 62
     5
420
      255
176
     1
290
     0
176
     1
 90
       50
176
     1
 90
       50
176
     1
 90
       50
176
     1
290
     0
176
     1
 90
       50
176
     1
 62
   256
176
     0
 40
1.0
176
     0
 90
        2
176
     1
  1
strokes_ogs.tif
176
     1
290
     0
176
     1
 40
1.0
176
     1
 40
1.0
176
     1
  0
VISUALSTYLE
  5
BD8
102
{ACAD_REACTORS
330
2F
102
}
330
2F
100
AcDbVisualStyle
  2
EdgeColorOff
 70
    22
177
     3
291
     1
 70
    58
 90
        2
176
     0
 90
        2
176
     0
 90
        0
176
     0
 90
        0
176
     0
 40
0.6
176
     0
 40
30.0
176
     0
 62
     7
176
     0
 90
        1
176
     0
 90
        4
176
     0
 62
     7
176
     0
 62
   257
176
     0
 90
        1
176
     0
 90
        1
176
     0
 40
1.0
176
     0
 90
        8
176
     2
 62
     7
176
     0
 40
1.0
176
     0
 90
        1
176
     0
 90
        6
176
     0
 90
        2
176
     0
 62
     7
176
     0
 90
        5
176
     0
 90
        0
176
     0
 90
        0
176
     0
290
     0
176
     0
 90
        1
176
     0
 40
0.0
176
     0
 90
        0
176
     0
290
     0
176
     0
290
     1
176
     0
290
     1
176
     0
290
     0
176
     0
290
     0
176
     0
290
     0
176
     0
290
     0
176
     0
290
     0
176
     0
290
     0
176
     0
 90
       50
176
     0
 40
0.0
176
     0
 40
1.0
176
     0
 90
        0
176
     0
 62
    18
420
        0
176
     0
 90
       50
176
     0
 90
        3
176
     0
 62
     5
420
      255
176
     0
290
     0
176
     0
 90
       50
176
     0
 90
       50
176
     0
 90
       50
176
     0
290
     0
176
     0
 90
       50
176
     0
 62
   256
176
     0
 40
1.0
176
     0
 90
        2
176
     0
  1
strokes_ogs.tif
176
     0
290
     0
176
     0
 40
1.0
176
     0
 40
1.0
176
     0
  0
VISUALSTYLE
  5
BCF
102
{ACAD_REACTORS
330
2F
102
}
330
2F
100
AcDbVisualStyle
  2
Facepattern
 70
    15
177
     3
291
     1
 70
    58
 90
        2
176
     1
 90
        2
176
     1
 90
        0
176
     1
 90
        0
176
     1
 40
0.6
176
     1
 40
30.0
176
     1
 62
     7
176
     1
 90
        1
176
     1
 90
        4
176
     1
 62
     7
176
     1
 62
   257
176
     1
 90
        1
176
     1
 90
        1
176
     1
 40
1.0
176
     1
 90
        8
176
     1
 62
     7
176
     1
 40
1.0
176
     1
 90
        1
176
     1
 90
        6
176
     1
 90
        2
176
     1
 62
     7
176
     1
 90
        5
176
     1
 90
        0
176
     1
 90
        0
176
     1
290
     0
176
     1
 90
        1
176
     1
 40
0.0
176
     1
 90
        0
176
     1
290
     0
176
     1
290
     1
176
     1
290
     1
176
     1
290
     0
176
     1
290
     0
176
     1
290
     0
176
     1
290
     0
176
     1
290
     0
176
     1
290
     0
176
     1
 90
       50
176
     1
 40
0.0
176
     1
 40
1.0
176
     1
 90
        0
176
     1
 62
    18
420
        0
176
     1
 90
       50
176
     1
 90
        3
176
     1
 62
     5
420
      255
176
     1
290
     0
176
     1
 90
       50
176
     1
 90
       50
176
     1
 90
       50
176
     1
290
     0
176
     1
 90
       50
176
     1
 62
   256
176
     0
 40
1.0
176
     0
 90
        2
176
     1
  1
strokes_ogs.tif
176
     1
290
     0
176
     1
 40
1.0
176
     1
 40
1.0
176
     1
  0
VISUALSTYLE
  5
BC3
102
{ACAD_REACTORS
330
2F
102
}
330
2F
100
AcDbVisualStyle
  2
Flat
 70
     0
177
     3
291
     1
 70
    58
 90
        2
176
     1
 90
        1
176
     1
 90
        1
176
     1
 90
        2
176
     1
 40
0.6
176
     1
 40
30.0
176
     1
 62
     7
176
     1
 90
        0
176
     1
 90
        0
176
     1
 62
     7
176
     1
 62
   257
176
     1
 90
        1
176
     1
 90
        1
176
     1
 40
1.0
176
     1
 90
        8
176
     1
 62
     7
176
     1
 40
1.0
176
     1
 90
        1
176
     1
 90
        6
176
     1
 90
        2
176
     1
 62
     7
176
     1
 90
        5
176
     1
 90
        0
176
     1
 90
        0
176
     1
290
     0
176
     1
 90
       13
176
     1
 40
0.0
176
     1
 90
        0
176
     1
290
     0
176
     1
290
     1
176
     1
290
     1
176
     1
290
     0
176
     1
290
     0
176
     1
290
     0
176
     1
290
     0
176
     1
290
     0
176
     1
290
     0
176
     1
 90
       50
176
     1
 40
0.0
176
     1
 40
1.0
176
     1
 90
        0
176
     1
 62
    18
420
        0
176
     1
 90
       50
176
     1
 90
        3
176
     1
 62
     5
420
      255
176
     1
290
     0
176
     1
 90
       50
176
     1
 90
       50
176
     1
 90
       50
176
     1
290
     0
176
     1
 90
       50
176
     1
 62
   256
176
     0
 40
1.0
176
     0
 90
        2
176
     1
  1
strokes_ogs.tif
176
     1
290
     0
176
     1
 40
1.0
176
     1
 40
1.0
176
     1
  0
VISUALSTYLE
  5
BC4
102
{ACAD_REACTORS
330
2F
102
}
330
2F
100
AcDbVisualStyle
  2
FlatWithEdges
 70
     1
177
     3
291
     1
 70
    58
 90
        2
176
     1
 90
        1
176
     1
 90
        1
176
     1
 90
        2
176
     1
 40
0.6
176
     1
 40
30.0
176
     1
 62
     7
176
     1
 90
        1
176
     1
 90
        0
176
     1
 62
     7
176
     1
 62
   257
176
     1
 90
        1
176
     1
 90
        1
176
     1
 40
1.0
176
     1
 90
        0
176
     1
 62
   257
176
     1
 40
1.0
176
     1
 90
        1
176
     1
 90
        6
176
     1
 90
        2
176
     1
 62
     7
176
     1
 90
        5
176
     1
 90
        0
176
     1
 90
        0
176
     1
290
     0
176
     1
 90
       13
176
     1
 40
0.0
176
     1
 90
        0
176
     1
290
     0
176
     1
290
     1
176
     1
290
     1
176
     1
290
     0
176
     1
290
     0
176
     1
290
     0
176
     1
290
     0
176
     1
290
     0
176
     1
290
     0
176
     1
 90
       50
176
     1
 40
0.0
176
     1
 40
1.0
176
     1
 90
        0
176
     1
 62
    18
420
        0
176
     1
 90
       50
176
     1
 90
        3
176
     1
 62
     5
420
      255
176
     1
290
     0
176
     1
 90
       50
176
     1
 90
       50
176
     1
 90
       50
176
     1
290
     0
176
     1
 90
       50
176
     1
 62
   256
176
     0
 40
1.0
176
     0
 90
        2
176
     1
  1
strokes_ogs.tif
176
     1
290
     0
176
     1
 40
1.0
176
     1
 40
1.0
176
     1
  0
VISUALSTYLE
  5
BC5
102
{ACAD_REACTORS
330
2F
102
}
330
2F
100
AcDbVisualStyle
  2
Gouraud
 70
     2
177
     3
291
     1
 70
    58
 90
        2
176
     1
 90
        2
176
     1
 90
        1
176
     1
 90
        2
176
     1
 40
0.6
176
     1
 40
30.0
176
     1
 62
     7
176
     1
 90
        0
176
     1
 90
        0
176
     1
 62
     7
176
     1
 62
   257
176
     1
 90
        1
176
     1
 90
        1
176
     1
 40
1.0
176
     1
 90
        0
176
     1
 62
     7
176
     1
 40
1.0
176
     1
 90
        1
176
     1
 90
        6
176
     1
 90
        2
176
     1
 62
     7
176
     1
 90
        5
176
     1
 90
        0
176
     1
 90
        0
176
     1
290
     0
176
     1
 90
       13
176
     1
 40
0.0
176
     1
 90
        0
176
     1
290
     0
176
     1
290
     1
176
     1
290
     1
176
     1
290
     0
176
     1
290
     0
176
     1
290
     0
176
     1
290
     0
176
     1
290
     0
176
     1
290
     0
176
     1
 90
       50
176
     1
 40
0.0
176
     1
 40
1.0
176
     1
 90
        0
176
     1
 62
    18
420
        0
176
     1
 90
       50
176
     1
 90
        3
176
     1
 62
     5
420
      255
176
     1
290
     0
176
     1
 90
       50
176
     1
 90
       50
176
     1
 90
       50
176
     1
290
     0
176
     1
 90
       50
176
     1
 62
   256
176
     0
 40
1.0
176
     0
 90
        2
176
     1
  1
strokes_ogs.tif
176
     1
290
     0
176
     1
 40
1.0
176
     1
 40
1.0
176
     1
  0
VISUALSTYLE
  5
BC6
102
{ACAD_REACTORS
330
2F
102
}
330
2F
100
AcDbVisualStyle
  2
GouraudWithEdges
 70
     3
177
     3
291
     1
 70
    58
 90
        2
176
     1
 90
        2
176
     1
 90
        1
176
     1
 90
        2
176
     1
 40
0.6
176
     1
 40
30.0
176
     1
 62
     7
176
     1
 90
        1
176
     1
 90
        0
176
     1
 62
     7
176
     1
 62
   257
176
     1
 90
        1
176
     1
 90
        1
176
     1
 40
1.0
176
     1
 90
        0
176
     1
 62
   257
176
     1
 40
1.0
176
     1
 90
        1
176
     1
 90
        6
176
     1
 90
        2
176
     1
 62
     7
176
     1
 90
        5
176
     1
 90
        0
176
     1
 90
        0
176
     1
290
     0
176
     1
 90
       13
176
     1
 40
0.0
176
     1
 90
        0
176
     1
290
     0
176
     1
290
     1
176
     1
290
     1
176
     1
290
     0
176
     1
290
     0
176
     1
290
     0
176
     1
290
     0
176
     1
290
     0
176
     1
290
     0
176
     1
 90
       50
176
     1
 40
0.0
176
     1
 40
1.0
176
     1
 90
        0
176
     1
 62
    18
420
        0
176
     1
 90
       50
176
     1
 90
        3
176
     1
 62
     5
420
      255
176
     1
290
     0
176
     1
 90
       50
176
     1
 90
       50
176
     1
 90
       50
176
     1
290
     0
176
     1
 90
       50
176
     1
 62
   256
176
     0
 40
1.0
176
     0
 90
        2
176
     1
  1
strokes_ogs.tif
176
     1
290
     0
176
     1
 40
1.0
176
     1
 40
1.0
176
     1
  0
VISUALSTYLE
  5
BC9
102
{ACAD_REACTORS
330
2F
102
}
330
2F
100
AcDbVisualStyle
  2
Hidden
 70
     6
177
     3
291
     0
 70
    58
 90
        1
176
     1
 90
        2
176
     1
 90
        2
176
     1
 90
        0
176
     1
 40
0.6
176
     1
 40
30.0
176
     1
 62
     7
176
     1
 90
        2
176
     1
 90
        2
176
     1
 62
     7
176
     1
 62
   257
176
     1
 90
        2
176
     1
 90
        1
176
     1
 40
40.0
176
     1
 90
        0
176
     1
 62
   257
176
     1
 40
1.0
176
     1
 90
        1
176
     1
 90
        6
176
     1
 90
        2
176
     1
 62
     7
176
     1
 90
        3
176
     1
 90
        0
176
     1
 90
        0
176
     1
290
     0
176
     1
 90
        1
176
     1
 40
0.0
176
     1
 90
        0
176
     1
290
     0
176
     1
290
     1
176
     1
290
     1
176
     1
290
     0
176
     1
290
     0
176
     1
290
     0
176
     1
290
     0
176
     1
290
     0
176
     1
290
     0
176
     1
 90
       50
176
     1
 40
0.0
176
     1
 40
1.0
176
     1
 90
        0
176
     1
 62
    18
420
        0
176
     1
 90
       50
176
     1
 90
        3
176
     1
 62
     5
420
      255
176
     1
290
     0
176
     1
 90
       50
176
     1
 90
       50
176
     1
 90
       50
176
     1
290
     0
176
     1
 90
       50
176
     1
 62
   256
176
     0
 40
1.0
176
     0
 90
        2
176
     1
  1
strokes_ogs.tif
176
     1
290
     0
176
     1
 40
1.0
176
     1
 40
1.0
176
     1
  0
VISUALSTYLE
  5
BD6
102
{ACAD_REACTORS
330
2F
102
}
330
2F
100
AcDbVisualStyle
  2
JitterOff
 70
    20
177
     3
291
     1
 70
    58
 90
        2
176
     0
 90
        2
176
     0
 90
        0
176
     0
 90
        0
176
     0
 40
0.6
176
     0
 40
30.0
176
     0
 62
     7
176
     0
 90
        1
176
     0
 90
        4
176
     0
 62
     7
176
     0
 62
   257
176
     0
 90
        1
176
     0
 90
        1
176
     0
 40
1.0
176
     0
 90
       10
176
     2
 62
     7
176
     0
 40
1.0
176
     0
 90
        1
176
     0
 90
        6
176
     0
 90
        2
176
     0
 62
     7
176
     0
 90
        5
176
     0
 90
        0
176
     0
 90
        0
176
     0
290
     0
176
     0
 90
        1
176
     0
 40
0.0
176
     0
 90
        0
176
     0
290
     0
176
     0
290
     1
176
     0
290
     1
176
     0
290
     0
176
     0
290
     0
176
     0
290
     0
176
     0
290
     0
176
     0
290
     0
176
     0
290
     0
176
     0
 90
       50
176
     0
 40
0.0
176
     0
 40
1.0
176
     0
 90
        0
176
     0
 62
    18
420
        0
176
     0
 90
       50
176
     0
 90
        3
176
     0
 62
     5
420
      255
176
     0
290
     0
176
     0
 90
       50
176
     0
 90
       50
176
     0
 90
       50
176
     0
290
     0
176
     0
 90
       50
176
     0
 62
   256
176
     0
 40
1.0
176
     0
 90
        2
176
     0
  1
strokes_ogs.tif
176
     0
290
     0
176
     0
 40
1.0
176
     0
 40
1.0
176
     0
  0
VISUALSTYLE
  5
BCE
102
{ACAD_REACTORS
330
2F
102
}
330
2F
100
AcDbVisualStyle
  2
Linepattern
 70
    14
177
     3
291
     1
 70
    58
 90
        2
176
     1
 90
        2
176
     1
 90
        0
176
     1
 90
        0
176
     1
 40
0.6
176
     1
 40
30.0
176
     1
 62
     7
176
     1
 90
        1
176
     1
 90
        4
176
     1
 62
     7
176
     1
 62
   257
176
     1
 90
        7
176
     1
 90
        7
176
     1
 40
1.0
176
     1
 90
        8
176
     1
 62
     7
176
     1
 40
1.0
176
     1
 90
        1
176
     1
 90
        6
176
     1
 90
        2
176
     1
 62
     7
176
     1
 90
        5
176
     1
 90
        0
176
     1
 90
        0
176
     1
290
     0
176
     1
 90
        1
176
     1
 40
0.0
176
     1
 90
        0
176
     1
290
     0
176
     1
290
     1
176
     1
290
     1
176
     1
290
     0
176
     1
290
     0
176
     1
290
     0
176
     1
290
     0
176
     1
290
     0
176
     1
290
     0
176
     1
 90
       50
176
     1
 40
0.0
176
     1
 40
1.0
176
     1
 90
        0
176
     1
 62
    18
420
        0
176
     1
 90
       50
176
     1
 90
        3
176
     1
 62
     5
420
      255
176
     1
290
     0
176
     1
 90
       50
176
     1
 90
       50
176
     1
 90
       50
176
     1
290
     0
176
     1
 90
       50
176
     1
 62
   256
176
     0
 40
1.0
176
     0
 90
        2
176
     1
  1
strokes_ogs.tif
176
     1
290
     0
176
     1
 40
1.0
176
     1
 40
1.0
176
     1
  0
VISUALSTYLE
  5
BD7
102
{ACAD_REACTORS
330
2F
102
}
330
2F
100
AcDbVisualStyle
  2
OverhangOff
 70
    21
177
     3
291
     1
 70
    58
 90
        2
176
     0
 90
        2
176
     0
 90
        0
176
     0
 90
        0
176
     0
 40
0.6
176
     0
 40
30.0
176
     0
 62
     7
176
     0
 90
        1
176
     0
 90
        4
176
     0
 62
     7
176
     0
 62
   257
176
     0
 90
        1
176
     0
 90
        1
176
     0
 40
1.0
176
     0
 90
        9
176
     2
 62
     7
176
     0
 40
1.0
176
     0
 90
        1
176
     0
 90
        6
176
     0
 90
        2
176
     0
 62
     7
176
     0
 90
        5
176
     0
 90
        0
176
     0
 90
        0
176
     0
290
     0
176
     0
 90
        1
176
     0
 40
0.0
176
     0
 90
        0
176
     0
290
     0
176
     0
290
     1
176
     0
290
     1
176
     0
290
     0
176
     0
290
     0
176
     0
290
     0
176
     0
290
     0
176
     0
290
     0
176
     0
290
     0
176
     0
 90
       50
176
     0
 40
0.0
176
     0
 40
1.0
176
     0
 90
        0
176
     0
 62
    18
420
        0
176
     0
 90
       50
176
     0
 90
        3
176
     0
 62
     5
420
      255
176
     0
290
     0
176
     0
 90
       50
176
     0
 90
       50
176
     0
 90
       50
176
     0
290
     0
176
     0
 90
       50
176
     0
 62
   256
176
     0
 40
1.0
176
     0
 90
        2
176
     0
  1
strokes_ogs.tif
176
     0
290
     0
176
     0
 40
1.0
176
     0
 40
1.0
176
     0
  0
VISUALSTYLE
  5
46
102
{ACAD_REACTORS
330
2F
102
}
330
2F
100
AcDbVisualStyle
  2
Realistic
 70
     8
177
     3
291
     0
 70
    58
 90
        2
176
     1
 90
        2
176
     1
 90
        1
176
     1
 90
        0
176
     1
 40
0.6
176
     1
 40
30.0
176
     1
 62
     7
176
     1
 90
        1
176
     1
 90
        0
176
     1
 62
     7
176
     1
 62
   257
176
     1
 90
        1
176
     1
 90
        1
176
     1
 40
1.0
176
     1
 90
        8
176
     1
 62
     8
176
     1
 40
1.0
176
     1
 90
        1
176
     1
 90
        6
176
     1
 90
        2
176
     1
 62
     7
176
     1
 90
        5
176
     1
 90
        0
176
     1
 90
        0
176
     1
290
     0
176
     1
 90
       13
176
     1
 40
0.0
176
     1
 90
        0
176
     1
290
     0
176
     1
290
     1
176
     1
290
     1
176
     1
290
     0
176
     1
290
     0
176
     1
290
     0
176
     1
290
     0
176
     1
290
     0
176
     1
290
     0
176
     1
 90
       50
176
     1
 40
0.0
176
     1
 40
1.0
176
     1
 90
        0
176
     1
 62
    18
420
        0
176
     1
 90
       50
176
     1
 90
        3
176
     1
 62
     5
420
      255
176
     1
290
     0
176
     1
 90
       50
176
     1
 90
       50
176
     1
 90
       50
176
     1
290
     0
176
     1
 90
       50
176
     1
 62
   256
176
     0
 40
1.0
176
     0
 90
        2
176
     1
  1
strokes_ogs.tif
176
     1
290
     0
176
     1
 40
1.0
176
     1
 40
1.0
176
     1
  0
VISUALSTYLE
  5
BD5
102
{ACAD_REACTORS
330
2F
102
}
330
2F
100
AcDbVisualStyle
  2
Shaded
 70
    27
177
     3
291
     0
 70
    58
 90
        2
176
     1
 90
        2
176
     1
 90
        1
176
     1
 90
        2
176
     1
 40
0.6
176
     1
 40
30.0
176
     1
 62
     7
176
     1
 90
        0
176
     1
 90
        4
176
     1
 62
     7
176
     1
 62
   257
176
     1
 90
        1
176
     1
 90
        1
176
     1
 40
1.0
176
     1
 90
        8
176
     1
 62
   257
176
     1
 40
1.0
176
     1
 90
        1
176
     1
 90
        6
176
     1
 90
        2
176
     1
 62
     8
176
     1
 90
        3
176
     1
 90
        0
176
     1
 90
        0
176
     1
290
     0
176
     1
 90
        5
176
     1
 40
0.0
176
     1
 90
        0
176
     1
290
     0
176
     1
290
     1
176
     1
290
     1
176
     1
290
     0
176
     1
290
     0
176
     1
290
     0
176
     1
290
     0
176
     1
290
     0
176
     1
290
     0
176
     1
 90
       50
176
     1
 40
0.0
176
     1
 40
1.0
176
     1
 90
        0
176
     1
 62
    18
420
        0
176
     1
 90
       50
176
     1
 90
        3
176
     1
 62
     5
420
      255
176
     1
290
     0
176
     1
 90
       50
176
     1
 90
       50
176
     1
 90
       50
176
     1
290
     0
176
     1
 90
       50
176
     1
 62
   256
176
     0
 40
1.0
176
     0
 90
        2
176
     1
  1
strokes_ogs.tif
176
     1
290
     0
176
     1
 40
1.0
176
     1
 40
1.0
176
     1
  0
VISUALSTYLE
  5
BD4
102
{ACAD_REACTORS
330
2F
102
}
330
2F
100
AcDbVisualStyle
  2
Shaded with edges
 70
    26
177
     3
291
     0
 70
    58
 90
        2
176
     1
 90
        2
176
     1
 90
        1
176
     1
 90
        2
176
     1
 40
0.6
176
     1
 40
30.0
176
     1
 62
     7
176
     1
 90
        1
176
     1
 90
       10
176
     1
 62
     7
176
     1
 62
   257
176
     1
 90
        2
176
     1
 90
        1
176
     1
 40
1.0
176
     1
 90
        8
176
     1
 62
   257
176
     1
 40
1.0
176
     1
 90
        1
176
     1
 90
        6
176
     1
 90
        2
176
     1
 62
     7
176
     1
 90
        3
176
     1
 90
        0
176
     1
 90
        0
176
     1
290
     0
176
     1
 90
        5
176
     1
 40
0.0
176
     1
 90
        0
176
     1
290
     0
176
     1
290
     1
176
     1
290
     1
176
     1
290
     0
176
     1
290
     0
176
     1
290
     0
176
     1
290
     0
176
     1
290
     0
176
     1
290
     0
176
     1
 90
       50
176
     1
 40
0.0
176
     1
 40
1.0
176
     1
 90
        0
176
     1
 62
    18
420
        0
176
     1
 90
       50
176
     1
 90
        3
176
     1
 62
     5
420
      255
176
     1
290
     0
176
     1
 90
       50
176
     1
 90
       50
176
     1
 90
       50
176
     1
290
     0
176
     1
 90
       50
176
     1
 62
   256
176
     0
 40
1.0
176
     0
 90
        2
176
     1
  1
strokes_ogs.tif
176
     1
290
     0
176
     1
 40
1.0
176
     1
 40
1.0
176
     1
  0
VISUALSTYLE
  5
BD1
102
{ACAD_REACTORS
330
2F
102
}
330
2F
100
AcDbVisualStyle
  2
Shades of Gray
 70
    23
177
     3
291
     0
 70
    58
 90
        2
176
     1
 90
        2
176
     1
 90
        3
176
     1
 90
        0
176
     1
 40
0.6
176
     1
 40
30.0
176
     1
 62
     7
176
     1
 90
        2
176
     1
 90
        2
176
     1
 62
     7
176
     1
 62
     7
176
     1
 90
        1
176
     1
 90
        1
176
     1
 40
40.0
176
     1
 90
        8
176
     1
 62
     7
176
     1
 40
1.0
176
     1
 90
        1
176
     1
 90
        6
176
     1
 90
        2
176
     1
 62
     7
176
     1
 90
        3
176
     1
 90
        0
176
     1
 90
        0
176
     1
290
     0
176
     1
 90
        1
176
     1
 40
0.0
176
     1
 90
        0
176
     1
290
     0
176
     1
290
     1
176
     1
290
     1
176
     1
290
     0
176
     1
290
     0
176
     1
290
     0
176
     1
290
     0
176
     1
290
     0
176
     1
290
     0
176
     1
 90
       50
176
     1
 40
0.0
176
     1
 40
1.0
176
     1
 90
        0
176
     1
 62
    18
420
        0
176
     1
 90
       50
176
     1
 90
        3
176
     1
 62
     5
420
      255
176
     1
290
     0
176
     1
 90
       50
176
     1
 90
       50
176
     1
 90
       50
176
     1
290
     0
176
     1
 90
       50
176
     1
 62
   256
176
     0
 40
1.0
176
     0
 90
        2
176
     1
  1
strokes_ogs.tif
176
     1
290
     0
176
     1
 40
1.0
176
     1
 40
1.0
176
     1
  0
VISUALSTYLE
  5
BD2
102
{ACAD_REACTORS
330
2F
102
}
330
2F
100
AcDbVisualStyle
  2
Sketchy
 70
    24
177
     3
291
     0
 70
    58
 90
        1
176
     1
 90
        2
176
     1
 90
        2
176
     1
 90
        0
176
     1
 40
0.6
176
     1
 40
30.0
176
     1
 62
     7
176
     1
 90
        2
176
     1
 90
        2
176
     1
 62
     7
176
     1
 62
     7
176
     1
 90
        1
176
     1
 90
        1
176
     1
 40
40.0
176
     1
 90
       11
176
     1
 62
     7
176
     1
 40
1.0
176
     1
 90
        1
176
     1
 90
        6
176
     1
 90
        2
176
     1
 62
     7
176
     1
 90
        6
176
     1
 90
        0
176
     1
 90
        0
176
     1
290
     0
176
     1
 90
        1
176
     1
 40
0.0
176
     1
 90
        0
176
     1
290
     0
176
     1
290
     1
176
     1
290
     1
176
     1
290
     0
176
     1
290
     0
176
     1
290
     0
176
     1
290
     0
176
     1
290
     0
176
     1
290
     0
176
     1
 90
       50
176
     1
 40
0.0
176
     1
 40
1.0
176
     1
 90
        0
176
     1
 62
    18
420
        0
176
     1
 90
       50
176
     1
 90
        3
176
     1
 62
     5
420
      255
176
     1
290
     0
176
     1
 90
       50
176
     1
 90
       50
176
     1
 90
       50
176
     1
290
     0
176
     1
 90
       50
176
     1
 62
   256
176
     0
 40
1.0
176
     0
 90
        2
176
     1
  1
strokes_ogs.tif
176
     1
290
     0
176
     1
 40
1.0
176
     1
 40
1.0
176
     1
  0
VISUALSTYLE
  5
BCD
102
{ACAD_REACTORS
330
2F
102
}
330
2F
100
AcDbVisualStyle
  2
Thicken
 70
    13
177
     3
291
     1
 70
    58
 90
        2
176
     1
 90
        2
176
     1
 90
        0
176
     1
 90
        0
176
     1
 40
0.6
176
     1
 40
30.0
176
     1
 62
     7
176
     1
 90
        1
176
     1
 90
        4
176
     1
 62
     7
176
     1
 62
   257
176
     1
 90
        1
176
     1
 90
        1
176
     1
 40
1.0
176
     1
 90
       12
176
     1
 62
     7
176
     1
 40
1.0
176
     1
 90
        1
176
     1
 90
        6
176
     1
 90
        2
176
     1
 62
     7
176
     1
 90
        5
176
     1
 90
        0
176
     1
 90
        0
176
     1
290
     0
176
     1
 90
        1
176
     1
 40
0.0
176
     1
 90
        0
176
     1
290
     0
176
     1
290
     1
176
     1
290
     1
176
     1
290
     0
176
     1
290
     0
176
     1
290
     0
176
     1
290
     0
176
     1
290
     0
176
     1
290
     0
176
     1
 90
       50
176
     1
 40
0.0
176
     1
 40
1.0
176
     1
 90
        0
176
     1
 62
    18
420
        0
176
     1
 90
       50
176
     1
 90
        3
176
     1
 62
     5
420
      255
176
     1
290
     0
176
     1
 90
       50
176
     1
 90
       50
176
     1
 90
       50
176
     1
290
     0
176
     1
 90
       50
176
     1
 62
   256
176
     0
 40
1.0
176
     0
 90
        2
176
     1
  1
strokes_ogs.tif
176
     1
290
     0
176
     1
 40
1.0
176
     1
 40
1.0
176
     1
  0
VISUALSTYLE
  5
BC8
102
{ACAD_REACTORS
330
2F
102
}
330
2F
100
AcDbVisualStyle
  2
Wireframe
 70
     5
177
     3
291
     0
 70
    58
 90
        0
176
     1
 90
        2
176
     1
 90
        0
176
     1
 90
        0
176
     1
 40
0.6
176
     1
 40
30.0
176
     1
 62
     7
176
     1
 90
        1
176
     1
 90
        4
176
     1
 62
     7
176
     1
 62
   257
176
     1
 90
        1
176
     1
 90
        1
176
     1
 40
1.0
176
     1
 90
        0
176
     1
 62
   257
176
     1
 40
1.0
176
     1
 90
        1
176
     1
 90
        6
176
     1
 90
        2
176
     1
 62
     7
176
     1
 90
        3
176
     1
 90
        0
176
     1
 90
        0
176
     1
290
     0
176
     1
 90
        1
176
     1
 40
0.0
176
     1
 90
        0
176
     1
290
     0
176
     1
290
     1
176
     1
290
     1
176
     1
290
     0
176
     1
290
     0
176
     1
290
     0
176
     1
290
     0
176
     1
290
     0
176
     1
290
     0
176
     1
 90
       50
176
     1
 40
0.0
176
     1
 40
1.0
176
     1
 90
        0
176
     1
 62
    18
420
        0
176
     1
 90
       50
176
     1
 90
        3
176
     1
 62
     5
420
      255
176
     1
290
     0
176
     1
 90
       50
176
     1
 90
       50
176
     1
 90
       50
176
     1
290
     0
176
     1
 90
       50
176
     1
 62
   256
176
     0
 40
1.0
176
     0
 90
        2
176
     1
  1
strokes_ogs.tif
176
     1
290
     0
176
     1
 40
1.0
176
     1
 40
1.0
176
     1
  0
VISUALSTYLE
  5
BD3
102
{ACAD_REACTORS
330
2F
102
}
330
2F
100
AcDbVisualStyle
  2
X-Ray
 70
    25
177
     3
291
     0
 70
    58
 90
        2
176
     1
 90
        2
176
     1
 90
        1
176
     1
 90
        1
176
     1
 40
0.5
176
     1
 40
30.0
176
     1
 62
     7
176
     1
 90
        1
176
     1
 90
        0
176
     1
 62
     7
176
     1
 62
   257
176
     1
 90
        1
176
     1
 90
        1
176
     1
 40
1.0
176
     1
 90
        8
176
     1
 62
     7
176
     1
 40
1.0
176
     1
 90
        1
176
     1
 90
        6
176
     1
 90
        2
176
     1
 62
     7
176
     1
 90
        3
176
     1
 90
        0
176
     1
 90
        0
176
     1
290
     0
176
     1
 90
       13
176
     1
 40
0.0
176
     1
 90
        0
176
     1
290
     0
176
     1
290
     1
176
     1
290
     1
176
     1
290
     0
176
     1
290
     0
176
     1
290
     0
176
     1
290
     0
176
     1
290
     0
176
     1
290
     0
176
     1
 90
       50
176
     1
 40
0.0
176
     1
 40
1.0
176
     1
 90
        0
176
     1
 62
    18
420
        0
176
     1
 90
       50
176
     1
 90
        3
176
     1
 62
     5
420
      255
176
     1
290
     0
176
     1
 90
       50
176
     1
 90
       50
176
     1
 90
       50
176
     1
290
     0
176
     1
 90
       50
176
     1
 62
   256
176
     0
 40
1.0
176
     0
 90
        2
176
     1
  1
strokes_ogs.tif
176
     1
290
     0
176
     1
 40
1.0
176
     1
 40
1.0
176
     1
  0
DICTIONARYVAR
  5
BBE
102
{ACAD_REACTORS
330
BB8
102
}
330
BB8
100
DictionaryVariables
280
     0
  1
1:1
  0
DICTIONARYVAR
  5
BBA
102
{ACAD_REACTORS
330
BB8
102
}
330
BB8
100
DictionaryVariables
280
     0
  1
STANDARD
  0
DICTIONARYVAR
  5
BB9
102
{ACAD_REACTORS
330
BB8
102
}
330
BB8
100
DictionaryVariables
280
     0
  1
STANDARD
  0
DICTIONARYVAR
  5
BBB
102
{ACAD_REACTORS
330
BB8
102
}
330
BB8
100
DictionaryVariables
280
     0
  1
Metric50
  0
DICTIONARYVAR
  5
BBC
102
{ACAD_REACTORS
330
BB8
102
}
330
BB8
100
DictionaryVariables
280
     0
  1
Metric50
  0
DICTIONARYVAR
  5
C3B
102
{ACAD_REACTORS
330
BB8
102
}
330
BB8
100
DictionaryVariables
280
     0
  1
1
  0
DICTIONARYVAR
  5
C39
102
{ACAD_REACTORS
330
BB8
102
}
330
BB8
100
DictionaryVariables
280
     0
  1
1
  0
DICTIONARYVAR
  5
FF3
102
{ACAD_REACTORS
330
BB8
102
}
330
BB8
100
DictionaryVariables
280
     0
  1
4
  0
DICTIONARYVAR
  5
C38
102
{ACAD_REACTORS
330
BB8
102
}
330
BB8
100
DictionaryVariables
280
     0
  1
0
  0
DICTIONARYVAR
  5
BC0
102
{ACAD_REACTORS
330
BB8
102
}
330
BB8
100
DictionaryVariables
280
     0
  1
1
  0
DICTIONARYVAR
  5
BC1
102
{ACAD_REACTORS
330
BB8
102
}
330
BB8
100
DictionaryVariables
280
     0
  1
15
  0
DICTIONARYVAR
  5
BBF
102
{ACAD_REACTORS
330
BB8
102
}
330
BB8
100
DictionaryVariables
280
     0
  1
0
  0
DICTIONARYVAR
  5
BBD
102
{ACAD_REACTORS
330
BB8
102
}
330
BB8
100
DictionaryVariables
280
     0
  1
0
  0
DICTIONARYVAR
  5
C3C
102
{ACAD_REACTORS
330
BB8
102
}
330
BB8
100
DictionaryVariables
280
     0
  1
1
  0
DICTIONARYVAR
  5
C37
102
{ACAD_REACTORS
330
BB8
102
}
330
BB8
100
DictionaryVariables
280
     0
  1
127
  0
XRECORD
  5
23A5D
102
{ACAD_REACTORS
330
23A5C
102
}
330
23A5C
100
AcDbXrecord
280
     1
  0
DICTIONARY
  5
26B2F
330
BDD
100
AcDbDictionary
280
     1
281
     1
  3
ACAD_XREC_ROUNDTRIP
360
26B30
  0
DICTIONARY
  5
18
330
16
100
AcDbDictionary
280
     1
281
     1
  0
DICTIONARY
  5
1F
330
1E
100
AcDbDictionary
280
     1
281
     1
  0
DICTIONARY
  5
E
330
C
100
AcDbDictionary
280
     1
281
     1
  3
BUMPTILE
360
F
  3
DIFFUSETILE
360
10
  3
OPACITYTILE
360
11
  3
REFLECTIONTILE
360
12
  0
DICTIONARY
  5
26B2D
330
BDB
100
AcDbDictionary
280
     1
281
     1
  3
ACAD_XREC_ROUNDTRIP
360
26B2E
  0
DICTIONARY
  5
45
330
44
100
AcDbDictionary
280
     1
281
     1
  3
ACAD_ROUNDTRIP_2008_TABLESTYLE_CELLSTYLEMAP
360
26B2C
  0
XRECORD
  5
26B30
102
{ACAD_REACTORS
330
26B2F
102
}
330
26B2F
100
AcDbXrecord
280
     1
102
DISPLAYNAME
  1
Metric50
102
FLAGS
 90
        0
  0
XRECORD
  5
F
102
{ACAD_REACTORS
330
E
102
}
330
E
100
AcDbXrecord
280
     1
270
     1
271
     1
  0
XRECORD
  5
10
102
{ACAD_REACTORS
330
E
102
}
330
E
100
AcDbXrecord
280
     1
270
     1
271
     1
  0
XRECORD
  5
11
102
{ACAD_REACTORS
330
E
102
}
330
E
100
AcDbXrecord
280
     1
270
     1
271
     1
  0
XRECORD
  5
12
102
{ACAD_REACTORS
330
E
102
}
330
E
100
AcDbXrecord
280
     1
270
     1
271
     1
  0
XRECORD
  5
26B2E
102
{ACAD_REACTORS
330
26B2D
102
}
330
26B2D
100
AcDbXrecord
280
     1
102
DISPLAYNAME
  1
Metric50
102
FLAGS
 90
        0
  0
CELLSTYLEMAP
  5
26B2C
102
{ACAD_REACTORS
330
45
102
}
330
45
100
AcDbCellStyleMap
 90
        3
300
CELLSTYLE
  1
TABLEFORMAT_BEGIN
 90
        5
170
     1
 91
        0
 92
    32768
 62
   257
 93
        1
300
CONTENTFORMAT
  1
CONTENTFORMAT_BEGIN
 90
        0
 91
        0
 92
      512
 93
        0
300

 40
0.0
140
1.0
 94
        5
 62
     0
340
25
144
6.0
309
CONTENTFORMAT_END
171
     1
301
MARGIN
  1
CELLMARGIN_BEGIN
 40
1.5
 40
1.5
 40
1.5
 40
1.5
 40
0.18
 40
0.18
309
CELLMARGIN_END
 94
        6
 95
        1
302
GRIDFORMAT
  1
GRIDFORMAT_BEGIN
 90
        0
 91
        1
 62
     0
 92
       -2
340
28
 93
        0
 40
1.125
309
GRIDFORMAT_END
 95
        2
302
GRIDFORMAT
  1
GRIDFORMAT_BEGIN
 90
        0
 91
        1
 62
     0
 92
       -2
340
28
 93
        0
 40
1.125
309
GRIDFORMAT_END
 95
        4
302
GRIDFORMAT
  1
GRIDFORMAT_BEGIN
 90
        0
 91
        1
 62
     0
 92
       -2
340
28
 93
        0
 40
1.125
309
GRIDFORMAT_END
 95
        8
302
GRIDFORMAT
  1
GRIDFORMAT_BEGIN
 90
        0
 91
        1
 62
     0
 92
       -2
340
28
 93
        0
 40
1.125
309
GRIDFORMAT_END
 95
       16
302
GRIDFORMAT
  1
GRIDFORMAT_BEGIN
 90
        0
 91
        1
 62
     0
 92
       -2
340
28
 93
        0
 40
1.125
309
GRIDFORMAT_END
 95
       32
302
GRIDFORMAT
  1
GRIDFORMAT_BEGIN
 90
        0
 91
        1
 62
     0
 92
       -2
340
28
 93
        0
 40
1.125
309
GRIDFORMAT_END
309
TABLEFORMAT_END
  1
CELLSTYLE_BEGIN
 90
        1
 91
        1
300
_TITLE
309
CELLSTYLE_END
300
CELLSTYLE
  1
TABLEFORMAT_BEGIN
 90
        5
170
     1
 91
        0
 92
        0
 62
   257
 93
        1
300
CONTENTFORMAT
  1
CONTENTFORMAT_BEGIN
 90
        0
 91
        0
 92
      512
 93
        0
300

 40
0.0
140
1.0
 94
        5
 62
     0
340
25
144
4.5
309
CONTENTFORMAT_END
171
     1
301
MARGIN
  1
CELLMARGIN_BEGIN
 40
1.5
 40
1.5
 40
1.5
 40
1.5
 40
0.18
 40
0.18
309
CELLMARGIN_END
 94
        6
 95
        1
302
GRIDFORMAT
  1
GRIDFORMAT_BEGIN
 90
        0
 91
        1
 62
     0
 92
       -2
340
28
 93
        0
 40
1.125
309
GRIDFORMAT_END
 95
        2
302
GRIDFORMAT
  1
GRIDFORMAT_BEGIN
 90
        0
 91
        1
 62
     0
 92
       -2
340
28
 93
        0
 40
1.125
309
GRIDFORMAT_END
 95
        4
302
GRIDFORMAT
  1
GRIDFORMAT_BEGIN
 90
        0
 91
        1
 62
     0
 92
       -2
340
28
 93
        0
 40
1.125
309
GRIDFORMAT_END
 95
        8
302
GRIDFORMAT
  1
GRIDFORMAT_BEGIN
 90
        0
 91
        1
 62
     0
 92
       -2
340
28
 93
        0
 40
1.125
309
GRIDFORMAT_END
 95
       16
302
GRIDFORMAT
  1
GRIDFORMAT_BEGIN
 90
        0
 91
        1
 62
     0
 92
       -2
340
28
 93
        0
 40
1.125
309
GRIDFORMAT_END
 95
       32
302
GRIDFORMAT
  1
GRIDFORMAT_BEGIN
 90
        0
 91
        1
 62
     0
 92
       -2
340
28
 93
        0
 40
1.125
309
GRIDFORMAT_END
309
TABLEFORMAT_END
  1
CELLSTYLE_BEGIN
 90
        2
 91
        1
300
_HEADER
309
CELLSTYLE_END
300
CELLSTYLE
  1
TABLEFORMAT_BEGIN
 90
        5
170
     1
 91
        0
 92
        0
 62
   257
 93
        1
300
CONTENTFORMAT
  1
CONTENTFORMAT_BEGIN
 90
        0
 91
        0
 92
      512
 93
        0
300

 40
0.0
140
1.0
 94
        2
 62
     0
340
25
144
4.5
309
CONTENTFORMAT_END
171
     1
301
MARGIN
  1
CELLMARGIN_BEGIN
 40
1.5
 40
1.5
 40
1.5
 40
1.5
 40
0.18
 40
0.18
309
CELLMARGIN_END
 94
        6
 95
        1
302
GRIDFORMAT
  1
GRIDFORMAT_BEGIN
 90
        0
 91
        1
 62
     0
 92
       -2
340
28
 93
        0
 40
1.125
309
GRIDFORMAT_END
 95
        2
302
GRIDFORMAT
  1
GRIDFORMAT_BEGIN
 90
        0
 91
        1
 62
     0
 92
       -2
340
28
 93
        0
 40
1.125
309
GRIDFORMAT_END
 95
        4
302
GRIDFORMAT
  1
GRIDFORMAT_BEGIN
 90
        0
 91
        1
 62
     0
 92
       -2
340
28
 93
        0
 40
1.125
309
GRIDFORMAT_END
 95
        8
302
GRIDFORMAT
  1
GRIDFORMAT_BEGIN
 90
        0
 91
        1
 62
     0
 92
       -2
340
28
 93
        0
 40
1.125
309
GRIDFORMAT_END
 95
       16
302
GRIDFORMAT
  1
GRIDFORMAT_BEGIN
 90
        0
 91
        1
 62
     0
 92
       -2
340
28
 93
        0
 40
1.125
309
GRIDFORMAT_END
 95
       32
302
GRIDFORMAT
  1
GRIDFORMAT_BEGIN
 90
        0
 91
        1
 62
     0
 92
       -2
340
28
 93
        0
 40
1.125
309
GRIDFORMAT_END
309
TABLEFORMAT_END
  1
CELLSTYLE_BEGIN
 90
        3
 91
        2
300
_DATA
309
CELLSTYLE_END
  0
ENDSEC
  0
SECTION
  2
ACDSDATA
 70
     2
 71
     6
  0
ACDSSCHEMA
 90
        0
  1
AcDb_Thumbnail_Schema
  2
AcDbDs::ID
280
    10
 91
        8
  2
Thumbnail_Data
280
    15
 91
        0
101
ACDSRECORD
 95
        0
 90
        1
  2
AcDbDs::TreatedAsObjectData
280
     1
291
     1
101
ACDSRECORD
 95
        0
 90
        2
  2
AcDbDs::Legacy
280
     1
291
     1
101
ACDSRECORD
  1
AcDbDs::ID
 90
        3
  2
AcDs:Indexable
280
     1
291
     1
101
ACDSRECORD
  1
AcDbDs::ID
 90
        4
  2
AcDbDs::HandleAttribute
280
     7
282
     1
  0
ACDSSCHEMA
 90
        1
  1
AcDbDs::TreatedAsObjectDataSchema
  2
AcDbDs::TreatedAsObjectData
280
     1
 91
        0
  0
ACDSSCHEMA
 90
        2
  1
AcDbDs::LegacySchema
  2
AcDbDs::Legacy
280
     1
 91
        0
  0
ACDSSCHEMA
 90
        3
  1
AcDbDs::IndexedPropertySchema
  2
AcDs:Indexable
280
     1
 91
        0
  0
ACDSSCHEMA
 90
        4
  1
AcDbDs::HandleAttributeSchema
  2
AcDbDs::HandleAttribute
280
     7
 91
        1
284
     1
  0
ACDSRECORD
 90
        0
  2
AcDbDs::ID
280
    10
320
16
  2
Thumbnail_Data
280
    15
 94
     2110
310
89504E470D0A1A0A0000000D494844520000010000000076080300000010A0BD3C00000300504C5445000000000000C8C8C80000000000000000000000000000000000000000000000000000330000660000990000CC0000FF0033000033330033660033990033CC0033FF0066000066330066660066990066CC0066FF0099
310
000099330099660099990099CC0099FF00CC0000CC3300CC6600CC9900CCCC00CCFF00FF0000FF3300FF6600FF9900FFCC00FFFF3300003300333300663300993300CC3300FF3333003333333333663333993333CC3333FF3366003366333366663366993366CC3366FF3399003399333399663399993399CC3399FF33CC00
310
33CC3333CC6633CC9933CCCC33CCFF33FF0033FF3333FF6633FF9933FFCC33FFFF6600006600336600666600996600CC6600FF6633006633336633666633996633CC6633FF6666006666336666666666996666CC6666FF6699006699336699666699996699CC6699FF66CC0066CC3366CC6666CC9966CCCC66CCFF66FF0066
310
FF3366FF6666FF9966FFCC66FFFF9900009900339900669900999900CC9900FF9933009933339933669933999933CC9933FF9966009966339966669966999966CC9966FF9999009999339999669999999999CC9999FF99CC0099CC3399CC6699CC9999CCCC99CCFF99FF0099FF3399FF6699FF9999FFCC99FFFFCC0000CC00
310
33CC0066CC0099CC00CCCC00FFCC3300CC3333CC3366CC3399CC33CCCC33FFCC6600CC6633CC6666CC6699CC66CCCC66FFCC9900CC9933CC9966CC9999CC99CCCC99FFCCCC00CCCC33CCCC66CCCC99CCCCCCCCCCFFCCFF00CCFF33CCFF66CCFF99CCFFCCCCFFFFFF0000FF0033FF0066FF0099FF00CCFF00FFFF3300FF3333
310
FF3366FF3399FF33CCFF33FFFF6600FF6633FF6666FF6699FF66CCFF66FFFF9900FF9933FF9966FF9999FF99CCFF99FFFFCC00FFCC33FFCC66FFCC99FFCCCCFFCCFFFFFF00FFFF33FFFF66FFFF99FFFFCCFFFFFF0000000D0D0D1A1A1A2828283535354343435050505D5D5D6B6B6B787878868686939393A1A1A1AEAEAEBB
310
BBBBC9C9C9D6D6D6E4E4E4F1F1F1FFFFFF00000000000000000000000000000000000000000000000000000000000008F1915C000004F94944415478DAED9D5B9A83200C46B39CBCB0B35932DBF8DF4702C845B03A9DA2D4E07CADADD492436EA074883E53F0DF15417395C3724D06008D622D8E95A315DF3CE1F08EB5F6E0
310
878F567CEF84B885664F607C0A4001280005A00014800250000A400128000570B81C1EA75D583EDAC6C703501FA00014800250000A40011C8BC6EECF6DBEC87BEBEE13004469EDA63CC5046AF9D75D667E0E8056219A15C0FF5D78E3191AF949BC3CB909E4364D7F726E3C33006691FAC100A811DF02924700206EB9F6935A
310
C05303B8B31B9C05C0C7080C8902AC00AADCC3997F2F0301378A61C0C0B8CF9AD90188DC962D756E7A6B65FE860C9331EE036646008940EC760FA09988B6741D66C1C20B061883890124692380861AB400780D709BA1890164DF9501A8DBB0AB01C6C1987138CCD5571500CA46EC6980937F260D48991E57DF54268138A001
310
D6B2EF7FF3E7C63413CF41D7062B00F54DBAE80180443F241F201A70BAD12E92FAC9250C05909B802DA6209C09E40C6C0520C82D51CF8BCD84B0EB1A7D322DE2BE7E8DF201BC2A20D6098262BE804B005E5417F53C07AF0682C29E96FF0600ACE8A07F2B4CF3C953A0110FAE4D948E5EED5D4C20F6BFA1D3F2DF028097D269
310
BF8DCB08FCAE3F5001583ADC777D249069009F6FF3F500E02605160C4E68317D8E6302B09F1841E5038A1C09DE2D0402F596766F0B0041E7C141FE28E6D2FDB0D1365E004836506EF98B0E8B7B00580C0141FE180665198B6D648D4D00C618ECCB9F914828CC3D00F854C0066D5E0CD9135800D0410070CFE849DC45E158F0
310
EA432ED4000F2089129E6CAC843C31C9007001E0B4FCB2B1590D24CD310C041066C7110190B700AF0204EFD73B00524DAF01309DAD7BC01D4A7B128F39258063264442597C20E4297BB48CA24B7C82047913A10EC2A391756FDC2C9DB7EB83804F24C700007213CE3560516CE41A805A03D229388E1BE4E3088736D920F666
310
94CA6AEE2B12007C52FEDC04A4ED768D0120440061AF09807CCD98381D0080DDE18D0040010083A28074FAEA043977824C7D00BEA6CB15D87A6EAF34A00B20065FD1000C0F831E002515486190B761B03C8D3499690B801BE18CED56EC75FCCDBC3717F161002EE9B1D11E1047468B116C6546C397140082ECC9E02B1FD05B
310
1B5CCB3F6E2CE001B453E13E807011911B00A8014024E6BD25D14C97688074B58C06295C1111CB96C150180C83DA00C26D42222B328F58173EB6129C37734E8386C361D0EBC330ADA361EFDFB2E9923A2FCEE3F85603B24F1D9C23B86A38EC260438E678E91A7970CA2E3BDB6BD61A4EE705C0691E2B089D5F1A13EFF0DD00
310
DCB4276F02536BCA34BCD3FC9987A90150D1C7E585117E7581F00B01144E8FE90900684703FE0A60F71CF703003401005F0BA00CEE5C4E93671EFE4A0003D70D32B56E90B8DA0406AE1BE46C006E433A78D607D0D43E201FDEC2E28413E4351D68398C19A3C0CE8B2680D7922A8029007416813C05002700FC4C00F94CFD8B
310
D85444A7FC65E716F383779E6FAB5DE503E8FF01D86300ECF500366B469EA201B1D86C45E0D61E06977B9AC07702B8679963E1E4B48DD4E5F30A4001280005A00014800250000A40018C4EF0ABF253950BFFC1C2D86E457E5F9108FE23CF639A78D94F6AA2AD0B59C78F69E3ED00603080EB4D003D00789A13AC2C008F7182
310
4F0D830A20F7C4BBBF50A8001EE404DB457D8002F84A00C1D6BBBFD2A900D404C60098A00CEF9DC3FFF6B055B1D5DEB74E784179AFBD5703F8055712555A60D206810000000049454E44AE426082
  0
ACDSRECORD
 90
        0
  2
AcDbDs::ID
280
    10
320
1E
  2
Thumbnail_Data
280
    15
 94
     1014
310
89504E470D0A1A0A0000000D49484452000000B80000007F08030000006B00F8F900000300504C5445FFFFFF000000FFFFFF0000000000000000000000000000000000000000000000000000330000660000990000CC0000FF0033000033330033660033990033CC0033FF0066000066330066660066990066CC0066FF0099
310
000099330099660099990099CC0099FF00CC0000CC3300CC6600CC9900CCCC00CCFF00FF0000FF3300FF6600FF9900FFCC00FFFF3300003300333300663300993300CC3300FF3333003333333333663333993333CC3333FF3366003366333366663366993366CC3366FF3399003399333399663399993399CC3399FF33CC00
310
33CC3333CC6633CC9933CCCC33CCFF33FF0033FF3333FF6633FF9933FFCC33FFFF6600006600336600666600996600CC6600FF6633006633336633666633996633CC6633FF6666006666336666666666996666CC6666FF6699006699336699666699996699CC6699FF66CC0066CC3366CC6666CC9966CCCC66CCFF66FF0066
310
FF3366FF6666FF9966FFCC66FFFF9900009900339900669900999900CC9900FF9933009933339933669933999933CC9933FF9966009966339966669966999966CC9966FF9999009999339999669999999999CC9999FF99CC0099CC3399CC6699CC9999CCCC99CCFF99FF0099FF3399FF6699FF9999FFCC99FFFFCC0000CC00
310
33CC0066CC0099CC00CCCC00FFCC3300CC3333CC3366CC3399CC33CCCC33FFCC6600CC6633CC6666CC6699CC66CCCC66FFCC9900CC9933CC9966CC9999CC99CCCC99FFCCCC00CCCC33CCCC66CCCC99CCCCCCCCCCFFCCFF00CCFF33CCFF66CCFF99CCFFCCCCFFFFFF0000FF0033FF0066FF0099FF00CCFF00FFFF3300FF3333
310
FF3366FF3399FF33CCFF33FFFF6600FF6633FF6666FF6699FF66CCFF66FFFF9900FF9933FF9966FF9999FF99CCFF99FFFFCC00FFCC33FFCC66FFCC99FFCCCCFFCCFFFFFF00FFFF33FFFF66FFFF99FFFFCCFFFFFF0000000D0D0D1A1A1A2828283535354343435050505D5D5D6B6B6B787878868686939393A1A1A1AEAEAEBB
310
BBBBC9C9C9D6D6D6E4E4E4F1F1F1FFFFFF000000000000000000000000000000000000000000000000000000000000790CAC0F000000B14944415478DAEDDC3B0A80301004D0DCFF987B81ADEC258D4D8A547E46DE968AF01061B25338BAE2A6C79CAE236C72E105FE3EFCFAFED72BBB1B373FB2837FF62D838383833F0A97
310
9CE0E0E0E0E1E771C9090E0E0E0E0E0E0E0EAE9EB04880838383AB27443E3838383838383838B87A021C1C1C1C5CAF22F2C1C1C1C1C1C1C1C1C1F52A362070707070F5043838383838383838B87AC222010E0E0EAE9E909CE0E0E099F0D47F7A4A4EF05FC2F366BA4F0386279D40CB09810000000049454E44AE426082
  0
ENDSEC
  0
EOF
