  0
SECTION
  2
HEADER
  9
$ACADVER
  1
AC1027
  9
$ACADMAINTVER
 70
    55
  9
$DWGCODEPAGE
  3
ANSI_949
  9
$LASTSAVEDBY
  1
DESKTOP
  9
$REQUIREDVERSIONS
160
                 0
  9
$INSBASE
 10
0.0
 20
0.0
 30
0.0
  9
$EXTMIN
 10
-1.666329668745675
 20
-1.659341226291758
 30
-0.000000000000013
  9
$EXTMAX
 10
136.662976800303
 20
95.86133230322468
 30
0.0000000000000023
  9
$LIMMIN
 10
0.0
 20
0.0
  9
$LIMMAX
 10
420.0
 20
297.0
  9
$ORTHOMODE
 70
     1
  9
$REGENMODE
 70
     1
  9
$FILLMODE
 70
     1
  9
$QTEXTMODE
 70
     0
  9
$MIRRTEXT
 70
     0
  9
$LTSCALE
 40
5.0
  9
$ATTMODE
 70
     1
  9
$TEXTSIZE
 40
3.0
  9
$TRACEWID
 40
1.0
  9
$TEXTSTYLE
  7
Standard
  9
$CLAYER
  8
0
  9
$CELTYPE
  6
Continuous
  9
$CECOLOR
 62
     7
  9
$CELTSCALE
 40
1.0
  9
$DISPSILH
 70
     0
  9
$DIMSCALE
 40
1.0
  9
$DIMASZ
 40
2.5
  9
$DIMEXO
 40
0.625
  9
$DIMDLI
 40
3.75
  9
$DIMRND
 40
0.0
  9
$DIMDLE
 40
0.0
  9
$DIMEXE
 40
1.25
  9
$DIMTP
 40
0.0
  9
$DIMTM
 40
0.000000001
  9
$DIMTXT
 40
3.0
  9
$DIMCEN
 40
-0.5
  9
$DIMTSZ
 40
0.0
  9
$DIMTOL
 70
     0
  9
$DIMLIM
 70
     0
  9
$DIMTIH
 70
     0
  9
$DIMTOH
 70
     0
  9
$DIMSE1
 70
     0
  9
$DIMSE2
 70
     0
  9
$DIMTAD
 70
     1
  9
$DIMZIN
 70
     8
  9
$DIMBLK
  1

  9
$DIMASO
 70
     1
  9
$DIMSHO
 70
     1
  9
$DIMPOST
  1

  9
$DIMAPOST
  1

  9
$DIMALT
 70
     0
  9
$DIMALTD
 70
     3
  9
$DIMALTF
 40
0.03937007874016
  9
$DIMLFAC
 40
1.0
  9
$DIMTOFL
 70
     1
  9
$DIMTVP
 40
0.0
  9
$DIMTIX
 70
     0
  9
$DIMSOXD
 70
     0
  9
$DIMSAH
 70
     0
  9
$DIMBLK1
  1

  9
$DIMBLK2
  1

  9
$DIMSTYLE
  2
Standard
  9
$DIMCLRD
 70
     3
  9
$DIMCLRE
 70
     3
  9
$DIMCLRT
 70
     2
  9
$DIMTFAC
 40
0.7
  9
$DIMGAP
 40
0.625
  9
$DIMJUST
 70
     0
  9
$DIMSD1
 70
     0
  9
$DIMSD2
 70
     0
  9
$DIMTOLJ
 70
     0
  9
$DIMTZIN
 70
     8
  9
$DIMALTZ
 70
     0
  9
$DIMALTTZ
 70
     0
  9
$DIMUPT
 70
     0
  9
$DIMDEC
 70
     8
  9
$DIMTDEC
 70
     8
  9
$DIMALTU
 70
     2
  9
$DIMALTTD
 70
     3
  9
$DIMTXSTY
  7
Standard
  9
$DIMAUNIT
 70
     1
  9
$DIMADEC
 70
     1
  9
$DIMALTRND
 40
0.0
  9
$DIMAZIN
 70
     0
  9
$DIMDSEP
 70
    46
  9
$DIMATFIT
 70
     3
  9
$DIMFRAC
 70
     0
  9
$DIMLDRBLK
  1

  9
$DIMLUNIT
 70
     2
  9
$DIMLWD
 70
    -1
  9
$DIMLWE
 70
    -1
  9
$DIMTMOVE
 70
     0
  9
$DIMFXL
 40
1.0
  9
$DIMFXLON
 70
     0
  9
$DIMJOGANG
 40
0.7853981633974483
  9
$DIMTFILL
 70
     0
  9
$DIMTFILLCLR
 70
     0
  9
$DIMARCSYM
 70
     1
  9
$DIMLTYPE
  6

  9
$DIMLTEX1
  6

  9
$DIMLTEX2
  6

  9
$DIMTXTDIRECTION
 70
     0
  9
$LUNITS
 70
     2
  9
$LUPREC
 70
     4
  9
$SKETCHINC
 40
0.0
  9
$FILLETRAD
 40
0.0
  9
$AUNITS
 70
     0
  9
$AUPREC
 70
     0
  9
$MENU
  1
.
  9
$ELEVATION
 40
0.0
  9
$PELEVATION
 40
0.0
  9
$THICKNESS
 40
0.0
  9
$LIMCHECK
 70
     0
  9
$CHAMFERA
 40
0.75
  9
$CHAMFERB
 40
0.75
  9
$CHAMFERC
 40
0.0
  9
$CHAMFERD
 40
0.0087266462599716
  9
$SKPOLY
 70
     0
  9
$TDCREATE
 40
2455072.745932974
  9
$TDUCREATE
 40
2455072.370932974
  9
$TDUPDATE
 40
2461055.503545440
  9
$TDUUPDATE
 40
2461055.128545440
  9
$TDINDWG
 40
133.0022615162
  9
$TDUSRTIMER
 40
133.0022613310
  9
$USRTIMER
 70
     1
  9
$ANGBASE
 50
0.0
  9
$ANGDIR
 70
     0
  9
$PDMODE
 70
     0
  9
$PDSIZE
 40
0.0
  9
$PLINEWID
 40
0.0
  9
$SPLFRAME
 70
     0
  9
$SPLINETYPE
 70
     6
  9
$SPLINESEGS
 70
     8
  9
$HANDSEED
  5
282D6
  9
$SURFTAB1
 70
     6
  9
$SURFTAB2
 70
     6
  9
$SURFTYPE
 70
     6
  9
$SURFU
 70
     6
  9
$SURFV
 70
     6
  9
$UCSBASE
  2

  9
$UCSNAME
  2

  9
$UCSORG
 10
0.0
 20
0.0
 30
0.0
  9
$UCSXDIR
 10
1.0
 20
0.0
 30
0.0
  9
$UCSYDIR
 10
0.0
 20
1.0
 30
0.0
  9
$UCSORTHOREF
  2

  9
$UCSORTHOVIEW
 70
     0
  9
$UCSORGTOP
 10
0.0
 20
0.0
 30
0.0
  9
$UCSORGBOTTOM
 10
0.0
 20
0.0
 30
0.0
  9
$UCSORGLEFT
 10
0.0
 20
0.0
 30
0.0
  9
$UCSORGRIGHT
 10
0.0
 20
0.0
 30
0.0
  9
$UCSORGFRONT
 10
0.0
 20
0.0
 30
0.0
  9
$UCSORGBACK
 10
0.0
 20
0.0
 30
0.0
  9
$PUCSBASE
  2

  9
$PUCSNAME
  2

  9
$PUCSORG
 10
0.0
 20
0.0
 30
0.0
  9
$PUCSXDIR
 10
1.0
 20
0.0
 30
0.0
  9
$PUCSYDIR
 10
0.0
 20
1.0
 30
0.0
  9
$PUCSORTHOREF
  2

  9
$PUCSORTHOVIEW
 70
     0
  9
$PUCSORGTOP
 10
0.0
 20
0.0
 30
0.0
  9
$PUCSORGBOTTOM
 10
0.0
 20
0.0
 30
0.0
  9
$PUCSORGLEFT
 10
0.0
 20
0.0
 30
0.0
  9
$PUCSORGRIGHT
 10
0.0
 20
0.0
 30
0.0
  9
$PUCSORGFRONT
 10
0.0
 20
0.0
 30
0.0
  9
$PUCSORGBACK
 10
0.0
 20
0.0
 30
0.0
  9
$USERI1
 70
     0
  9
$USERI2
 70
     0
  9
$USERI3
 70
     0
  9
$USERI4
 70
     0
  9
$USERI5
 70
     0
  9
$USERR1
 40
0.0
  9
$USERR2
 40
0.0
  9
$USERR3
 40
0.0
  9
$USERR4
 40
0.0
  9
$USERR5
 40
0.0
  9
$WORLDVIEW
 70
     1
  9
$SHADEDGE
 70
     3
  9
$SHADEDIF
 70
    70
  9
$TILEMODE
 70
     1
  9
$MAXACTVP
 70
    64
  9
$PINSBASE
 10
0.0
 20
0.0
 30
0.0
  9
$PLIMCHECK
 70
     0
  9
$PEXTMIN
 10
1.000000000000000E+20
 20
1.000000000000000E+20
 30
1.000000000000000E+20
  9
$PEXTMAX
 10
-1.000000000000000E+20
 20
-1.000000000000000E+20
 30
-1.000000000000000E+20
  9
$PLIMMIN
 10
-20.0
 20
-7.5
  9
$PLIMMAX
 10
277.0
 20
202.5
  9
$UNITMODE
 70
     0
  9
$VISRETAIN
 70
     1
  9
$PLINEGEN
 70
     0
  9
$PSLTSCALE
 70
     1
  9
$TREEDEPTH
 70
  3020
  9
$CMLSTYLE
  2
Standard
  9
$CMLJUST
 70
     0
  9
$CMLSCALE
 40
20.0
  9
$PROXYGRAPHICS
 70
     1
  9
$MEASUREMENT
 70
     1
  9
$CELWEIGHT
370
    -1
  9
$ENDCAPS
280
     0
  9
$JOINSTYLE
280
     0
  9
$LWDISPLAY
290
     0
  9
$INSUNITS
 70
     4
  9
$HYPERLINKBASE
  1

  9
$STYLESHEET
  1
ksm0910.ctb
  9
$XEDIT
290
     1
  9
$CEPSNTYPE
380
     0
  9
$PSTYLEMODE
290
     1
  9
$FINGERPRINTGUID
  2
{D2C70C36-9B4F-4E20-9CCB-531AA1EE4AC8}
  9
$VERSIONGUID
  2
{84F18951-173B-4F31-8446-B735BCD2F782}
  9
$EXTNAMES
290
     1
  9
$PSVPSCALE
 40
0.0
  9
$OLESTARTUP
290
     0
  9
$SORTENTS
280
   127
  9
$INDEXCTL
280
     0
  9
$HIDETEXT
280
     1
  9
$XCLIPFRAME
280
     2
  9
$HALOGAP
280
     0
  9
$OBSCOLOR
 70
   257
  9
$OBSLTYPE
280
     0
  9
$INTERSECTIONDISPLAY
280
     0
  9
$INTERSECTIONCOLOR
 70
   257
  9
$DIMASSOC
280
     1
  9
$PROJECTNAME
  1

  9
$CAMERADISPLAY
290
     0
  9
$LENSLENGTH
 40
50.0
  9
$CAMERAHEIGHT
 40
0.0
  9
$STEPSPERSEC
 40
2.0
  9
$STEPSIZE
 40
6.0
  9
$3DDWFPREC
 40
2.0
  9
$PSOLWIDTH
 40
5.0
  9
$PSOLHEIGHT
 40
80.0
  9
$LOFTANG1
 40
1.570796326794896
  9
$LOFTANG2
 40
1.570796326794896
  9
$LOFTMAG1
 40
0.0
  9
$LOFTMAG2
 40
0.0
  9
$LOFTPARAM
 70
     7
  9
$LOFTNORMALS
280
     1
  9
$LATITUDE
 40
37.795
  9
$LONGITUDE
 40
-122.394
  9
$NORTHDIRECTION
 40
0.0
  9
$TIMEZONE
 70
 -8000
  9
$LIGHTGLYPHDISPLAY
280
     1
  9
$TILEMODELIGHTSYNCH
280
     1
  9
$CMATERIAL
347
3D
  9
$SOLIDHIST
280
     1
  9
$SHOWHIST
280
     1
  9
$DWFFRAME
280
     2
  9
$DGNFRAME
280
     0
  9
$REALWORLDSCALE
290
     1
  9
$INTERFERECOLOR
 62
     1
  9
$INTERFEREOBJVS
345
46
  9
$INTERFEREVPVS
346
47
  9
$CSHADOW
280
     0
  9
$SHADOWPLANELOCATION
 40
0.0
  0
ENDSEC
  0
SECTION
  2
CLASSES
  0
CLASS
  1
ACDBDICTIONARYWDFLT
  2
AcDbDictionaryWithDefault
  3
ObjectDBX Classes
 90
        0
 91
        1
280
     0
281
     0
  0
CLASS
  1
DICTIONARYVAR
  2
AcDbDictionaryVar
  3
ObjectDBX Classes
 90
        0
 91
       18
280
     0
281
     0
  0
CLASS
  1
TABLESTYLE
  2
AcDbTableStyle
  3
ObjectDBX Classes
 90
     4095
 91
        1
280
     0
281
     0
  0
CLASS
  1
MATERIAL
  2
AcDbMaterial
  3
ObjectDBX Classes
 90
     1153
 91
        3
280
     0
281
     0
  0
CLASS
  1
VISUALSTYLE
  2
AcDbVisualStyle
  3
ObjectDBX Classes
 90
     4095
 91
       26
280
     0
281
     0
  0
CLASS
  1
SCALE
  2
AcDbScale
  3
ObjectDBX Classes
 90
     1153
 91
       33
280
     0
281
     0
  0
CLASS
  1
MLEADERSTYLE
  2
AcDbMLeaderStyle
  3
ACDB_MLEADERSTYLE_CLASS
 90
     4095
 91
        1
280
     0
281
     0
  0
CLASS
  1
CELLSTYLEMAP
  2
AcDbCellStyleMap
  3
ObjectDBX Classes
 90
     1152
 91
        2
280
     0
281
     0
  0
CLASS
  1
SORTENTSTABLE
  2
AcDbSortentsTable
  3
ObjectDBX Classes
 90
        0
 91
        1
280
     0
281
     0
  0
CLASS
  1
DIMASSOC
  2
AcDbDimAssoc
  3
"AcDbDimAssoc|Product Desc:     AcDim ARX App For Dimension|Company:          Autodesk, Inc.|WEB Address:      www.autodesk.com"
 90
        0
 91
        0
280
     0
281
     0
  0
CLASS
  1
SOLID_BACKGROUND
  2
AcDbSolidBackground
  3
SCENEOE
 90
     4095
 91
        0
280
     0
281
     0
  0
CLASS
  1
NPOCOLLECTION
  2
AcDbImpNonPersistentObjectsCollection
  3
ObjectDBX Classes
 90
     1153
 91
        0
280
     0
281
     0
  0
CLASS
  1
ACAD_EVALUATION_GRAPH
  2
AcDbEvalGraph
  3
ObjectDBX Classes
 90
     1153
 91
        0
280
     0
281
     0
  0
CLASS
  1
ACAECUSTOBJ
  2
AcAeEditorObj
  3
AcAeEditorObj
 90
     1024
 91
        0
280
     1
281
     0
  0
CLASS
  1
ACDB_DYNAMICBLOCKPURGEPREVENTER_VERSION
  2
AcDbDynamicBlockPurgePreventer
  3
ObjectDBX Classes
 90
     1153
 91
        0
280
     0
281
     0
  0
CLASS
  1
HELIX
  2
AcDbHelix
  3
ObjectDBX Classes
 90
     4095
 91
        0
280
     0
281
     1
  0
CLASS
  1
MULTILEADER
  2
AcDbMLeader
  3
ACDB_MLEADER_CLASS
 90
     1025
 91
        0
280
     0
281
     1
  0
CLASS
  1
ACMDIMBREAKPERSREACTOR
  2
AcmDimBreakPersReactor
  3
amgDimApp().moduleName()
 90
     1023
 91
        0
280
     1
281
     0
  0
CLASS
  1
ACDB_MTEXTOBJECTCONTEXTDATA_CLASS
  2
AcDbMTextObjectContextData
  3
ObjectDBX Classes
 90
     1153
 91
        0
280
     0
281
     0
  0
CLASS
  1
BREAKDATA
  2
AcDbBreakData
  3
ObjectDBX Classes
 90
     1024
 91
        0
280
     0
281
     0
  0
CLASS
  1
EXACXREFPANELOBJECT
  2
ExAcXREFPanelObject
  3
EXAC_ESW
 90
     1025
 91
        0
280
     1
281
     0
  0
CLASS
  1
ACDBSECTIONVIEWSTYLE
  2
AcDbSectionViewStyle
  3
ObjectDBX Classes
 90
     1025
 91
        1
280
     0
281
     0
  0
CLASS
  1
ACDBDETAILVIEWSTYLE
  2
AcDbDetailViewStyle
  3
ObjectDBX Classes
 90
     1025
 91
        1
280
     0
281
     0
  0
ENDSEC
  0
SECTION
  2
TABLES
  0
TABLE
  2
VPORT
  5
2C
102
{ACAD_XDICTIONARY
360
31
102
}
330
0
100
AcDbSymbolTable
 70
     1
  0
VPORT
  5
2D
330
2C
100
AcDbSymbolTableRecord
100
AcDbViewportTableRecord
  2
*Active
 70
     0
 10
0.0
 20
0.0
 11
1.0
 21
1.0
 12
67.51435683910539
 22
47.10466796158926
 13
0.0
 23
0.0
 14
2.0
 24
2.0
 15
2.0
 25
2.0
 16
0.0
 26
0.0
 36
1.0
 17
0.0
 27
0.0
 37
0.0
 40
98.20216882160279
 41
2.176540284360189
 42
50.0
 43
0.0
 44
0.0
 50
0.0
 51
0.0
 71
     0
 72
  1000
 73
     1
 74
     3
 75
     0
 76
     0
 77
     0
 78
     1
281
     0
 65
     1
110
0.0
120
0.0
130
0.0
111
1.0
121
0.0
131
0.0
112
0.0
122
1.0
132
0.0
 79
     0
146
0.0
348
2E
 60
     3
 61
     5
292
     1
282
     1
141
0.0
142
0.0
 63
   250
421
  3355443
1001
ACAD_NAV_VCDISPLAY
1070
     3
  0
ENDTAB
  0
TABLE
  2
LTYPE
  5
27
330
0
100
AcDbSymbolTable
 70
     3
  0
LTYPE
  5
28
330
27
100
AcDbSymbolTableRecord
100
AcDbLinetypeTableRecord
  2
ByBlock
 70
     0
  3

 72
    65
 73
     0
 40
0.0
  0
LTYPE
  5
29
330
27
100
AcDbSymbolTableRecord
100
AcDbLinetypeTableRecord
  2
ByLayer
 70
     0
  3

 72
    65
 73
     0
 40
0.0
  0
LTYPE
  5
14
330
27
100
AcDbSymbolTableRecord
100
AcDbLinetypeTableRecord
  2
Continuous
 70
     0
  3
Solid line
 72
    65
 73
     0
 40
0.0
  0
LTYPE
  5
4DD
330
27
100
AcDbSymbolTableRecord
100
AcDbLinetypeTableRecord
  2
CENTER
 70
     0
  3
____ _ ____ _ ____ _ ____ _ ____ _ ____ _ ____ 
 72
    65
 73
     4
 40
2.0
 49
1.25
 74
     0
 49
-0.25
 74
     0
 49
0.25
 74
     0
 49
-0.25
 74
     0
  0
LTYPE
  5
6C
330
27
100
AcDbSymbolTableRecord
100
AcDbLinetypeTableRecord
  2
CENTER2
 70
     0
  3
Center (.5x) ___ _ ___ _ ___ _ ___ _ ___ _ ___
 72
    65
 73
     4
 40
1.125
 49
0.75
 74
     0
 49
-0.125
 74
     0
 49
0.125
 74
     0
 49
-0.125
 74
     0
  0
ENDTAB
  0
TABLE
  2
LAYER
  5
21
102
{ACAD_XDICTIONARY
360
22
102
}
330
0
100
AcDbSymbolTable
 70
     4
  0
LAYER
  5
6
102
{ACAD_XDICTIONARY
360
7
102
}
330
21
100
AcDbSymbolTableRecord
100
AcDbLayerTableRecord
  2
0
 70
     0
 62
     7
  6
Continuous
370
    -3
390
9
347
C
348
0
  0
LAYER
  5
1A4
330
21
100
AcDbSymbolTableRecord
100
AcDbLayerTableRecord
  2
DEFPOINTS
 70
     0
 62
     7
  6
Continuous
290
     0
370
    -3
390
9
347
C
348
0
  0
LAYER
  5
1D6CC
330
21
100
AcDbSymbolTableRecord
100
AcDbLayerTableRecord
  2
3
 70
     0
 62
     3
  6
CENTER
370
    -3
390
9
347
C
348
0
  0
LAYER
  5
27781
330
21
100
AcDbSymbolTableRecord
100
AcDbLayerTableRecord
  2
Layer 1
 70
     0
 62
     7
  6
Continuous
370
     0
390
9
347
C
348
0
  0
ENDTAB
  0
TABLE
  2
STYLE
  5
24
330
0
100
AcDbSymbolTable
 70
     4
  0
STYLE
  5
25
330
24
100
AcDbSymbolTableRecord
100
AcDbTextStyleTableRecord
  2
Standard
 70
     0
 40
3.0
 41
1.0
 50
0.0
 71
     0
 42
3.0
  3
isocp.shx
  4
whgtxt.shx
  0
STYLE
  5
35
330
24
100
AcDbSymbolTableRecord
100
AcDbTextStyleTableRecord
  2
ROMANS
 70
     0
 40
2.5
 41
1.0
 50
0.0
 71
     0
 42
2.5
  3
romans.shx
  4

  0
STYLE
  5
5C
330
24
100
AcDbSymbolTableRecord
100
AcDbTextStyleTableRecord
  2
굴림
 70
     0
 40
3.0
 41
1.0
 50
0.0
 71
     0
 42
3.0
  3

  4

1001
ACAD
1000
Gulim
1071
    33074
  0
ENDTAB
  0
TABLE
  2
VIEW
  5
2A
330
0
100
AcDbSymbolTable
 70
     0
  0
ENDTAB
  0
TABLE
  2
UCS
  5
2B
330
0
100
AcDbSymbolTable
 70
     0
  0
ENDTAB
  0
TABLE
  2
APPID
  5
32
330
0
100
AcDbSymbolTable
 70
    44
  0
APPID
  5
13
330
32
100
AcDbSymbolTableRecord
100
AcDbRegAppTableRecord
  2
ACAD
 70
     0
  0
APPID
  5
1A
330
32
100
AcDbSymbolTableRecord
100
AcDbRegAppTableRecord
  2
ACAD_PSEXT
 70
     0
  0
APPID
  5
37
330
32
100
AcDbSymbolTableRecord
100
AcDbRegAppTableRecord
  2
ACAD_DSTYLE_DIMJAG
 70
     0
  0
APPID
  5
38
330
32
100
AcDbSymbolTableRecord
100
AcDbRegAppTableRecord
  2
ACAD_DSTYLE_DIMTALN
 70
     0
  0
APPID
  5
36
330
32
100
AcDbSymbolTableRecord
100
AcDbRegAppTableRecord
  2
ACAD_DSTYLE_DIMJOGGED_JOGANGLE_SYMBOL
 70
     0
  0
APPID
  5
183
330
32
100
AcDbSymbolTableRecord
100
AcDbRegAppTableRecord
  2
AcAecLayerStandard
 70
     0
  0
APPID
  5
3DE
330
32
100
AcDbSymbolTableRecord
100
AcDbRegAppTableRecord
  2
ACAD_DSTYLE_DIMRADIAL_EXTENSION
 70
     0
  0
APPID
  5
530
330
32
100
AcDbSymbolTableRecord
100
AcDbRegAppTableRecord
  2
GRADIENTCOLOR1ACI
 70
     0
  0
APPID
  5
531
330
32
100
AcDbSymbolTableRecord
100
AcDbRegAppTableRecord
  2
GRADIENTCOLOR2ACI
 70
     0
  0
APPID
  5
30
330
32
100
AcDbSymbolTableRecord
100
AcDbRegAppTableRecord
  2
ACAD_NAV_VCDISPLAY
 70
     0
  0
APPID
  5
C34
330
32
100
AcDbSymbolTableRecord
100
AcDbRegAppTableRecord
  2
ACAD_MLEADERVER
 70
     0
  0
APPID
  5
C97
330
32
100
AcDbSymbolTableRecord
100
AcDbRegAppTableRecord
  2
ACAD_EXEMPT_FROM_CAD_STANDARDS
 70
     0
  0
APPID
  5
D79
330
32
100
AcDbSymbolTableRecord
100
AcDbRegAppTableRecord
  2
AcadAnnoMonitorAlertIconDisabled
 70
     0
  0
APPID
  5
1A45
330
32
100
AcDbSymbolTableRecord
100
AcDbRegAppTableRecord
  2
GENIUS_GENODEF_13
 70
     0
  0
APPID
  5
1A46
330
32
100
AcDbSymbolTableRecord
100
AcDbRegAppTableRecord
  2
GENIUS_GENOBJ-N-FIL_13
 70
     0
  0
APPID
  5
1A47
330
32
100
AcDbSymbolTableRecord
100
AcDbRegAppTableRecord
  2
ACAD_DSTYLE_DIMBREAK
 70
     0
  0
APPID
  5
1A48
330
32
100
AcDbSymbolTableRecord
100
AcDbRegAppTableRecord
  2
GENIUS_GENOBJ-N-HTC_13
 70
     0
  0
APPID
  5
1A49
330
32
100
AcDbSymbolTableRecord
100
AcDbRegAppTableRecord
  2
GENIUS_GENHATCH_13
 70
     0
  0
APPID
  5
1A4A
330
32
100
AcDbSymbolTableRecord
100
AcDbRegAppTableRecord
  2
GENIUS_GENREC_14
 70
     0
  0
APPID
  5
1A4B
330
32
100
AcDbSymbolTableRecord
100
AcDbRegAppTableRecord
  2
GENIUS_GENOBJ-N-REC_13
 70
     0
  0
APPID
  5
1A4C
330
32
100
AcDbSymbolTableRecord
100
AcDbRegAppTableRecord
  2
ACAUTHENVIRON
 70
     0
  0
APPID
  5
1A4D
330
32
100
AcDbSymbolTableRecord
100
AcDbRegAppTableRecord
  2
AcDbDynamicBlockTrueName
 70
     0
  0
APPID
  5
1A4E
330
32
100
AcDbSymbolTableRecord
100
AcDbRegAppTableRecord
  2
AcDbDynamicBlockGUID
 70
     0
  0
APPID
  5
1A4F
330
32
100
AcDbSymbolTableRecord
100
AcDbRegAppTableRecord
  2
AcDbBlockRepETag
 70
     0
  0
APPID
  5
1A50
330
32
100
AcDbSymbolTableRecord
100
AcDbRegAppTableRecord
  2
DCO15
 70
     0
  0
APPID
  5
1A51
330
32
100
AcDbSymbolTableRecord
100
AcDbRegAppTableRecord
  2
ACAD_DSTYLE_DIMTEXT_FILL
 70
     0
  0
APPID
  5
1A52
330
32
100
AcDbSymbolTableRecord
100
AcDbRegAppTableRecord
  2
ACAD_DSTYLE_DIM_LINETYPE
 70
     0
  0
APPID
  5
1A53
330
32
100
AcDbSymbolTableRecord
100
AcDbRegAppTableRecord
  2
ACAD_DSTYLE_DIM_EXT1_LINETYPE
 70
     0
  0
APPID
  5
1A54
330
32
100
AcDbSymbolTableRecord
100
AcDbRegAppTableRecord
  2
ACAD_DSTYLE_DIM_EXT2_LINETYPE
 70
     0
  0
APPID
  5
1A55
330
32
100
AcDbSymbolTableRecord
100
AcDbRegAppTableRecord
  2
ACAD_DSTYLE_DIMINSPECT
 70
     0
  0
APPID
  5
1A56
330
32
100
AcDbSymbolTableRecord
100
AcDbRegAppTableRecord
  2
AcadAnnotative
 70
     0
  0
APPID
  5
1A57
330
32
100
AcDbSymbolTableRecord
100
AcDbRegAppTableRecord
  2
GENIUS_GENDTOL_13
 70
     0
  0
APPID
  5
1A58
330
32
100
AcDbSymbolTableRecord
100
AcDbRegAppTableRecord
  2
GENIUS_GENFIL_13
 70
     0
  0
APPID
  5
1A59
330
32
100
AcDbSymbolTableRecord
100
AcDbRegAppTableRecord
  2
GENIUS_GENOBJ-N-CHA_13
 70
     0
  0
APPID
  5
1A5A
330
32
100
AcDbSymbolTableRecord
100
AcDbRegAppTableRecord
  2
AcadAnnotativeDecomposition
 70
     0
  0
APPID
  5
1A5B
330
32
100
AcDbSymbolTableRecord
100
AcDbRegAppTableRecord
  2
MCAD_NO_VIS
 70
     0
  0
APPID
  5
1A5C
330
32
100
AcDbSymbolTableRecord
100
AcDbRegAppTableRecord
  2
ACAD_TEMP_GRAPHIC
 70
     0
  0
APPID
  5
1A5D
330
32
100
AcDbSymbolTableRecord
100
AcDbRegAppTableRecord
  2
ACATTRIBSERVICES
 70
     0
  0
APPID
  5
1A5E
330
32
100
AcDbSymbolTableRecord
100
AcDbRegAppTableRecord
  2
DESIGNERASSEMBLIES
 70
     0
  0
APPID
  5
1A5F
330
32
100
AcDbSymbolTableRecord
100
AcDbRegAppTableRecord
  2
GENIUS_GENDIMSH_14
 70
     0
  0
APPID
  5
1A60
330
32
100
AcDbSymbolTableRecord
100
AcDbRegAppTableRecord
  2
ACAD_DSTYLE_DIMARC_LENGTH_SYMBOL
 70
     0
  0
APPID
  5
1A61
330
32
100
AcDbSymbolTableRecord
100
AcDbRegAppTableRecord
  2
ACAD_SPLINE_DATA
 70
     0
  0
APPID
  5
1A62
330
32
100
AcDbSymbolTableRecord
100
AcDbRegAppTableRecord
  2
GENIUS_GENOREF_13
 70
     0
  0
APPID
  5
1A63
330
32
100
AcDbSymbolTableRecord
100
AcDbRegAppTableRecord
  2
ACAD_DSTYLE_DIMANGULAR_EXTENSION
 70
     0
  0
ENDTAB
  0
TABLE
  2
DIMSTYLE
  5
33
330
0
100
AcDbSymbolTable
 70
     3
100
AcDbDimStyleTable
 71
     1
340
34
  0
DIMSTYLE
105
34
330
33
100
AcDbSymbolTableRecord
100
AcDbDimStyleTableRecord
  2
Standard
 70
     0
 41
2.5
 73
     0
 77
     3
 78
     8
140
2.5
141
-1.0
147
1.0
175
     1
176
     3
177
     3
178
     2
179
     8
271
     8
272
     8
275
     1
340
35
1001
ACAD_DSTYLE_DIMJOGGED_JOGANGLE_SYMBOL
1070
   384
1040
0.7853981633974483
1001
ACAD_DSTYLE_DIMJAG
1070
   388
1040
1.5
1001
ACAD_DSTYLE_DIMTALN
1070
   392
1070
     0
  0
DIMSTYLE
105
1A8
102
{ACAD_REACTORS
330
280A1
330
280A4
330
280C3
330
281FD
102
}
330
33
100
AcDbSymbolTableRecord
100
AcDbDimStyleTableRecord
  2
Standard$0
 70
     0
 41
2.5
 73
     0
 77
     3
 78
     8
140
2.5
141
-1.0
147
1.0
175
     1
176
     3
177
     3
178
     2
179
     8
271
     8
272
     8
275
     1
340
35
  0
ENDTAB
  0
TABLE
  2
BLOCK_RECORD
  5
1
330
0
100
AcDbSymbolTable
 70
     5
  0
BLOCK_RECORD
  5
2
102
{ACAD_XDICTIONARY
360
3
102
}
330
1
100
AcDbSymbolTableRecord
100
AcDbBlockTableRecord
  2
*Model_Space
340
16
 70
     0
280
     1
281
     0
  0
BLOCK_RECORD
  5
1B
330
1
100
AcDbSymbolTableRecord
100
AcDbBlockTableRecord
  2
*Paper_Space
340
1E
 70
     0
280
     1
281
     0
  0
BLOCK_RECORD
  5
280CC
330
1
100
AcDbSymbolTableRecord
100
AcDbBlockTableRecord
  2
*D0
340
0
 70
     0
280
     1
281
     0
  0
BLOCK_RECORD
  5
280EC
330
1
100
AcDbSymbolTableRecord
100
AcDbBlockTableRecord
  2
*D1
340
0
 70
     0
280
     1
281
     0
  0
BLOCK_RECORD
  5
280F6
330
1
100
AcDbSymbolTableRecord
100
AcDbBlockTableRecord
  2
*D2
340
0
 70
     0
280
     1
281
     0
  0
BLOCK_RECORD
  5
281FE
330
1
100
AcDbSymbolTableRecord
100
AcDbBlockTableRecord
  2
*D3
340
0
 70
     0
280
     1
281
     0
  0
ENDTAB
  0
ENDSEC
  0
SECTION
  2
BLOCKS
  0
BLOCK
  5
5
330
2
100
AcDbEntity
  8
0
100
AcDbBlockBegin
  2
*Model_Space
 70
     0
 10
0.0
 20
0.0
 30
0.0
  3
*Model_Space
  1

  0
ENDBLK
  5
15
330
2
100
AcDbEntity
  8
0
100
AcDbBlockEnd
  0
BLOCK
  5
1C
330
1B
100
AcDbEntity
 67
     1
  8
0
100
AcDbBlockBegin
  2
*Paper_Space
 70
     0
 10
0.0
 20
0.0
 30
0.0
  3
*Paper_Space
  1

  0
ENDBLK
  5
1D
330
1B
100
AcDbEntity
 67
     1
  8
0
100
AcDbBlockEnd
  0
BLOCK
  5
280CD
330
280CC
100
AcDbEntity
  8
0
 62
     7
100
AcDbBlockBegin
  2
*D0
 70
     1
 10
0.0
 20
0.0
 30
0.0
  3
*D0
  1

  0
LINE
  5
28245
330
280CC
100
AcDbEntity
  8
0
  6
Continuous
 62
     3
440
 16777216
100
AcDbLine
 10
97.94785965685981
 20
61.51945232205711
 30
0.0
 11
117.862191561947
 21
61.5194523220571
 31
0.0
  0
LINE
  5
28246
330
280CC
100
AcDbEntity
  8
0
  6
Continuous
 62
     3
440
 16777216
100
AcDbLine
 10
116.612191561947
 20
59.0194523220571
 30
0.0
 11
116.612191561947
 21
46.39545232205438
 31
0.0
  0
SOLID
  5
28247
330
280CC
100
AcDbEntity
  8
0
  6
Continuous
 62
     3
440
 16777216
100
AcDbTrace
 10
116.1955248952803
 20
59.0194523220571
 30
0.0
 11
117.0288582286137
 21
59.0194523220571
 31
0.0
 12
116.612191561947
 22
61.5194523220571
 32
0.0
 13
116.612191561947
 23
61.5194523220571
 33
0.0
  0
MTEXT
  5
28248
330
280CC
100
AcDbEntity
  8
0
  6
Continuous
 62
     2
440
 16777216
100
AcDbMText
 10
114.487191561947
 20
50.47045232205441
 30
0.0
 40
3.0
 41
0.0
 46
0.0
 71
     5
 72
     1
  1
%%c.87
 11
0.0000000000000001
 21
1.0
 31
0.0
 73
     1
 44
1.0
  0
POINT
  5
28249
330
280CC
100
AcDbEntity
  8
DEFPOINTS
  6
Continuous
 62
     0
440
 16777216
100
AcDbPoint
 10
97.32285965685981
 20
61.51945232205711
 30
0.0
  0
POINT
  5
2824A
330
280CC
100
AcDbEntity
  8
DEFPOINTS
  6
Continuous
 62
     0
440
 16777216
100
AcDbPoint
 10
97.32285965686163
 20
39.42145232205169
 30
0.0
  0
POINT
  5
2824B
330
280CC
100
AcDbEntity
  8
DEFPOINTS
  6
Continuous
 62
     0
440
 16777216
100
AcDbPoint
 10
116.612191561947
 20
39.42145232205169
 30
0.0
  0
ENDBLK
  5
280CE
330
280CC
100
AcDbEntity
  8
0
 62
     7
100
AcDbBlockEnd
  0
BLOCK
  5
280ED
330
280EC
100
AcDbEntity
  8
0
 62
     7
100
AcDbBlockBegin
  2
*D1
 70
     1
 10
0.0
 20
0.0
 30
0.0
  3
*D1
  1

  0
LINE
  5
2824C
330
280EC
100
AcDbEntity
  8
0
  6
Continuous
 62
     3
440
 16777216
100
AcDbLine
 10
97.44785965686162
 20
56.82045232209842
 30
0.0
 11
109.862191561947
 21
56.82045232209842
 31
0.0
  0
LINE
  5
2824D
330
280EC
100
AcDbEntity
  8
0
  6
Continuous
 62
     3
440
 16777216
100
AcDbLine
 10
108.612191561947
 20
54.32045232209842
 30
0.0
 11
108.612191561947
 21
45.34427121973584
 31
0.0
  0
SOLID
  5
2824E
330
280EC
100
AcDbEntity
  8
0
  6
Continuous
 62
     3
440
 16777216
100
AcDbTrace
 10
108.1955248952803
 20
54.32045232209842
 30
0.0
 11
109.0288582286137
 21
54.32045232209842
 31
0.0
 12
108.612191561947
 22
56.82045232209842
 32
0.0
 13
108.612191561947
 23
56.82045232209842
 33
0.0
  0
MTEXT
  5
2824F
330
280EC
100
AcDbEntity
  8
0
  6
Continuous
 62
     2
440
 16777216
100
AcDbMText
 10
106.487191561947
 20
50.47045232209807
 30
0.0
 40
3.0
 41
0.0
 46
0.0
 71
     5
 72
     1
  1
%%c.500
 11
0.0000000000000001
 21
1.0
 31
0.0
 73
     1
 44
1.0
  0
POINT
  5
28250
330
280EC
100
AcDbEntity
  8
DEFPOINTS
  6
Continuous
 62
     0
440
 16777216
100
AcDbPoint
 10
96.82285965686162
 20
56.82045232209842
 30
0.0
  0
POINT
  5
28251
330
280EC
100
AcDbEntity
  8
DEFPOINTS
  6
Continuous
 62
     0
440
 16777216
100
AcDbPoint
 10
96.82285965686162
 20
44.12045232209769
 30
0.0
  0
POINT
  5
28252
330
280EC
100
AcDbEntity
  8
DEFPOINTS
  6
Continuous
 62
     0
440
 16777216
100
AcDbPoint
 10
108.612191561947
 20
44.12045232209769
 30
0.0
  0
ENDBLK
  5
280EE
330
280EC
100
AcDbEntity
  8
0
 62
     7
100
AcDbBlockEnd
  0
BLOCK
  5
280F7
330
280F6
100
AcDbEntity
  8
0
 62
     7
100
AcDbBlockBegin
  2
*D2
 70
     1
 10
0.0
 20
0.0
 30
0.0
  3
*D2
  1

  0
LINE
  5
28253
330
280F6
100
AcDbEntity
  8
0
  6
Continuous
 62
     3
440
 16777216
100
AcDbLine
 10
97.32285965685798
 20
62.14445232205711
 30
0.0
 11
97.32285965685798
 21
84.03515100835742
 31
0.0
  0
LINE
  5
28254
330
280F6
100
AcDbEntity
  8
0
  6
Continuous
 62
     3
440
 16777216
100
AcDbLine
 10
52.87285965685817
 20
57.69545232209842
 30
0.0
 11
52.87285965685817
 21
84.03515100835742
 31
0.0
  0
LINE
  5
28255
330
280F6
100
AcDbEntity
  8
0
  6
Continuous
 62
     3
440
 16777216
100
AcDbLine
 10
94.82285965685798
 20
82.78515100835742
 30
0.0
 11
55.37285965685817
 21
82.78515100835742
 31
0.0
  0
SOLID
  5
28256
330
280F6
100
AcDbEntity
  8
0
  6
Continuous
 62
     3
440
 16777216
100
AcDbTrace
 10
94.82285965685798
 20
83.20181767502409
 30
0.0
 11
94.82285965685798
 21
82.36848434169074
 31
0.0
 12
97.32285965685798
 22
82.78515100835742
 32
0.0
 13
97.32285965685798
 23
82.78515100835742
 33
0.0
  0
SOLID
  5
28257
330
280F6
100
AcDbEntity
  8
0
  6
Continuous
 62
     3
440
 16777216
100
AcDbTrace
 10
55.37285965685817
 20
83.20181767502409
 30
0.0
 11
55.37285965685817
 21
82.36848434169074
 31
0.0
 12
52.87285965685817
 22
82.78515100835742
 32
0.0
 13
52.87285965685817
 23
82.78515100835742
 33
0.0
  0
MTEXT
  5
28258
330
280F6
100
AcDbEntity
  8
0
  6
Continuous
 62
     2
440
 16777216
100
AcDbMText
 10
75.09785965685807
 20
84.91015100835742
 30
0.0
 40
3.0
 41
0.0
 46
0.0
 71
     5
 72
     1
  1
1.75
 73
     1
 44
1.0
  0
POINT
  5
28259
330
280F6
100
AcDbEntity
  8
DEFPOINTS
  6
Continuous
 62
     0
440
 16777216
100
AcDbPoint
 10
97.32285965685798
 20
61.51945232205711
 30
0.0
  0
POINT
  5
2825A
330
280F6
100
AcDbEntity
  8
DEFPOINTS
  6
Continuous
 62
     0
440
 16777216
100
AcDbPoint
 10
52.87285965685817
 20
57.07045232209842
 30
0.0
  0
POINT
  5
2825B
330
280F6
100
AcDbEntity
  8
DEFPOINTS
  6
Continuous
 62
     0
440
 16777216
100
AcDbPoint
 10
52.87285965685817
 20
82.78515100835742
 30
0.0
  0
ENDBLK
  5
280F8
330
280F6
100
AcDbEntity
  8
0
 62
     7
100
AcDbBlockEnd
  0
BLOCK
  5
281FF
330
281FE
100
AcDbEntity
  8
0
 62
     7
100
AcDbBlockBegin
  2
*D3
 70
     1
 10
0.0
 20
0.0
 30
0.0
  3
*D3
  1

  0
LINE
  5
2825C
330
281FE
100
AcDbEntity
  8
0
  6
Continuous
 62
     3
440
 16777216
100
AcDbLine
 10
63.65785965686075
 20
33.96045232205236
 30
0.0
 11
125.862191561947
 21
33.96045232205234
 31
0.0
  0
LINE
  5
2825D
330
281FE
100
AcDbEntity
  8
0
  6
Continuous
 62
     3
440
 16777216
100
AcDbLine
 10
63.65785965685711
 20
66.98045232204916
 30
0.0
 11
125.862191561947
 21
66.98045232204915
 31
0.0
  0
LINE
  5
2825E
330
281FE
100
AcDbEntity
  8
0
  6
Continuous
 62
     3
440
 16777216
100
AcDbLine
 10
124.612191561947
 20
36.46045232205234
 30
0.0
 11
124.612191561947
 21
64.48045232204915
 31
0.0
  0
SOLID
  5
2825F
330
281FE
100
AcDbEntity
  8
0
  6
Continuous
 62
     3
440
 16777216
100
AcDbTrace
 10
124.1955248952804
 20
36.46045232205234
 30
0.0
 11
125.0288582286137
 21
36.46045232205234
 31
0.0
 12
124.612191561947
 22
33.96045232205234
 32
0.0
 13
124.612191561947
 23
33.96045232205234
 33
0.0
  0
SOLID
  5
28260
330
281FE
100
AcDbEntity
  8
0
  6
Continuous
 62
     3
440
 16777216
100
AcDbTrace
 10
124.1955248952804
 20
64.48045232204915
 30
0.0
 11
125.0288582286137
 21
64.48045232204915
 31
0.0
 12
124.612191561947
 22
66.98045232204915
 32
0.0
 13
124.612191561947
 23
66.98045232204915
 33
0.0
  0
MTEXT
  5
28261
330
281FE
100
AcDbEntity
  8
0
  6
Continuous
 62
     2
440
 16777216
100
AcDbMText
 10
122.487191561947
 20
50.47045232205077
 30
0.0
 40
3.0
 41
0.0
 46
0.0
 71
     5
 72
     1
  1
%%C1.30
 11
0.0000000000000001
 21
1.0
 31
0.0
 73
     1
 44
1.0
  0
POINT
  5
28262
330
281FE
100
AcDbEntity
  8
DEFPOINTS
  6
Continuous
 62
     0
440
 16777216
100
AcDbPoint
 10
63.03285965686075
 20
33.96045232205236
 30
0.0
  0
POINT
  5
28263
330
281FE
100
AcDbEntity
  8
DEFPOINTS
  6
Continuous
 62
     0
440
 16777216
100
AcDbPoint
 10
63.03285965685711
 20
66.98045232204916
 30
0.0
  0
POINT
  5
28264
330
281FE
100
AcDbEntity
  8
DEFPOINTS
  6
Continuous
 62
     0
440
 16777216
100
AcDbPoint
 10
124.612191561947
 20
66.98045232204915
 30
0.0
  0
ENDBLK
  5
28200
330
281FE
100
AcDbEntity
  8
0
 62
     7
100
AcDbBlockEnd
  0
ENDSEC
  0
SECTION
  2
ENTITIES
  0
LINE
  5
268B5
330
2
100
AcDbEntity
  8
0
  6
Continuous
 62
     3
100
AcDbLine
 10
13.8228596568598
 20
36.03371537141132
 30
0.0
 11
13.8228596568598
 21
19.29345098138813
 31
0.0
  0
MTEXT
  5
268B6
330
2
100
AcDbEntity
  8
0
  6
Continuous
 62
     2
100
AcDbMText
 10
13.82339382600742
 20
16.84463587759231
 30
0.0
 40
3.0
 41
0.0
 46
0.0
 71
     5
 72
     1
  1
0.787
 73
     1
 44
1.0
  0
LINE
  5
268B7
330
2
100
AcDbEntity
  8
0
  6
Continuous
 62
     3
100
AcDbLine
 10
33.8228596568589
 20
30.59275248506541
 30
0.0
 11
33.8228596568589
 21
19.29345098138813
 31
0.0
  0
MTEXT
  5
268B8
330
2
100
AcDbEntity
  8
0
  6
Continuous
 62
     2
100
AcDbMText
 10
33.8233938260056
 20
16.84463587759231
 30
0.0
 40
3.0
 41
6.304724409448817
 46
0.0
 71
     5
 72
     1
  1
0.000
 73
     1
 44
1.0
  0
LINE
  5
268B9
330
2
100
AcDbEntity
  8
0
  6
Continuous
 62
     3
100
AcDbLine
 10
53.8228596568598
 20
30.52457575392921
 30
0.0
 11
53.8228596568598
 21
19.32620960197485
 31
0.0
  0
MTEXT
  5
268BA
330
2
100
AcDbEntity
  8
0
  6
Continuous
 62
     2
100
AcDbMText
 10
53.52904572371255
 20
16.84463587759413
 30
0.0
 40
3.0
 41
0.0
 46
0.0
 71
     5
 72
     1
  1
0.787
 73
     1
 44
1.0
  0
LINE
  5
268BB
330
2
100
AcDbEntity
  8
0
  6
Continuous
 62
     3
100
AcDbLine
 10
97.32285965686163
 20
39.16200066526011
 30
0.0
 11
97.32285965686253
 21
19.2775728564425
 31
0.0
  0
MTEXT
  5
268BC
330
2
100
AcDbEntity
  8
0
  6
Continuous
 62
     2
100
AcDbMText
 10
97.30065425840633
 20
16.84463587759231
 30
0.0
 40
3.0
 41
5.7
 46
0.0
 71
     5
 72
     1
  1
2.50
 73
     1
 44
1.0
  0
LWPOLYLINE
  5
27892
330
2
100
AcDbEntity
  8
0
 62
     0
100
AcDbPolyline
 90
        4
 70
     1
 43
0.0
 10
0.0
 20
0.0
 10
0.0
 20
94.21113993087624
 10
135.0048
 20
94.21113993087624
 10
135.0048
 20
0.0
  0
LINE
  5
27893
330
2
100
AcDbEntity
  8
0
  6
Continuous
 62
     7
100
AcDbLine
 10
101.2535999999999
 20
-1.646399999999992
 30
0.0
 11
101.2535999999999
 21
0.0
 31
0.0
  0
LINE
  5
27894
330
2
100
AcDbEntity
  8
0
  6
Continuous
 62
     7
100
AcDbLine
 10
99.60720000000003
 20
0.0
 30
0.0
 11
99.60720000000003
 21
13.24844155277945
 31
0.0
  0
LINE
  5
27895
330
2
100
AcDbEntity
  8
0
  6
Continuous
 62
     7
100
AcDbLine
 10
33.75120000000001
 20
-1.646399999999992
 30
0.0
 11
33.75120000000001
 21
0.0
 31
0.0
  0
LINE
  5
27896
330
2
100
AcDbEntity
  8
0
  6
Continuous
 62
     7
100
AcDbLine
 10
101.2535999999999
 20
95.85753993087624
 30
0.0
 11
101.2535999999999
 21
94.21113993087624
 31
0.0
  0
LINE
  5
27897
330
2
100
AcDbEntity
  8
0
  6
Continuous
 62
     7
100
AcDbLine
 10
33.75120000000001
 20
95.85753993087624
 30
0.0
 11
33.75120000000001
 21
94.21113993087624
 31
0.0
  0
LINE
  5
27898
330
2
100
AcDbEntity
  8
0
  6
Continuous
 62
     7
100
AcDbLine
 10
-1.646399999999982
 20
23.55278498271905
 30
0.0
 11
0.0
 21
23.55278498271905
 31
0.0
  0
LINE
  5
27899
330
2
100
AcDbEntity
  8
0
  6
Continuous
 62
     7
100
AcDbLine
 10
-1.646399999999982
 20
70.65835494815719
 30
0.0
 11
0.0
 21
70.65835494815719
 31
0.0
  0
LINE
  5
2789A
330
2
100
AcDbEntity
  8
0
  6
Continuous
 62
     7
100
AcDbLine
 10
136.6511999999999
 20
23.55278498271905
 30
0.0
 11
135.0048
 21
23.55278498271905
 31
0.0
  0
LINE
  5
2789B
330
2
100
AcDbEntity
  8
0
  6
Continuous
 62
     7
100
AcDbLine
 10
136.6511999999999
 20
70.65835494815719
 30
0.0
 11
135.0048
 21
70.65835494815719
 31
0.0
  0
LINE
  5
2789C
330
2
100
AcDbEntity
  8
0
  6
Continuous
 62
     7
100
AcDbLine
 10
135.0048
 20
13.24844155277945
 30
0.0
 11
99.60719999999994
 21
13.24844155277945
 31
0.0
  0
LINE
  5
2789D
330
2
100
AcDbEntity
  8
0
  6
Continuous
 62
     7
100
AcDbLine
 10
99.60720000000003
 20
4.416147184259843
 30
0.0
 11
135.0048
 21
4.416147184259843
 31
0.0
  0
LINE
  5
2789E
330
2
100
AcDbEntity
  8
0
  6
Continuous
 62
     7
100
AcDbLine
 10
99.60720000000003
 20
8.832294368519649
 30
0.0
 11
135.0048
 21
8.832294368519649
 31
0.0
  0
LINE
  5
2789F
330
2
100
AcDbEntity
  8
0
  6
Continuous
 62
     7
100
AcDbLine
 10
99.60720000000003
 20
0.0
 30
0.0
 11
135.0048
 21
0.0
 31
0.0
  0
LINE
  5
278A0
330
2
100
AcDbEntity
  8
0
  6
Continuous
 62
     7
100
AcDbLine
 10
135.0048
 20
47.1055699654381
 30
0.0
 11
136.6511999999999
 21
47.1055699654381
 31
0.0
  0
LINE
  5
278A1
330
2
100
AcDbEntity
  8
0
  6
Continuous
 62
     7
100
AcDbLine
 10
135.8279999999999
 20
46.54579396543812
 30
0.0
 11
135.8279999999999
 21
47.66534596543812
 31
0.0
  0
LINE
  5
278A2
330
2
100
AcDbEntity
  8
0
  6
Continuous
 62
     7
100
AcDbLine
 10
135.8279999999999
 20
46.54579396543812
 30
0.0
 11
135.0048
 21
47.1055699654381
 31
0.0
  0
LINE
  5
278A3
330
2
100
AcDbEntity
  8
0
  6
Continuous
 62
     7
100
AcDbLine
 10
135.0048
 20
47.1055699654381
 30
0.0
 11
135.8279999999999
 21
47.66534596543812
 31
0.0
  0
LINE
  5
278A4
330
2
100
AcDbEntity
  8
0
  6
Continuous
 62
     7
100
AcDbLine
 10
0.0
 20
47.1055699654381
 30
0.0
 11
-1.646399999999982
 21
47.1055699654381
 31
0.0
  0
LINE
  5
278A5
330
2
100
AcDbEntity
  8
0
  6
Continuous
 62
     7
100
AcDbLine
 10
-0.8232000000000311
 20
46.54579396543812
 30
0.0
 11
-0.8232000000000311
 21
47.66534596543812
 31
0.0
  0
LINE
  5
278A6
330
2
100
AcDbEntity
  8
0
  6
Continuous
 62
     7
100
AcDbLine
 10
-0.8232000000000311
 20
46.54579396543812
 30
0.0
 11
0.0
 21
47.1055699654381
 31
0.0
  0
LINE
  5
278A7
330
2
100
AcDbEntity
  8
0
  6
Continuous
 62
     7
100
AcDbLine
 10
0.0
 20
47.1055699654381
 30
0.0
 11
-0.8232000000000311
 21
47.66534596543812
 31
0.0
  0
LINE
  5
278A8
330
2
100
AcDbEntity
  8
0
  6
Continuous
 62
     7
100
AcDbLine
 10
67.50240000000001
 20
94.21113993087624
 30
0.0
 11
67.50240000000001
 21
95.85753993087624
 31
0.0
  0
LINE
  5
278A9
330
2
100
AcDbEntity
  8
0
  6
Continuous
 62
     7
100
AcDbLine
 10
66.94262399999995
 20
95.03433993087623
 30
0.0
 11
68.06217599999998
 21
95.03433993087623
 31
0.0
  0
LINE
  5
278AA
330
2
100
AcDbEntity
  8
0
  6
Continuous
 62
     7
100
AcDbLine
 10
66.94262399999995
 20
95.03433993087623
 30
0.0
 11
67.50240000000001
 21
94.21113993087624
 31
0.0
  0
LINE
  5
278AB
330
2
100
AcDbEntity
  8
0
  6
Continuous
 62
     7
100
AcDbLine
 10
67.50240000000001
 20
94.21113993087624
 30
0.0
 11
68.06217599999998
 21
95.03433993087623
 31
0.0
  0
LINE
  5
278AC
330
2
100
AcDbEntity
  8
0
  6
Continuous
 62
     7
100
AcDbLine
 10
67.50240000000001
 20
0.0
 30
0.0
 11
67.50240000000001
 21
-1.646399999999992
 31
0.0
  0
LINE
  5
278AD
330
2
100
AcDbEntity
  8
0
  6
Continuous
 62
     7
100
AcDbLine
 10
66.94262399999995
 20
-0.8232000000000162
 30
0.0
 11
68.06217599999998
 21
-0.8232000000000162
 31
0.0
  0
LINE
  5
278AE
330
2
100
AcDbEntity
  8
0
  6
Continuous
 62
     7
100
AcDbLine
 10
66.94262399999995
 20
-0.8232000000000162
 30
0.0
 11
67.50240000000001
 21
0.0
 31
0.0
  0
LINE
  5
278AF
330
2
100
AcDbEntity
  8
0
  6
Continuous
 62
     7
100
AcDbLine
 10
67.50240000000001
 20
0.0
 30
0.0
 11
68.06217599999998
 21
-0.8232000000000162
 31
0.0
  0
TEXT
  5
278B0
330
2
100
AcDbEntity
  8
0
 62
     2
100
AcDbText
 10
16.53082945146193
 20
-1.333976200847816
 30
0.0
 40
0.9219839999999999
  1
4
  7
굴림
100
AcDbText
  0
TEXT
  5
278B1
330
2
100
AcDbEntity
  8
0
 62
     2
100
AcDbText
 10
50.31332128776035
 20
-1.333976200847816
 30
0.0
 40
0.9219839999999999
  1
3
  7
굴림
100
AcDbText
  0
TEXT
  5
278B2
330
2
100
AcDbEntity
  8
0
 62
     2
100
AcDbText
 10
84.02086279951639
 20
-1.333976200847816
 30
0.0
 40
0.9219839999999999
  1
2
  7
굴림
100
AcDbText
  0
TEXT
  5
278B3
330
2
100
AcDbEntity
  8
0
 62
     2
100
AcDbText
 10
117.8750002278133
 20
-1.333976200847816
 30
0.0
 40
0.9219839999999999
  1
1
  7
굴림
100
AcDbText
  0
TEXT
  5
278B4
330
2
100
AcDbEntity
  8
0
 62
     2
100
AcDbText
 10
16.53082945146193
 20
94.73607265635214
 30
0.0
 40
0.9219839999999999
  1
4
  7
굴림
100
AcDbText
  0
LWPOLYLINE
  5
278B5
102
{ACAD_REACTORS
330
278BB
102
}
330
2
100
AcDbEntity
  8
Layer 1
 62
   103
100
AcDbPolyline
 90
        8
 70
     1
 43
0.0
 10
127.2801271816233
 20
12.7577295130904
 10
114.6550588734886
 20
12.75822587905493
 10
114.4667317869417
 20
12.13877575430502
 10
118.8419349824012
 20
12.13855841164276
 10
118.004623996214
 20
9.235078658729133
 10
118.8251169356026
 20
9.235078658729133
 10
119.6622673328011
 20
12.13855841164276
 10
127.0908665854104
 20
12.13819179434672
  0
TEXT
  5
278B6
330
2
100
AcDbEntity
  8
0
 62
     2
100
AcDbText
 10
50.31332128776035
 20
94.73607265635214
 30
0.0
 40
0.9219839999999999
  1
3
  7
굴림
100
AcDbText
  0
TEXT
  5
278B7
330
2
100
AcDbEntity
  8
0
 62
     2
100
AcDbText
 10
84.02086279951639
 20
94.73607265635214
 30
0.0
 40
0.9219839999999999
  1
2
  7
굴림
100
AcDbText
  0
TEXT
  5
278B8
330
2
100
AcDbEntity
  8
0
 62
     2
100
AcDbText
 10
117.8750002278133
 20
94.73607265635214
 30
0.0
 40
0.9219839999999999
  1
1
  7
굴림
100
AcDbText
  0
TEXT
  5
278B9
330
2
100
AcDbEntity
  8
0
 62
     2
100
AcDbText
 10
-1.331010921502172
 20
11.46939563234806
 30
0.0
 40
0.9219839999999999
  1
A
  7
굴림
100
AcDbText
  0
TEXT
  5
278BA
330
2
100
AcDbEntity
  8
0
 62
     2
100
AcDbText
 10
-1.331010921502172
 20
34.82678612420071
 30
0.0
 40
0.9219839999999999
  1
B
  7
굴림
100
AcDbText
  0
HATCH
  5
278BB
330
2
100
AcDbEntity
  8
0
  6
Continuous
 62
    93
100
AcDbHatch
 10
0.0
 20
0.0
 30
0.0
210
0.0
220
0.0
230
1.0
  2
SOLID
 70
     1
 71
     1
 91
        1
 92
        7
 72
     0
 73
     1
 93
        8
 10
114.6550588734886
 20
12.75822587905493
 10
114.4667317869417
 20
12.13877575430502
 10
118.8419349824012
 20
12.13855841164276
 10
118.004623996214
 20
9.235078658729133
 10
118.8251169356026
 20
9.235078658729133
 10
119.6622673328011
 20
12.13855841164276
 10
127.0908665854104
 20
12.13819179434672
 10
127.2801271816233
 20
12.7577295130904
 97
        1
330
278B5
 75
     1
 76
     1
 47
0.0428322549537331
 98
        1
 10
120.2106574643733
 20
12.45214294002113
450
        0
451
        0
460
0.0
461
0.0
452
        0
462
1.0
453
        2
463
0.0
 63
     5
421
      255
463
1.0
 63
     2
421
 16776960
470
LINEAR
1001
GRADIENTCOLOR1ACI
1070
     5
1001
GRADIENTCOLOR2ACI
1070
     2
1001
ACAD
1010
0.0
1020
0.0
1030
0.0
  0
TEXT
  5
278BC
330
2
100
AcDbEntity
  8
0
 62
     2
100
AcDbText
 10
-1.331010921502172
 20
58.40706015459942
 30
0.0
 40
0.9219839999999999
  1
C
  7
굴림
100
AcDbText
  0
TEXT
  5
278BD
330
2
100
AcDbEntity
  8
0
 62
     2
100
AcDbText
 10
-1.331010921502172
 20
82.13253664510446
 30
0.0
 40
0.9219839999999999
  1
D
  7
굴림
100
AcDbText
  0
TEXT
  5
278BE
330
2
100
AcDbEntity
  8
0
 62
     2
100
AcDbText
 10
135.498003155775
 20
11.46939563234806
 30
0.0
 40
0.9219839999999999
  1
A
  7
굴림
100
AcDbText
  0
TEXT
  5
278BF
330
2
100
AcDbEntity
  8
0
 62
     2
100
AcDbText
 10
135.498003155775
 20
34.82678612420071
 30
0.0
 40
0.9219839999999999
  1
B
  7
굴림
100
AcDbText
  0
TEXT
  5
278C0
330
2
100
AcDbEntity
  8
0
 62
     2
100
AcDbText
 10
135.498003155775
 20
58.40706015459942
 30
0.0
 40
0.9219839999999999
  1
C
  7
굴림
100
AcDbText
  0
TEXT
  5
278C1
330
2
100
AcDbEntity
  8
0
 62
     2
100
AcDbText
 10
135.498003155775
 20
82.13253664510446
 30
0.0
 40
0.9219839999999999
  1
D
  7
굴림
100
AcDbText
  0
HATCH
  5
278C2
330
2
100
AcDbEntity
  8
0
  6
Continuous
 62
     0
100
AcDbHatch
 10
0.0
 20
0.0
 30
0.0
210
0.0
220
0.0
230
1.0
  2
SOLID
 70
     1
 71
     1
 91
        1
 92
        5
 93
       13
 72
     4
 94
        3
 73
     0
 74
     0
 95
        8
 96
        4
 40
1.0
 40
1.0
 40
1.0
 40
1.0
 40
2.0
 40
2.0
 40
2.0
 40
2.0
 10
110.1581730217213
 20
10.9587240696014
 10
110.1581730217213
 20
10.9587240696014
 10
109.7817816306086
 20
9.235078658729133
 10
109.7817816306086
 20
9.235078658729133
 97
        0
 72
     4
 94
        3
 73
     0
 74
     0
 95
        8
 96
        4
 40
0.0
 40
0.0
 40
0.0
 40
0.0
 40
1.0
 40
1.0
 40
1.0
 40
1.0
 10
109.7817816306086
 20
9.235078658729133
 10
109.7817816306086
 20
9.235078658729133
 10
110.6096762624684
 20
9.235078658729133
 10
110.6096762624684
 20
9.235078658729133
 97
        0
 72
     4
 94
        3
 73
     0
 74
     0
 95
        8
 96
        4
 40
12.0
 40
12.0
 40
12.0
 40
12.0
 40
13.0
 40
13.0
 40
13.0
 40
13.0
 10
110.6096762624684
 20
9.235078658729133
 10
110.6096762624684
 20
9.235078658729133
 10
111.0425949775431
 20
11.89198131302783
 10
111.0425949775431
 20
11.89198131302783
 97
        0
 72
     4
 94
        3
 73
     0
 74
     0
 95
        8
 96
        4
 40
11.0
 40
11.0
 40
11.0
 40
11.0
 40
12.0
 40
12.0
 40
12.0
 40
12.0
 10
111.0425949775431
 20
11.89198131302783
 10
111.0425949775431
 20
11.89198131302783
 10
110.1505377452667
 20
11.89198131302783
 10
110.1505377452667
 20
11.89198131302783
 97
        0
 72
     4
 94
        3
 73
     0
 74
     0
 95
        8
 96
        4
 40
10.0
 40
10.0
 40
10.0
 40
10.0
 40
11.0
 40
11.0
 40
11.0
 40
11.0
 10
110.1505377452667
 20
11.89198131302783
 10
110.1505377452667
 20
11.89198131302783
 10
109.2322607108633
 20
10.43187539523656
 10
109.2322607108633
 20
10.43187539523656
 97
        0
 72
     4
 94
        3
 73
     0
 74
     0
 95
        8
 96
        4
 40
9.0
 40
9.0
 40
9.0
 40
9.0
 40
10.0
 40
10.0
 40
10.0
 40
10.0
 10
109.2322607108633
 20
10.43187539523656
 10
109.2322607108633
 20
10.43187539523656
 10
109.0705917674488
 20
11.89198131302783
 10
109.0705917674488
 20
11.89198131302783
 97
        0
 72
     4
 94
        3
 73
     0
 74
     0
 95
        8
 96
        4
 40
8.0
 40
8.0
 40
8.0
 40
8.0
 40
9.0
 40
9.0
 40
9.0
 40
9.0
 10
109.0705917674488
 20
11.89198131302783
 10
109.0705917674488
 20
11.89198131302783
 10
108.1935714819428
 20
11.89198131302783
 10
108.1935714819428
 20
11.89198131302783
 97
        0
 72
     4
 94
        3
 73
     0
 74
     0
 95
        8
 96
        4
 40
7.0
 40
7.0
 40
7.0
 40
7.0
 40
8.0
 40
8.0
 40
8.0
 40
8.0
 10
108.1935714819428
 20
11.89198131302783
 10
108.1935714819428
 20
11.89198131302783
 10
107.2264607715968
 20
9.235078658729133
 10
107.2264607715968
 20
9.235078658729133
 97
        0
 72
     4
 94
        3
 73
     0
 74
     0
 95
        8
 96
        4
 40
6.0
 40
6.0
 40
6.0
 40
6.0
 40
7.0
 40
7.0
 40
7.0
 40
7.0
 10
107.2264607715968
 20
9.235078658729133
 10
107.2264607715968
 20
9.235078658729133
 10
108.0355373142397
 20
9.235078658729133
 10
108.0355373142397
 20
9.235078658729133
 97
        0
 72
     4
 94
        3
 73
     0
 74
     0
 95
        8
 96
        4
 40
5.0
 40
5.0
 40
5.0
 40
5.0
 40
6.0
 40
6.0
 40
6.0
 40
6.0
 10
108.0355373142397
 20
9.235078658729133
 10
108.0355373142397
 20
9.235078658729133
 10
108.5812917060408
 20
10.99630189291707
 10
108.5812917060408
 20
10.99630189291707
 97
        0
 72
     4
 94
        3
 73
     0
 74
     0
 95
        8
 96
        4
 40
4.0
 40
4.0
 40
4.0
 40
4.0
 40
5.0
 40
5.0
 40
5.0
 40
5.0
 10
108.5812917060408
 20
10.99630189291707
 10
108.5812917060408
 20
10.99630189291707
 10
108.7807432348318
 20
9.235078658729133
 10
108.7807432348318
 20
9.235078658729133
 97
        0
 72
     4
 94
        3
 73
     0
 74
     0
 95
        8
 96
        4
 40
3.0
 40
3.0
 40
3.0
 40
3.0
 40
4.0
 40
4.0
 40
4.0
 40
4.0
 10
108.7807432348318
 20
9.235078658729133
 10
108.7807432348318
 20
9.235078658729133
 10
109.0442110052966
 20
9.235078658729133
 10
109.0442110052966
 20
9.235078658729133
 97
        0
 72
     4
 94
        3
 73
     0
 74
     0
 95
        8
 96
        4
 40
2.0
 40
2.0
 40
2.0
 40
2.0
 40
3.0
 40
3.0
 40
3.0
 40
3.0
 10
109.0442110052966
 20
9.235078658729133
 10
109.0442110052966
 20
9.235078658729133
 10
110.1581730217213
 20
10.9587240696014
 10
110.1581730217213
 20
10.9587240696014
 97
        0
 97
       13
330
278D0
330
278CE
330
278CD
330
278CC
330
278CB
330
278CA
330
278C9
330
278C8
330
278C7
330
278C6
330
278C5
330
278C4
330
278C3
 75
     1
 76
     1
 47
0.0269459378258844
 98
        1
 10
110.2061928328743
 20
10.13838734613078
450
        0
451
        0
460
0.0
461
0.0
452
        0
462
1.0
453
        2
463
0.0
 63
     5
421
      255
463
1.0
 63
     2
421
 16776960
470
LINEAR
1001
GRADIENTCOLOR1ACI
1070
     5
1001
GRADIENTCOLOR2ACI
1070
     2
1001
ACAD
1010
0.0
1020
0.0
1030
0.0
  0
SPLINE
  5
278C3
102
{ACAD_REACTORS
330
278C2
102
}
330
2
100
AcDbEntity
  8
Layer 1
100
AcDbSpline
210
0.0
220
0.0
230
1.0
 70
    24
 71
     3
 72
     8
 73
     4
 74
     0
 42
0.000000001
 43
0.0000000001
 40
0.0
 40
0.0
 40
0.0
 40
0.0
 40
1.0
 40
1.0
 40
1.0
 40
1.0
 10
110.6096762624684
 20
9.235078658729133
 30
0.0
 10
110.6096762624684
 20
9.235078658729133
 30
0.0
 10
109.7817816306086
 20
9.235078658729133
 30
0.0
 10
109.7817816306086
 20
9.235078658729133
 30
0.0
  0
SPLINE
  5
278C4
102
{ACAD_REACTORS
330
278C2
102
}
330
2
100
AcDbEntity
  8
Layer 1
100
AcDbSpline
210
0.0
220
0.0
230
1.0
 70
    24
 71
     3
 72
     8
 73
     4
 74
     0
 42
0.000000001
 43
0.0000000001
 40
1.0
 40
1.0
 40
1.0
 40
1.0
 40
2.0
 40
2.0
 40
2.0
 40
2.0
 10
109.7817816306086
 20
9.235078658729133
 30
0.0
 10
109.7817816306086
 20
9.235078658729133
 30
0.0
 10
110.1581730217213
 20
10.9587240696014
 30
0.0
 10
110.1581730217213
 20
10.9587240696014
 30
0.0
  0
SPLINE
  5
278C5
102
{ACAD_REACTORS
330
278C2
102
}
330
2
100
AcDbEntity
  8
Layer 1
100
AcDbSpline
210
0.0
220
0.0
230
1.0
 70
    24
 71
     3
 72
     8
 73
     4
 74
     0
 42
0.000000001
 43
0.0000000001
 40
2.0
 40
2.0
 40
2.0
 40
2.0
 40
3.0
 40
3.0
 40
3.0
 40
3.0
 10
110.1581730217213
 20
10.9587240696014
 30
0.0
 10
110.1581730217213
 20
10.9587240696014
 30
0.0
 10
109.0442110052966
 20
9.235078658729133
 30
0.0
 10
109.0442110052966
 20
9.235078658729133
 30
0.0
  0
SPLINE
  5
278C6
102
{ACAD_REACTORS
330
278C2
102
}
330
2
100
AcDbEntity
  8
Layer 1
100
AcDbSpline
210
0.0
220
0.0
230
1.0
 70
    24
 71
     3
 72
     8
 73
     4
 74
     0
 42
0.000000001
 43
0.0000000001
 40
3.0
 40
3.0
 40
3.0
 40
3.0
 40
4.0
 40
4.0
 40
4.0
 40
4.0
 10
109.0442110052966
 20
9.235078658729133
 30
0.0
 10
109.0442110052966
 20
9.235078658729133
 30
0.0
 10
108.7807432348318
 20
9.235078658729133
 30
0.0
 10
108.7807432348318
 20
9.235078658729133
 30
0.0
  0
SPLINE
  5
278C7
102
{ACAD_REACTORS
330
278C2
102
}
330
2
100
AcDbEntity
  8
Layer 1
100
AcDbSpline
210
0.0
220
0.0
230
1.0
 70
    24
 71
     3
 72
     8
 73
     4
 74
     0
 42
0.000000001
 43
0.0000000001
 40
4.0
 40
4.0
 40
4.0
 40
4.0
 40
5.0
 40
5.0
 40
5.0
 40
5.0
 10
108.7807432348318
 20
9.235078658729133
 30
0.0
 10
108.7807432348318
 20
9.235078658729133
 30
0.0
 10
108.5812917060408
 20
10.99630189291707
 30
0.0
 10
108.5812917060408
 20
10.99630189291707
 30
0.0
  0
SPLINE
  5
278C8
102
{ACAD_REACTORS
330
278C2
102
}
330
2
100
AcDbEntity
  8
Layer 1
100
AcDbSpline
210
0.0
220
0.0
230
1.0
 70
    24
 71
     3
 72
     8
 73
     4
 74
     0
 42
0.000000001
 43
0.0000000001
 40
5.0
 40
5.0
 40
5.0
 40
5.0
 40
6.0
 40
6.0
 40
6.0
 40
6.0
 10
108.5812917060408
 20
10.99630189291707
 30
0.0
 10
108.5812917060408
 20
10.99630189291707
 30
0.0
 10
108.0355373142397
 20
9.235078658729133
 30
0.0
 10
108.0355373142397
 20
9.235078658729133
 30
0.0
  0
SPLINE
  5
278C9
102
{ACAD_REACTORS
330
278C2
102
}
330
2
100
AcDbEntity
  8
Layer 1
100
AcDbSpline
210
0.0
220
0.0
230
1.0
 70
    24
 71
     3
 72
     8
 73
     4
 74
     0
 42
0.000000001
 43
0.0000000001
 40
6.0
 40
6.0
 40
6.0
 40
6.0
 40
7.0
 40
7.0
 40
7.0
 40
7.0
 10
108.0355373142397
 20
9.235078658729133
 30
0.0
 10
108.0355373142397
 20
9.235078658729133
 30
0.0
 10
107.2264607715968
 20
9.235078658729133
 30
0.0
 10
107.2264607715968
 20
9.235078658729133
 30
0.0
  0
SPLINE
  5
278CA
102
{ACAD_REACTORS
330
278C2
102
}
330
2
100
AcDbEntity
  8
Layer 1
100
AcDbSpline
210
0.0
220
0.0
230
1.0
 70
    24
 71
     3
 72
     8
 73
     4
 74
     0
 42
0.000000001
 43
0.0000000001
 40
7.0
 40
7.0
 40
7.0
 40
7.0
 40
8.0
 40
8.0
 40
8.0
 40
8.0
 10
107.2264607715968
 20
9.235078658729133
 30
0.0
 10
107.2264607715968
 20
9.235078658729133
 30
0.0
 10
108.1935714819428
 20
11.89198131302783
 30
0.0
 10
108.1935714819428
 20
11.89198131302783
 30
0.0
  0
SPLINE
  5
278CB
102
{ACAD_REACTORS
330
278C2
102
}
330
2
100
AcDbEntity
  8
Layer 1
100
AcDbSpline
210
0.0
220
0.0
230
1.0
 70
    24
 71
     3
 72
     8
 73
     4
 74
     0
 42
0.000000001
 43
0.0000000001
 40
8.0
 40
8.0
 40
8.0
 40
8.0
 40
9.0
 40
9.0
 40
9.0
 40
9.0
 10
108.1935714819428
 20
11.89198131302783
 30
0.0
 10
108.1935714819428
 20
11.89198131302783
 30
0.0
 10
109.0705917674488
 20
11.89198131302783
 30
0.0
 10
109.0705917674488
 20
11.89198131302783
 30
0.0
  0
SPLINE
  5
278CC
102
{ACAD_REACTORS
330
278C2
102
}
330
2
100
AcDbEntity
  8
Layer 1
100
AcDbSpline
210
0.0
220
0.0
230
1.0
 70
    24
 71
     3
 72
     8
 73
     4
 74
     0
 42
0.000000001
 43
0.0000000001
 40
9.0
 40
9.0
 40
9.0
 40
9.0
 40
10.0
 40
10.0
 40
10.0
 40
10.0
 10
109.0705917674488
 20
11.89198131302783
 30
0.0
 10
109.0705917674488
 20
11.89198131302783
 30
0.0
 10
109.2322607108633
 20
10.43187539523656
 30
0.0
 10
109.2322607108633
 20
10.43187539523656
 30
0.0
  0
SPLINE
  5
278CD
102
{ACAD_REACTORS
330
278C2
102
}
330
2
100
AcDbEntity
  8
Layer 1
100
AcDbSpline
210
0.0
220
0.0
230
1.0
 70
    24
 71
     3
 72
     8
 73
     4
 74
     0
 42
0.000000001
 43
0.0000000001
 40
10.0
 40
10.0
 40
10.0
 40
10.0
 40
11.0
 40
11.0
 40
11.0
 40
11.0
 10
109.2322607108633
 20
10.43187539523656
 30
0.0
 10
109.2322607108633
 20
10.43187539523656
 30
0.0
 10
110.1505377452667
 20
11.89198131302783
 30
0.0
 10
110.1505377452667
 20
11.89198131302783
 30
0.0
  0
SPLINE
  5
278CE
102
{ACAD_REACTORS
330
278C2
102
}
330
2
100
AcDbEntity
  8
Layer 1
100
AcDbSpline
210
0.0
220
0.0
230
1.0
 70
    24
 71
     3
 72
     8
 73
     4
 74
     0
 42
0.000000001
 43
0.0000000001
 40
11.0
 40
11.0
 40
11.0
 40
11.0
 40
12.0
 40
12.0
 40
12.0
 40
12.0
 10
110.1505377452667
 20
11.89198131302783
 30
0.0
 10
110.1505377452667
 20
11.89198131302783
 30
0.0
 10
111.0425949775431
 20
11.89198131302783
 30
0.0
 10
111.0425949775431
 20
11.89198131302783
 30
0.0
  0
SPLINE
  5
278CF
102
{ACAD_REACTORS
330
278D5
102
}
330
2
100
AcDbEntity
  8
Layer 1
100
AcDbSpline
210
0.0
220
0.0
230
1.0
 70
     8
 71
     3
 72
     8
 73
     4
 74
     0
 42
0.000000001
 43
0.0000000001
 40
12.0
 40
12.0
 40
12.0
 40
12.0
 40
13.0
 40
13.0
 40
13.0
 40
13.0
 10
115.7300999586936
 20
10.32893785358983
 30
0.0
 10
115.8484978402358
 20
10.36493898501815
 30
0.0
 10
115.965975984844
 20
10.41783115823983
 30
0.0
 10
116.0699062584197
 20
10.49723511356765
 30
0.0
  0
SPLINE
  5
278D0
102
{ACAD_REACTORS
330
278C2
102
}
330
2
100
AcDbEntity
  8
Layer 1
100
AcDbSpline
210
0.0
220
0.0
230
1.0
 70
    24
 71
     3
 72
     8
 73
     4
 74
     0
 42
0.000000001
 43
0.0000000001
 40
12.0
 40
12.0
 40
12.0
 40
12.0
 40
13.0
 40
13.0
 40
13.0
 40
13.0
 10
111.0425949775431
 20
11.89198131302783
 30
0.0
 10
111.0425949775431
 20
11.89198131302783
 30
0.0
 10
110.6096762624684
 20
9.235078658729133
 30
0.0
 10
110.6096762624684
 20
9.235078658729133
 30
0.0
  0
HATCH
  5
278D1
330
2
100
AcDbEntity
  8
0
  6
Continuous
 62
     0
100
AcDbHatch
 10
0.0
 20
0.0
 30
0.0
210
0.0
220
0.0
230
1.0
  2
SOLID
 70
     1
 71
     0
 91
        1
 92
        5
 93
        1
 72
     4
 94
        3
 73
     0
 74
     0
 95
       41
 96
       37
 40
0.0
 40
0.0
 40
0.0
 40
0.0
 40
1.0
 40
1.0
 40
1.0
 40
2.0
 40
2.0
 40
2.0
 40
3.0
 40
3.0
 40
3.0
 40
4.0
 40
4.0
 40
4.0
 40
5.0
 40
5.0
 40
5.0
 40
6.0
 40
6.0
 40
6.0
 40
7.0
 40
7.0
 40
7.0
 40
8.0
 40
8.0
 40
8.0
 40
9.0
 40
9.0
 40
9.0
 40
10.0
 40
10.0
 40
10.0
 40
11.0
 40
11.0
 40
11.0
 40
12.0
 40
12.0
 40
12.0
 40
12.0
 10
111.5541293020019
 20
9.235078658729133
 10
111.5541293020019
 20
9.235078658729133
 10
110.6923649925616
 20
9.235078658729133
 10
110.6923649925616
 20
9.235078658729133
 10
110.6923649925616
 20
9.235078658729133
 10
112.4159524629856
 20
11.89568782266991
 10
112.4159524629856
 20
11.89568782266991
 10
112.4159524629856
 20
11.89568782266991
 10
113.3041555819751
 20
11.89568782266991
 10
113.3041555819751
 20
11.89568782266991
 10
113.3041555819751
 20
11.89568782266991
 10
113.5036796227367
 20
9.235078658729133
 10
113.5036796227367
 20
9.235078658729133
 10
113.5036796227367
 20
9.235078658729133
 10
112.7020193920029
 20
9.235078658729133
 10
112.7020193920029
 20
9.235078658729133
 10
112.7020193920029
 20
9.235078658729133
 10
112.6756390008875
 20
9.664143238079127
 10
112.6756390008875
 20
9.664143238079127
 10
112.6756390008875
 20
9.664143238079127
 10
112.0945258473989
 20
9.664143238079127
 10
112.0945258473989
 20
9.664143238079127
 10
112.0945258473989
 20
9.664143238079127
 10
112.3830166657907
 20
10.21722631356992
 10
112.3830166657907
 20
10.21722631356992
 10
112.3830166657907
 20
10.21722631356992
 10
112.6493316047668
 20
10.21722631356992
 10
112.6493316047668
 20
10.21722631356992
 10
112.6493316047668
 20
10.21722631356992
 10
112.6154035311904
 20
10.99630189291707
 10
112.6154035311904
 20
10.99630189291707
 10
112.6154035311904
 20
10.99630189291707
 10
111.5584072425806
 20
9.24106424830159
 10
111.5584072425806
 20
9.24106424830159
 10
111.5584072425806
 20
9.24106424830159
 10
111.5541293020019
 20
9.235078658729133
 10
111.5541293020019
 20
9.235078658729133
 97
        0
 97
        0
 75
     1
 76
     1
 47
0.0269459378258844
 98
        1
 10
113.1736095733066
 20
10.33351242765865
450
        0
451
        0
460
0.0
461
0.0
452
        0
462
1.0
453
        2
463
0.0
 63
     5
421
      255
463
1.0
 63
     2
421
 16776960
470
LINEAR
1001
GRADIENTCOLOR1ACI
1070
     5
1001
GRADIENTCOLOR2ACI
1070
     2
1001
ACAD
1010
0.0
1020
0.0
1030
0.0
  0
SPLINE
  5
278D2
330
2
100
AcDbEntity
  8
Layer 1
100
AcDbSpline
210
0.0
220
0.0
230
1.0
 70
    11
 71
     3
 72
    41
 73
    37
 74
     0
 42
0.000000001
 43
0.0000000001
 40
0.0
 40
0.0
 40
0.0
 40
0.0
 40
1.0
 40
1.0
 40
1.0
 40
2.0
 40
2.0
 40
2.0
 40
3.0
 40
3.0
 40
3.0
 40
4.0
 40
4.0
 40
4.0
 40
5.0
 40
5.0
 40
5.0
 40
6.0
 40
6.0
 40
6.0
 40
7.0
 40
7.0
 40
7.0
 40
8.0
 40
8.0
 40
8.0
 40
9.0
 40
9.0
 40
9.0
 40
10.0
 40
10.0
 40
10.0
 40
11.0
 40
11.0
 40
11.0
 40
12.0
 40
12.0
 40
12.0
 40
12.0
 10
111.5541293020019
 20
9.235078658729133
 30
0.0
 10
111.5541293020019
 20
9.235078658729133
 30
0.0
 10
110.6923649925616
 20
9.235078658729133
 30
0.0
 10
110.6923649925616
 20
9.235078658729133
 30
0.0
 10
110.6923649925616
 20
9.235078658729133
 30
0.0
 10
112.4159524629856
 20
11.89568782266991
 30
0.0
 10
112.4159524629856
 20
11.89568782266991
 30
0.0
 10
112.4159524629856
 20
11.89568782266991
 30
0.0
 10
113.3041555819751
 20
11.89568782266991
 30
0.0
 10
113.3041555819751
 20
11.89568782266991
 30
0.0
 10
113.3041555819751
 20
11.89568782266991
 30
0.0
 10
113.5036796227367
 20
9.235078658729133
 30
0.0
 10
113.5036796227367
 20
9.235078658729133
 30
0.0
 10
113.5036796227367
 20
9.235078658729133
 30
0.0
 10
112.7020193920029
 20
9.235078658729133
 30
0.0
 10
112.7020193920029
 20
9.235078658729133
 30
0.0
 10
112.7020193920029
 20
9.235078658729133
 30
0.0
 10
112.6756390008875
 20
9.664143238079127
 30
0.0
 10
112.6756390008875
 20
9.664143238079127
 30
0.0
 10
112.6756390008875
 20
9.664143238079127
 30
0.0
 10
112.0945258473989
 20
9.664143238079127
 30
0.0
 10
112.0945258473989
 20
9.664143238079127
 30
0.0
 10
112.0945258473989
 20
9.664143238079127
 30
0.0
 10
112.3830166657907
 20
10.21722631356992
 30
0.0
 10
112.3830166657907
 20
10.21722631356992
 30
0.0
 10
112.3830166657907
 20
10.21722631356992
 30
0.0
 10
112.6493316047668
 20
10.21722631356992
 30
0.0
 10
112.6493316047668
 20
10.21722631356992
 30
0.0
 10
112.6493316047668
 20
10.21722631356992
 30
0.0
 10
112.6154035311904
 20
10.99630189291707
 30
0.0
 10
112.6154035311904
 20
10.99630189291707
 30
0.0
 10
112.6154035311904
 20
10.99630189291707
 30
0.0
 10
111.5584072425806
 20
9.24106424830159
 30
0.0
 10
111.5584072425806
 20
9.24106424830159
 30
0.0
 10
111.5584072425806
 20
9.24106424830159
 30
0.0
 10
111.5541293020019
 20
9.235078658729133
 30
0.0
 10
111.5541293020019
 20
9.235078658729133
 30
0.0
  0
HATCH
  5
278D3
330
2
100
AcDbEntity
  8
0
  6
Continuous
 62
     0
100
AcDbHatch
 10
0.0
 20
0.0
 30
0.0
210
0.0
220
0.0
230
1.0
  2
SOLID
 70
     1
 71
     1
 91
        1
 92
        5
 93
        1
 72
     4
 94
        3
 73
     0
 74
     0
 95
       17
 96
       13
 40
0.0
 40
0.0
 40
0.0
 40
0.0
 40
1.0
 40
1.0
 40
1.0
 40
2.0
 40
2.0
 40
2.0
 40
3.0
 40
3.0
 40
3.0
 40
4.0
 40
4.0
 40
4.0
 40
4.0
 10
117.1727444133534
 20
9.235078658729133
 10
117.1727444133534
 20
9.235078658729133
 10
116.3523384922443
 20
9.235078658729133
 10
116.3523384922443
 20
9.235078658729133
 10
116.3523384922443
 20
9.235078658729133
 10
117.0636747164304
 20
11.89198131302783
 10
117.0636747164304
 20
11.89198131302783
 10
117.0636747164304
 20
11.89198131302783
 10
117.8840216658292
 20
11.89198131302783
 10
117.8840216658292
 20
11.89198131302783
 10
117.8840216658292
 20
11.89198131302783
 10
117.1727444133534
 20
9.235078658729133
 10
117.1727444133534
 20
9.235078658729133
 97
        0
 97
        1
330
278D4
 75
     1
 76
     1
 47
0.0269459378258844
 98
        1
 10
116.8316397003132
 20
9.960856410998127
450
        0
451
        0
460
0.0
461
0.0
452
        0
462
1.0
453
        2
463
0.0
 63
     5
421
      255
463
1.0
 63
     2
421
 16776960
470
LINEAR
1001
GRADIENTCOLOR1ACI
1070
     5
1001
GRADIENTCOLOR2ACI
1070
     2
1001
ACAD
1010
0.0
1020
0.0
1030
0.0
  0
SPLINE
  5
278D4
102
{ACAD_REACTORS
330
278D3
102
}
330
2
100
AcDbEntity
  8
Layer 1
100
AcDbSpline
210
0.0
220
0.0
230
1.0
 70
    11
 71
     3
 72
    17
 73
    13
 74
     0
 42
0.000000001
 43
0.0000000001
 40
0.0
 40
0.0
 40
0.0
 40
0.0
 40
1.0
 40
1.0
 40
1.0
 40
2.0
 40
2.0
 40
2.0
 40
3.0
 40
3.0
 40
3.0
 40
4.0
 40
4.0
 40
4.0
 40
4.0
 10
117.1727444133534
 20
9.235078658729133
 30
0.0
 10
117.1727444133534
 20
9.235078658729133
 30
0.0
 10
116.3523384922443
 20
9.235078658729133
 30
0.0
 10
116.3523384922443
 20
9.235078658729133
 30
0.0
 10
116.3523384922443
 20
9.235078658729133
 30
0.0
 10
117.0636747164304
 20
11.89198131302783
 30
0.0
 10
117.0636747164304
 20
11.89198131302783
 30
0.0
 10
117.0636747164304
 20
11.89198131302783
 30
0.0
 10
117.8840216658292
 20
11.89198131302783
 30
0.0
 10
117.8840216658292
 20
11.89198131302783
 30
0.0
 10
117.8840216658292
 20
11.89198131302783
 30
0.0
 10
117.1727444133534
 20
9.235078658729133
 30
0.0
 10
117.1727444133534
 20
9.235078658729133
 30
0.0
  0
HATCH
  5
278D5
330
2
100
AcDbEntity
  8
0
  6
Continuous
 62
     0
100
AcDbHatch
 10
0.0
 20
0.0
 30
0.0
210
0.0
220
0.0
230
1.0
  2
SOLID
 70
     1
 71
     1
 91
        1
 92
        5
 93
       14
 72
     4
 94
        3
 73
     0
 74
     0
 95
        8
 96
        4
 40
12.0
 40
12.0
 40
12.0
 40
12.0
 40
13.0
 40
13.0
 40
13.0
 40
13.0
 10
115.7300999586936
 20
10.32893785358983
 10
115.8484978402358
 20
10.36493898501815
 10
115.965975984844
 20
10.41783115823983
 10
116.0699062584197
 20
10.49723511356765
 97
        0
 72
     4
 94
        3
 73
     0
 74
     0
 95
        8
 96
        4
 40
13.0
 40
13.0
 40
13.0
 40
13.0
 40
14.0
 40
14.0
 40
14.0
 40
14.0
 10
116.0699062584197
 20
10.49723511356765
 10
116.2995193140174
 20
10.67416038192906
 10
116.4199902534116
 20
10.92637268791244
 10
116.4199902534116
 20
11.17464326417735
 97
        0
 72
     4
 94
        3
 73
     0
 74
     0
 95
        8
 96
        4
 40
0.0
 40
0.0
 40
0.0
 40
0.0
 40
1.0
 40
1.0
 40
1.0
 40
1.0
 10
116.4199902534116
 20
11.17464326417735
 10
116.4199902534116
 20
11.70899582400614
 10
115.949581309015
 20
11.89719151956247
 10
115.5394083687684
 20
11.89719151956247
 97
        0
 72
     4
 94
        3
 73
     0
 74
     0
 95
        8
 96
        4
 40
1.0
 40
1.0
 40
1.0
 40
1.0
 40
2.0
 40
2.0
 40
2.0
 40
2.0
 10
115.5394083687684
 20
11.89719151956247
 10
115.5394083687684
 20
11.89719151956247
 10
114.3652108529837
 20
11.89719151956247
 10
114.3652108529837
 20
11.89719151956247
 97
        0
 72
     4
 94
        3
 73
     0
 74
     0
 95
        8
 96
        4
 40
2.0
 40
2.0
 40
2.0
 40
2.0
 40
3.0
 40
3.0
 40
3.0
 40
3.0
 10
114.3652108529837
 20
11.89719151956247
 10
114.3652108529837
 20
11.89719151956247
 10
113.6501659782726
 20
9.240219075465832
 10
113.6501659782726
 20
9.240219075465832
 97
        0
 72
     4
 94
        3
 73
     0
 74
     0
 95
        8
 96
        4
 40
3.0
 40
3.0
 40
3.0
 40
3.0
 40
4.0
 40
4.0
 40
4.0
 40
4.0
 10
113.6501659782726
 20
9.240219075465832
 10
113.6501659782726
 20
9.240219075465832
 10
114.4933165640426
 20
9.240219075465832
 10
114.4933165640426
 20
9.240219075465832
 97
        0
 72
     4
 94
        3
 73
     0
 74
     0
 95
        8
 96
        4
 40
4.0
 40
4.0
 40
4.0
 40
4.0
 40
5.0
 40
5.0
 40
5.0
 40
5.0
 10
114.4933165640426
 20
9.240219075465832
 10
114.4933165640426
 20
9.240219075465832
 10
115.0463412435376
 20
11.30253049504179
 10
115.0463412435376
 20
11.30253049504179
 97
        0
 72
     4
 94
        3
 73
     0
 74
     0
 95
        8
 96
        4
 40
5.0
 40
5.0
 40
5.0
 40
5.0
 40
6.0
 40
6.0
 40
6.0
 40
6.0
 10
115.0463412435376
 20
11.30253049504179
 10
115.0463412435376
 20
11.30253049504179
 10
115.294757809792
 20
11.30253049504179
 10
115.294757809792
 20
11.30253049504179
 97
        0
 72
     4
 94
        3
 73
     0
 74
     0
 95
        8
 96
        4
 40
6.0
 40
6.0
 40
6.0
 40
6.0
 40
7.0
 40
7.0
 40
7.0
 40
7.0
 10
115.294757809792
 20
11.30253049504179
 10
115.4414631503122
 20
11.30253049504179
 10
115.5920956215519
 20
11.26867541646019
 10
115.5920956215519
 20
11.08811499735843
 97
        0
 72
     4
 94
        3
 73
     0
 74
     0
 95
        8
 96
        4
 40
7.0
 40
7.0
 40
7.0
 40
7.0
 40
8.0
 40
8.0
 40
8.0
 40
8.0
 10
115.5920956215519
 20
11.08811499735843
 10
115.5920956215519
 20
10.99031630334465
 10
115.5168815789247
 20
10.83213614964415
 10
115.2684650126704
 20
10.83975682709975
 97
        0
 72
     4
 94
        3
 73
     0
 74
     0
 95
        8
 96
        4
 40
8.0
 40
8.0
 40
8.0
 40
8.0
 40
9.0
 40
9.0
 40
9.0
 40
9.0
 10
115.2684650126704
 20
10.83975682709975
 10
115.2684650126704
 20
10.83975682709975
 10
115.1093505230366
 20
10.25730056570726
 10
115.1093505230366
 20
10.25730056570726
 97
        0
 72
     4
 94
        3
 73
     0
 74
     0
 95
        8
 96
        4
 40
9.0
 40
9.0
 40
9.0
 40
9.0
 40
10.0
 40
10.0
 40
10.0
 40
10.0
 10
115.1093505230366
 20
10.25730056570726
 10
115.1093505230366
 20
10.25730056570726
 10
115.4132432853281
 20
9.199296512285165
 10
115.4132432853281
 20
9.199296512285165
 97
        0
 72
     4
 94
        3
 73
     0
 74
     0
 95
        8
 96
        4
 40
10.0
 40
10.0
 40
10.0
 40
10.0
 40
11.0
 40
11.0
 40
11.0
 40
11.0
 10
115.4132432853281
 20
9.199296512285165
 10
115.4132432853281
 20
9.199296512285165
 10
116.1084773624932
 20
9.199296512285165
 10
116.1084773624932
 20
9.199296512285165
 97
        0
 72
     4
 94
        3
 73
     0
 74
     0
 95
        8
 96
        4
 40
11.0
 40
11.0
 40
11.0
 40
11.0
 40
12.0
 40
12.0
 40
12.0
 40
12.0
 10
116.1084773624932
 20
9.199296512285165
 10
116.1084773624932
 20
9.199296512285165
 10
115.7300999586936
 20
10.32893785358983
 10
115.7300999586936
 20
10.32893785358983
 97
        0
 97
       13
330
278E0
330
278CF
330
278E1
330
278D6
330
278D7
330
278D8
330
278D9
330
278DA
330
278DB
330
278DC
330
278DD
330
278DE
330
278DF
 75
     1
 76
     1
 47
0.0269459378258844
 98
        1
 10
115.5442266531843
 20
10.19154812098213
450
        0
451
        0
460
0.0
461
0.0
452
        0
462
1.0
453
        2
463
0.0
 63
     5
421
      255
463
1.0
 63
     2
421
 16776960
470
LINEAR
1001
GRADIENTCOLOR1ACI
1070
     5
1001
GRADIENTCOLOR2ACI
1070
     2
1001
ACAD
1010
0.0
1020
0.0
1030
0.0
  0
SPLINE
  5
278D6
102
{ACAD_REACTORS
330
278D5
102
}
330
2
100
AcDbEntity
  8
Layer 1
100
AcDbSpline
210
0.0
220
0.0
230
1.0
 70
     8
 71
     3
 72
     8
 73
     4
 74
     0
 42
0.000000001
 43
0.0000000001
 40
0.0
 40
0.0
 40
0.0
 40
0.0
 40
1.0
 40
1.0
 40
1.0
 40
1.0
 10
116.4199902534116
 20
11.17464326417735
 30
0.0
 10
116.4199902534116
 20
11.70899582400614
 30
0.0
 10
115.949581309015
 20
11.89719151956247
 30
0.0
 10
115.5394083687684
 20
11.89719151956247
 30
0.0
  0
SPLINE
  5
278D7
102
{ACAD_REACTORS
330
278D5
102
}
330
2
100
AcDbEntity
  8
Layer 1
100
AcDbSpline
210
0.0
220
0.0
230
1.0
 70
    24
 71
     3
 72
     8
 73
     4
 74
     0
 42
0.000000001
 43
0.0000000001
 40
1.0
 40
1.0
 40
1.0
 40
1.0
 40
2.0
 40
2.0
 40
2.0
 40
2.0
 10
115.5394083687684
 20
11.89719151956247
 30
0.0
 10
115.5394083687684
 20
11.89719151956247
 30
0.0
 10
114.3652108529837
 20
11.89719151956247
 30
0.0
 10
114.3652108529837
 20
11.89719151956247
 30
0.0
  0
SPLINE
  5
278D8
102
{ACAD_REACTORS
330
278D5
102
}
330
2
100
AcDbEntity
  8
Layer 1
100
AcDbSpline
210
0.0
220
0.0
230
1.0
 70
    24
 71
     3
 72
     8
 73
     4
 74
     0
 42
0.000000001
 43
0.0000000001
 40
2.0
 40
2.0
 40
2.0
 40
2.0
 40
3.0
 40
3.0
 40
3.0
 40
3.0
 10
114.3652108529837
 20
11.89719151956247
 30
0.0
 10
114.3652108529837
 20
11.89719151956247
 30
0.0
 10
113.6501659782726
 20
9.240219075465832
 30
0.0
 10
113.6501659782726
 20
9.240219075465832
 30
0.0
  0
SPLINE
  5
278D9
102
{ACAD_REACTORS
330
278D5
102
}
330
2
100
AcDbEntity
  8
Layer 1
100
AcDbSpline
210
0.0
220
0.0
230
1.0
 70
    24
 71
     3
 72
     8
 73
     4
 74
     0
 42
0.000000001
 43
0.0000000001
 40
3.0
 40
3.0
 40
3.0
 40
3.0
 40
4.0
 40
4.0
 40
4.0
 40
4.0
 10
113.6501659782726
 20
9.240219075465832
 30
0.0
 10
113.6501659782726
 20
9.240219075465832
 30
0.0
 10
114.4933165640426
 20
9.240219075465832
 30
0.0
 10
114.4933165640426
 20
9.240219075465832
 30
0.0
  0
SPLINE
  5
278DA
102
{ACAD_REACTORS
330
278D5
102
}
330
2
100
AcDbEntity
  8
Layer 1
100
AcDbSpline
210
0.0
220
0.0
230
1.0
 70
    24
 71
     3
 72
     8
 73
     4
 74
     0
 42
0.000000001
 43
0.0000000001
 40
4.0
 40
4.0
 40
4.0
 40
4.0
 40
5.0
 40
5.0
 40
5.0
 40
5.0
 10
114.4933165640426
 20
9.240219075465832
 30
0.0
 10
114.4933165640426
 20
9.240219075465832
 30
0.0
 10
115.0463412435376
 20
11.30253049504179
 30
0.0
 10
115.0463412435376
 20
11.30253049504179
 30
0.0
  0
SPLINE
  5
278DB
102
{ACAD_REACTORS
330
278D5
102
}
330
2
100
AcDbEntity
  8
Layer 1
100
AcDbSpline
210
0.0
220
0.0
230
1.0
 70
    24
 71
     3
 72
     8
 73
     4
 74
     0
 42
0.000000001
 43
0.0000000001
 40
5.0
 40
5.0
 40
5.0
 40
5.0
 40
6.0
 40
6.0
 40
6.0
 40
6.0
 10
115.0463412435376
 20
11.30253049504179
 30
0.0
 10
115.0463412435376
 20
11.30253049504179
 30
0.0
 10
115.294757809792
 20
11.30253049504179
 30
0.0
 10
115.294757809792
 20
11.30253049504179
 30
0.0
  0
SPLINE
  5
278DC
102
{ACAD_REACTORS
330
278D5
102
}
330
2
100
AcDbEntity
  8
Layer 1
100
AcDbSpline
210
0.0
220
0.0
230
1.0
 70
     8
 71
     3
 72
    11
 73
     7
 74
     0
 42
0.000000001
 43
0.0000000001
 40
6.0
 40
6.0
 40
6.0
 40
6.0
 40
7.0
 40
7.0
 40
7.0
 40
8.0
 40
8.0
 40
8.0
 40
8.0
 10
115.294757809792
 20
11.30253049504179
 30
0.0
 10
115.4414631503122
 20
11.30253049504179
 30
0.0
 10
115.5920956215519
 20
11.26867541646019
 30
0.0
 10
115.5920956215519
 20
11.08811499735843
 30
0.0
 10
115.5920956215519
 20
10.99031630334465
 30
0.0
 10
115.5168815789247
 20
10.83213614964415
 30
0.0
 10
115.2684650126704
 20
10.83975682709975
 30
0.0
  0
SPLINE
  5
278DD
102
{ACAD_REACTORS
330
278D5
102
}
330
2
100
AcDbEntity
  8
Layer 1
100
AcDbSpline
210
0.0
220
0.0
230
1.0
 70
    24
 71
     3
 72
     8
 73
     4
 74
     0
 42
0.000000001
 43
0.0000000001
 40
8.0
 40
8.0
 40
8.0
 40
8.0
 40
9.0
 40
9.0
 40
9.0
 40
9.0
 10
115.2684650126704
 20
10.83975682709975
 30
0.0
 10
115.2684650126704
 20
10.83975682709975
 30
0.0
 10
115.1093505230366
 20
10.25730056570726
 30
0.0
 10
115.1093505230366
 20
10.25730056570726
 30
0.0
  0
SPLINE
  5
278DE
102
{ACAD_REACTORS
330
278D5
102
}
330
2
100
AcDbEntity
  8
Layer 1
100
AcDbSpline
210
0.0
220
0.0
230
1.0
 70
    24
 71
     3
 72
     8
 73
     4
 74
     0
 42
0.000000001
 43
0.0000000001
 40
9.0
 40
9.0
 40
9.0
 40
9.0
 40
10.0
 40
10.0
 40
10.0
 40
10.0
 10
115.1093505230366
 20
10.25730056570726
 30
0.0
 10
115.1093505230366
 20
10.25730056570726
 30
0.0
 10
115.4132432853281
 20
9.199296512285165
 30
0.0
 10
115.4132432853281
 20
9.199296512285165
 30
0.0
  0
SPLINE
  5
278DF
102
{ACAD_REACTORS
330
278D5
102
}
330
2
100
AcDbEntity
  8
Layer 1
100
AcDbSpline
210
0.0
220
0.0
230
1.0
 70
    24
 71
     3
 72
     8
 73
     4
 74
     0
 42
0.000000001
 43
0.0000000001
 40
10.0
 40
10.0
 40
10.0
 40
10.0
 40
11.0
 40
11.0
 40
11.0
 40
11.0
 10
115.4132432853281
 20
9.199296512285165
 30
0.0
 10
115.4132432853281
 20
9.199296512285165
 30
0.0
 10
116.1084773624932
 20
9.199296512285165
 30
0.0
 10
116.1084773624932
 20
9.199296512285165
 30
0.0
  0
SPLINE
  5
278E0
102
{ACAD_REACTORS
330
278D5
102
}
330
2
100
AcDbEntity
  8
Layer 1
100
AcDbSpline
210
0.0
220
0.0
230
1.0
 70
    24
 71
     3
 72
     8
 73
     4
 74
     0
 42
0.000000001
 43
0.0000000001
 40
11.0
 40
11.0
 40
11.0
 40
11.0
 40
12.0
 40
12.0
 40
12.0
 40
12.0
 10
116.1084773624932
 20
9.199296512285165
 30
0.0
 10
116.1084773624932
 20
9.199296512285165
 30
0.0
 10
115.7300999586936
 20
10.32893785358983
 30
0.0
 10
115.7300999586936
 20
10.32893785358983
 30
0.0
  0
SPLINE
  5
278E1
102
{ACAD_REACTORS
330
278D5
102
}
330
2
100
AcDbEntity
  8
Layer 1
100
AcDbSpline
210
0.0
220
0.0
230
1.0
 70
     8
 71
     3
 72
     8
 73
     4
 74
     0
 42
0.000000001
 43
0.0000000001
 40
13.0
 40
13.0
 40
13.0
 40
13.0
 40
14.0
 40
14.0
 40
14.0
 40
14.0
 10
116.0699062584197
 20
10.49723511356765
 30
0.0
 10
116.2995193140174
 20
10.67416038192906
 30
0.0
 10
116.4199902534116
 20
10.92637268791244
 30
0.0
 10
116.4199902534116
 20
11.17464326417735
 30
0.0
  0
HATCH
  5
278E2
330
2
100
AcDbEntity
  8
0
  6
Continuous
 62
     0
100
AcDbHatch
 10
0.0
 20
0.0
 30
0.0
210
0.0
220
0.0
230
1.0
  2
SOLID
 70
     1
 71
     1
 91
        2
 92
        5
 93
        4
 72
     4
 94
        3
 73
     0
 74
     0
 95
        8
 96
        4
 40
0.0
 40
0.0
 40
0.0
 40
0.0
 40
1.0
 40
1.0
 40
1.0
 40
1.0
 10
119.7131010471699
 20
10.31239718777141
 10
119.7131010471699
 20
9.62386459995641
 10
120.1846487134851
 20
9.096139985654128
 10
121.0004261762105
 20
9.096139985654128
 97
        0
 72
     4
 94
        3
 73
     0
 74
     0
 95
        8
 96
        4
 40
3.0
 40
3.0
 40
3.0
 40
3.0
 40
4.0
 40
4.0
 40
4.0
 40
4.0
 10
121.0004261762105
 20
9.096139985654128
 10
122.0820076129483
 20
9.096139985654128
 10
122.6396017791168
 20
9.923187875574399
 10
122.6396017791168
 20
10.67166395310743
 97
        0
 72
     4
 94
        3
 73
     0
 74
     0
 95
        8
 96
        4
 40
2.0
 40
2.0
 40
2.0
 40
2.0
 40
3.0
 40
3.0
 40
3.0
 40
3.0
 10
122.6396017791168
 20
10.67166395310743
 10
122.6396017791168
 20
11.34159903844029
 10
122.1681271077964
 20
11.89546883768552
 10
121.31862595748
 20
11.89546883768552
 97
        0
 72
     4
 94
        3
 73
     0
 74
     0
 95
        8
 96
        4
 40
1.0
 40
1.0
 40
1.0
 40
1.0
 40
2.0
 40
2.0
 40
2.0
 40
2.0
 10
121.31862595748
 20
11.89546883768552
 10
120.2744617550693
 20
11.89546883768552
 10
119.7131010471699
 20
11.06458141103956
 10
119.7131010471699
 20
10.31239718777141
 97
        0
 97
        1
330
278E3
 92
       20
 93
        4
 72
     4
 94
        3
 73
     0
 74
     0
 95
        8
 96
        4
 40
2.0
 40
2.0
 40
2.0
 40
2.0
 40
3.0
 40
3.0
 40
3.0
 40
3.0
 10
121.0491722337284
 20
9.732364360205743
 10
120.7722438225105
 20
9.732364360205743
 10
120.5326596506252
 20
9.915771584104215
 10
120.5326596506252
 20
10.30498089630123
 97
        0
 72
     4
 94
        3
 73
     0
 74
     0
 95
        8
 96
        4
 40
1.0
 40
1.0
 40
1.0
 40
1.0
 40
2.0
 40
2.0
 40
2.0
 40
2.0
 10
120.5326596506252
 20
10.30498089630123
 10
120.5326596506252
 20
10.70917038764114
 10
120.8134428652538
 20
11.28920160899394
 10
121.326115243945
 20
11.28920160899394
 97
        0
 72
     4
 94
        3
 73
     0
 74
     0
 95
        8
 96
        4
 40
0.0
 40
0.0
 40
0.0
 40
0.0
 40
1.0
 40
1.0
 40
1.0
 40
1.0
 10
121.326115243945
 20
11.28920160899394
 10
121.5955689676968
 20
11.28920160899394
 10
121.8276054571214
 20
11.1058673800903
 10
121.8276054571214
 20
10.72035161462943
 97
        0
 72
     4
 94
        3
 73
     0
 74
     0
 95
        8
 96
        4
 40
3.0
 40
3.0
 40
3.0
 40
3.0
 40
4.0
 40
4.0
 40
4.0
 40
4.0
 10
121.8276054571214
 20
10.72035161462943
 10
121.8276054571214
 20
10.33492344316229
 10
121.6031312491566
 20
9.732364360205743
 10
121.0491722337284
 20
9.732364360205743
 97
        0
 97
        1
330
278E4
 75
     1
 76
     1
 47
0.0269459378258844
 98
        2
 10
120.2765799009571
 20
9.907620276603724
 10
120.2765799009571
 20
9.907620276603724
450
        0
451
        0
460
0.0
461
0.0
452
        0
462
1.0
453
        2
463
0.0
 63
     5
421
      255
463
1.0
 63
     2
421
 16776960
470
LINEAR
1001
GRADIENTCOLOR1ACI
1070
     5
1001
GRADIENTCOLOR2ACI
1070
     2
1001
ACAD
1010
0.0
1020
0.0
1030
0.0
  0
SPLINE
  5
278E3
102
{ACAD_REACTORS
330
278E2
102
}
330
2
100
AcDbEntity
  8
Layer 1
100
AcDbSpline
210
0.0
220
0.0
230
1.0
 70
     9
 71
     3
 72
    17
 73
    13
 74
     0
 42
0.000000001
 43
0.0000000001
 40
0.0
 40
0.0
 40
0.0
 40
0.0
 40
1.0
 40
1.0
 40
1.0
 40
2.0
 40
2.0
 40
2.0
 40
3.0
 40
3.0
 40
3.0
 40
4.0
 40
4.0
 40
4.0
 40
4.0
 10
121.0004261762105
 20
9.096139985654128
 30
0.0
 10
120.1846487134851
 20
9.096139985654128
 30
0.0
 10
119.7131010471699
 20
9.62386459995641
 30
0.0
 10
119.7131010471699
 20
10.31239718777141
 30
0.0
 10
119.7131010471699
 20
11.06458141103956
 30
0.0
 10
120.2744617550693
 20
11.89546883768552
 30
0.0
 10
121.31862595748
 20
11.89546883768552
 30
0.0
 10
122.1681271077964
 20
11.89546883768552
 30
0.0
 10
122.6396017791168
 20
11.34159903844029
 30
0.0
 10
122.6396017791168
 20
10.67166395310743
 30
0.0
 10
122.6396017791168
 20
9.923187875574399
 30
0.0
 10
122.0820076129483
 20
9.096139985654128
 30
0.0
 10
121.0004261762105
 20
9.096139985654128
 30
0.0
  0
SPLINE
  5
278E4
102
{ACAD_REACTORS
330
278E2
102
}
330
2
100
AcDbEntity
  8
Layer 1
100
AcDbSpline
210
0.0
220
0.0
230
1.0
 70
     9
 71
     3
 72
    17
 73
    13
 74
     0
 42
0.000000001
 43
0.0000000001
 40
0.0
 40
0.0
 40
0.0
 40
0.0
 40
1.0
 40
1.0
 40
1.0
 40
2.0
 40
2.0
 40
2.0
 40
3.0
 40
3.0
 40
3.0
 40
4.0
 40
4.0
 40
4.0
 40
4.0
 10
121.8276054571214
 20
10.72035161462943
 30
0.0
 10
121.8276054571214
 20
11.1058673800903
 30
0.0
 10
121.5955689676968
 20
11.28920160899394
 30
0.0
 10
121.326115243945
 20
11.28920160899394
 30
0.0
 10
120.8134428652538
 20
11.28920160899394
 30
0.0
 10
120.5326596506252
 20
10.70917038764114
 30
0.0
 10
120.5326596506252
 20
10.30498089630123
 30
0.0
 10
120.5326596506252
 20
9.915771584104215
 30
0.0
 10
120.7722438225105
 20
9.732364360205743
 30
0.0
 10
121.0491722337284
 20
9.732364360205743
 30
0.0
 10
121.6031312491566
 20
9.732364360205743
 30
0.0
 10
121.8276054571214
 20
10.33492344316229
 30
0.0
 10
121.8276054571214
 20
10.72035161462943
 30
0.0
  0
HATCH
  5
278E5
330
2
100
AcDbEntity
  8
0
  6
Continuous
 62
     0
100
AcDbHatch
 10
0.0
 20
0.0
 30
0.0
210
0.0
220
0.0
230
1.0
  2
SOLID
 70
     1
 71
     1
 91
        2
 92
        5
 93
        4
 72
     4
 94
        3
 73
     0
 74
     0
 95
        8
 96
        4
 40
0.0
 40
0.0
 40
0.0
 40
0.0
 40
1.0
 40
1.0
 40
1.0
 40
1.0
 10
122.7309915125884
 20
10.31239718777141
 10
122.7309915125884
 20
9.62386459995641
 10
123.2025975748995
 20
9.096139985654128
 10
124.0183020426301
 20
9.096139985654128
 97
        0
 72
     4
 94
        3
 73
     0
 74
     0
 95
        8
 96
        4
 40
3.0
 40
3.0
 40
3.0
 40
3.0
 40
4.0
 40
4.0
 40
4.0
 40
4.0
 10
124.0183020426301
 20
9.096139985654128
 10
125.0998980783669
 20
9.096139985654128
 10
125.6574922445353
 20
9.923187875574399
 10
125.6574922445353
 20
10.67166395310743
 97
        0
 72
     4
 94
        3
 73
     0
 74
     0
 95
        8
 96
        4
 40
2.0
 40
2.0
 40
2.0
 40
2.0
 40
3.0
 40
3.0
 40
3.0
 40
3.0
 10
125.6574922445353
 20
10.67166395310743
 10
125.6574922445353
 20
11.34159903844029
 10
125.1859445782201
 20
11.89546883768552
 10
124.3365164228986
 20
11.89546883768552
 97
        0
 72
     4
 94
        3
 73
     0
 74
     0
 95
        8
 96
        4
 40
1.0
 40
1.0
 40
1.0
 40
1.0
 40
2.0
 40
2.0
 40
2.0
 40
2.0
 10
124.3365164228986
 20
11.89546883768552
 10
123.2922792254931
 20
11.89546883768552
 10
122.7309915125884
 20
11.06458141103956
 10
122.7309915125884
 20
10.31239718777141
 97
        0
 97
        1
330
278E7
 92
       20
 93
        4
 72
     4
 94
        3
 73
     0
 74
     0
 95
        8
 96
        4
 40
0.0
 40
0.0
 40
0.0
 40
0.0
 40
1.0
 40
1.0
 40
1.0
 40
1.0
 10
124.8454229275452
 20
10.72035161462943
 10
124.8454229275452
 20
11.1058673800903
 10
124.6133864381205
 20
11.28920160899394
 10
124.3437867243793
 20
11.28920160899394
 97
        0
 72
     4
 94
        3
 73
     0
 74
     0
 95
        8
 96
        4
 40
1.0
 40
1.0
 40
1.0
 40
1.0
 40
2.0
 40
2.0
 40
2.0
 40
2.0
 10
124.3437867243793
 20
11.28920160899394
 10
123.8312596679914
 20
11.28920160899394
 10
123.5506092488724
 20
10.70917038764114
 10
123.5506092488724
 20
10.30498089630123
 97
        0
 72
     4
 94
        3
 73
     0
 74
     0
 95
        8
 96
        4
 40
2.0
 40
2.0
 40
2.0
 40
2.0
 40
3.0
 40
3.0
 40
3.0
 40
3.0
 10
123.5506092488724
 20
10.30498089630123
 10
123.5506092488724
 20
9.915771584104215
 10
123.7899882979395
 20
9.732364360205743
 10
124.0669167091574
 20
9.732364360205743
 97
        0
 72
     4
 94
        3
 73
     0
 74
     0
 95
        8
 96
        4
 40
3.0
 40
3.0
 40
3.0
 40
3.0
 40
4.0
 40
4.0
 40
4.0
 40
4.0
 10
124.0669167091574
 20
9.732364360205743
 10
124.6208027295907
 20
9.732364360205743
 10
124.8454229275452
 20
10.33492344316229
 10
124.8454229275452
 20
10.72035161462943
 97
        0
 97
        1
330
278E6
 75
     1
 76
     1
 47
0.0269459378258844
 98
        2
 10
123.499552232468
 20
10.12056635213119
 10
123.499552232468
 20
10.12056635213119
450
        0
451
        0
460
0.0
461
0.0
452
        0
462
1.0
453
        2
463
0.0
 63
     5
421
      255
463
1.0
 63
     2
421
 16776960
470
LINEAR
1001
GRADIENTCOLOR1ACI
1070
     5
1001
GRADIENTCOLOR2ACI
1070
     2
1001
ACAD
1010
0.0
1020
0.0
1030
0.0
  0
SPLINE
  5
278E6
102
{ACAD_REACTORS
330
278E5
102
}
330
2
100
AcDbEntity
  8
Layer 1
100
AcDbSpline
210
0.0
220
0.0
230
1.0
 70
     9
 71
     3
 72
    17
 73
    13
 74
     0
 42
0.000000001
 43
0.0000000001
 40
0.0
 40
0.0
 40
0.0
 40
0.0
 40
1.0
 40
1.0
 40
1.0
 40
2.0
 40
2.0
 40
2.0
 40
3.0
 40
3.0
 40
3.0
 40
4.0
 40
4.0
 40
4.0
 40
4.0
 10
124.8454229275452
 20
10.72035161462943
 30
0.0
 10
124.8454229275452
 20
11.1058673800903
 30
0.0
 10
124.6133864381205
 20
11.28920160899394
 30
0.0
 10
124.3437867243793
 20
11.28920160899394
 30
0.0
 10
123.8312596679914
 20
11.28920160899394
 30
0.0
 10
123.5506092488724
 20
10.70917038764114
 30
0.0
 10
123.5506092488724
 20
10.30498089630123
 30
0.0
 10
123.5506092488724
 20
9.915771584104215
 30
0.0
 10
123.7899882979395
 20
9.732364360205743
 30
0.0
 10
124.0669167091574
 20
9.732364360205743
 30
0.0
 10
124.6208027295907
 20
9.732364360205743
 30
0.0
 10
124.8454229275452
 20
10.33492344316229
 30
0.0
 10
124.8454229275452
 20
10.72035161462943
 30
0.0
  0
SPLINE
  5
278E7
102
{ACAD_REACTORS
330
278E5
102
}
330
2
100
AcDbEntity
  8
Layer 1
100
AcDbSpline
210
0.0
220
0.0
230
1.0
 70
     9
 71
     3
 72
    17
 73
    13
 74
     0
 42
0.000000001
 43
0.0000000001
 40
0.0
 40
0.0
 40
0.0
 40
0.0
 40
1.0
 40
1.0
 40
1.0
 40
2.0
 40
2.0
 40
2.0
 40
3.0
 40
3.0
 40
3.0
 40
4.0
 40
4.0
 40
4.0
 40
4.0
 10
124.0183020426301
 20
9.096139985654128
 30
0.0
 10
123.2025975748995
 20
9.096139985654128
 30
0.0
 10
122.7309915125884
 20
9.62386459995641
 30
0.0
 10
122.7309915125884
 20
10.31239718777141
 30
0.0
 10
122.7309915125884
 20
11.06458141103956
 30
0.0
 10
123.2922792254931
 20
11.89546883768552
 30
0.0
 10
124.3365164228986
 20
11.89546883768552
 30
0.0
 10
125.1859445782201
 20
11.89546883768552
 30
0.0
 10
125.6574922445353
 20
11.34159903844029
 30
0.0
 10
125.6574922445353
 20
10.67166395310743
 30
0.0
 10
125.6574922445353
 20
9.923187875574399
 30
0.0
 10
125.0998980783669
 20
9.096139985654128
 30
0.0
 10
124.0183020426301
 20
9.096139985654128
 30
0.0
  0
HATCH
  5
278E8
330
2
100
AcDbEntity
  8
0
  6
Continuous
 62
     0
100
AcDbHatch
 10
0.0
 20
0.0
 30
0.0
210
0.0
220
0.0
230
1.0
  2
SOLID
 70
     1
 71
     1
 91
        1
 92
        5
 93
        6
 72
     4
 94
        3
 73
     0
 74
     0
 95
        8
 96
        4
 40
4.0
 40
4.0
 40
4.0
 40
4.0
 40
5.0
 40
5.0
 40
5.0
 40
5.0
 10
126.4671973342065
 20
9.788453714199075
 10
126.4671973342065
 20
9.788453714199075
 10
127.0098851119278
 20
11.81692622329618
 10
127.0098851119278
 20
11.81692622329618
 97
        0
 72
     4
 94
        3
 73
     0
 74
     0
 95
        8
 96
        4
 40
3.0
 40
3.0
 40
3.0
 40
3.0
 40
4.0
 40
4.0
 40
4.0
 40
4.0
 10
127.0098851119278
 20
11.81692622329618
 10
127.0098851119278
 20
11.81692622329618
 10
126.1789246902871
 20
11.81692622329618
 10
126.1789246902871
 20
11.81692622329618
 97
        0
 72
     4
 94
        3
 73
     0
 74
     0
 95
        8
 96
        4
 40
2.0
 40
2.0
 40
2.0
 40
2.0
 40
3.0
 40
3.0
 40
3.0
 40
3.0
 10
126.1789246902871
 20
11.81692622329618
 10
126.1789246902871
 20
11.81692622329618
 10
125.4717199828059
 20
9.174770194037192
 10
125.4717199828059
 20
9.174770194037192
 97
        0
 72
     4
 94
        3
 73
     0
 74
     0
 95
        8
 96
        4
 40
1.0
 40
1.0
 40
1.0
 40
1.0
 40
2.0
 40
2.0
 40
2.0
 40
2.0
 10
125.4717199828059
 20
9.174770194037192
 10
125.4717199828059
 20
9.174770194037192
 10
127.1821103311974
 20
9.174770194037192
 10
127.1821103311974
 20
9.174770194037192
 97
        0
 72
     4
 94
        3
 73
     0
 74
     0
 95
        8
 96
        4
 40
0.0
 40
0.0
 40
0.0
 40
0.0
 40
1.0
 40
1.0
 40
1.0
 40
1.0
 10
127.1821103311974
 20
9.174770194037192
 10
127.1821103311974
 20
9.174770194037192
 10
127.3851231821229
 20
9.788453714199075
 10
127.3851231821229
 20
9.788453714199075
 97
        0
 72
     4
 94
        3
 73
     0
 74
     0
 95
        8
 96
        4
 40
5.0
 40
5.0
 40
5.0
 40
5.0
 40
6.0
 40
6.0
 40
6.0
 40
6.0
 10
127.3851231821229
 20
9.788453714199075
 10
127.3851231821229
 20
9.788453714199075
 10
126.4671973342065
 20
9.788453714199075
 10
126.4671973342065
 20
9.788453714199075
 97
        0
 97
        6
330
278ED
330
278EC
330
278EB
330
278EA
330
278E9
330
278EE
 75
     1
 76
     1
 47
0.0168242271866721
 98
        1
 10
126.2127346809963
 20
9.960807196602663
450
        0
451
        0
460
0.0
461
0.0
452
        0
462
1.0
453
        2
463
0.0
 63
     5
421
      255
463
1.0
 63
     2
421
 16776960
470
LINEAR
1001
GRADIENTCOLOR1ACI
1070
     5
1001
GRADIENTCOLOR2ACI
1070
     2
1001
ACAD
1010
0.0
1020
0.0
1030
0.0
  0
SPLINE
  5
278E9
102
{ACAD_REACTORS
330
278E8
102
}
330
2
100
AcDbEntity
  8
Layer 1
100
AcDbSpline
210
0.0
220
0.0
230
1.0
 70
    24
 71
     3
 72
     8
 73
     4
 74
     0
 42
0.000000001
 43
0.0000000001
 40
0.0
 40
0.0
 40
0.0
 40
0.0
 40
1.0
 40
1.0
 40
1.0
 40
1.0
 10
127.3851231821229
 20
9.788453714199075
 30
0.0
 10
127.3851231821229
 20
9.788453714199075
 30
0.0
 10
127.1821103311974
 20
9.174770194037192
 30
0.0
 10
127.1821103311974
 20
9.174770194037192
 30
0.0
  0
SPLINE
  5
278EA
102
{ACAD_REACTORS
330
278E8
102
}
330
2
100
AcDbEntity
  8
Layer 1
100
AcDbSpline
210
0.0
220
0.0
230
1.0
 70
    24
 71
     3
 72
     8
 73
     4
 74
     0
 42
0.000000001
 43
0.0000000001
 40
1.0
 40
1.0
 40
1.0
 40
1.0
 40
2.0
 40
2.0
 40
2.0
 40
2.0
 10
127.1821103311974
 20
9.174770194037192
 30
0.0
 10
127.1821103311974
 20
9.174770194037192
 30
0.0
 10
125.4717199828059
 20
9.174770194037192
 30
0.0
 10
125.4717199828059
 20
9.174770194037192
 30
0.0
  0
SPLINE
  5
278EB
102
{ACAD_REACTORS
330
278E8
102
}
330
2
100
AcDbEntity
  8
Layer 1
100
AcDbSpline
210
0.0
220
0.0
230
1.0
 70
    24
 71
     3
 72
     8
 73
     4
 74
     0
 42
0.000000001
 43
0.0000000001
 40
2.0
 40
2.0
 40
2.0
 40
2.0
 40
3.0
 40
3.0
 40
3.0
 40
3.0
 10
125.4717199828059
 20
9.174770194037192
 30
0.0
 10
125.4717199828059
 20
9.174770194037192
 30
0.0
 10
126.1789246902871
 20
11.81692622329618
 30
0.0
 10
126.1789246902871
 20
11.81692622329618
 30
0.0
  0
SPLINE
  5
278EC
102
{ACAD_REACTORS
330
278E8
102
}
330
2
100
AcDbEntity
  8
Layer 1
100
AcDbSpline
210
0.0
220
0.0
230
1.0
 70
    24
 71
     3
 72
     8
 73
     4
 74
     0
 42
0.000000001
 43
0.0000000001
 40
3.0
 40
3.0
 40
3.0
 40
3.0
 40
4.0
 40
4.0
 40
4.0
 40
4.0
 10
126.1789246902871
 20
11.81692622329618
 30
0.0
 10
126.1789246902871
 20
11.81692622329618
 30
0.0
 10
127.0098851119278
 20
11.81692622329618
 30
0.0
 10
127.0098851119278
 20
11.81692622329618
 30
0.0
  0
SPLINE
  5
278ED
102
{ACAD_REACTORS
330
278E8
102
}
330
2
100
AcDbEntity
  8
Layer 1
100
AcDbSpline
210
0.0
220
0.0
230
1.0
 70
    24
 71
     3
 72
     8
 73
     4
 74
     0
 42
0.000000001
 43
0.0000000001
 40
4.0
 40
4.0
 40
4.0
 40
4.0
 40
5.0
 40
5.0
 40
5.0
 40
5.0
 10
127.0098851119278
 20
11.81692622329618
 30
0.0
 10
127.0098851119278
 20
11.81692622329618
 30
0.0
 10
126.4671973342065
 20
9.788453714199075
 30
0.0
 10
126.4671973342065
 20
9.788453714199075
 30
0.0
  0
SPLINE
  5
278EE
102
{ACAD_REACTORS
330
278E8
102
}
330
2
100
AcDbEntity
  8
Layer 1
100
AcDbSpline
210
0.0
220
0.0
230
1.0
 70
    24
 71
     3
 72
     8
 73
     4
 74
     0
 42
0.000000001
 43
0.0000000001
 40
5.0
 40
5.0
 40
5.0
 40
5.0
 40
6.0
 40
6.0
 40
6.0
 40
6.0
 10
126.4671973342065
 20
9.788453714199075
 30
0.0
 10
126.4671973342065
 20
9.788453714199075
 30
0.0
 10
127.3851231821229
 20
9.788453714199075
 30
0.0
 10
127.3851231821229
 20
9.788453714199075
 30
0.0
  0
TEXT
  5
278EF
330
2
100
AcDbEntity
  8
0
 62
     2
100
AcDbText
 10
109.7612293404601
 20
6.068373985863758
 30
0.0
 40
1.290777599999999
  1
www.maritool.com
  7
굴림
100
AcDbText
  0
TEXT
  5
278F0
330
2
100
AcDbEntity
  8
0
 62
     2
100
AcDbText
 10
100.9363221158203
 20
1.744747187423644
 30
0.0
 40
1.032622079999999
  1
ITEM#
  7
굴림
100
AcDbText
  0
TEXT
  5
278F1
330
2
100
AcDbEntity
  8
0
 62
     2
100
AcDbText
 10
107.5753918603636
 20
1.499399061496444
 30
0.0
 40
1.548933119999999
  1
HSK40E-SF.500-2.5
  7
굴림
100
AcDbText
  0
LINE
  5
27DE4
330
2
100
AcDbEntity
  8
3
  6
CENTER2
100
AcDbLine
 10
12.8228596568598
 20
50.47045232209805
 30
0.0
 11
98.32285965685981
 21
50.47045232209805
 31
0.0
  0
HATCH
  5
27DE5
330
2
100
AcDbEntity
  8
0
  6
Continuous
 62
     4
100
AcDbHatch
 10
0.0
 20
0.0
 30
0.0
210
0.0
220
0.0
230
1.0
  2
ANSI31
 70
     0
 71
     0
 91
        2
 92
        7
 72
     1
 73
     1
 93
       46
 10
63.03285965636416
 20
66.98045232212738
 42
0.0
 10
54.33085965686143
 20
66.98045232213011
 42
0.0
 10
53.82285965686162
 20
67.48845232212992
 42
0.0
 10
53.82285965685889
 20
69.67045232209787
 42
0.4142135623728508
 10
53.02285965685872
 20
70.47045232209715
 42
0.0
 10
51.84389727923292
 20
70.47045232209805
 42
0.0
 10
50.8228596568598
 20
68.70196328370642
 42
0.0
 10
50.8228596568598
 20
67.87045232209769
 42
0.0
 10
48.8228596568598
 20
67.87045232209769
 42
0.0
 10
48.8228596568598
 20
68.70196328370642
 42
0.0
 10
47.80182203448487
 20
70.47045232209805
 42
0.0
 10
34.62285965685908
 20
70.47045232209715
 42
0.4142135623730951
 10
33.8228596568589
 20
69.67045232209696
 42
0.0
 10
33.8228596568598
 20
66.87045232209223
 42
0.0
 10
34.02285965685872
 20
66.12404216058442
 42
0.0
 10
34.02285965685872
 20
65.77045232209733
 42
-0.4142135623730984
 10
33.62285965685908
 20
65.37045232209769
 42
0.0
 10
32.57024786011618
 20
65.37045232209769
 42
0.0
 10
31.81205731990952
 20
65.57360886505469
 42
0.0
 10
14.58283076844884
 20
64.71044418925069
 42
0.3996270516290933
 10
13.82285965685889
 20
63.91144626178633
 42
0.0
 10
13.82285965685889
 20
61.43233253744987
 42
0.0
 10
14.62285965685907
 20
60.97045232209805
 42
0.0
 10
21.82550938766974
 20
60.97045232209805
 42
0.0
 10
23.00907743950768
 20
63.02045232209824
 42
-0.2679491924311602
 10
23.35548760102131
 20
63.22045232209806
 42
0.0
 10
29.64703638473486
 20
63.22045232209806
 42
-0.2522636525022486
 10
33.82285965685799
 20
60.97045232209805
 42
0.0
 10
40.02285965686144
 20
60.97045232209805
 42
-0.7207592200550487
 10
41.8228596568598
 20
60.37045232209587
 42
0.0
 10
41.8228596568598
 20
56.77045232209914
 42
0.0
 10
42.12285965685999
 20
56.47045232209805
 42
0.0
 10
46.52285965685871
 20
56.47045232209805
 42
0.0
 10
46.8228596568598
 20
56.77045232209914
 42
0.0
 10
49.82285965685798
 20
56.77045232209914
 42
0.0
 10
49.82285965685798
 20
53.97045232209896
 42
0.0
 10
50.40020992604889
 20
52.97045232209715
 42
0.0
 10
51.42948398388591
 20
52.97045232209715
 42
0.0
 10
52.87285965685817
 20
55.47045232209805
 42
0.0
 10
52.87285965685817
 20
57.07045232209842
 42
0.0
 10
64.38984695496685
 20
57.07045232209842
 42
0.0
 10
65.3228596568598
 20
56.82045232209842
 42
0.0
 10
96.82285965686162
 20
56.82045232209842
 42
0.4142135623731471
 10
97.32285965686163
 20
57.32045232209841
 42
0.0
 10
97.32285965685981
 20
60.75745232205647
 42
0.0
 10
96.57280323078261
 20
61.65383743172881
 42
0.0
 97
        0
 92
       23
 72
     0
 73
     1
 93
        4
 10
46.52285965685871
 20
56.47045232209805
 10
42.12285965685999
 20
56.47045232209805
 10
42.52285965685871
 20
56.07045232209841
 10
46.12285965685908
 20
56.07045232209841
 97
        0
 75
     1
 76
     1
 52
0.0
 41
1.0
 77
     0
 78
     1
 53
45.0
 43
-5234.857673016612
 44
6005.812556293804
 45
-2.245064030267288
 46
2.245064030267288
 79
     0
 47
0.1627633310856053
 98
        2
 10
59.66039893926529
 20
61.9798900342212
 10
43.66325444994174
 20
56.27413029753737
1001
GRADIENTCOLOR1ACI
1070
     5
1001
GRADIENTCOLOR2ACI
1070
     2
1001
ACAD
1010
0.0
1020
0.0
1030
0.0
  0
LINE
  5
27DE6
330
2
100
AcDbEntity
  8
0
100
AcDbLine
 10
13.8228596568598
 20
63.91144626178633
 30
0.0
 11
13.8228596568598
 21
37.02945838240797
 31
0.0
  0
LINE
  5
27DE7
330
2
100
AcDbEntity
  8
0
100
AcDbLine
 10
14.62285965685907
 20
60.97045232209805
 30
0.0
 11
14.62285965685907
 21
50.47045232209805
 31
0.0
  0
ARC
  5
27DE8
330
2
100
AcDbEntity
  8
0
100
AcDbCircle
 10
14.62285965685907
 20
37.02945838240797
 30
0.0
 40
0.8
100
AcDbArc
 50
180.0
 51
267.1319444444364
  0
LINE
  5
27DE9
330
2
100
AcDbEntity
  8
0
100
AcDbLine
 10
53.8228596568598
 20
69.67045232209696
 30
0.0
 11
53.82285965686162
 21
67.48845232212992
 31
0.0
  0
LINE
  5
27DEA
330
2
100
AcDbEntity
  8
0
  6
Continuous
 62
     7
100
AcDbLine
 10
54.33085965686143
 20
66.98045232213011
 30
0.0
 11
53.82285965686162
 21
67.48845232212992
 31
0.0
  0
ARC
  5
27DEB
330
2
100
AcDbEntity
  8
0
100
AcDbCircle
 10
53.02285965685872
 20
69.67045232209696
 30
0.0
 40
0.8
100
AcDbArc
 50
0.0
 51
90.0
  0
LINE
  5
27DEC
330
2
100
AcDbEntity
  8
0
100
AcDbLine
 10
34.62285965685908
 20
70.47045232209805
 30
0.0
 11
47.80182203448487
 21
70.47045232209805
 31
0.0
  0
LINE
  5
27DED
330
2
100
AcDbEntity
  8
0
100
AcDbLine
 10
34.62285965685908
 20
30.47045232209806
 30
0.0
 11
47.80182203448487
 21
30.47045232209806
 31
0.0
  0
LINE
  5
27DEE
330
2
100
AcDbEntity
  8
0
100
AcDbLine
 10
31.81205731990952
 20
65.57360886505469
 30
0.0
 11
32.51938124110632
 21
65.38408199158315
 31
0.0
  0
LINE
  5
27DEF
330
2
100
AcDbEntity
  8
0
100
AcDbLine
 10
48.8228596568598
 20
68.70196328370642
 30
0.0
 11
48.8228596568598
 21
67.87045232209769
 31
0.0
  0
LINE
  5
27DF0
330
2
100
AcDbEntity
  8
0
100
AcDbLine
 10
48.8228596568598
 20
50.47045232209805
 30
0.0
 11
48.8228596568598
 21
32.23894136048969
 31
0.0
  0
LINE
  5
27DF1
330
2
100
AcDbEntity
  8
0
100
AcDbLine
 10
50.8228596568598
 20
68.70196328370642
 30
0.0
 11
50.8228596568598
 21
67.87045232209769
 31
0.0
  0
LINE
  5
27DF2
330
2
100
AcDbEntity
  8
0
100
AcDbLine
 10
50.8228596568598
 20
50.47045232209805
 30
0.0
 11
50.8228596568598
 21
32.23894136048969
 31
0.0
  0
LINE
  5
27DF3
330
2
100
AcDbEntity
  8
0
100
AcDbLine
 10
48.8228596568598
 20
67.87045232209769
 30
0.0
 11
50.8228596568598
 21
67.87045232209769
 31
0.0
  0
LINE
  5
27DF4
330
2
100
AcDbEntity
  8
0
100
AcDbLine
 10
51.84389727923292
 20
70.47045232209805
 30
0.0
 11
50.8228596568598
 21
68.70196328370642
 31
0.0
  0
LINE
  5
27DF5
330
2
100
AcDbEntity
  8
0
100
AcDbLine
 10
47.80182203448487
 20
70.47045232209805
 30
0.0
 11
48.8228596568598
 21
68.70196328370642
 31
0.0
  0
LINE
  5
27DF6
330
2
100
AcDbEntity
  8
0
100
AcDbLine
 10
51.84389727923292
 20
70.47045232209805
 30
0.0
 11
53.02285965685872
 21
70.47045232209805
 31
0.0
  0
LINE
  5
27DF7
330
2
100
AcDbEntity
  8
0
100
AcDbLine
 10
48.8228596568598
 20
33.07045232209842
 30
0.0
 11
50.8228596568598
 21
33.07045232209842
 31
0.0
  0
LINE
  5
27DF8
330
2
100
AcDbEntity
  8
0
100
AcDbLine
 10
47.80182203448487
 20
30.47045232209806
 30
0.0
 11
48.8228596568598
 21
32.23894136048969
 31
0.0
  0
LINE
  5
27DF9
330
2
100
AcDbEntity
  8
0
100
AcDbLine
 10
51.84389727923292
 20
30.47045232209806
 30
0.0
 11
50.8228596568598
 21
32.23894136048969
 31
0.0
  0
LINE
  5
27DFA
330
2
100
AcDbEntity
  8
0
100
AcDbLine
 10
51.84389727923292
 20
30.47045232209806
 30
0.0
 11
53.02285965685872
 21
30.47045232209806
 31
0.0
  0
ARC
  5
27DFB
330
2
100
AcDbEntity
  8
0
100
AcDbCircle
 10
53.02285965685872
 20
31.27045232209733
 30
0.0
 40
0.8
100
AcDbArc
 50
270.0
 51
0.0
  0
LINE
  5
27DFC
330
2
100
AcDbEntity
  8
0
100
AcDbLine
 10
47.80182203448487
 20
50.47045232209805
 30
0.0
 11
47.80182203448487
 21
30.47045232209806
 31
0.0
  0
LINE
  5
27DFD
330
2
100
AcDbEntity
  8
0
100
AcDbLine
 10
32.62290885914729
 20
65.37045232209769
 30
0.0
 11
33.62285965685908
 21
65.37045232209769
 31
0.0
  0
ARC
  5
27DFE
330
2
100
AcDbEntity
  8
0
100
AcDbCircle
 10
33.62285965685908
 20
65.77045232209733
 30
0.0
 40
0.4
100
AcDbArc
 50
270.0
 51
0.0
  0
ARC
  5
27DFF
330
2
100
AcDbEntity
  8
0
100
AcDbCircle
 10
32.62290885914729
 20
65.77045232209733
 30
0.0
 40
0.4
100
AcDbArc
 50
255.0000000000055
 51
270.0
  0
LINE
  5
27E00
330
2
100
AcDbEntity
  8
0
100
AcDbLine
 10
33.8228596568598
 20
69.67045232209696
 30
0.0
 11
33.8228596568598
 21
65.42404216058369
 31
0.0
  0
LINE
  5
27E01
330
2
100
AcDbEntity
  8
0
100
AcDbLine
 10
33.82285965685799
 20
66.87045232209769
 30
0.0
 11
34.02285965685872
 21
66.12404216058442
 31
0.0
  0
ARC
  5
27E02
330
2
100
AcDbEntity
  8
0
100
AcDbCircle
 10
34.62285965685908
 20
31.27045232209733
 30
0.0
 40
0.8
100
AcDbArc
 50
180.0
 51
270.0
  0
ARC
  5
27E03
330
2
100
AcDbEntity
  8
0
100
AcDbCircle
 10
34.62285965685908
 20
69.67045232209696
 30
0.0
 40
0.8
100
AcDbArc
 50
90.0
 51
180.0
  0
ARC
  5
27E04
330
2
100
AcDbEntity
  8
0
100
AcDbCircle
 10
33.51776864624947
 20
35.17045232209878
 30
0.0
 40
0.4
100
AcDbArc
 50
40.29475577440981
 51
90.0
  0
LINE
  5
27E05
330
2
100
AcDbEntity
  8
0
100
AcDbLine
 10
32.62290885914729
 20
35.5704523220966
 30
0.0
 11
33.51776864624947
 21
35.5704523220966
 31
0.0
  0
ARC
  5
27E06
330
2
100
AcDbEntity
  8
0
100
AcDbCircle
 10
32.62290885914729
 20
35.17045232209878
 30
0.0
 40
0.4
100
AcDbArc
 50
90.0
 51
104.9999999999944
  0
LINE
  5
27E07
330
2
100
AcDbEntity
  8
0
100
AcDbLine
 10
31.81205731990952
 20
35.36729577914142
 30
0.0
 11
32.51938124110632
 21
35.55682265261296
 31
0.0
  0
LINE
  5
27E08
330
2
100
AcDbEntity
  8
0
100
AcDbLine
 10
33.8228596568598
 20
60.97045232209805
 30
0.0
 11
33.8228596568598
 21
50.47045232209805
 31
0.0
  0
LINE
  5
27E09
330
2
100
AcDbEntity
  8
0
100
AcDbLine
 10
23.35548760102131
 20
63.22045232209806
 30
0.0
 11
29.64703638473577
 21
63.22045232209806
 31
0.0
  0
LINE
  5
27E0A
330
2
100
AcDbEntity
  8
0
100
AcDbLine
 10
21.82550938766974
 20
60.97045232209805
 30
0.0
 11
23.00907743950768
 21
63.02045232209732
 31
0.0
  0
LINE
  5
27E0B
330
2
100
AcDbEntity
  8
0
100
AcDbLine
 10
14.62285965685907
 20
60.97045232209805
 30
0.0
 11
13.8228596568598
 21
61.43233253744895
 31
0.0
  0
LINE
  5
27E0C
330
2
100
AcDbEntity
  8
0
100
AcDbLine
 10
21.82550938766974
 20
60.97045232209805
 30
0.0
 11
21.82550938766974
 21
50.47045232209805
 31
0.0
  0
LINE
  5
27E0D
330
2
100
AcDbEntity
  8
0
100
AcDbLine
 10
21.82550938766974
 20
60.97045232209805
 30
0.0
 11
14.62285965685907
 21
60.97045232209805
 31
0.0
  0
ARC
  5
27E0E
330
2
100
AcDbEntity
  8
0
100
AcDbCircle
 10
29.64703638473577
 20
58.22045232209806
 30
0.0
 40
5.0
100
AcDbArc
 50
33.36701296917404
 51
90.0
  0
ARC
  5
27E0F
330
2
100
AcDbEntity
  8
0
100
AcDbCircle
 10
23.35548760102131
 20
62.82045232209842
 30
0.0
 40
0.4
100
AcDbArc
 50
90.0
 51
149.9999999999883
  0
POINT
  5
27E10
330
2
100
AcDbEntity
  8
DEFPOINTS
  6
ByBlock
 62
     0
100
AcDbPoint
 10
48.8228596568598
 20
33.07045232209842
 30
0.0
  0
POINT
  5
27E11
330
2
100
AcDbEntity
  8
DEFPOINTS
  6
ByBlock
 62
     0
100
AcDbPoint
 10
48.8228596568598
 20
67.87045232209769
 30
0.0
  0
POINT
  5
27E12
330
2
100
AcDbEntity
  8
DEFPOINTS
  6
ByBlock
 62
     0
100
AcDbPoint
 10
48.8228596568598
 20
32.23894136048969
 30
0.0
  0
POINT
  5
27E13
330
2
100
AcDbEntity
  8
DEFPOINTS
  6
ByBlock
 62
     0
100
AcDbPoint
 10
50.8228596568598
 20
32.23894136048969
 30
0.0
  0
POINT
  5
27E14
330
2
100
AcDbEntity
  8
DEFPOINTS
  6
ByBlock
 62
     0
100
AcDbPoint
 10
47.80182203448487
 20
30.47045232209806
 30
0.0
  0
POINT
  5
27E15
330
2
100
AcDbEntity
  8
DEFPOINTS
  6
ByBlock
 62
     0
100
AcDbPoint
 10
51.84389727923292
 20
30.47045232209806
 30
0.0
  0
POINT
  5
27E16
330
2
100
AcDbEntity
  8
DEFPOINTS
  6
ByBlock
 62
     0
100
AcDbPoint
 10
29.82285965685981
 20
65.47045232209805
 30
0.0
  0
POINT
  5
27E17
330
2
100
AcDbEntity
  8
DEFPOINTS
  6
ByBlock
 62
     0
100
AcDbPoint
 10
31.82285965685981
 20
35.37045232209769
 30
0.0
  0
POINT
  5
27E18
330
2
100
AcDbEntity
  8
DEFPOINTS
  6
ByBlock
 62
     0
100
AcDbPoint
 10
23.35548760102131
 20
63.22045232209806
 30
0.0
  0
POINT
  5
27E19
330
2
100
AcDbEntity
  8
DEFPOINTS
  6
ByBlock
 62
     0
100
AcDbPoint
 10
33.8228596568598
 20
60.57045232209842
 30
0.0
  0
POINT
  5
27E1A
330
2
100
AcDbEntity
  8
DEFPOINTS
  6
ByBlock
 62
     0
100
AcDbPoint
 10
22.40285965685973
 20
61.97045232209806
 30
0.0
  0
POINT
  5
27E1B
330
2
100
AcDbEntity
  8
DEFPOINTS
  6
ByBlock
 62
     0
100
AcDbPoint
 10
22.40285965685973
 20
61.97045232209806
 30
0.0
  0
POINT
  5
27E1C
330
2
100
AcDbEntity
  8
DEFPOINTS
  6
ByBlock
 62
     0
100
AcDbPoint
 10
13.8228596568598
 20
58.22045232209806
 30
0.0
  0
LINE
  5
27E1D
330
2
100
AcDbEntity
  8
0
100
AcDbLine
 10
33.8228596568598
 20
60.97045232209805
 30
0.0
 11
40.02285965686053
 21
60.97045232209805
 31
0.0
  0
LINE
  5
27E1E
330
2
100
AcDbEntity
  8
0
100
AcDbLine
 10
41.8228596568598
 20
60.37045232209587
 30
0.0
 11
41.8228596568598
 21
50.47045232209805
 31
0.0
  0
CIRCLE
  5
27E1F
330
2
100
AcDbEntity
  8
0
100
AcDbCircle
 10
27.82285965685981
 20
50.47045232209805
 30
0.0
 40
2.299999999999999
  0
LINE
  5
27E20
330
2
100
AcDbEntity
  8
0
  6
Continuous
 62
     3
100
AcDbLine
 10
27.82285965685981
 20
49.97045232209806
 30
0.0
 11
27.82285965685981
 21
50.97045232209805
 31
0.0
  0
LINE
  5
27E21
330
2
100
AcDbEntity
  8
0
  6
Continuous
 62
     3
100
AcDbLine
 10
27.82285965685981
 20
49.47045232209806
 30
0.0
 11
27.82285965685981
 21
47.67045232209878
 31
0.0
  0
LINE
  5
27E22
330
2
100
AcDbEntity
  8
0
  6
Continuous
 62
     3
100
AcDbLine
 10
27.82285965685981
 20
51.47045232209805
 30
0.0
 11
27.82285965685981
 21
53.27045232209733
 31
0.0
  0
LINE
  5
27E23
330
2
100
AcDbEntity
  8
0
100
AcDbLine
 10
33.8228596568598
 20
31.27045232209733
 30
0.0
 11
33.8228596568598
 21
50.47045232209805
 31
0.0
  0
ARC
  5
27E24
330
2
100
AcDbEntity
  8
0
  6
Continuous
 62
     7
100
AcDbCircle
 10
27.82285965685981
 20
50.47045232209805
 30
0.0
 40
2.799999999999999
100
AcDbArc
 50
180.0
 51
0.0
  0
LINE
  5
27E25
330
2
100
AcDbEntity
  8
0
100
AcDbLine
 10
14.58283076844884
 20
36.2304604549436
 30
0.0
 11
31.81205731990952
 21
35.36729577914142
 31
0.0
  0
LINE
  5
27E26
330
2
100
AcDbEntity
  8
0
  6
Continuous
 62
     7
100
AcDbLine
 10
31.81205731990952
 20
35.36729577914142
 30
0.0
 11
31.81205731990952
 21
50.47045232209805
 31
0.0
  0
LINE
  5
27E27
330
2
100
AcDbEntity
  8
0
100
AcDbLine
 10
14.58283076844884
 20
64.71044418925069
 30
0.0
 11
31.81205731990952
 21
65.57360886505469
 31
0.0
  0
ARC
  5
27E28
330
2
100
AcDbEntity
  8
0
100
AcDbCircle
 10
14.62285965685907
 20
63.91144626178633
 30
0.0
 40
0.8
100
AcDbArc
 50
92.86805555556354
 51
180.0
  0
LINE
  5
27E29
330
2
100
AcDbEntity
  8
0
  6
Continuous
 62
     7
100
AcDbLine
 10
32.57069838225937
 20
35.56703026664858
 30
0.0
 11
32.57069838225937
 21
50.47045232209805
 31
0.0
  0
LINE
  5
27E2A
330
2
100
AcDbEntity
  8
0
  6
Continuous
 62
     7
100
AcDbLine
 10
23.12454749334495
 20
63.14705095446791
 30
0.0
 11
23.12454749334495
 21
50.47045232209805
 31
0.0
  0
LINE
  5
27E2B
330
2
100
AcDbEntity
  8
0
  6
Continuous
 62
     7
100
AcDbLine
 10
40.02285965686053
 20
60.97045232209805
 30
0.0
 11
40.02285965686053
 21
50.47045232209805
 31
0.0
  0
ARC
  5
27E2C
330
2
100
AcDbEntity
  8
0
  6
Continuous
 62
     7
100
AcDbCircle
 10
40.8228596568598
 20
60.37045232209587
 30
0.0
 40
1.0
100
AcDbArc
 50
0.0
 51
143.1301023539263
  0
LINE
  5
27E2D
330
2
100
AcDbEntity
  8
0
  6
Continuous
 62
     7
100
AcDbLine
 10
34.02285965685872
 20
66.12404216058442
 30
0.0
 11
34.02285965685872
 21
65.77045232209915
 31
0.0
  0
LINE
  5
27E2E
330
2
100
AcDbEntity
  8
0
100
AcDbLine
 10
53.8228596568598
 20
31.27045232209915
 30
0.0
 11
53.8228596568598
 21
50.47045232209715
 31
0.0
  0
LINE
  5
27E2F
330
2
100
AcDbEntity
  8
0
100
AcDbLine
 10
42.52285965685871
 20
56.07045232209841
 30
0.0
 11
42.52285965685871
 21
50.57045232209842
 31
0.0
  0
LINE
  5
27E30
330
2
100
AcDbEntity
  8
0
 62
     3
100
AcDbLine
 10
42.12285965685907
 20
56.47045232209805
 30
0.0
 11
46.52285965685871
 21
56.47045232209805
 31
0.0
  0
LINE
  5
27E31
330
2
100
AcDbEntity
  8
0
100
AcDbLine
 10
42.52285965685871
 20
56.07045232209841
 30
0.0
 11
46.12285965685908
 21
56.07045232209841
 31
0.0
  0
LINE
  5
27E32
330
2
100
AcDbEntity
  8
0
100
AcDbLine
 10
41.8228596568598
 20
56.77045232209914
 30
0.0
 11
42.52285965685871
 21
56.07045232209841
 31
0.0
  0
LINE
  5
27E33
330
2
100
AcDbEntity
  8
0
100
AcDbLine
 10
46.8228596568598
 20
56.77045232209914
 30
0.0
 11
46.8228596568598
 21
50.47045232209805
 31
0.0
  0
LINE
  5
27E34
330
2
100
AcDbEntity
  8
0
100
AcDbLine
 10
49.82285965685798
 20
56.77045232209914
 30
0.0
 11
49.82285965685798
 21
50.47045232209805
 31
0.0
  0
LINE
  5
27E35
330
2
100
AcDbEntity
  8
0
100
AcDbLine
 10
46.8228596568598
 20
56.77045232209914
 30
0.0
 11
49.82285965685798
 21
56.77045232209914
 31
0.0
  0
POINT
  5
27E36
330
2
100
AcDbEntity
  8
DEFPOINTS
  6
ByBlock
 62
     0
100
AcDbPoint
 10
49.82285965685798
 20
56.4992031420143
 30
0.0
  0
POINT
  5
27E37
330
2
100
AcDbEntity
  8
DEFPOINTS
  6
ByBlock
 62
     0
100
AcDbPoint
 10
49.82285965685798
 20
56.4992031420143
 30
0.0
  0
LINE
  5
27E38
330
2
100
AcDbEntity
  8
0
100
AcDbLine
 10
46.8228596568598
 20
56.77045232209914
 30
0.0
 11
46.12285965685908
 21
56.07045232209841
 31
0.0
  0
LINE
  5
27E39
330
2
100
AcDbEntity
  8
0
  6
Continuous
 62
     7
100
AcDbLine
 10
46.12285965685908
 20
56.07045232209841
 30
0.0
 11
46.12285965685908
 21
50.47045232209805
 31
0.0
  0
LINE
  5
27E3A
330
2
100
AcDbEntity
  8
0
  6
Continuous
 62
     7
100
AcDbLine
 10
49.82285965685798
 20
54.67045232209878
 30
0.0
 11
49.82285965685798
 21
50.47045232209805
 31
0.0
  0
LINE
  5
27E3B
330
2
100
AcDbEntity
  8
0
  6
Continuous
 62
     7
100
AcDbLine
 10
52.87285965685817
 20
57.07045232209842
 30
0.0
 11
52.87285965685817
 21
50.47045232209805
 31
0.0
  0
ARC
  5
27E3C
330
2
100
AcDbEntity
  8
0
  6
Continuous
 62
     7
100
AcDbCircle
 10
96.82285965686162
 20
57.32045232209841
 30
0.0
 40
0.5
100
AcDbArc
 50
270.0
 51
0.0
  0
LINE
  5
27E3D
330
2
100
AcDbEntity
  8
0
  6
Continuous
 62
     7
100
AcDbLine
 10
96.82285965686162
 20
56.82045232209842
 30
0.0
 11
65.3228596568598
 21
56.82045232209842
 31
0.0
  0
LINE
  5
27E43
330
2
100
AcDbEntity
  8
0
  6
Continuous
 62
     7
100
AcDbLine
 10
97.32285965686163
 20
50.47045232205258
 30
0.0
 11
97.32285965686163
 21
40.18345232205231
 31
0.0
  0
LINE
  5
27E44
330
2
100
AcDbEntity
  8
0
  6
Continuous
 62
     4
100
AcDbLine
 10
97.32285965686163
 20
39.81842566055005
 30
0.0
 11
97.32285965686163
 21
39.42145232205169
 31
0.0
  0
LINE
  5
27E45
330
2
100
AcDbEntity
  8
0
  6
Continuous
 62
     7
100
AcDbLine
 10
96.57280323078442
 20
39.28706721237998
 30
0.0
 11
97.32285965686163
 21
40.18345232205231
 31
0.0
  0
LINE
  5
27E46
330
2
100
AcDbEntity
  8
0
  6
Continuous
 62
     7
100
AcDbLine
 10
63.03285965686075
 20
50.47045232205258
 30
0.0
 11
63.03285965686075
 21
33.96045232205236
 31
0.0
  0
LINE
  5
27E47
330
2
100
AcDbEntity
  8
0
  6
Continuous
 62
     4
100
AcDbLine
 10
97.32285965686163
 20
39.42145232205169
 30
0.0
 11
96.945668329775
 21
39.35387220928263
 31
0.0
  0
LINE
  5
27E48
330
2
100
AcDbEntity
  8
0
  6
Continuous
 62
     7
100
AcDbLine
 10
96.57280323078442
 20
39.28706721237998
 30
0.0
 11
63.03285965686075
 21
33.96045232205236
 31
0.0
  0
LINE
  5
27E49
330
2
100
AcDbEntity
  8
0
  6
Continuous
 62
     7
100
AcDbLine
 10
63.03285965686075
 20
33.96045232205236
 30
0.0
 11
54.33085965685961
 21
33.96045232205236
 31
0.0
  0
LINE
  5
27E4A
330
2
100
AcDbEntity
  8
0
  6
Continuous
 62
     7
100
AcDbLine
 10
53.8228596568598
 20
33.45245232205255
 30
0.0
 11
54.33085965685961
 21
33.96045232205236
 31
0.0
  0
LINE
  5
27E4B
330
2
100
AcDbEntity
  8
0
  6
Continuous
 62
     7
100
AcDbLine
 10
96.57280323078442
 20
39.28706721237998
 30
0.0
 11
96.57280323078442
 21
50.47045232205258
 31
0.0
  0
LINE
  5
27E4C
330
2
100
AcDbEntity
  8
0
  6
Continuous
 62
     7
100
AcDbLine
 10
97.32285965686163
 20
50.47045232205622
 30
0.0
 11
97.32285965685981
 21
60.75745232205647
 31
0.0
  0
LINE
  5
27E4D
330
2
100
AcDbEntity
  8
0
  6
Continuous
 62
     4
100
AcDbLine
 10
97.32285965685798
 20
61.12247898355875
 30
0.0
 11
97.32285965685798
 21
61.51945232205711
 31
0.0
  0
LINE
  5
27E4E
330
2
100
AcDbEntity
  8
0
  6
Continuous
 62
     7
100
AcDbLine
 10
96.57280323078261
 20
61.65383743172881
 30
0.0
 11
97.32285965685981
 21
60.75745232205647
 31
0.0
  0
LINE
  5
27E4F
330
2
100
AcDbEntity
  8
0
  6
Continuous
 62
     4
100
AcDbLine
 10
97.32285965685798
 20
61.51945232205711
 30
0.0
 11
96.94566832977137
 21
61.58703243482617
 31
0.0
  0
LINE
  5
27E50
330
2
100
AcDbEntity
  8
0
  6
Continuous
 62
     7
100
AcDbLine
 10
96.57280323078261
 20
61.65383743172881
 30
0.0
 11
63.03285965685711
 21
66.98045232204916
 31
0.0
  0
LINE
  5
27E55
330
2
100
AcDbEntity
  8
0
  6
Continuous
 62
     7
100
AcDbLine
 10
63.0328596568653
 20
66.98045232212738
 30
0.0
 11
54.33085965686143
 21
66.98045232213011
 31
0.0
  0
LINE
  5
27E56
330
2
100
AcDbEntity
  8
0
  6
Continuous
 62
     7
100
AcDbLine
 10
54.33085965685961
 20
33.96045232205236
 30
0.0
 11
54.33085965685961
 21
50.47045232209805
 31
0.0
  0
LINE
  5
27E57
330
2
100
AcDbEntity
  8
0
  6
Continuous
 62
     7
100
AcDbLine
 10
50.40020992604889
 20
52.97045232209715
 30
0.0
 11
51.42948398388591
 21
52.97045232209715
 31
0.0
  0
LINE
  5
27E58
330
2
100
AcDbEntity
  8
0
  6
Continuous
 62
     7
100
AcDbLine
 10
49.82285965685798
 20
53.97045232209896
 30
0.0
 11
50.40020992604889
 21
52.97045232209715
 31
0.0
  0
LINE
  5
27E59
330
2
100
AcDbEntity
  8
0
  6
Continuous
 62
     7
100
AcDbLine
 10
50.40020992604889
 20
52.97045232209715
 30
0.0
 11
50.40020992604889
 21
50.47045232209805
 31
0.0
  0
LINE
  5
27E5A
330
2
100
AcDbEntity
  8
0
  6
Continuous
 62
     7
100
AcDbLine
 10
52.87285965685817
 20
55.47045232209805
 30
0.0
 11
51.42948398388591
 21
52.97045232209715
 31
0.0
  0
LINE
  5
27E5B
330
2
100
AcDbEntity
  8
0
  6
Continuous
 62
     7
100
AcDbLine
 10
51.42948398388591
 20
52.97045232209715
 30
0.0
 11
51.42948398388591
 21
50.47045232209805
 31
0.0
  0
LINE
  5
27E5C
330
2
100
AcDbEntity
  8
0
  6
Continuous
 62
     7
100
AcDbLine
 10
65.3228596568598
 20
56.82045232209842
 30
0.0
 11
64.38984695496322
 21
57.07045232209932
 31
0.0
  0
LINE
  5
27E5D
330
2
100
AcDbEntity
  8
0
  6
Continuous
 62
     7
100
AcDbLine
 10
64.38984695496777
 20
57.07045232209842
 30
0.0
 11
52.87285965685817
 21
57.07045232209842
 31
0.0
  0
LINE
  5
27E5E
330
2
100
AcDbEntity
  8
0
  6
Continuous
 62
     7
100
AcDbLine
 10
65.3228596568598
 20
56.82045232209842
 30
0.0
 11
65.3228596568598
 21
50.47045232209805
 31
0.0
  0
LINE
  5
27E5F
330
2
100
AcDbEntity
  8
0
  6
Continuous
 62
     7
100
AcDbLine
 10
64.38984695496685
 20
57.07045232209842
 30
0.0
 11
64.38984695496685
 21
50.47045232209805
 31
0.0
  0
LINE
  5
27E67
330
2
100
AcDbEntity
  8
0
  6
Continuous
 62
     7
100
AcDbLine
 10
51.84389727923292
 20
30.47045232209806
 30
0.0
 11
51.84389727923292
 21
50.47045232209805
 31
0.0
  0
DIMENSION
  5
280A1
330
2
100
AcDbEntity
  8
0
  6
Continuous
 62
     7
100
AcDbDimension
280
     0
  2
*D0
 10
116.612191561947
 20
39.42145232205169
 30
0.0
 11
114.487191561947
 21
50.47045232205441
 31
0.0
 70
    32
  1
%%c.87
 71
     5
 42
22.09800000000541
 73
     0
 74
     0
 75
     0
  3
Standard$0
100
AcDbAlignedDimension
 13
97.32285965685981
 23
61.51945232205711
 33
0.0
 14
97.32285965686163
 24
39.42145232205169
 34
0.0
 50
90.0
100
AcDbRotatedDimension
1001
ACAD
1000
DSTYLE
1002
{
1070
    76
1070
     1
1070
   282
1070
     1
1070
    42
1040
0.625
1070
    43
1040
3.75
1070
    44
1040
1.25
1070
    48
1040
0.000000001
1070
    74
1070
     0
1070
    77
1070
     1
1070
    90
1070
     1
1070
   140
1040
3.0
1070
   141
1040
-0.5
1070
   143
1040
0.03937007874016
1070
   146
1040
0.7
1070
   147
1040
0.625
1070
   171
1070
     3
1070
   172
1070
     1
1070
   175
1070
     0
1070
   274
1070
     3
1070
   283
1070
     0
1070
   284
1070
     8
1070
   340
1005
25
1070
   371
1070
    -1
1070
   372
1070
    -1
1002
}
  0
DIMENSION
  5
280A4
330
2
100
AcDbEntity
  8
0
  6
Continuous
 62
     7
100
AcDbDimension
280
     0
  2
*D1
 10
108.612191561947
 20
44.12045232209769
 30
0.0
 11
106.487191561947
 21
50.47045232209807
 31
0.0
 70
    32
  1
%%c.500
 71
     5
 42
12.70000000000073
 73
     0
 74
     0
 75
     0
  3
Standard$0
100
AcDbAlignedDimension
 13
96.82285965686162
 23
56.82045232209842
 33
0.0
 14
96.82285965686162
 24
44.12045232209769
 34
0.0
 50
90.0
100
AcDbRotatedDimension
1001
ACAD
1000
DSTYLE
1002
{
1070
     3
1000
%%c<>
1070
    76
1070
     1
1070
   282
1070
     1
1070
    42
1040
0.625
1070
    43
1040
3.75
1070
    44
1040
1.25
1070
    48
1040
0.000000001
1070
    74
1070
     0
1070
    77
1070
     1
1070
    90
1070
     1
1070
   140
1040
3.0
1070
   141
1040
-0.5
1070
   143
1040
0.03937007874016
1070
   146
1040
0.7
1070
   147
1040
0.625
1070
   171
1070
     3
1070
   172
1070
     1
1070
   175
1070
     0
1070
   274
1070
     3
1070
   283
1070
     0
1070
   284
1070
     8
1070
   340
1005
25
1070
   371
1070
    -1
1070
   372
1070
    -1
1002
}
  0
DIMENSION
  5
280C3
330
2
100
AcDbEntity
  8
0
  6
Continuous
 62
     7
100
AcDbDimension
280
     0
  2
*D2
 10
52.87285965685817
 20
82.78515100835742
 30
0.0
 11
75.09785965685807
 21
84.91015100835742
 31
0.0
 70
    32
  1
1.75
 71
     5
 42
44.44999999999981
 73
     0
 74
     0
 75
     0
  3
Standard$0
100
AcDbAlignedDimension
 13
97.32285965685798
 23
61.51945232205711
 33
0.0
 14
52.87285965685817
 24
57.07045232209842
 34
0.0
100
AcDbRotatedDimension
1001
ACAD
1000
DSTYLE
1002
{
1070
    42
1040
0.625
1070
    43
1040
3.75
1070
    44
1040
1.25
1070
    48
1040
0.000000001
1070
    74
1070
     0
1070
    77
1070
     1
1070
    90
1070
     1
1070
   140
1040
3.0
1070
   141
1040
-0.5
1070
   143
1040
0.03937007874016
1070
   146
1040
0.7
1070
   147
1040
0.625
1070
   171
1070
     3
1070
   172
1070
     1
1070
   175
1070
     0
1070
   274
1070
     3
1070
   283
1070
     0
1070
   284
1070
     8
1070
   340
1005
25
1070
   371
1070
    -1
1070
   372
1070
    -1
1002
}
  0
DIMENSION
  5
281FD
330
2
100
AcDbEntity
  8
0
  6
Continuous
 62
     7
100
AcDbDimension
280
     0
  2
*D3
 10
124.612191561947
 20
66.98045232204915
 30
0.0
 11
122.487191561947
 21
50.47045232205077
 31
0.0
 70
    32
  1
%%C1.30
 71
     5
 42
33.0199999999968
 73
     0
 74
     0
 75
     0
  3
Standard$0
100
AcDbAlignedDimension
 13
63.03285965686075
 23
33.96045232205236
 33
0.0
 14
63.03285965685711
 24
66.98045232204916
 34
0.0
 50
90.0
100
AcDbRotatedDimension
1001
ACAD
1000
DSTYLE
1002
{
1070
    42
1040
0.625
1070
    43
1040
3.75
1070
    44
1040
1.25
1070
    48
1040
0.000000001
1070
    74
1070
     0
1070
    77
1070
     1
1070
    90
1070
     1
1070
   140
1040
3.0
1070
   141
1040
-0.5
1070
   143
1040
0.03937007874016
1070
   146
1040
0.7
1070
   147
1040
0.625
1070
   171
1070
     3
1070
   172
1070
     1
1070
   175
1070
     0
1070
   179
1070
     1
1070
   274
1070
     3
1070
   283
1070
     0
1070
   284
1070
     8
1070
   340
1005
25
1070
   371
1070
    -1
1070
   372
1070
    -1
1002
}
  0
ENDSEC
  0
SECTION
  2
OBJECTS
  0
DICTIONARY
  5
B
330
0
100
AcDbDictionary
281
     1
  3
ACAD_CIP_PREVIOUS_PRODUCT_INFO
350
BE4
  3
ACAD_COLOR
350
3F
  3
ACAD_DETAILVIEWSTYLE
350
BDC
  3
ACAD_GROUP
350
3A
  3
ACAD_LAYOUT
350
17
  3
ACAD_MATERIAL
350
D
  3
ACAD_MLEADERSTYLE
350
42
  3
ACAD_MLINESTYLE
350
3B
  3
ACAD_PLOTSETTINGS
350
3C
  3
ACAD_PLOTSTYLENAME
350
A
  3
ACAD_SCALELIST
350
40
  3
ACAD_SECTIONVIEWSTYLE
350
BDA
  3
ACAD_TABLESTYLE
350
41
  3
ACAD_VISUALSTYLE
350
2F
  3
ACDB_RECOMPOSE_DATA
350
282D5
  3
AcDbVariableDictionary
350
BB8
  3
AEC_PROPERTY_SET_DEFS
350
24C9
  0
DICTIONARY
  5
31
330
2C
100
AcDbDictionary
280
     1
281
     1
  0
DICTIONARY
  5
22
330
21
100
AcDbDictionary
280
     1
281
     1
  3
ACAD_LAYERSTATES
360
23
  0
DICTIONARY
  5
7
330
6
100
AcDbDictionary
280
     1
281
     1
  3
ADSK_XREC_LAYER_RECONCILED
360
8
  0
DICTIONARY
  5
3
330
2
100
AcDbDictionary
280
     1
281
     1
  3
ACAD_SORTENTS
360
BB0
  0
XRECORD
  5
BE4
102
{ACAD_REACTORS
330
B
102
}
330
B
100
AcDbXrecord
280
     1
300
ACD
300
2014
300
ACD_F_S
  0
DICTIONARY
  5
3F
102
{ACAD_REACTORS
330
B
102
}
330
B
100
AcDbDictionary
281
     1
  0
DICTIONARY
  5
BDC
102
{ACAD_REACTORS
330
B
102
}
330
B
100
AcDbDictionary
281
     1
  3
Metric50
350
BDD
  0
DICTIONARY
  5
3A
102
{ACAD_REACTORS
330
B
102
}
330
B
100
AcDbDictionary
281
     1
  0
DICTIONARY
  5
17
102
{ACAD_REACTORS
330
B
102
}
330
B
100
AcDbDictionary
281
     1
  3
Model
350
16
  3
배치1
350
1E
  0
DICTIONARY
  5
D
102
{ACAD_REACTORS
330
B
102
}
330
B
100
AcDbDictionary
281
     1
  3
ByBlock
350
3E
  3
ByLayer
350
3D
  3
Global
350
C
  0
DICTIONARY
  5
42
102
{ACAD_REACTORS
330
B
102
}
330
B
100
AcDbDictionary
281
     1
  3
Standard
350
BD9
  0
DICTIONARY
  5
3B
102
{ACAD_REACTORS
330
B
102
}
330
B
100
AcDbDictionary
281
     1
  3
Standard
350
43
  0
DICTIONARY
  5
3C
102
{ACAD_REACTORS
330
B
102
}
330
B
100
AcDbDictionary
281
     1
  0
ACDBDICTIONARYWDFLT
  5
A
102
{ACAD_REACTORS
330
B
102
}
330
B
100
AcDbDictionary
281
     1
  3
Normal
350
9
100
AcDbDictionaryWithDefault
340
9
  0
DICTIONARY
  5
40
102
{ACAD_REACTORS
330
B
102
}
330
B
100
AcDbDictionary
281
     1
  3
*A1
350
1D6CF
  3
*A10
350
1D6D6
  3
*A11
350
1D6D7
  3
*A12
350
1D6D8
  3
*A13
350
1D6D9
  3
*A14
350
1D6DA
  3
*A15
350
1D6DB
  3
*A16
350
1D6DC
  3
*A2
350
1D6DD
  3
*A3
350
1D6DE
  3
*A4
350
1D6D0
  3
*A5
350
1D6D1
  3
*A6
350
1D6D2
  3
*A7
350
1D6D3
  3
*A8
350
1D6D4
  3
*A9
350
1D6D5
  3
A0
350
48
  3
A1
350
49
  3
A2
350
4A
  3
A3
350
4B
  3
A4
350
4C
  3
A5
350
4D
  3
A6
350
4E
  3
A7
350
4F
  3
A8
350
50
  3
A9
350
51
  3
B0
350
52
  3
B1
350
53
  3
B2
350
54
  3
B3
350
55
  3
B4
350
56
  3
B5
350
57
  3
B6
350
58
  0
DICTIONARY
  5
BDA
102
{ACAD_REACTORS
330
B
102
}
330
B
100
AcDbDictionary
281
     1
  3
Metric50
350
BDB
  0
DICTIONARY
  5
41
102
{ACAD_REACTORS
330
B
102
}
330
B
100
AcDbDictionary
281
     1
  3
Standard
350
44
  0
DICTIONARY
  5
2F
102
{ACAD_REACTORS
330
B
102
}
330
B
100
AcDbDictionary
281
     1
  3
2dWireframe
350
2E
  3
3D Hidden
350
1A64
  3
3dWireframe
350
47
  3
Basic
350
BC7
  3
Brighten
350
BCC
  3
ColorChange
350
BD0
  3
Conceptual
350
BCA
  3
Dim
350
BCB
  3
EdgeColorOff
350
BD8
  3
Facepattern
350
BCF
  3
Flat
350
BC3
  3
FlatWithEdges
350
BC4
  3
Gouraud
350
BC5
  3
GouraudWithEdges
350
BC6
  3
Hidden
350
BC9
  3
JitterOff
350
BD6
  3
Linepattern
350
BCE
  3
OverhangOff
350
BD7
  3
Realistic
350
46
  3
Shaded
350
BD5
  3
Shaded with edges
350
BD4
  3
Shades of Gray
350
BD1
  3
Sketchy
350
BD2
  3
Thicken
350
BCD
  3
Wireframe
350
BC8
  3
X-Ray
350
BD3
  0
XRECORD
  5
282D5
102
{ACAD_REACTORS
330
B
102
}
330
B
100
AcDbXrecord
280
     1
 90
        1
330
44
330
BDB
330
BDD
  0
DICTIONARY
  5
BB8
102
{ACAD_REACTORS
330
B
102
}
330
B
100
AcDbDictionary
281
     1
  3
CANNOSCALE
350
BBE
  3
CMLEADERSTYLE
350
BBA
  3
CTABLESTYLE
350
BB9
  3
CVIEWDETAILSTYLE
350
BBB
  3
CVIEWSECTIONSTYLE
350
BBC
  3
DIMASSOC
350
C3B
  3
HIDETEXT
350
C39
  3
HPCOLOR
350
FF3
  3
INDEXCTL
350
C38
  3
LAYEREVAL
350
BC0
  3
LAYERNOTIFY
350
BC1
  3
LIGHTINGUNITS
350
BBF
  3
MSLTSCALE
350
BBD
  3
SOLIDHIST
350
C3C
  3
SORTENTS
350
C37
  0
DICTIONARY
  5
24C9
102
{ACAD_REACTORS
330
B
102
}
330
B
100
AcDbDictionary
281
     1
  0
DICTIONARY
  5
23
102
{ACAD_REACTORS
330
22
102
}
330
22
100
AcDbDictionary
281
     1
  0
XRECORD
  5
8
102
{ACAD_REACTORS
330
7
102
}
330
7
100
AcDbXrecord
280
     1
290
     1
  0
SORTENTSTABLE
  5
BB0
102
{ACAD_REACTORS
330
3
102
}
330
3
100
AcDbSortentsTable
330
2
331
268B8
  5
268C0
331
268B9
  5
268C1
331
268BB
  5
268C3
331
268BC
  5
268C4
331
268B5
  5
268BB
331
268B7
  5
268BD
331
268B6
  5
268BC
331
268BA
  5
268C2
  0
ACDBDETAILVIEWSTYLE
  5
BDD
102
{ACAD_XDICTIONARY
360
282D3
102
}
102
{ACAD_REACTORS
330
BDC
102
}
330
BDC
100
AcDbModelDocViewStyle
 70
     0
  3
Metric50
290
     0
100
AcDbDetailViewStyle
 70
     0
 71
     0
 90
        3
 71
     1
340
25
 62
   256
 40
5.0
340
0
 62
   256
 40
5.0
300

 40
0.0
280
     1
 71
     2
340
14
 90
       25
 62
   256
 71
     3
340
25
 62
   256
 40
5.0
 90
        0
 40
15.0
 90
        1
300
%<\AcVar ViewDetailId>% (%<\AcVar ViewScale \f "%sn">%)
 71
     4
340
14
 90
       25
 62
   256
340
14
 90
       25
 62
   256
280
     0
  0
LAYOUT
  5
16
102
{ACAD_XDICTIONARY
360
18
102
}
102
{ACAD_REACTORS
330
17
102
}
330
17
100
AcDbPlotSettings
  1

  2
DWG To PDF.pc3
  4
ISO_expand_A4_(297.00_x_210.00_MM)
  6

 40
5.793749809265136
 41
10.79374980926513
 42
5.79376220703125
 43
10.79374694824219
 44
297.0
 45
210.0
 46
7.850524049718956
 47
0.0
 48
0.0
 49
0.0
140
411.0
141
287.112548380941
142
1.0
143
1.523850824334191
 70
 11956
 72
     1
 73
     0
 74
     4
  7
ksm0910.ctb
 75
     0
147
0.6562322138303302
 76
     0
 77
     2
 78
   300
148
0.0
149
0.0
100
AcDbLayout
  1
Model
 70
     1
 71
     0
 10
0.0
 20
0.0
 11
12.0
 21
9.0
 12
0.0
 22
0.0
 32
0.0
 14
0.0
 24
0.0
 34
0.0
 15
0.0
 25
0.0
 35
0.0
146
0.0
 13
0.0
 23
0.0
 33
0.0
 16
1.0
 26
0.0
 36
0.0
 17
0.0
 27
1.0
 37
0.0
 76
     0
330
2
331
2D
1001
ACAD_PSEXT
1000
DWG To PDF.pc3
1000
PDF
1000
파일
1000

1070
     0
  0
LAYOUT
  5
1E
102
{ACAD_XDICTIONARY
360
1F
102
}
102
{ACAD_REACTORS
330
17
102
}
330
17
100
AcDbPlotSettings
  1

  2
none_device
  4
ISO_A4_(210.00_x_297.00_MM)
  6

 40
7.5
 41
20.0
 42
7.5
 43
20.0
 44
210.0
 45
297.0
 46
0.0
 47
0.0
 48
0.0
 49
0.0
140
0.0
141
0.0
142
1.0
143
1.0
 70
   688
 72
     1
 73
     1
 74
     5
  7
ksm0910.ctb
 75
    16
147
1.0
 76
     0
 77
     2
 78
   300
148
0.0
149
0.0
100
AcDbLayout
  1
배치1
 70
     1
 71
     1
 10
-20.0
 20
-7.5
 11
277.0
 21
202.5
 12
0.0
 22
0.0
 32
0.0
 14
1.000000000000000E+20
 24
1.000000000000000E+20
 34
1.000000000000000E+20
 15
-1.000000000000000E+20
 25
-1.000000000000000E+20
 35
-1.000000000000000E+20
146
0.0
 13
0.0
 23
0.0
 33
0.0
 16
1.0
 26
0.0
 36
0.0
 17
0.0
 27
1.0
 37
0.0
 76
     0
330
1B
1001
ACAD_PSEXT
1000
없음
1000
없음
1000
해당 없음
1000
배치가 새로운 플로터 구성을 선택할 때까지 플롯되지 않습니다.
1070
     0
  0
MATERIAL
  5
3E
102
{ACAD_REACTORS
330
D
102
}
330
D
100
AcDbMaterial
  1
ByBlock
 94
       63
  0
MATERIAL
  5
3D
102
{ACAD_REACTORS
330
D
102
}
330
D
100
AcDbMaterial
  1
ByLayer
 94
       63
  0
MATERIAL
  5
C
102
{ACAD_XDICTIONARY
360
E
102
}
102
{ACAD_REACTORS
330
D
102
}
330
D
100
AcDbMaterial
  1
Global
 43
0.0007999999797903
 43
0.0
 43
0.0
 43
0.0
 43
0.0
 43
0.0007999999797903
 43
0.0
 43
0.0
 43
0.0
 43
0.0
 43
1.0
 43
0.0
 43
0.0
 43
0.0
 43
0.0
 43
1.0
 49
0.0007999999797903
 49
0.0
 49
0.0
 49
0.0
 49
0.0
 49
0.0007999999797903
 49
0.0
 49
0.0
 49
0.0
 49
0.0
 49
1.0
 49
0.0
 49
0.0
 49
0.0
 49
0.0
 49
1.0
142
0.0007999999797903
142
0.0
142
0.0
142
0.0
142
0.0
142
0.0007999999797903
142
0.0
142
0.0
142
0.0
142
0.0
142
1.0
142
0.0
142
0.0
142
0.0
142
0.0
142
1.0
144
0.0007999999797903
144
0.0
144
0.0
144
0.0
144
0.0
144
0.0007999999797903
144
0.0
144
0.0
144
0.0
144
0.0
144
1.0
144
0.0
144
0.0
144
0.0
144
0.0
144
1.0
 94
       63
1001
ACAD
1070
    -1
1070
     3
1070
     0
1000

1071
        0
1070
     0
  0
MLEADERSTYLE
  5
BD9
102
{ACAD_REACTORS
330
42
102
}
330
42
100
AcDbMLeaderStyle
179
     2
170
     2
171
     1
172
     0
 90
        2
 40
0.0
 41
0.0
173
     1
 91
-1056964608
340
28
 92
       -2
290
     1
 42
2.0
291
     1
 43
0.36
  3
Standard
 44
4.0
300

342
25
174
     1
178
     6
175
     1
176
     0
 93
-1056964608
 45
4.0
292
     0
297
     0
 46
4.0
 94
-1056964608
 47
1.0
 49
1.0
140
1.0
293
     1
141
0.0
294
     1
177
     0
142
1.0
295
     0
296
     0
143
0.125
271
     0
272
     9
273
     9
298
     1
  0
MLINESTYLE
  5
43
102
{ACAD_REACTORS
330
3B
102
}
330
3B
100
AcDbMlineStyle
  2
STANDARD
 70
     0
  3

 62
   256
 51
90.0
 52
90.0
 71
     2
 49
0.5
 62
   256
  6
BYLAYER
 49
-0.5
 62
   256
  6
BYLAYER
  0
ACDBPLACEHOLDER
  5
9
102
{ACAD_REACTORS
330
A
102
}
330
A
  0
SCALE
  5
1D6CF
102
{ACAD_REACTORS
330
40
102
}
330
40
100
AcDbScale
 70
     0
300
1/128" = 1'-0"
140
0.0078125
141
12.0
290
     0
  0
SCALE
  5
1D6D6
102
{ACAD_REACTORS
330
40
102
}
330
40
100
AcDbScale
 70
     0
300
1/4" = 1'-0"
140
0.25
141
12.0
290
     0
  0
SCALE
  5
1D6D7
102
{ACAD_REACTORS
330
40
102
}
330
40
100
AcDbScale
 70
     0
300
3/8" = 1'-0"
140
0.375
141
12.0
290
     0
  0
SCALE
  5
1D6D8
102
{ACAD_REACTORS
330
40
102
}
330
40
100
AcDbScale
 70
     0
300
1/2" = 1'-0"
140
0.5
141
12.0
290
     0
  0
SCALE
  5
1D6D9
102
{ACAD_REACTORS
330
40
102
}
330
40
100
AcDbScale
 70
     0
300
3/4" = 1'-0"
140
0.75
141
12.0
290
     0
  0
SCALE
  5
1D6DA
102
{ACAD_REACTORS
330
40
102
}
330
40
100
AcDbScale
 70
     0
300
1" = 1'-0"
140
1.0
141
12.0
290
     0
  0
SCALE
  5
1D6DB
102
{ACAD_REACTORS
330
40
102
}
330
40
100
AcDbScale
 70
     0
300
1-1/2" = 1'-0"
140
1.5
141
12.0
290
     0
  0
SCALE
  5
1D6DC
102
{ACAD_REACTORS
330
40
102
}
330
40
100
AcDbScale
 70
     0
300
3" = 1'-0"
140
3.0
141
12.0
290
     0
  0
SCALE
  5
1D6DD
102
{ACAD_REACTORS
330
40
102
}
330
40
100
AcDbScale
 70
     0
300
6" = 1'-0"
140
6.0
141
12.0
290
     0
  0
SCALE
  5
1D6DE
102
{ACAD_REACTORS
330
40
102
}
330
40
100
AcDbScale
 70
     0
300
1'-0" = 1'-0"
140
12.0
141
12.0
290
     0
  0
SCALE
  5
1D6D0
102
{ACAD_REACTORS
330
40
102
}
330
40
100
AcDbScale
 70
     0
300
1/64" = 1'-0"
140
0.015625
141
12.0
290
     0
  0
SCALE
  5
1D6D1
102
{ACAD_REACTORS
330
40
102
}
330
40
100
AcDbScale
 70
     0
300
1/32" = 1'-0"
140
0.03125
141
12.0
290
     0
  0
SCALE
  5
1D6D2
102
{ACAD_REACTORS
330
40
102
}
330
40
100
AcDbScale
 70
     0
300
1/16" = 1'-0"
140
0.0625
141
12.0
290
     0
  0
SCALE
  5
1D6D3
102
{ACAD_REACTORS
330
40
102
}
330
40
100
AcDbScale
 70
     0
300
3/32" = 1'-0"
140
0.09375
141
12.0
290
     0
  0
SCALE
  5
1D6D4
102
{ACAD_REACTORS
330
40
102
}
330
40
100
AcDbScale
 70
     0
300
1/8" = 1'-0"
140
0.125
141
12.0
290
     0
  0
SCALE
  5
1D6D5
102
{ACAD_REACTORS
330
40
102
}
330
40
100
AcDbScale
 70
     0
300
3/16" = 1'-0"
140
0.1875
141
12.0
290
     0
  0
SCALE
  5
48
102
{ACAD_REACTORS
330
40
102
}
330
40
100
AcDbScale
 70
     0
300
1:1
140
1.0
141
1.0
290
     1
  0
SCALE
  5
49
102
{ACAD_REACTORS
330
40
102
}
330
40
100
AcDbScale
 70
     0
300
1:2
140
1.0
141
2.0
290
     0
  0
SCALE
  5
4A
102
{ACAD_REACTORS
330
40
102
}
330
40
100
AcDbScale
 70
     0
300
1:4
140
1.0
141
4.0
290
     0
  0
SCALE
  5
4B
102
{ACAD_REACTORS
330
40
102
}
330
40
100
AcDbScale
 70
     0
300
1:5
140
1.0
141
5.0
290
     0
  0
SCALE
  5
4C
102
{ACAD_REACTORS
330
40
102
}
330
40
100
AcDbScale
 70
     0
300
1:8
140
1.0
141
8.0
290
     0
  0
SCALE
  5
4D
102
{ACAD_REACTORS
330
40
102
}
330
40
100
AcDbScale
 70
     0
300
1:10
140
1.0
141
10.0
290
     0
  0
SCALE
  5
4E
102
{ACAD_REACTORS
330
40
102
}
330
40
100
AcDbScale
 70
     0
300
1:16
140
1.0
141
16.0
290
     0
  0
SCALE
  5
4F
102
{ACAD_REACTORS
330
40
102
}
330
40
100
AcDbScale
 70
     0
300
1:20
140
1.0
141
20.0
290
     0
  0
SCALE
  5
50
102
{ACAD_REACTORS
330
40
102
}
330
40
100
AcDbScale
 70
     0
300
1:30
140
1.0
141
30.0
290
     0
  0
SCALE
  5
51
102
{ACAD_REACTORS
330
40
102
}
330
40
100
AcDbScale
 70
     0
300
1:40
140
1.0
141
40.0
290
     0
  0
SCALE
  5
52
102
{ACAD_REACTORS
330
40
102
}
330
40
100
AcDbScale
 70
     0
300
1:50
140
1.0
141
50.0
290
     0
  0
SCALE
  5
53
102
{ACAD_REACTORS
330
40
102
}
330
40
100
AcDbScale
 70
     0
300
1:100
140
1.0
141
100.0
290
     0
  0
SCALE
  5
54
102
{ACAD_REACTORS
330
40
102
}
330
40
100
AcDbScale
 70
     0
300
2:1
140
2.0
141
1.0
290
     0
  0
SCALE
  5
55
102
{ACAD_REACTORS
330
40
102
}
330
40
100
AcDbScale
 70
     0
300
4:1
140
4.0
141
1.0
290
     0
  0
SCALE
  5
56
102
{ACAD_REACTORS
330
40
102
}
330
40
100
AcDbScale
 70
     0
300
8:1
140
8.0
141
1.0
290
     0
  0
SCALE
  5
57
102
{ACAD_REACTORS
330
40
102
}
330
40
100
AcDbScale
 70
     0
300
10:1
140
10.0
141
1.0
290
     0
  0
SCALE
  5
58
102
{ACAD_REACTORS
330
40
102
}
330
40
100
AcDbScale
 70
     0
300
100:1
140
100.0
141
1.0
290
     0
  0
ACDBSECTIONVIEWSTYLE
  5
BDB
102
{ACAD_XDICTIONARY
360
282D1
102
}
102
{ACAD_REACTORS
330
BDA
102
}
330
BDA
100
AcDbModelDocViewStyle
 70
     0
  3
Metric50
290
     0
100
AcDbSectionViewStyle
 70
     0
 71
     0
 90
      102
 71
     1
340
25
 62
   256
 40
5.0
340
0
340
0
 62
   256
 40
5.0
300
I, O, Q, S, X, Z
 40
10.0
 90
        0
 40
2.5
 90
        0
 71
     2
340
14
 90
       25
 62
   256
340
14
 90
       50
 62
   256
 40
5.0
 40
2.5
 40
5.0
 71
     3
340
25
 62
   256
 40
5.0
 90
        0
 40
15.0
 90
        1
300
%<\AcVar ViewSectionStartId>%-%<\AcVar ViewSectionEndId>% (%<\AcVar ViewScale \f "%sn">%)
 71
     4
 62
   256
 62
   257
300
ANSI31
 40
1.0
 90
        0
290
     0
290
     0
 90
        6
 40
0.0
 40
1.570796326794896
 40
0.2617993877991494
 40
1.308996938995747
 40
-0.2617993877991494
 40
1.832595714594046
  0
TABLESTYLE
  5
44
102
{ACAD_XDICTIONARY
360
45
102
}
102
{ACAD_REACTORS
330
41
102
}
330
41
100
AcDbTableStyle
280
     0
  3
Standard
 70
     0
 71
     0
 40
1.5
 41
1.5
280
     0
281
     0
  7
Standard
140
4.5
170
     2
 62
     0
 63
     7
283
     0
 90
      512
 91
        0
  1

274
    -2
284
     1
 64
     0
275
    -2
285
     1
 65
     0
276
    -2
286
     1
 66
     0
277
    -2
287
     1
 67
     0
278
    -2
288
     1
 68
     0
279
    -2
289
     1
 69
     0
  7
Standard
140
6.0
170
     5
 62
     0
 63
     7
283
     0
 90
      512
 91
        0
  1

274
    -2
284
     1
 64
     0
275
    -2
285
     1
 65
     0
276
    -2
286
     1
 66
     0
277
    -2
287
     1
 67
     0
278
    -2
288
     1
 68
     0
279
    -2
289
     1
 69
     0
  7
Standard
140
4.5
170
     5
 62
     0
 63
     7
283
     0
 90
      512
 91
        0
  1

274
    -2
284
     1
 64
     0
275
    -2
285
     1
 65
     0
276
    -2
286
     1
 66
     0
277
    -2
287
     1
 67
     0
278
    -2
288
     1
 68
     0
279
    -2
289
     1
 69
     0
  0
VISUALSTYLE
  5
2E
102
{ACAD_REACTORS
330
2F
102
}
330
2F
100
AcDbVisualStyle
  2
2dWireframe
 70
     4
177
     3
291
     0
 70
    58
 90
        0
176
     1
 90
        2
176
     1
 90
        1
176
     1
 90
        0
176
     1
 40
0.6
176
     1
 40
30.0
176
     1
 62
     7
176
     1
 90
        1
176
     1
 90
        4
176
     1
 62
     7
176
     1
 62
   257
176
     1
 90
        1
176
     1
 90
        1
176
     1
 40
1.0
176
     1
 90
        0
176
     1
 62
   257
176
     1
 40
1.0
176
     1
 90
        1
176
     1
 90
        6
176
     1
 90
        2
176
     1
 62
     7
176
     1
 90
        5
176
     1
 90
        0
176
     1
 90
        0
176
     1
290
     0
176
     1
 90
        1
176
     1
 40
0.0
176
     1
 90
        0
176
     1
290
     1
176
     1
290
     1
176
     1
290
     0
176
     1
290
     0
176
     1
290
     0
176
     1
290
     0
176
     1
290
     0
176
     1
290
     0
176
     1
290
     0
176
     1
 90
       50
176
     1
 40
0.0
176
     1
 40
1.0
176
     1
 90
        0
176
     1
 62
    18
420
        0
176
     1
 90
       50
176
     1
 90
        3
176
     1
 62
     5
420
      255
176
     1
290
     0
176
     1
 90
       50
176
     1
 90
       50
176
     1
 90
       50
176
     1
290
     0
176
     1
 90
       50
176
     1
 62
   256
176
     0
 40
1.0
176
     0
 90
        2
176
     1
  1
strokes_ogs.tif
176
     1
290
     0
176
     1
 40
1.0
176
     1
 40
1.0
176
     1
  0
VISUALSTYLE
  5
1A64
102
{ACAD_REACTORS
330
2F
102
}
330
2F
100
AcDbVisualStyle
  2
3D Hidden
 70
     6
177
     3
291
     0
 70
    58
 90
        1
176
     1
 90
        2
176
     1
 90
        2
176
     1
 90
        0
176
     1
 40
0.6
176
     1
 40
30.0
176
     1
 62
     7
176
     1
 90
        2
176
     1
 90
        2
176
     1
 62
     7
176
     1
 62
   257
176
     1
 90
        2
176
     1
 90
        1
176
     1
 40
40.0
176
     1
 90
        0
176
     1
 62
   257
176
     1
 40
1.0
176
     1
 90
        1
176
     1
 90
        6
176
     1
 90
        2
176
     1
 62
     7
176
     1
 90
        3
176
     1
 90
        0
176
     1
 90
        0
176
     1
290
     0
176
     1
 90
        1
176
     1
 40
0.0
176
     1
 90
        0
176
     1
290
     0
176
     1
290
     1
176
     1
290
     1
176
     1
290
     0
176
     1
290
     0
176
     1
290
     0
176
     1
290
     0
176
     1
290
     0
176
     1
290
     0
176
     1
 90
       50
176
     1
 40
0.0
176
     1
 40
1.0
176
     1
 90
        0
176
     1
 62
    18
420
        0
176
     1
 90
       50
176
     1
 90
        3
176
     1
 62
     5
420
      255
176
     1
290
     0
176
     1
 90
       50
176
     1
 90
       50
176
     1
 90
       50
176
     1
290
     0
176
     1
 90
       50
176
     1
 62
   256
176
     0
 40
1.0
176
     0
 90
        2
176
     1
  1
strokes_ogs.tif
176
     1
290
     0
176
     1
 40
1.0
176
     1
 40
1.0
176
     1
  0
VISUALSTYLE
  5
47
102
{ACAD_REACTORS
330
2F
102
}
330
2F
100
AcDbVisualStyle
  2
3dWireframe
 70
     5
177
     3
291
     0
 70
    58
 90
        0
176
     1
 90
        2
176
     1
 90
        1
176
     1
 90
        0
176
     1
 40
0.6
176
     1
 40
30.0
176
     1
 62
     7
176
     1
 90
        1
176
     1
 90
        4
176
     1
 62
     7
176
     1
 62
   257
176
     1
 90
        1
176
     1
 90
        1
176
     1
 40
1.0
176
     1
 90
        0
176
     1
 62
   257
176
     1
 40
1.0
176
     1
 90
        1
176
     1
 90
        6
176
     1
 90
        2
176
     1
 62
     7
176
     1
 90
        5
176
     1
 90
        0
176
     1
 90
        0
176
     1
290
     0
176
     1
 90
        1
176
     1
 40
0.0
176
     1
 90
        0
176
     1
290
     0
176
     1
290
     1
176
     1
290
     1
176
     1
290
     0
176
     1
290
     0
176
     1
290
     0
176
     1
290
     0
176
     1
290
     0
176
     1
290
     0
176
     1
 90
       50
176
     1
 40
0.0
176
     1
 40
1.0
176
     1
 90
        0
176
     1
 62
    18
420
        0
176
     1
 90
       50
176
     1
 90
        3
176
     1
 62
     5
420
      255
176
     1
290
     0
176
     1
 90
       50
176
     1
 90
       50
176
     1
 90
       50
176
     1
290
     0
176
     1
 90
       50
176
     1
 62
   256
176
     0
 40
1.0
176
     0
 90
        2
176
     1
  1
strokes_ogs.tif
176
     1
290
     0
176
     1
 40
1.0
176
     1
 40
1.0
176
     1
  0
VISUALSTYLE
  5
BC7
102
{ACAD_REACTORS
330
2F
102
}
330
2F
100
AcDbVisualStyle
  2
Basic
 70
     7
177
     3
291
     1
 70
    58
 90
        1
176
     1
 90
        0
176
     1
 90
        1
176
     1
 90
        0
176
     1
 40
0.6
176
     1
 40
30.0
176
     1
 62
     7
176
     1
 90
        0
176
     1
 90
        4
176
     1
 62
     7
176
     1
 62
   257
176
     1
 90
        1
176
     1
 90
        1
176
     1
 40
1.0
176
     1
 90
        8
176
     1
 62
     7
176
     1
 40
1.0
176
     1
 90
        1
176
     1
 90
        6
176
     1
 90
        2
176
     1
 62
     7
176
     1
 90
        5
176
     1
 90
        0
176
     1
 90
        0
176
     1
290
     0
176
     1
 90
        1
176
     1
 40
0.0
176
     1
 90
        0
176
     1
290
     0
176
     1
290
     1
176
     1
290
     1
176
     1
290
     0
176
     1
290
     0
176
     1
290
     0
176
     1
290
     0
176
     1
290
     0
176
     1
290
     0
176
     1
 90
       50
176
     1
 40
0.0
176
     1
 40
1.0
176
     1
 90
        0
176
     1
 62
    18
420
        0
176
     1
 90
       50
176
     1
 90
        3
176
     1
 62
     5
420
      255
176
     1
290
     0
176
     1
 90
       50
176
     1
 90
       50
176
     1
 90
       50
176
     1
290
     0
176
     1
 90
       50
176
     1
 62
   256
176
     0
 40
1.0
176
     0
 90
        2
176
     1
  1
strokes_ogs.tif
176
     1
290
     0
176
     1
 40
1.0
176
     1
 40
1.0
176
     1
  0
VISUALSTYLE
  5
BCC
102
{ACAD_REACTORS
330
2F
102
}
330
2F
100
AcDbVisualStyle
  2
Brighten
 70
    12
177
     3
291
     1
 70
    58
 90
        2
176
     1
 90
        2
176
     1
 90
        0
176
     1
 90
        0
176
     1
 40
0.6
176
     1
 40
30.0
176
     1
 62
     7
176
     1
 90
        1
176
     1
 90
        4
176
     1
 62
     7
176
     1
 62
   257
176
     1
 90
        1
176
     1
 90
        1
176
     1
 40
1.0
176
     1
 90
        8
176
     1
 62
     7
176
     1
 40
1.0
176
     1
 90
        1
176
     1
 90
        6
176
     1
 90
        2
176
     1
 62
     7
176
     1
 90
        5
176
     1
 90
        0
176
     1
 90
        0
176
     1
290
     0
176
     1
 90
        1
176
     1
 40
50.0
176
     1
 90
        0
176
     1
290
     0
176
     1
290
     1
176
     1
290
     1
176
     1
290
     0
176
     1
290
     0
176
     1
290
     0
176
     1
290
     0
176
     1
290
     0
176
     1
290
     0
176
     1
 90
       50
176
     1
 40
0.0
176
     1
 40
1.0
176
     1
 90
        0
176
     1
 62
    18
420
        0
176
     1
 90
       50
176
     1
 90
        3
176
     1
 62
     5
420
      255
176
     1
290
     0
176
     1
 90
       50
176
     1
 90
       50
176
     1
 90
       50
176
     1
290
     0
176
     1
 90
       50
176
     1
 62
   256
176
     0
 40
1.0
176
     0
 90
        2
176
     1
  1
strokes_ogs.tif
176
     1
290
     0
176
     1
 40
1.0
176
     1
 40
1.0
176
     1
  0
VISUALSTYLE
  5
BD0
102
{ACAD_REACTORS
330
2F
102
}
330
2F
100
AcDbVisualStyle
  2
ColorChange
 70
    16
177
     3
291
     1
 70
    58
 90
        2
176
     1
 90
        2
176
     1
 90
        3
176
     1
 90
        0
176
     1
 40
0.6
176
     1
 40
30.0
176
     1
 62
     8
176
     1
 90
        1
176
     1
 90
        4
176
     1
 62
     7
176
     1
 62
   257
176
     1
 90
        1
176
     1
 90
        1
176
     1
 40
1.0
176
     1
 90
        8
176
     1
 62
     8
176
     1
 40
1.0
176
     1
 90
        1
176
     1
 90
        6
176
     1
 90
        2
176
     1
 62
     7
176
     1
 90
        5
176
     1
 90
        0
176
     1
 90
        0
176
     1
290
     0
176
     1
 90
        1
176
     1
 40
0.0
176
     1
 90
        0
176
     1
290
     0
176
     1
290
     1
176
     1
290
     1
176
     1
290
     0
176
     1
290
     0
176
     1
290
     0
176
     1
290
     0
176
     1
290
     0
176
     1
290
     0
176
     1
 90
       50
176
     1
 40
0.0
176
     1
 40
1.0
176
     1
 90
        0
176
     1
 62
    18
420
        0
176
     1
 90
       50
176
     1
 90
        3
176
     1
 62
     5
420
      255
176
     1
290
     0
176
     1
 90
       50
176
     1
 90
       50
176
     1
 90
       50
176
     1
290
     0
176
     1
 90
       50
176
     1
 62
   256
176
     0
 40
1.0
176
     0
 90
        2
176
     1
  1
strokes_ogs.tif
176
     1
290
     0
176
     1
 40
1.0
176
     1
 40
1.0
176
     1
  0
VISUALSTYLE
  5
BCA
102
{ACAD_REACTORS
330
2F
102
}
330
2F
100
AcDbVisualStyle
  2
Conceptual
 70
     9
177
     3
291
     0
 70
    58
 90
        3
176
     1
 90
        2
176
     1
 90
        0
176
     1
 90
        0
176
     1
 40
0.6
176
     1
 40
30.0
176
     1
 62
     7
176
     1
 90
        2
176
     1
 90
        2
176
     1
 62
     7
176
     1
 62
   257
176
     1
 90
        1
176
     1
 90
        1
176
     1
 40
179.0
176
     1
 90
        8
176
     1
 62
     7
176
     1
 40
1.0
176
     1
 90
        1
176
     1
 90
        6
176
     1
 90
        2
176
     1
 62
     7
176
     1
 90
        3
176
     1
 90
        0
176
     1
 90
        0
176
     1
290
     0
176
     1
 90
        1
176
     1
 40
0.0
176
     1
 90
        0
176
     1
290
     0
176
     1
290
     1
176
     1
290
     1
176
     1
290
     0
176
     1
290
     0
176
     1
290
     0
176
     1
290
     0
176
     1
290
     0
176
     1
290
     0
176
     1
 90
       50
176
     1
 40
0.0
176
     1
 40
1.0
176
     1
 90
        0
176
     1
 62
    18
420
        0
176
     1
 90
       50
176
     1
 90
        3
176
     1
 62
     5
420
      255
176
     1
290
     0
176
     1
 90
       50
176
     1
 90
       50
176
     1
 90
       50
176
     1
290
     0
176
     1
 90
       50
176
     1
 62
   256
176
     0
 40
1.0
176
     0
 90
        2
176
     1
  1
strokes_ogs.tif
176
     1
290
     0
176
     1
 40
1.0
176
     1
 40
1.0
176
     1
  0
VISUALSTYLE
  5
BCB
102
{ACAD_REACTORS
330
2F
102
}
330
2F
100
AcDbVisualStyle
  2
Dim
 70
    11
177
     3
291
     1
 70
    58
 90
        2
176
     1
 90
        2
176
     1
 90
        0
176
     1
 90
        0
176
     1
 40
0.6
176
     1
 40
30.0
176
     1
 62
     7
176
     1
 90
        1
176
     1
 90
        4
176
     1
 62
     7
176
     1
 62
   257
176
     1
 90
        1
176
     1
 90
        1
176
     1
 40
1.0
176
     1
 90
        8
176
     1
 62
     7
176
     1
 40
1.0
176
     1
 90
        1
176
     1
 90
        6
176
     1
 90
        2
176
     1
 62
     7
176
     1
 90
        5
176
     1
 90
        0
176
     1
 90
        0
176
     1
290
     0
176
     1
 90
        1
176
     1
 40
-50.0
176
     1
 90
        0
176
     1
290
     0
176
     1
290
     1
176
     1
290
     1
176
     1
290
     0
176
     1
290
     0
176
     1
290
     0
176
     1
290
     0
176
     1
290
     0
176
     1
290
     0
176
     1
 90
       50
176
     1
 40
0.0
176
     1
 40
1.0
176
     1
 90
        0
176
     1
 62
    18
420
        0
176
     1
 90
       50
176
     1
 90
        3
176
     1
 62
     5
420
      255
176
     1
290
     0
176
     1
 90
       50
176
     1
 90
       50
176
     1
 90
       50
176
     1
290
     0
176
     1
 90
       50
176
     1
 62
   256
176
     0
 40
1.0
176
     0
 90
        2
176
     1
  1
strokes_ogs.tif
176
     1
290
     0
176
     1
 40
1.0
176
     1
 40
1.0
176
     1
  0
VISUALSTYLE
  5
BD8
102
{ACAD_REACTORS
330
2F
102
}
330
2F
100
AcDbVisualStyle
  2
EdgeColorOff
 70
    22
177
     3
291
     1
 70
    58
 90
        2
176
     0
 90
        2
176
     0
 90
        0
176
     0
 90
        0
176
     0
 40
0.6
176
     0
 40
30.0
176
     0
 62
     7
176
     0
 90
        1
176
     0
 90
        4
176
     0
 62
     7
176
     0
 62
   257
176
     0
 90
        1
176
     0
 90
        1
176
     0
 40
1.0
176
     0
 90
        8
176
     2
 62
     7
176
     0
 40
1.0
176
     0
 90
        1
176
     0
 90
        6
176
     0
 90
        2
176
     0
 62
     7
176
     0
 90
        5
176
     0
 90
        0
176
     0
 90
        0
176
     0
290
     0
176
     0
 90
        1
176
     0
 40
0.0
176
     0
 90
        0
176
     0
290
     0
176
     0
290
     1
176
     0
290
     1
176
     0
290
     0
176
     0
290
     0
176
     0
290
     0
176
     0
290
     0
176
     0
290
     0
176
     0
290
     0
176
     0
 90
       50
176
     0
 40
0.0
176
     0
 40
1.0
176
     0
 90
        0
176
     0
 62
    18
420
        0
176
     0
 90
       50
176
     0
 90
        3
176
     0
 62
     5
420
      255
176
     0
290
     0
176
     0
 90
       50
176
     0
 90
       50
176
     0
 90
       50
176
     0
290
     0
176
     0
 90
       50
176
     0
 62
   256
176
     0
 40
1.0
176
     0
 90
        2
176
     0
  1
strokes_ogs.tif
176
     0
290
     0
176
     0
 40
1.0
176
     0
 40
1.0
176
     0
  0
VISUALSTYLE
  5
BCF
102
{ACAD_REACTORS
330
2F
102
}
330
2F
100
AcDbVisualStyle
  2
Facepattern
 70
    15
177
     3
291
     1
 70
    58
 90
        2
176
     1
 90
        2
176
     1
 90
        0
176
     1
 90
        0
176
     1
 40
0.6
176
     1
 40
30.0
176
     1
 62
     7
176
     1
 90
        1
176
     1
 90
        4
176
     1
 62
     7
176
     1
 62
   257
176
     1
 90
        1
176
     1
 90
        1
176
     1
 40
1.0
176
     1
 90
        8
176
     1
 62
     7
176
     1
 40
1.0
176
     1
 90
        1
176
     1
 90
        6
176
     1
 90
        2
176
     1
 62
     7
176
     1
 90
        5
176
     1
 90
        0
176
     1
 90
        0
176
     1
290
     0
176
     1
 90
        1
176
     1
 40
0.0
176
     1
 90
        0
176
     1
290
     0
176
     1
290
     1
176
     1
290
     1
176
     1
290
     0
176
     1
290
     0
176
     1
290
     0
176
     1
290
     0
176
     1
290
     0
176
     1
290
     0
176
     1
 90
       50
176
     1
 40
0.0
176
     1
 40
1.0
176
     1
 90
        0
176
     1
 62
    18
420
        0
176
     1
 90
       50
176
     1
 90
        3
176
     1
 62
     5
420
      255
176
     1
290
     0
176
     1
 90
       50
176
     1
 90
       50
176
     1
 90
       50
176
     1
290
     0
176
     1
 90
       50
176
     1
 62
   256
176
     0
 40
1.0
176
     0
 90
        2
176
     1
  1
strokes_ogs.tif
176
     1
290
     0
176
     1
 40
1.0
176
     1
 40
1.0
176
     1
  0
VISUALSTYLE
  5
BC3
102
{ACAD_REACTORS
330
2F
102
}
330
2F
100
AcDbVisualStyle
  2
Flat
 70
     0
177
     3
291
     1
 70
    58
 90
        2
176
     1
 90
        1
176
     1
 90
        1
176
     1
 90
        2
176
     1
 40
0.6
176
     1
 40
30.0
176
     1
 62
     7
176
     1
 90
        0
176
     1
 90
        0
176
     1
 62
     7
176
     1
 62
   257
176
     1
 90
        1
176
     1
 90
        1
176
     1
 40
1.0
176
     1
 90
        8
176
     1
 62
     7
176
     1
 40
1.0
176
     1
 90
        1
176
     1
 90
        6
176
     1
 90
        2
176
     1
 62
     7
176
     1
 90
        5
176
     1
 90
        0
176
     1
 90
        0
176
     1
290
     0
176
     1
 90
       13
176
     1
 40
0.0
176
     1
 90
        0
176
     1
290
     0
176
     1
290
     1
176
     1
290
     1
176
     1
290
     0
176
     1
290
     0
176
     1
290
     0
176
     1
290
     0
176
     1
290
     0
176
     1
290
     0
176
     1
 90
       50
176
     1
 40
0.0
176
     1
 40
1.0
176
     1
 90
        0
176
     1
 62
    18
420
        0
176
     1
 90
       50
176
     1
 90
        3
176
     1
 62
     5
420
      255
176
     1
290
     0
176
     1
 90
       50
176
     1
 90
       50
176
     1
 90
       50
176
     1
290
     0
176
     1
 90
       50
176
     1
 62
   256
176
     0
 40
1.0
176
     0
 90
        2
176
     1
  1
strokes_ogs.tif
176
     1
290
     0
176
     1
 40
1.0
176
     1
 40
1.0
176
     1
  0
VISUALSTYLE
  5
BC4
102
{ACAD_REACTORS
330
2F
102
}
330
2F
100
AcDbVisualStyle
  2
FlatWithEdges
 70
     1
177
     3
291
     1
 70
    58
 90
        2
176
     1
 90
        1
176
     1
 90
        1
176
     1
 90
        2
176
     1
 40
0.6
176
     1
 40
30.0
176
     1
 62
     7
176
     1
 90
        1
176
     1
 90
        0
176
     1
 62
     7
176
     1
 62
   257
176
     1
 90
        1
176
     1
 90
        1
176
     1
 40
1.0
176
     1
 90
        0
176
     1
 62
   257
176
     1
 40
1.0
176
     1
 90
        1
176
     1
 90
        6
176
     1
 90
        2
176
     1
 62
     7
176
     1
 90
        5
176
     1
 90
        0
176
     1
 90
        0
176
     1
290
     0
176
     1
 90
       13
176
     1
 40
0.0
176
     1
 90
        0
176
     1
290
     0
176
     1
290
     1
176
     1
290
     1
176
     1
290
     0
176
     1
290
     0
176
     1
290
     0
176
     1
290
     0
176
     1
290
     0
176
     1
290
     0
176
     1
 90
       50
176
     1
 40
0.0
176
     1
 40
1.0
176
     1
 90
        0
176
     1
 62
    18
420
        0
176
     1
 90
       50
176
     1
 90
        3
176
     1
 62
     5
420
      255
176
     1
290
     0
176
     1
 90
       50
176
     1
 90
       50
176
     1
 90
       50
176
     1
290
     0
176
     1
 90
       50
176
     1
 62
   256
176
     0
 40
1.0
176
     0
 90
        2
176
     1
  1
strokes_ogs.tif
176
     1
290
     0
176
     1
 40
1.0
176
     1
 40
1.0
176
     1
  0
VISUALSTYLE
  5
BC5
102
{ACAD_REACTORS
330
2F
102
}
330
2F
100
AcDbVisualStyle
  2
Gouraud
 70
     2
177
     3
291
     1
 70
    58
 90
        2
176
     1
 90
        2
176
     1
 90
        1
176
     1
 90
        2
176
     1
 40
0.6
176
     1
 40
30.0
176
     1
 62
     7
176
     1
 90
        0
176
     1
 90
        0
176
     1
 62
     7
176
     1
 62
   257
176
     1
 90
        1
176
     1
 90
        1
176
     1
 40
1.0
176
     1
 90
        0
176
     1
 62
     7
176
     1
 40
1.0
176
     1
 90
        1
176
     1
 90
        6
176
     1
 90
        2
176
     1
 62
     7
176
     1
 90
        5
176
     1
 90
        0
176
     1
 90
        0
176
     1
290
     0
176
     1
 90
       13
176
     1
 40
0.0
176
     1
 90
        0
176
     1
290
     0
176
     1
290
     1
176
     1
290
     1
176
     1
290
     0
176
     1
290
     0
176
     1
290
     0
176
     1
290
     0
176
     1
290
     0
176
     1
290
     0
176
     1
 90
       50
176
     1
 40
0.0
176
     1
 40
1.0
176
     1
 90
        0
176
     1
 62
    18
420
        0
176
     1
 90
       50
176
     1
 90
        3
176
     1
 62
     5
420
      255
176
     1
290
     0
176
     1
 90
       50
176
     1
 90
       50
176
     1
 90
       50
176
     1
290
     0
176
     1
 90
       50
176
     1
 62
   256
176
     0
 40
1.0
176
     0
 90
        2
176
     1
  1
strokes_ogs.tif
176
     1
290
     0
176
     1
 40
1.0
176
     1
 40
1.0
176
     1
  0
VISUALSTYLE
  5
BC6
102
{ACAD_REACTORS
330
2F
102
}
330
2F
100
AcDbVisualStyle
  2
GouraudWithEdges
 70
     3
177
     3
291
     1
 70
    58
 90
        2
176
     1
 90
        2
176
     1
 90
        1
176
     1
 90
        2
176
     1
 40
0.6
176
     1
 40
30.0
176
     1
 62
     7
176
     1
 90
        1
176
     1
 90
        0
176
     1
 62
     7
176
     1
 62
   257
176
     1
 90
        1
176
     1
 90
        1
176
     1
 40
1.0
176
     1
 90
        0
176
     1
 62
   257
176
     1
 40
1.0
176
     1
 90
        1
176
     1
 90
        6
176
     1
 90
        2
176
     1
 62
     7
176
     1
 90
        5
176
     1
 90
        0
176
     1
 90
        0
176
     1
290
     0
176
     1
 90
       13
176
     1
 40
0.0
176
     1
 90
        0
176
     1
290
     0
176
     1
290
     1
176
     1
290
     1
176
     1
290
     0
176
     1
290
     0
176
     1
290
     0
176
     1
290
     0
176
     1
290
     0
176
     1
290
     0
176
     1
 90
       50
176
     1
 40
0.0
176
     1
 40
1.0
176
     1
 90
        0
176
     1
 62
    18
420
        0
176
     1
 90
       50
176
     1
 90
        3
176
     1
 62
     5
420
      255
176
     1
290
     0
176
     1
 90
       50
176
     1
 90
       50
176
     1
 90
       50
176
     1
290
     0
176
     1
 90
       50
176
     1
 62
   256
176
     0
 40
1.0
176
     0
 90
        2
176
     1
  1
strokes_ogs.tif
176
     1
290
     0
176
     1
 40
1.0
176
     1
 40
1.0
176
     1
  0
VISUALSTYLE
  5
BC9
102
{ACAD_REACTORS
330
2F
102
}
330
2F
100
AcDbVisualStyle
  2
Hidden
 70
     6
177
     3
291
     0
 70
    58
 90
        1
176
     1
 90
        2
176
     1
 90
        2
176
     1
 90
        0
176
     1
 40
0.6
176
     1
 40
30.0
176
     1
 62
     7
176
     1
 90
        2
176
     1
 90
        2
176
     1
 62
     7
176
     1
 62
   257
176
     1
 90
        2
176
     1
 90
        1
176
     1
 40
40.0
176
     1
 90
        0
176
     1
 62
   257
176
     1
 40
1.0
176
     1
 90
        1
176
     1
 90
        6
176
     1
 90
        2
176
     1
 62
     7
176
     1
 90
        3
176
     1
 90
        0
176
     1
 90
        0
176
     1
290
     0
176
     1
 90
        1
176
     1
 40
0.0
176
     1
 90
        0
176
     1
290
     0
176
     1
290
     1
176
     1
290
     1
176
     1
290
     0
176
     1
290
     0
176
     1
290
     0
176
     1
290
     0
176
     1
290
     0
176
     1
290
     0
176
     1
 90
       50
176
     1
 40
0.0
176
     1
 40
1.0
176
     1
 90
        0
176
     1
 62
    18
420
        0
176
     1
 90
       50
176
     1
 90
        3
176
     1
 62
     5
420
      255
176
     1
290
     0
176
     1
 90
       50
176
     1
 90
       50
176
     1
 90
       50
176
     1
290
     0
176
     1
 90
       50
176
     1
 62
   256
176
     0
 40
1.0
176
     0
 90
        2
176
     1
  1
strokes_ogs.tif
176
     1
290
     0
176
     1
 40
1.0
176
     1
 40
1.0
176
     1
  0
VISUALSTYLE
  5
BD6
102
{ACAD_REACTORS
330
2F
102
}
330
2F
100
AcDbVisualStyle
  2
JitterOff
 70
    20
177
     3
291
     1
 70
    58
 90
        2
176
     0
 90
        2
176
     0
 90
        0
176
     0
 90
        0
176
     0
 40
0.6
176
     0
 40
30.0
176
     0
 62
     7
176
     0
 90
        1
176
     0
 90
        4
176
     0
 62
     7
176
     0
 62
   257
176
     0
 90
        1
176
     0
 90
        1
176
     0
 40
1.0
176
     0
 90
       10
176
     2
 62
     7
176
     0
 40
1.0
176
     0
 90
        1
176
     0
 90
        6
176
     0
 90
        2
176
     0
 62
     7
176
     0
 90
        5
176
     0
 90
        0
176
     0
 90
        0
176
     0
290
     0
176
     0
 90
        1
176
     0
 40
0.0
176
     0
 90
        0
176
     0
290
     0
176
     0
290
     1
176
     0
290
     1
176
     0
290
     0
176
     0
290
     0
176
     0
290
     0
176
     0
290
     0
176
     0
290
     0
176
     0
290
     0
176
     0
 90
       50
176
     0
 40
0.0
176
     0
 40
1.0
176
     0
 90
        0
176
     0
 62
    18
420
        0
176
     0
 90
       50
176
     0
 90
        3
176
     0
 62
     5
420
      255
176
     0
290
     0
176
     0
 90
       50
176
     0
 90
       50
176
     0
 90
       50
176
     0
290
     0
176
     0
 90
       50
176
     0
 62
   256
176
     0
 40
1.0
176
     0
 90
        2
176
     0
  1
strokes_ogs.tif
176
     0
290
     0
176
     0
 40
1.0
176
     0
 40
1.0
176
     0
  0
VISUALSTYLE
  5
BCE
102
{ACAD_REACTORS
330
2F
102
}
330
2F
100
AcDbVisualStyle
  2
Linepattern
 70
    14
177
     3
291
     1
 70
    58
 90
        2
176
     1
 90
        2
176
     1
 90
        0
176
     1
 90
        0
176
     1
 40
0.6
176
     1
 40
30.0
176
     1
 62
     7
176
     1
 90
        1
176
     1
 90
        4
176
     1
 62
     7
176
     1
 62
   257
176
     1
 90
        7
176
     1
 90
        7
176
     1
 40
1.0
176
     1
 90
        8
176
     1
 62
     7
176
     1
 40
1.0
176
     1
 90
        1
176
     1
 90
        6
176
     1
 90
        2
176
     1
 62
     7
176
     1
 90
        5
176
     1
 90
        0
176
     1
 90
        0
176
     1
290
     0
176
     1
 90
        1
176
     1
 40
0.0
176
     1
 90
        0
176
     1
290
     0
176
     1
290
     1
176
     1
290
     1
176
     1
290
     0
176
     1
290
     0
176
     1
290
     0
176
     1
290
     0
176
     1
290
     0
176
     1
290
     0
176
     1
 90
       50
176
     1
 40
0.0
176
     1
 40
1.0
176
     1
 90
        0
176
     1
 62
    18
420
        0
176
     1
 90
       50
176
     1
 90
        3
176
     1
 62
     5
420
      255
176
     1
290
     0
176
     1
 90
       50
176
     1
 90
       50
176
     1
 90
       50
176
     1
290
     0
176
     1
 90
       50
176
     1
 62
   256
176
     0
 40
1.0
176
     0
 90
        2
176
     1
  1
strokes_ogs.tif
176
     1
290
     0
176
     1
 40
1.0
176
     1
 40
1.0
176
     1
  0
VISUALSTYLE
  5
BD7
102
{ACAD_REACTORS
330
2F
102
}
330
2F
100
AcDbVisualStyle
  2
OverhangOff
 70
    21
177
     3
291
     1
 70
    58
 90
        2
176
     0
 90
        2
176
     0
 90
        0
176
     0
 90
        0
176
     0
 40
0.6
176
     0
 40
30.0
176
     0
 62
     7
176
     0
 90
        1
176
     0
 90
        4
176
     0
 62
     7
176
     0
 62
   257
176
     0
 90
        1
176
     0
 90
        1
176
     0
 40
1.0
176
     0
 90
        9
176
     2
 62
     7
176
     0
 40
1.0
176
     0
 90
        1
176
     0
 90
        6
176
     0
 90
        2
176
     0
 62
     7
176
     0
 90
        5
176
     0
 90
        0
176
     0
 90
        0
176
     0
290
     0
176
     0
 90
        1
176
     0
 40
0.0
176
     0
 90
        0
176
     0
290
     0
176
     0
290
     1
176
     0
290
     1
176
     0
290
     0
176
     0
290
     0
176
     0
290
     0
176
     0
290
     0
176
     0
290
     0
176
     0
290
     0
176
     0
 90
       50
176
     0
 40
0.0
176
     0
 40
1.0
176
     0
 90
        0
176
     0
 62
    18
420
        0
176
     0
 90
       50
176
     0
 90
        3
176
     0
 62
     5
420
      255
176
     0
290
     0
176
     0
 90
       50
176
     0
 90
       50
176
     0
 90
       50
176
     0
290
     0
176
     0
 90
       50
176
     0
 62
   256
176
     0
 40
1.0
176
     0
 90
        2
176
     0
  1
strokes_ogs.tif
176
     0
290
     0
176
     0
 40
1.0
176
     0
 40
1.0
176
     0
  0
VISUALSTYLE
  5
46
102
{ACAD_REACTORS
330
2F
102
}
330
2F
100
AcDbVisualStyle
  2
Realistic
 70
     8
177
     3
291
     0
 70
    58
 90
        2
176
     1
 90
        2
176
     1
 90
        1
176
     1
 90
        0
176
     1
 40
0.6
176
     1
 40
30.0
176
     1
 62
     7
176
     1
 90
        1
176
     1
 90
        0
176
     1
 62
     7
176
     1
 62
   257
176
     1
 90
        1
176
     1
 90
        1
176
     1
 40
1.0
176
     1
 90
        8
176
     1
 62
     8
176
     1
 40
1.0
176
     1
 90
        1
176
     1
 90
        6
176
     1
 90
        2
176
     1
 62
     7
176
     1
 90
        5
176
     1
 90
        0
176
     1
 90
        0
176
     1
290
     0
176
     1
 90
       13
176
     1
 40
0.0
176
     1
 90
        0
176
     1
290
     0
176
     1
290
     1
176
     1
290
     1
176
     1
290
     0
176
     1
290
     0
176
     1
290
     0
176
     1
290
     0
176
     1
290
     0
176
     1
290
     0
176
     1
 90
       50
176
     1
 40
0.0
176
     1
 40
1.0
176
     1
 90
        0
176
     1
 62
    18
420
        0
176
     1
 90
       50
176
     1
 90
        3
176
     1
 62
     5
420
      255
176
     1
290
     0
176
     1
 90
       50
176
     1
 90
       50
176
     1
 90
       50
176
     1
290
     0
176
     1
 90
       50
176
     1
 62
   256
176
     0
 40
1.0
176
     0
 90
        2
176
     1
  1
strokes_ogs.tif
176
     1
290
     0
176
     1
 40
1.0
176
     1
 40
1.0
176
     1
  0
VISUALSTYLE
  5
BD5
102
{ACAD_REACTORS
330
2F
102
}
330
2F
100
AcDbVisualStyle
  2
Shaded
 70
    27
177
     3
291
     0
 70
    58
 90
        2
176
     1
 90
        2
176
     1
 90
        1
176
     1
 90
        2
176
     1
 40
0.6
176
     1
 40
30.0
176
     1
 62
     7
176
     1
 90
        0
176
     1
 90
        4
176
     1
 62
     7
176
     1
 62
   257
176
     1
 90
        1
176
     1
 90
        1
176
     1
 40
1.0
176
     1
 90
        8
176
     1
 62
   257
176
     1
 40
1.0
176
     1
 90
        1
176
     1
 90
        6
176
     1
 90
        2
176
     1
 62
     8
176
     1
 90
        3
176
     1
 90
        0
176
     1
 90
        0
176
     1
290
     0
176
     1
 90
        5
176
     1
 40
0.0
176
     1
 90
        0
176
     1
290
     0
176
     1
290
     1
176
     1
290
     1
176
     1
290
     0
176
     1
290
     0
176
     1
290
     0
176
     1
290
     0
176
     1
290
     0
176
     1
290
     0
176
     1
 90
       50
176
     1
 40
0.0
176
     1
 40
1.0
176
     1
 90
        0
176
     1
 62
    18
420
        0
176
     1
 90
       50
176
     1
 90
        3
176
     1
 62
     5
420
      255
176
     1
290
     0
176
     1
 90
       50
176
     1
 90
       50
176
     1
 90
       50
176
     1
290
     0
176
     1
 90
       50
176
     1
 62
   256
176
     0
 40
1.0
176
     0
 90
        2
176
     1
  1
strokes_ogs.tif
176
     1
290
     0
176
     1
 40
1.0
176
     1
 40
1.0
176
     1
  0
VISUALSTYLE
  5
BD4
102
{ACAD_REACTORS
330
2F
102
}
330
2F
100
AcDbVisualStyle
  2
Shaded with edges
 70
    26
177
     3
291
     0
 70
    58
 90
        2
176
     1
 90
        2
176
     1
 90
        1
176
     1
 90
        2
176
     1
 40
0.6
176
     1
 40
30.0
176
     1
 62
     7
176
     1
 90
        1
176
     1
 90
       10
176
     1
 62
     7
176
     1
 62
   257
176
     1
 90
        2
176
     1
 90
        1
176
     1
 40
1.0
176
     1
 90
        8
176
     1
 62
   257
176
     1
 40
1.0
176
     1
 90
        1
176
     1
 90
        6
176
     1
 90
        2
176
     1
 62
     7
176
     1
 90
        3
176
     1
 90
        0
176
     1
 90
        0
176
     1
290
     0
176
     1
 90
        5
176
     1
 40
0.0
176
     1
 90
        0
176
     1
290
     0
176
     1
290
     1
176
     1
290
     1
176
     1
290
     0
176
     1
290
     0
176
     1
290
     0
176
     1
290
     0
176
     1
290
     0
176
     1
290
     0
176
     1
 90
       50
176
     1
 40
0.0
176
     1
 40
1.0
176
     1
 90
        0
176
     1
 62
    18
420
        0
176
     1
 90
       50
176
     1
 90
        3
176
     1
 62
     5
420
      255
176
     1
290
     0
176
     1
 90
       50
176
     1
 90
       50
176
     1
 90
       50
176
     1
290
     0
176
     1
 90
       50
176
     1
 62
   256
176
     0
 40
1.0
176
     0
 90
        2
176
     1
  1
strokes_ogs.tif
176
     1
290
     0
176
     1
 40
1.0
176
     1
 40
1.0
176
     1
  0
VISUALSTYLE
  5
BD1
102
{ACAD_REACTORS
330
2F
102
}
330
2F
100
AcDbVisualStyle
  2
Shades of Gray
 70
    23
177
     3
291
     0
 70
    58
 90
        2
176
     1
 90
        2
176
     1
 90
        3
176
     1
 90
        0
176
     1
 40
0.6
176
     1
 40
30.0
176
     1
 62
     7
176
     1
 90
        2
176
     1
 90
        2
176
     1
 62
     7
176
     1
 62
     7
176
     1
 90
        1
176
     1
 90
        1
176
     1
 40
40.0
176
     1
 90
        8
176
     1
 62
     7
176
     1
 40
1.0
176
     1
 90
        1
176
     1
 90
        6
176
     1
 90
        2
176
     1
 62
     7
176
     1
 90
        3
176
     1
 90
        0
176
     1
 90
        0
176
     1
290
     0
176
     1
 90
        1
176
     1
 40
0.0
176
     1
 90
        0
176
     1
290
     0
176
     1
290
     1
176
     1
290
     1
176
     1
290
     0
176
     1
290
     0
176
     1
290
     0
176
     1
290
     0
176
     1
290
     0
176
     1
290
     0
176
     1
 90
       50
176
     1
 40
0.0
176
     1
 40
1.0
176
     1
 90
        0
176
     1
 62
    18
420
        0
176
     1
 90
       50
176
     1
 90
        3
176
     1
 62
     5
420
      255
176
     1
290
     0
176
     1
 90
       50
176
     1
 90
       50
176
     1
 90
       50
176
     1
290
     0
176
     1
 90
       50
176
     1
 62
   256
176
     0
 40
1.0
176
     0
 90
        2
176
     1
  1
strokes_ogs.tif
176
     1
290
     0
176
     1
 40
1.0
176
     1
 40
1.0
176
     1
  0
VISUALSTYLE
  5
BD2
102
{ACAD_REACTORS
330
2F
102
}
330
2F
100
AcDbVisualStyle
  2
Sketchy
 70
    24
177
     3
291
     0
 70
    58
 90
        1
176
     1
 90
        2
176
     1
 90
        2
176
     1
 90
        0
176
     1
 40
0.6
176
     1
 40
30.0
176
     1
 62
     7
176
     1
 90
        2
176
     1
 90
        2
176
     1
 62
     7
176
     1
 62
     7
176
     1
 90
        1
176
     1
 90
        1
176
     1
 40
40.0
176
     1
 90
       11
176
     1
 62
     7
176
     1
 40
1.0
176
     1
 90
        1
176
     1
 90
        6
176
     1
 90
        2
176
     1
 62
     7
176
     1
 90
        6
176
     1
 90
        0
176
     1
 90
        0
176
     1
290
     0
176
     1
 90
        1
176
     1
 40
0.0
176
     1
 90
        0
176
     1
290
     0
176
     1
290
     1
176
     1
290
     1
176
     1
290
     0
176
     1
290
     0
176
     1
290
     0
176
     1
290
     0
176
     1
290
     0
176
     1
290
     0
176
     1
 90
       50
176
     1
 40
0.0
176
     1
 40
1.0
176
     1
 90
        0
176
     1
 62
    18
420
        0
176
     1
 90
       50
176
     1
 90
        3
176
     1
 62
     5
420
      255
176
     1
290
     0
176
     1
 90
       50
176
     1
 90
       50
176
     1
 90
       50
176
     1
290
     0
176
     1
 90
       50
176
     1
 62
   256
176
     0
 40
1.0
176
     0
 90
        2
176
     1
  1
strokes_ogs.tif
176
     1
290
     0
176
     1
 40
1.0
176
     1
 40
1.0
176
     1
  0
VISUALSTYLE
  5
BCD
102
{ACAD_REACTORS
330
2F
102
}
330
2F
100
AcDbVisualStyle
  2
Thicken
 70
    13
177
     3
291
     1
 70
    58
 90
        2
176
     1
 90
        2
176
     1
 90
        0
176
     1
 90
        0
176
     1
 40
0.6
176
     1
 40
30.0
176
     1
 62
     7
176
     1
 90
        1
176
     1
 90
        4
176
     1
 62
     7
176
     1
 62
   257
176
     1
 90
        1
176
     1
 90
        1
176
     1
 40
1.0
176
     1
 90
       12
176
     1
 62
     7
176
     1
 40
1.0
176
     1
 90
        1
176
     1
 90
        6
176
     1
 90
        2
176
     1
 62
     7
176
     1
 90
        5
176
     1
 90
        0
176
     1
 90
        0
176
     1
290
     0
176
     1
 90
        1
176
     1
 40
0.0
176
     1
 90
        0
176
     1
290
     0
176
     1
290
     1
176
     1
290
     1
176
     1
290
     0
176
     1
290
     0
176
     1
290
     0
176
     1
290
     0
176
     1
290
     0
176
     1
290
     0
176
     1
 90
       50
176
     1
 40
0.0
176
     1
 40
1.0
176
     1
 90
        0
176
     1
 62
    18
420
        0
176
     1
 90
       50
176
     1
 90
        3
176
     1
 62
     5
420
      255
176
     1
290
     0
176
     1
 90
       50
176
     1
 90
       50
176
     1
 90
       50
176
     1
290
     0
176
     1
 90
       50
176
     1
 62
   256
176
     0
 40
1.0
176
     0
 90
        2
176
     1
  1
strokes_ogs.tif
176
     1
290
     0
176
     1
 40
1.0
176
     1
 40
1.0
176
     1
  0
VISUALSTYLE
  5
BC8
102
{ACAD_REACTORS
330
2F
102
}
330
2F
100
AcDbVisualStyle
  2
Wireframe
 70
     5
177
     3
291
     0
 70
    58
 90
        0
176
     1
 90
        2
176
     1
 90
        0
176
     1
 90
        0
176
     1
 40
0.6
176
     1
 40
30.0
176
     1
 62
     7
176
     1
 90
        1
176
     1
 90
        4
176
     1
 62
     7
176
     1
 62
   257
176
     1
 90
        1
176
     1
 90
        1
176
     1
 40
1.0
176
     1
 90
        0
176
     1
 62
   257
176
     1
 40
1.0
176
     1
 90
        1
176
     1
 90
        6
176
     1
 90
        2
176
     1
 62
     7
176
     1
 90
        3
176
     1
 90
        0
176
     1
 90
        0
176
     1
290
     0
176
     1
 90
        1
176
     1
 40
0.0
176
     1
 90
        0
176
     1
290
     0
176
     1
290
     1
176
     1
290
     1
176
     1
290
     0
176
     1
290
     0
176
     1
290
     0
176
     1
290
     0
176
     1
290
     0
176
     1
290
     0
176
     1
 90
       50
176
     1
 40
0.0
176
     1
 40
1.0
176
     1
 90
        0
176
     1
 62
    18
420
        0
176
     1
 90
       50
176
     1
 90
        3
176
     1
 62
     5
420
      255
176
     1
290
     0
176
     1
 90
       50
176
     1
 90
       50
176
     1
 90
       50
176
     1
290
     0
176
     1
 90
       50
176
     1
 62
   256
176
     0
 40
1.0
176
     0
 90
        2
176
     1
  1
strokes_ogs.tif
176
     1
290
     0
176
     1
 40
1.0
176
     1
 40
1.0
176
     1
  0
VISUALSTYLE
  5
BD3
102
{ACAD_REACTORS
330
2F
102
}
330
2F
100
AcDbVisualStyle
  2
X-Ray
 70
    25
177
     3
291
     0
 70
    58
 90
        2
176
     1
 90
        2
176
     1
 90
        1
176
     1
 90
        1
176
     1
 40
0.5
176
     1
 40
30.0
176
     1
 62
     7
176
     1
 90
        1
176
     1
 90
        0
176
     1
 62
     7
176
     1
 62
   257
176
     1
 90
        1
176
     1
 90
        1
176
     1
 40
1.0
176
     1
 90
        8
176
     1
 62
     7
176
     1
 40
1.0
176
     1
 90
        1
176
     1
 90
        6
176
     1
 90
        2
176
     1
 62
     7
176
     1
 90
        3
176
     1
 90
        0
176
     1
 90
        0
176
     1
290
     0
176
     1
 90
       13
176
     1
 40
0.0
176
     1
 90
        0
176
     1
290
     0
176
     1
290
     1
176
     1
290
     1
176
     1
290
     0
176
     1
290
     0
176
     1
290
     0
176
     1
290
     0
176
     1
290
     0
176
     1
290
     0
176
     1
 90
       50
176
     1
 40
0.0
176
     1
 40
1.0
176
     1
 90
        0
176
     1
 62
    18
420
        0
176
     1
 90
       50
176
     1
 90
        3
176
     1
 62
     5
420
      255
176
     1
290
     0
176
     1
 90
       50
176
     1
 90
       50
176
     1
 90
       50
176
     1
290
     0
176
     1
 90
       50
176
     1
 62
   256
176
     0
 40
1.0
176
     0
 90
        2
176
     1
  1
strokes_ogs.tif
176
     1
290
     0
176
     1
 40
1.0
176
     1
 40
1.0
176
     1
  0
DICTIONARYVAR
  5
BBE
102
{ACAD_REACTORS
330
BB8
102
}
330
BB8
100
DictionaryVariables
280
     0
  1
1:1
  0
DICTIONARYVAR
  5
BBA
102
{ACAD_REACTORS
330
BB8
102
}
330
BB8
100
DictionaryVariables
280
     0
  1
STANDARD
  0
DICTIONARYVAR
  5
BB9
102
{ACAD_REACTORS
330
BB8
102
}
330
BB8
100
DictionaryVariables
280
     0
  1
STANDARD
  0
DICTIONARYVAR
  5
BBB
102
{ACAD_REACTORS
330
BB8
102
}
330
BB8
100
DictionaryVariables
280
     0
  1
Metric50
  0
DICTIONARYVAR
  5
BBC
102
{ACAD_REACTORS
330
BB8
102
}
330
BB8
100
DictionaryVariables
280
     0
  1
Metric50
  0
DICTIONARYVAR
  5
C3B
102
{ACAD_REACTORS
330
BB8
102
}
330
BB8
100
DictionaryVariables
280
     0
  1
1
  0
DICTIONARYVAR
  5
C39
102
{ACAD_REACTORS
330
BB8
102
}
330
BB8
100
DictionaryVariables
280
     0
  1
1
  0
DICTIONARYVAR
  5
FF3
102
{ACAD_REACTORS
330
BB8
102
}
330
BB8
100
DictionaryVariables
280
     0
  1
4
  0
DICTIONARYVAR
  5
C38
102
{ACAD_REACTORS
330
BB8
102
}
330
BB8
100
DictionaryVariables
280
     0
  1
0
  0
DICTIONARYVAR
  5
BC0
102
{ACAD_REACTORS
330
BB8
102
}
330
BB8
100
DictionaryVariables
280
     0
  1
1
  0
DICTIONARYVAR
  5
BC1
102
{ACAD_REACTORS
330
BB8
102
}
330
BB8
100
DictionaryVariables
280
     0
  1
15
  0
DICTIONARYVAR
  5
BBF
102
{ACAD_REACTORS
330
BB8
102
}
330
BB8
100
DictionaryVariables
280
     0
  1
0
  0
DICTIONARYVAR
  5
BBD
102
{ACAD_REACTORS
330
BB8
102
}
330
BB8
100
DictionaryVariables
280
     0
  1
0
  0
DICTIONARYVAR
  5
C3C
102
{ACAD_REACTORS
330
BB8
102
}
330
BB8
100
DictionaryVariables
280
     0
  1
1
  0
DICTIONARYVAR
  5
C37
102
{ACAD_REACTORS
330
BB8
102
}
330
BB8
100
DictionaryVariables
280
     0
  1
127
  0
DICTIONARY
  5
282D3
330
BDD
100
AcDbDictionary
280
     1
281
     1
  3
ACAD_XREC_ROUNDTRIP
360
282D4
  0
DICTIONARY
  5
18
330
16
100
AcDbDictionary
280
     1
281
     1
  0
DICTIONARY
  5
1F
330
1E
100
AcDbDictionary
280
     1
281
     1
  0
DICTIONARY
  5
E
330
C
100
AcDbDictionary
280
     1
281
     1
  3
BUMPTILE
360
F
  3
DIFFUSETILE
360
10
  3
OPACITYTILE
360
11
  3
REFLECTIONTILE
360
12
  0
DICTIONARY
  5
282D1
330
BDB
100
AcDbDictionary
280
     1
281
     1
  3
ACAD_XREC_ROUNDTRIP
360
282D2
  0
DICTIONARY
  5
45
330
44
100
AcDbDictionary
280
     1
281
     1
  3
ACAD_ROUNDTRIP_2008_TABLESTYLE_CELLSTYLEMAP
360
282D0
  0
XRECORD
  5
282D4
102
{ACAD_REACTORS
330
282D3
102
}
330
282D3
100
AcDbXrecord
280
     1
102
DISPLAYNAME
  1
Metric50
102
FLAGS
 90
        0
  0
XRECORD
  5
F
102
{ACAD_REACTORS
330
E
102
}
330
E
100
AcDbXrecord
280
     1
270
     1
271
     1
  0
XRECORD
  5
10
102
{ACAD_REACTORS
330
E
102
}
330
E
100
AcDbXrecord
280
     1
270
     1
271
     1
  0
XRECORD
  5
11
102
{ACAD_REACTORS
330
E
102
}
330
E
100
AcDbXrecord
280
     1
270
     1
271
     1
  0
XRECORD
  5
12
102
{ACAD_REACTORS
330
E
102
}
330
E
100
AcDbXrecord
280
     1
270
     1
271
     1
  0
XRECORD
  5
282D2
102
{ACAD_REACTORS
330
282D1
102
}
330
282D1
100
AcDbXrecord
280
     1
102
DISPLAYNAME
  1
Metric50
102
FLAGS
 90
        0
  0
CELLSTYLEMAP
  5
282D0
102
{ACAD_REACTORS
330
45
102
}
330
45
100
AcDbCellStyleMap
 90
        3
300
CELLSTYLE
  1
TABLEFORMAT_BEGIN
 90
        5
170
     1
 91
        0
 92
    32768
 62
   257
 93
        1
300
CONTENTFORMAT
  1
CONTENTFORMAT_BEGIN
 90
        0
 91
        0
 92
      512
 93
        0
300

 40
0.0
140
1.0
 94
        5
 62
     0
340
25
144
6.0
309
CONTENTFORMAT_END
171
     1
301
MARGIN
  1
CELLMARGIN_BEGIN
 40
1.5
 40
1.5
 40
1.5
 40
1.5
 40
0.18
 40
0.18
309
CELLMARGIN_END
 94
        6
 95
        1
302
GRIDFORMAT
  1
GRIDFORMAT_BEGIN
 90
        0
 91
        1
 62
     0
 92
       -2
340
28
 93
        0
 40
1.125
309
GRIDFORMAT_END
 95
        2
302
GRIDFORMAT
  1
GRIDFORMAT_BEGIN
 90
        0
 91
        1
 62
     0
 92
       -2
340
28
 93
        0
 40
1.125
309
GRIDFORMAT_END
 95
        4
302
GRIDFORMAT
  1
GRIDFORMAT_BEGIN
 90
        0
 91
        1
 62
     0
 92
       -2
340
28
 93
        0
 40
1.125
309
GRIDFORMAT_END
 95
        8
302
GRIDFORMAT
  1
GRIDFORMAT_BEGIN
 90
        0
 91
        1
 62
     0
 92
       -2
340
28
 93
        0
 40
1.125
309
GRIDFORMAT_END
 95
       16
302
GRIDFORMAT
  1
GRIDFORMAT_BEGIN
 90
        0
 91
        1
 62
     0
 92
       -2
340
28
 93
        0
 40
1.125
309
GRIDFORMAT_END
 95
       32
302
GRIDFORMAT
  1
GRIDFORMAT_BEGIN
 90
        0
 91
        1
 62
     0
 92
       -2
340
28
 93
        0
 40
1.125
309
GRIDFORMAT_END
309
TABLEFORMAT_END
  1
CELLSTYLE_BEGIN
 90
        1
 91
        1
300
_TITLE
309
CELLSTYLE_END
300
CELLSTYLE
  1
TABLEFORMAT_BEGIN
 90
        5
170
     1
 91
        0
 92
        0
 62
   257
 93
        1
300
CONTENTFORMAT
  1
CONTENTFORMAT_BEGIN
 90
        0
 91
        0
 92
      512
 93
        0
300

 40
0.0
140
1.0
 94
        5
 62
     0
340
25
144
4.5
309
CONTENTFORMAT_END
171
     1
301
MARGIN
  1
CELLMARGIN_BEGIN
 40
1.5
 40
1.5
 40
1.5
 40
1.5
 40
0.18
 40
0.18
309
CELLMARGIN_END
 94
        6
 95
        1
302
GRIDFORMAT
  1
GRIDFORMAT_BEGIN
 90
        0
 91
        1
 62
     0
 92
       -2
340
28
 93
        0
 40
1.125
309
GRIDFORMAT_END
 95
        2
302
GRIDFORMAT
  1
GRIDFORMAT_BEGIN
 90
        0
 91
        1
 62
     0
 92
       -2
340
28
 93
        0
 40
1.125
309
GRIDFORMAT_END
 95
        4
302
GRIDFORMAT
  1
GRIDFORMAT_BEGIN
 90
        0
 91
        1
 62
     0
 92
       -2
340
28
 93
        0
 40
1.125
309
GRIDFORMAT_END
 95
        8
302
GRIDFORMAT
  1
GRIDFORMAT_BEGIN
 90
        0
 91
        1
 62
     0
 92
       -2
340
28
 93
        0
 40
1.125
309
GRIDFORMAT_END
 95
       16
302
GRIDFORMAT
  1
GRIDFORMAT_BEGIN
 90
        0
 91
        1
 62
     0
 92
       -2
340
28
 93
        0
 40
1.125
309
GRIDFORMAT_END
 95
       32
302
GRIDFORMAT
  1
GRIDFORMAT_BEGIN
 90
        0
 91
        1
 62
     0
 92
       -2
340
28
 93
        0
 40
1.125
309
GRIDFORMAT_END
309
TABLEFORMAT_END
  1
CELLSTYLE_BEGIN
 90
        2
 91
        1
300
_HEADER
309
CELLSTYLE_END
300
CELLSTYLE
  1
TABLEFORMAT_BEGIN
 90
        5
170
     1
 91
        0
 92
        0
 62
   257
 93
        1
300
CONTENTFORMAT
  1
CONTENTFORMAT_BEGIN
 90
        0
 91
        0
 92
      512
 93
        0
300

 40
0.0
140
1.0
 94
        2
 62
     0
340
25
144
4.5
309
CONTENTFORMAT_END
171
     1
301
MARGIN
  1
CELLMARGIN_BEGIN
 40
1.5
 40
1.5
 40
1.5
 40
1.5
 40
0.18
 40
0.18
309
CELLMARGIN_END
 94
        6
 95
        1
302
GRIDFORMAT
  1
GRIDFORMAT_BEGIN
 90
        0
 91
        1
 62
     0
 92
       -2
340
28
 93
        0
 40
1.125
309
GRIDFORMAT_END
 95
        2
302
GRIDFORMAT
  1
GRIDFORMAT_BEGIN
 90
        0
 91
        1
 62
     0
 92
       -2
340
28
 93
        0
 40
1.125
309
GRIDFORMAT_END
 95
        4
302
GRIDFORMAT
  1
GRIDFORMAT_BEGIN
 90
        0
 91
        1
 62
     0
 92
       -2
340
28
 93
        0
 40
1.125
309
GRIDFORMAT_END
 95
        8
302
GRIDFORMAT
  1
GRIDFORMAT_BEGIN
 90
        0
 91
        1
 62
     0
 92
       -2
340
28
 93
        0
 40
1.125
309
GRIDFORMAT_END
 95
       16
302
GRIDFORMAT
  1
GRIDFORMAT_BEGIN
 90
        0
 91
        1
 62
     0
 92
       -2
340
28
 93
        0
 40
1.125
309
GRIDFORMAT_END
 95
       32
302
GRIDFORMAT
  1
GRIDFORMAT_BEGIN
 90
        0
 91
        1
 62
     0
 92
       -2
340
28
 93
        0
 40
1.125
309
GRIDFORMAT_END
309
TABLEFORMAT_END
  1
CELLSTYLE_BEGIN
 90
        3
 91
        2
300
_DATA
309
CELLSTYLE_END
  0
ENDSEC
  0
SECTION
  2
ACDSDATA
 70
     2
 71
     6
  0
ACDSSCHEMA
 90
        0
  1
AcDb_Thumbnail_Schema
  2
AcDbDs::ID
280
    10
 91
        8
  2
Thumbnail_Data
280
    15
 91
        0
101
ACDSRECORD
 95
        0
 90
        1
  2
AcDbDs::TreatedAsObjectData
280
     1
291
     1
101
ACDSRECORD
 95
        0
 90
        2
  2
AcDbDs::Legacy
280
     1
291
     1
101
ACDSRECORD
  1
AcDbDs::ID
 90
        3
  2
AcDs:Indexable
280
     1
291
     1
101
ACDSRECORD
  1
AcDbDs::ID
 90
        4
  2
AcDbDs::HandleAttribute
280
     7
282
     1
  0
ACDSSCHEMA
 90
        1
  1
AcDbDs::TreatedAsObjectDataSchema
  2
AcDbDs::TreatedAsObjectData
280
     1
 91
        0
  0
ACDSSCHEMA
 90
        2
  1
AcDbDs::LegacySchema
  2
AcDbDs::Legacy
280
     1
 91
        0
  0
ACDSSCHEMA
 90
        3
  1
AcDbDs::IndexedPropertySchema
  2
AcDs:Indexable
280
     1
 91
        0
  0
ACDSSCHEMA
 90
        4
  1
AcDbDs::HandleAttributeSchema
  2
AcDbDs::HandleAttribute
280
     7
 91
        1
284
     1
  0
ACDSRECORD
 90
        0
  2
AcDbDs::ID
280
    10
320
16
  2
Thumbnail_Data
280
    15
 94
     1813
310
89504E470D0A1A0A0000000D49484452000001000000007508030000009634CF9200000300504C5445000000000000C8C8C80000000000000000000000000000000000000000000000000000330000660000990000CC0000FF0033000033330033660033990033CC0033FF0066000066330066660066990066CC0066FF0099
310
000099330099660099990099CC0099FF00CC0000CC3300CC6600CC9900CCCC00CCFF00FF0000FF3300FF6600FF9900FFCC00FFFF3300003300333300663300993300CC3300FF3333003333333333663333993333CC3333FF3366003366333366663366993366CC3366FF3399003399333399663399993399CC3399FF33CC00
310
33CC3333CC6633CC9933CCCC33CCFF33FF0033FF3333FF6633FF9933FFCC33FFFF6600006600336600666600996600CC6600FF6633006633336633666633996633CC6633FF6666006666336666666666996666CC6666FF6699006699336699666699996699CC6699FF66CC0066CC3366CC6666CC9966CCCC66CCFF66FF0066
310
FF3366FF6666FF9966FFCC66FFFF9900009900339900669900999900CC9900FF9933009933339933669933999933CC9933FF9966009966339966669966999966CC9966FF9999009999339999669999999999CC9999FF99CC0099CC3399CC6699CC9999CCCC99CCFF99FF0099FF3399FF6699FF9999FFCC99FFFFCC0000CC00
310
33CC0066CC0099CC00CCCC00FFCC3300CC3333CC3366CC3399CC33CCCC33FFCC6600CC6633CC6666CC6699CC66CCCC66FFCC9900CC9933CC9966CC9999CC99CCCC99FFCCCC00CCCC33CCCC66CCCC99CCCCCCCCCCFFCCFF00CCFF33CCFF66CCFF99CCFFCCCCFFFFFF0000FF0033FF0066FF0099FF00CCFF00FFFF3300FF3333
310
FF3366FF3399FF33CCFF33FFFF6600FF6633FF6666FF6699FF66CCFF66FFFF9900FF9933FF9966FF9999FF99CCFF99FFFFCC00FFCC33FFCC66FFCC99FFCCCCFFCCFFFFFF00FFFF33FFFF66FFFF99FFFFCCFFFFFF0000000D0D0D1A1A1A2828283535354343435050505D5D5D6B6B6B787878868686939393A1A1A1AEAEAEBB
310
BBBBC9C9C9D6D6D6E4E4E4F1F1F1FFFFFF00000000000000000000000000000000000000000000000000000000000008F1915C000003D04944415478DAED9D5B9683200C40594E7ED8D92C996DE47FEA03E4111454202DC99C33C72A5672C98302A54AB5117CB95C794126520C00BF0C0012620C16C9DBE5902C37A0658D29
310
BBF7ED72CA0CB014FC15DF13000240000800012000040093F7FF747DCC22F35A80516A0E00700280EEDA9EDCF49D00004E7C80BA033801F87C4E7BC80FEE48D5135E71A46600A0F94D02A029806641F04500DF9905048000100002400008000120000400730015536FE49C1D023607D07876B062D657AF07DAFEC34E0098B8
310
40A2FF7227AA8900C4FAAF3E31138058FFED70320089FE1F5DBCB0086F09020F0071D44FF55F1A53FBAF6D59FDC80260A40544892E567AFDAFDD5908F57701F27471CB1500180960ADB6A6EDDDE97F9C847C519D3507D6168047FB86B640EABF5535A3BFEB30C4F6C01C80ABB95767445A7F0DD7FADBA303036F0087FEFE35
310
1710D0CF874B16D0DA7F7DEA2F2E4A5ECD988C8D0187DD23755E054102B42A8E1747AAB86AF7E14170BF8244B9F5ECA124A86CAAC8BB065E05FF7E00D299A112009E3A7043FF4A009DA7C60A00E8A02758AFBFAE73017E00889E5FB0AE575FA54646006EC5005F5D3C1F34A1E532F6330F82B817A300DC7826A82F0680CF00
310
AC0BA92200C1A979002C8E0E29130E00F6210F0A40D457BAE102CB32A24D6FE5ABCD08C02762EDE3BF2D0018A7B7670AAC2C6019F55341B87FD702946FF9D614D448007024295CFFF623771AB712545243281B154337E2B5AEA58324F499C1E3016193C29EFB15612A88C167E6D247FA41F0D0968B0BC43D1BD8D46C026055
310
D8663F9B06FB06413C07A0F61E5F2B004716309E058400B0ADFE58344ADCCE05CCD1FF019526C4E67383630128BA27D8D102AE62406B009911423E41B00700353B00140B10000240004C04203F6D8CBF0EC08DA4C27416104D0FF30680EF02A0564AB00600E4F6257700E45789305A2192CE0C41A242663397130057BBBFD4
310
01E83C35068596420328DBF8A6CE053A4F8DD50368B04C0E062E93AB0080E9B07099B05E28596D01D30020F3E5440080FEBE00CE03E00D6504800010000240000800DEDF1BE407A0F3F706C5050480001000D3025897ED119BA099ED52BC41B2DD34B06ADB3CB33F8423009301B0E99E2A6AEC055503C0BE1D4700DB168089
310
42B6C6040055D99CD69C2AEEE9EB028604B0353E6101A61E807B33AE41909D0880DF0480E5F2A30092337F91F4A9E0E31D259F03D8A65776F94BDB9DF9969A8F0184D6DE1DC078170800FCFDA5AE3F5510F4014C1704674B830220EE1DFB2200A42728415082E0AF03B0BE6E722200C4053A01602F039A87FAFC55FABB8454
310
854DE9EF081AC5431E01508301FC036E348C8C86CEDDC30000000049454E44AE426082
  0
ACDSRECORD
 90
        0
  2
AcDbDs::ID
280
    10
320
1E
  2
Thumbnail_Data
280
    15
 94
     1014
310
89504E470D0A1A0A0000000D49484452000000B80000007F08030000006B00F8F900000300504C5445FFFFFF000000FFFFFF0000000000000000000000000000000000000000000000000000330000660000990000CC0000FF0033000033330033660033990033CC0033FF0066000066330066660066990066CC0066FF0099
310
000099330099660099990099CC0099FF00CC0000CC3300CC6600CC9900CCCC00CCFF00FF0000FF3300FF6600FF9900FFCC00FFFF3300003300333300663300993300CC3300FF3333003333333333663333993333CC3333FF3366003366333366663366993366CC3366FF3399003399333399663399993399CC3399FF33CC00
310
33CC3333CC6633CC9933CCCC33CCFF33FF0033FF3333FF6633FF9933FFCC33FFFF6600006600336600666600996600CC6600FF6633006633336633666633996633CC6633FF6666006666336666666666996666CC6666FF6699006699336699666699996699CC6699FF66CC0066CC3366CC6666CC9966CCCC66CCFF66FF0066
310
FF3366FF6666FF9966FFCC66FFFF9900009900339900669900999900CC9900FF9933009933339933669933999933CC9933FF9966009966339966669966999966CC9966FF9999009999339999669999999999CC9999FF99CC0099CC3399CC6699CC9999CCCC99CCFF99FF0099FF3399FF6699FF9999FFCC99FFFFCC0000CC00
310
33CC0066CC0099CC00CCCC00FFCC3300CC3333CC3366CC3399CC33CCCC33FFCC6600CC6633CC6666CC6699CC66CCCC66FFCC9900CC9933CC9966CC9999CC99CCCC99FFCCCC00CCCC33CCCC66CCCC99CCCCCCCCCCFFCCFF00CCFF33CCFF66CCFF99CCFFCCCCFFFFFF0000FF0033FF0066FF0099FF00CCFF00FFFF3300FF3333
310
FF3366FF3399FF33CCFF33FFFF6600FF6633FF6666FF6699FF66CCFF66FFFF9900FF9933FF9966FF9999FF99CCFF99FFFFCC00FFCC33FFCC66FFCC99FFCCCCFFCCFFFFFF00FFFF33FFFF66FFFF99FFFFCCFFFFFF0000000D0D0D1A1A1A2828283535354343435050505D5D5D6B6B6B787878868686939393A1A1A1AEAEAEBB
310
BBBBC9C9C9D6D6D6E4E4E4F1F1F1FFFFFF000000000000000000000000000000000000000000000000000000000000790CAC0F000000B14944415478DAEDDC3B0A80301004D0DCFF987B81ADEC258D4D8A547E46DE968AF01061B25338BAE2A6C79CAE236C72E105FE3EFCFAFED72BBB1B373FB2837FF62D838383833F0A97
310
9CE0E0E0E0E1E771C9090E0E0E0E0E0E0E0EAE9EB04880838383AB27443E3838383838383838B87A021C1C1C1C5CAF22F2C1C1C1C1C1C1C1C1C1F52A362070707070F5043838383838383838B87AC222010E0E0EAE9E909CE0E0E099F0D47F7A4A4EF05FC2F366BA4F0386279D40CB09810000000049454E44AE426082
  0
ENDSEC
  0
EOF
