  0
SECTION
  2
HEADER
  9
$ACADVER
  1
AC1027
  9
$ACADMAINTVER
 70
    55
  9
$DWGCODEPAGE
  3
ANSI_949
  9
$LASTSAVEDBY
  1
DESKTOP
  9
$REQUIREDVERSIONS
160
                 0
  9
$INSBASE
 10
0.0
 20
0.0
 30
0.0
  9
$EXTMIN
 10
-2.740495409783875
 20
-2.756326344258582
 30
-0.0000000000000053
  9
$EXTMAX
 10
269.4511520634436
 20
189.1594396916523
 30
0.0000000000000099
  9
$LIMMIN
 10
0.0
 20
0.0
  9
$LIMMAX
 10
420.0
 20
297.0
  9
$ORTHOMODE
 70
     1
  9
$REGENMODE
 70
     1
  9
$FILLMODE
 70
     1
  9
$QTEXTMODE
 70
     0
  9
$MIRRTEXT
 70
     0
  9
$LTSCALE
 40
5.0
  9
$ATTMODE
 70
     1
  9
$TEXTSIZE
 40
3.0
  9
$TRACEWID
 40
1.0
  9
$TEXTSTYLE
  7
Standard
  9
$CLAYER
  8
0
  9
$CELTYPE
  6
Continuous
  9
$CECOLOR
 62
     7
  9
$CELTSCALE
 40
1.0
  9
$DISPSILH
 70
     0
  9
$DIMSCALE
 40
1.0
  9
$DIMASZ
 40
2.5
  9
$DIMEXO
 40
0.625
  9
$DIMDLI
 40
3.75
  9
$DIMRND
 40
0.0
  9
$DIMDLE
 40
0.0
  9
$DIMEXE
 40
1.25
  9
$DIMTP
 40
0.0
  9
$DIMTM
 40
0.000000001
  9
$DIMTXT
 40
3.0
  9
$DIMCEN
 40
-0.5
  9
$DIMTSZ
 40
0.0
  9
$DIMTOL
 70
     0
  9
$DIMLIM
 70
     0
  9
$DIMTIH
 70
     0
  9
$DIMTOH
 70
     0
  9
$DIMSE1
 70
     0
  9
$DIMSE2
 70
     0
  9
$DIMTAD
 70
     1
  9
$DIMZIN
 70
     8
  9
$DIMBLK
  1

  9
$DIMASO
 70
     1
  9
$DIMSHO
 70
     1
  9
$DIMPOST
  1

  9
$DIMAPOST
  1

  9
$DIMALT
 70
     0
  9
$DIMALTD
 70
     3
  9
$DIMALTF
 40
0.03937007874016
  9
$DIMLFAC
 40
1.0
  9
$DIMTOFL
 70
     1
  9
$DIMTVP
 40
0.0
  9
$DIMTIX
 70
     0
  9
$DIMSOXD
 70
     0
  9
$DIMSAH
 70
     0
  9
$DIMBLK1
  1

  9
$DIMBLK2
  1

  9
$DIMSTYLE
  2
Standard
  9
$DIMCLRD
 70
     3
  9
$DIMCLRE
 70
     3
  9
$DIMCLRT
 70
     2
  9
$DIMTFAC
 40
0.7
  9
$DIMGAP
 40
0.625
  9
$DIMJUST
 70
     0
  9
$DIMSD1
 70
     0
  9
$DIMSD2
 70
     0
  9
$DIMTOLJ
 70
     0
  9
$DIMTZIN
 70
     8
  9
$DIMALTZ
 70
     0
  9
$DIMALTTZ
 70
     0
  9
$DIMUPT
 70
     0
  9
$DIMDEC
 70
     8
  9
$DIMTDEC
 70
     8
  9
$DIMALTU
 70
     2
  9
$DIMALTTD
 70
     3
  9
$DIMTXSTY
  7
Standard
  9
$DIMAUNIT
 70
     1
  9
$DIMADEC
 70
     0
  9
$DIMALTRND
 40
0.0
  9
$DIMAZIN
 70
     0
  9
$DIMDSEP
 70
    46
  9
$DIMATFIT
 70
     3
  9
$DIMFRAC
 70
     0
  9
$DIMLDRBLK
  1

  9
$DIMLUNIT
 70
     2
  9
$DIMLWD
 70
    -1
  9
$DIMLWE
 70
    -1
  9
$DIMTMOVE
 70
     0
  9
$DIMFXL
 40
1.0
  9
$DIMFXLON
 70
     0
  9
$DIMJOGANG
 40
0.7853981633974483
  9
$DIMTFILL
 70
     0
  9
$DIMTFILLCLR
 70
     0
  9
$DIMARCSYM
 70
     1
  9
$DIMLTYPE
  6

  9
$DIMLTEX1
  6

  9
$DIMLTEX2
  6

  9
$DIMTXTDIRECTION
 70
     0
  9
$LUNITS
 70
     2
  9
$LUPREC
 70
     4
  9
$SKETCHINC
 40
0.0
  9
$FILLETRAD
 40
0.0
  9
$AUNITS
 70
     0
  9
$AUPREC
 70
     0
  9
$MENU
  1
.
  9
$ELEVATION
 40
0.0
  9
$PELEVATION
 40
0.0
  9
$THICKNESS
 40
0.0
  9
$LIMCHECK
 70
     0
  9
$CHAMFERA
 40
1.5
  9
$CHAMFERB
 40
1.5
  9
$CHAMFERC
 40
0.0
  9
$CHAMFERD
 40
0.0087266462599716
  9
$SKPOLY
 70
     0
  9
$TDCREATE
 40
2455072.745932974
  9
$TDUCREATE
 40
2455072.370932974
  9
$TDUPDATE
 40
2461077.613993727
  9
$TDUUPDATE
 40
2461077.238993727
  9
$TDINDWG
 40
132.1039756366
  9
$TDUSRTIMER
 40
132.1039754514
  9
$USRTIMER
 70
     1
  9
$ANGBASE
 50
0.0
  9
$ANGDIR
 70
     0
  9
$PDMODE
 70
     0
  9
$PDSIZE
 40
0.0
  9
$PLINEWID
 40
0.0
  9
$SPLFRAME
 70
     0
  9
$SPLINETYPE
 70
     6
  9
$SPLINESEGS
 70
     8
  9
$HANDSEED
  5
4039B
  9
$SURFTAB1
 70
     6
  9
$SURFTAB2
 70
     6
  9
$SURFTYPE
 70
     6
  9
$SURFU
 70
     6
  9
$SURFV
 70
     6
  9
$UCSBASE
  2

  9
$UCSNAME
  2

  9
$UCSORG
 10
0.0
 20
0.0
 30
0.0
  9
$UCSXDIR
 10
1.0
 20
0.0
 30
0.0
  9
$UCSYDIR
 10
0.0
 20
1.0
 30
0.0
  9
$UCSORTHOREF
  2

  9
$UCSORTHOVIEW
 70
     0
  9
$UCSORGTOP
 10
0.0
 20
0.0
 30
0.0
  9
$UCSORGBOTTOM
 10
0.0
 20
0.0
 30
0.0
  9
$UCSORGLEFT
 10
0.0
 20
0.0
 30
0.0
  9
$UCSORGRIGHT
 10
0.0
 20
0.0
 30
0.0
  9
$UCSORGFRONT
 10
0.0
 20
0.0
 30
0.0
  9
$UCSORGBACK
 10
0.0
 20
0.0
 30
0.0
  9
$PUCSBASE
  2

  9
$PUCSNAME
  2

  9
$PUCSORG
 10
0.0
 20
0.0
 30
0.0
  9
$PUCSXDIR
 10
1.0
 20
0.0
 30
0.0
  9
$PUCSYDIR
 10
0.0
 20
1.0
 30
0.0
  9
$PUCSORTHOREF
  2

  9
$PUCSORTHOVIEW
 70
     0
  9
$PUCSORGTOP
 10
0.0
 20
0.0
 30
0.0
  9
$PUCSORGBOTTOM
 10
0.0
 20
0.0
 30
0.0
  9
$PUCSORGLEFT
 10
0.0
 20
0.0
 30
0.0
  9
$PUCSORGRIGHT
 10
0.0
 20
0.0
 30
0.0
  9
$PUCSORGFRONT
 10
0.0
 20
0.0
 30
0.0
  9
$PUCSORGBACK
 10
0.0
 20
0.0
 30
0.0
  9
$USERI1
 70
     0
  9
$USERI2
 70
     0
  9
$USERI3
 70
     0
  9
$USERI4
 70
     0
  9
$USERI5
 70
     0
  9
$USERR1
 40
0.0
  9
$USERR2
 40
0.0
  9
$USERR3
 40
0.0
  9
$USERR4
 40
0.0
  9
$USERR5
 40
0.0
  9
$WORLDVIEW
 70
     1
  9
$SHADEDGE
 70
     3
  9
$SHADEDIF
 70
    70
  9
$TILEMODE
 70
     1
  9
$MAXACTVP
 70
    64
  9
$PINSBASE
 10
0.0
 20
0.0
 30
0.0
  9
$PLIMCHECK
 70
     0
  9
$PEXTMIN
 10
1.000000000000000E+20
 20
1.000000000000000E+20
 30
1.000000000000000E+20
  9
$PEXTMAX
 10
-1.000000000000000E+20
 20
-1.000000000000000E+20
 30
-1.000000000000000E+20
  9
$PLIMMIN
 10
-20.0
 20
-7.5
  9
$PLIMMAX
 10
277.0
 20
202.5
  9
$UNITMODE
 70
     0
  9
$VISRETAIN
 70
     1
  9
$PLINEGEN
 70
     0
  9
$PSLTSCALE
 70
     1
  9
$TREEDEPTH
 70
  3020
  9
$CMLSTYLE
  2
Standard
  9
$CMLJUST
 70
     0
  9
$CMLSCALE
 40
20.0
  9
$PROXYGRAPHICS
 70
     1
  9
$MEASUREMENT
 70
     1
  9
$CELWEIGHT
370
    -1
  9
$ENDCAPS
280
     0
  9
$JOINSTYLE
280
     0
  9
$LWDISPLAY
290
     0
  9
$INSUNITS
 70
     4
  9
$HYPERLINKBASE
  1

  9
$STYLESHEET
  1
ksm0910.ctb
  9
$XEDIT
290
     1
  9
$CEPSNTYPE
380
     0
  9
$PSTYLEMODE
290
     1
  9
$FINGERPRINTGUID
  2
{D2C70C36-9B4F-4E20-9CCB-531AA1EE4AC8}
  9
$VERSIONGUID
  2
{02AE5FD5-E7B7-47D1-B6AA-D3EFAB56CC10}
  9
$EXTNAMES
290
     1
  9
$PSVPSCALE
 40
0.0
  9
$OLESTARTUP
290
     0
  9
$SORTENTS
280
   127
  9
$INDEXCTL
280
     0
  9
$HIDETEXT
280
     1
  9
$XCLIPFRAME
280
     2
  9
$HALOGAP
280
     0
  9
$OBSCOLOR
 70
   257
  9
$OBSLTYPE
280
     0
  9
$INTERSECTIONDISPLAY
280
     0
  9
$INTERSECTIONCOLOR
 70
   257
  9
$DIMASSOC
280
     1
  9
$PROJECTNAME
  1

  9
$CAMERADISPLAY
290
     0
  9
$LENSLENGTH
 40
50.0
  9
$CAMERAHEIGHT
 40
0.0
  9
$STEPSPERSEC
 40
2.0
  9
$STEPSIZE
 40
6.0
  9
$3DDWFPREC
 40
2.0
  9
$PSOLWIDTH
 40
5.0
  9
$PSOLHEIGHT
 40
80.0
  9
$LOFTANG1
 40
1.570796326794896
  9
$LOFTANG2
 40
1.570796326794896
  9
$LOFTMAG1
 40
0.0
  9
$LOFTMAG2
 40
0.0
  9
$LOFTPARAM
 70
     7
  9
$LOFTNORMALS
280
     1
  9
$LATITUDE
 40
37.795
  9
$LONGITUDE
 40
-122.394
  9
$NORTHDIRECTION
 40
0.0
  9
$TIMEZONE
 70
 -8000
  9
$LIGHTGLYPHDISPLAY
280
     1
  9
$TILEMODELIGHTSYNCH
280
     1
  9
$CMATERIAL
347
3D
  9
$SOLIDHIST
280
     1
  9
$SHOWHIST
280
     1
  9
$DWFFRAME
280
     2
  9
$DGNFRAME
280
     0
  9
$REALWORLDSCALE
290
     1
  9
$INTERFERECOLOR
 62
     1
  9
$INTERFEREOBJVS
345
46
  9
$INTERFEREVPVS
346
47
  9
$CSHADOW
280
     0
  9
$SHADOWPLANELOCATION
 40
0.0
  0
ENDSEC
  0
SECTION
  2
CLASSES
  0
CLASS
  1
ACDBDICTIONARYWDFLT
  2
AcDbDictionaryWithDefault
  3
ObjectDBX Classes
 90
        0
 91
        1
280
     0
281
     0
  0
CLASS
  1
DICTIONARYVAR
  2
AcDbDictionaryVar
  3
ObjectDBX Classes
 90
        0
 91
       18
280
     0
281
     0
  0
CLASS
  1
TABLESTYLE
  2
AcDbTableStyle
  3
ObjectDBX Classes
 90
     4095
 91
        1
280
     0
281
     0
  0
CLASS
  1
MATERIAL
  2
AcDbMaterial
  3
ObjectDBX Classes
 90
     1153
 91
        3
280
     0
281
     0
  0
CLASS
  1
VISUALSTYLE
  2
AcDbVisualStyle
  3
ObjectDBX Classes
 90
     4095
 91
       26
280
     0
281
     0
  0
CLASS
  1
SCALE
  2
AcDbScale
  3
ObjectDBX Classes
 90
     1153
 91
       17
280
     0
281
     0
  0
CLASS
  1
MLEADERSTYLE
  2
AcDbMLeaderStyle
  3
ACDB_MLEADERSTYLE_CLASS
 90
     4095
 91
        1
280
     0
281
     0
  0
CLASS
  1
CELLSTYLEMAP
  2
AcDbCellStyleMap
  3
ObjectDBX Classes
 90
     1152
 91
        2
280
     0
281
     0
  0
CLASS
  1
SORTENTSTABLE
  2
AcDbSortentsTable
  3
ObjectDBX Classes
 90
        0
 91
        1
280
     0
281
     0
  0
CLASS
  1
DIMASSOC
  2
AcDbDimAssoc
  3
"AcDbDimAssoc|Product Desc:     AcDim ARX App For Dimension|Company:          Autodesk, Inc.|WEB Address:      www.autodesk.com"
 90
        0
 91
        0
280
     0
281
     0
  0
CLASS
  1
SOLID_BACKGROUND
  2
AcDbSolidBackground
  3
SCENEOE
 90
     4095
 91
        0
280
     0
281
     0
  0
CLASS
  1
NPOCOLLECTION
  2
AcDbImpNonPersistentObjectsCollection
  3
ObjectDBX Classes
 90
     1153
 91
        0
280
     0
281
     0
  0
CLASS
  1
ACAD_EVALUATION_GRAPH
  2
AcDbEvalGraph
  3
ObjectDBX Classes
 90
     1153
 91
        0
280
     0
281
     0
  0
CLASS
  1
ACAECUSTOBJ
  2
AcAeEditorObj
  3
AcAeEditorObj
 90
     1024
 91
        0
280
     1
281
     0
  0
CLASS
  1
ACDB_DYNAMICBLOCKPURGEPREVENTER_VERSION
  2
AcDbDynamicBlockPurgePreventer
  3
ObjectDBX Classes
 90
     1153
 91
        0
280
     0
281
     0
  0
CLASS
  1
HELIX
  2
AcDbHelix
  3
ObjectDBX Classes
 90
     4095
 91
        0
280
     0
281
     1
  0
CLASS
  1
MULTILEADER
  2
AcDbMLeader
  3
ACDB_MLEADER_CLASS
 90
     1025
 91
        0
280
     0
281
     1
  0
CLASS
  1
ACMDIMBREAKPERSREACTOR
  2
AcmDimBreakPersReactor
  3
amgDimApp().moduleName()
 90
     1023
 91
        0
280
     1
281
     0
  0
CLASS
  1
ACDB_MTEXTOBJECTCONTEXTDATA_CLASS
  2
AcDbMTextObjectContextData
  3
ObjectDBX Classes
 90
     1153
 91
        0
280
     0
281
     0
  0
CLASS
  1
BREAKDATA
  2
AcDbBreakData
  3
ObjectDBX Classes
 90
     1024
 91
        0
280
     0
281
     0
  0
CLASS
  1
EXACXREFPANELOBJECT
  2
ExAcXREFPanelObject
  3
EXAC_ESW
 90
     1025
 91
        0
280
     1
281
     0
  0
CLASS
  1
ACDBSECTIONVIEWSTYLE
  2
AcDbSectionViewStyle
  3
ObjectDBX Classes
 90
     1025
 91
        2
280
     0
281
     0
  0
CLASS
  1
ACDBDETAILVIEWSTYLE
  2
AcDbDetailViewStyle
  3
ObjectDBX Classes
 90
     1025
 91
        2
280
     0
281
     0
  0
CLASS
  1
ACDBASSOCACTION
  2
AcDbAssocAction
  3
ObjectDBX Classes
 90
     1025
 91
        1
280
     0
281
     0
  0
CLASS
  1
ACDBASSOCARRAYACTIONBODY
  2
AcDbAssocArrayActionBody
  3
ObjectDBX Classes
 90
     1025
 91
        1
280
     0
281
     0
  0
CLASS
  1
ACDBASSOCDEPENDENCY
  2
AcDbAssocDependency
  3
ObjectDBX Classes
 90
     1025
 91
        3
280
     0
281
     0
  0
CLASS
  1
ACDBASSOCVERTEXACTIONPARAM
  2
AcDbAssocVertexActionParam
  3
ObjectDBX Classes
 90
     1025
 91
        3
280
     0
281
     0
  0
CLASS
  1
ACDBASSOCARRAYPOLARPARAMETERS
  2
AcDbAssocArrayPolarParameters
  3
ObjectDBX Classes
 90
     1025
 91
        0
280
     0
281
     0
  0
CLASS
  1
ACDBASSOCNETWORK
  2
AcDbAssocNetwork
  3
ObjectDBX Classes
 90
     1025
 91
        2
280
     0
281
     0
  0
CLASS
  1
ACARRAYJIGENTITY
  2
AcArrayJigEntity
  3
ACAD_ARRAY
 90
      129
 91
        0
280
     0
281
     1
  0
ENDSEC
  0
SECTION
  2
TABLES
  0
TABLE
  2
VPORT
  5
2C
102
{ACAD_XDICTIONARY
360
31
102
}
330
0
100
AcDbSymbolTable
 70
     1
  0
VPORT
  5
2D
330
2C
100
AcDbSymbolTableRecord
100
AcDbViewportTableRecord
  2
*Active
 70
     0
 10
0.0
 20
0.0
 11
1.0
 21
1.0
 12
157.3857498064076
 22
92.5519799906039
 13
0.0
 23
0.0
 14
2.0
 24
2.0
 15
2.0
 25
2.0
 16
0.0
 26
0.0
 36
1.0
 17
0.0
 27
0.0
 37
0.0
 40
309.2300709074342
 41
2.176540284360189
 42
50.0
 43
0.0
 44
0.0
 50
0.0
 51
0.0
 71
     0
 72
  1000
 73
     1
 74
     3
 75
     0
 76
     0
 77
     0
 78
     1
281
     0
 65
     1
110
0.0
120
0.0
130
0.0
111
1.0
121
0.0
131
0.0
112
0.0
122
1.0
132
0.0
 79
     0
146
0.0
348
2E
 60
     3
 61
     5
292
     1
282
     1
141
0.0
142
0.0
 63
   250
421
  3355443
1001
ACAD_NAV_VCDISPLAY
1070
     3
  0
ENDTAB
  0
TABLE
  2
LTYPE
  5
27
330
0
100
AcDbSymbolTable
 70
     3
  0
LTYPE
  5
28
330
27
100
AcDbSymbolTableRecord
100
AcDbLinetypeTableRecord
  2
ByBlock
 70
     0
  3

 72
    65
 73
     0
 40
0.0
  0
LTYPE
  5
29
330
27
100
AcDbSymbolTableRecord
100
AcDbLinetypeTableRecord
  2
ByLayer
 70
     0
  3

 72
    65
 73
     0
 40
0.0
  0
LTYPE
  5
14
330
27
100
AcDbSymbolTableRecord
100
AcDbLinetypeTableRecord
  2
Continuous
 70
     0
  3
Solid line
 72
    65
 73
     0
 40
0.0
  0
LTYPE
  5
39E15
330
27
100
AcDbSymbolTableRecord
100
AcDbLinetypeTableRecord
  2
CENTER
 70
     0
  3
____ _ ____ _ ____ _ ____ _ ____ _ ____ _ ____ 
 72
    65
 73
     4
 40
2.0
 49
1.25
 74
     0
 49
-0.25
 74
     0
 49
0.25
 74
     0
 49
-0.25
 74
     0
  0
LTYPE
  5
3BE46
330
27
100
AcDbSymbolTableRecord
100
AcDbLinetypeTableRecord
  2
HIDDEN
 70
     0
  3
Hidden __ __ __ __ __ __ __ __ __ __ __ __ __ _
 72
    65
 73
     2
 40
9.524999999999998
 49
6.349999999999999
 74
     0
 49
-3.174999999999999
 74
     0
  0
ENDTAB
  0
TABLE
  2
LAYER
  5
21
102
{ACAD_XDICTIONARY
360
22
102
}
330
0
100
AcDbSymbolTable
 70
     3
  0
LAYER
  5
6
102
{ACAD_XDICTIONARY
360
7
102
}
330
21
100
AcDbSymbolTableRecord
100
AcDbLayerTableRecord
  2
0
 70
     0
 62
     7
  6
Continuous
370
    -3
390
9
347
C
348
0
  0
LAYER
  5
1A4
330
21
100
AcDbSymbolTableRecord
100
AcDbLayerTableRecord
  2
DEFPOINTS
 70
     0
 62
     7
  6
Continuous
290
     0
370
    -3
390
9
347
C
348
0
  0
LAYER
  5
283CB
330
21
100
AcDbSymbolTableRecord
100
AcDbLayerTableRecord
  2
Layer 1
 70
     0
 62
     7
  6
Continuous
370
     0
390
9
347
C
348
0
  0
ENDTAB
  0
TABLE
  2
STYLE
  5
24
330
0
100
AcDbSymbolTable
 70
     4
  0
STYLE
  5
25
330
24
100
AcDbSymbolTableRecord
100
AcDbTextStyleTableRecord
  2
Standard
 70
     0
 40
3.0
 41
1.0
 50
0.0
 71
     0
 42
3.0
  3
isocp.shx
  4
whgtxt.shx
  0
STYLE
  5
35
330
24
100
AcDbSymbolTableRecord
100
AcDbTextStyleTableRecord
  2
ROMANS
 70
     0
 40
2.5
 41
1.0
 50
0.0
 71
     0
 42
2.5
  3
romans.shx
  4

  0
STYLE
  5
5C
330
24
100
AcDbSymbolTableRecord
100
AcDbTextStyleTableRecord
  2
굴림
 70
     0
 40
3.0
 41
1.0
 50
0.0
 71
     0
 42
3.0
  3

  4

1001
ACAD
1000
Gulim
1071
    33074
  0
ENDTAB
  0
TABLE
  2
VIEW
  5
2A
330
0
100
AcDbSymbolTable
 70
     0
  0
ENDTAB
  0
TABLE
  2
UCS
  5
2B
330
0
100
AcDbSymbolTable
 70
     0
  0
ENDTAB
  0
TABLE
  2
APPID
  5
32
330
0
100
AcDbSymbolTable
 70
    45
  0
APPID
  5
13
330
32
100
AcDbSymbolTableRecord
100
AcDbRegAppTableRecord
  2
ACAD
 70
     0
  0
APPID
  5
1A
330
32
100
AcDbSymbolTableRecord
100
AcDbRegAppTableRecord
  2
ACAD_PSEXT
 70
     0
  0
APPID
  5
37
330
32
100
AcDbSymbolTableRecord
100
AcDbRegAppTableRecord
  2
ACAD_DSTYLE_DIMJAG
 70
     0
  0
APPID
  5
38
330
32
100
AcDbSymbolTableRecord
100
AcDbRegAppTableRecord
  2
ACAD_DSTYLE_DIMTALN
 70
     0
  0
APPID
  5
36
330
32
100
AcDbSymbolTableRecord
100
AcDbRegAppTableRecord
  2
ACAD_DSTYLE_DIMJOGGED_JOGANGLE_SYMBOL
 70
     0
  0
APPID
  5
183
330
32
100
AcDbSymbolTableRecord
100
AcDbRegAppTableRecord
  2
AcAecLayerStandard
 70
     0
  0
APPID
  5
3DE
330
32
100
AcDbSymbolTableRecord
100
AcDbRegAppTableRecord
  2
ACAD_DSTYLE_DIMRADIAL_EXTENSION
 70
     0
  0
APPID
  5
530
330
32
100
AcDbSymbolTableRecord
100
AcDbRegAppTableRecord
  2
GRADIENTCOLOR1ACI
 70
     0
  0
APPID
  5
531
330
32
100
AcDbSymbolTableRecord
100
AcDbRegAppTableRecord
  2
GRADIENTCOLOR2ACI
 70
     0
  0
APPID
  5
30
330
32
100
AcDbSymbolTableRecord
100
AcDbRegAppTableRecord
  2
ACAD_NAV_VCDISPLAY
 70
     0
  0
APPID
  5
C34
330
32
100
AcDbSymbolTableRecord
100
AcDbRegAppTableRecord
  2
ACAD_MLEADERVER
 70
     0
  0
APPID
  5
C97
330
32
100
AcDbSymbolTableRecord
100
AcDbRegAppTableRecord
  2
ACAD_EXEMPT_FROM_CAD_STANDARDS
 70
     0
  0
APPID
  5
D79
330
32
100
AcDbSymbolTableRecord
100
AcDbRegAppTableRecord
  2
AcadAnnoMonitorAlertIconDisabled
 70
     0
  0
APPID
  5
1A45
330
32
100
AcDbSymbolTableRecord
100
AcDbRegAppTableRecord
  2
GENIUS_GENODEF_13
 70
     0
  0
APPID
  5
1A46
330
32
100
AcDbSymbolTableRecord
100
AcDbRegAppTableRecord
  2
GENIUS_GENOBJ-N-FIL_13
 70
     0
  0
APPID
  5
1A47
330
32
100
AcDbSymbolTableRecord
100
AcDbRegAppTableRecord
  2
ACAD_DSTYLE_DIMBREAK
 70
     0
  0
APPID
  5
1A48
330
32
100
AcDbSymbolTableRecord
100
AcDbRegAppTableRecord
  2
GENIUS_GENOBJ-N-HTC_13
 70
     0
  0
APPID
  5
1A49
330
32
100
AcDbSymbolTableRecord
100
AcDbRegAppTableRecord
  2
GENIUS_GENHATCH_13
 70
     0
  0
APPID
  5
1A4A
330
32
100
AcDbSymbolTableRecord
100
AcDbRegAppTableRecord
  2
GENIUS_GENREC_14
 70
     0
  0
APPID
  5
1A4B
330
32
100
AcDbSymbolTableRecord
100
AcDbRegAppTableRecord
  2
GENIUS_GENOBJ-N-REC_13
 70
     0
  0
APPID
  5
1A4C
330
32
100
AcDbSymbolTableRecord
100
AcDbRegAppTableRecord
  2
ACAUTHENVIRON
 70
     0
  0
APPID
  5
1A4D
330
32
100
AcDbSymbolTableRecord
100
AcDbRegAppTableRecord
  2
AcDbDynamicBlockTrueName
 70
     0
  0
APPID
  5
1A4E
330
32
100
AcDbSymbolTableRecord
100
AcDbRegAppTableRecord
  2
AcDbDynamicBlockGUID
 70
     0
  0
APPID
  5
1A4F
330
32
100
AcDbSymbolTableRecord
100
AcDbRegAppTableRecord
  2
AcDbBlockRepETag
 70
     0
  0
APPID
  5
1A50
330
32
100
AcDbSymbolTableRecord
100
AcDbRegAppTableRecord
  2
DCO15
 70
     0
  0
APPID
  5
1A51
330
32
100
AcDbSymbolTableRecord
100
AcDbRegAppTableRecord
  2
ACAD_DSTYLE_DIMTEXT_FILL
 70
     0
  0
APPID
  5
1A52
330
32
100
AcDbSymbolTableRecord
100
AcDbRegAppTableRecord
  2
ACAD_DSTYLE_DIM_LINETYPE
 70
     0
  0
APPID
  5
1A53
330
32
100
AcDbSymbolTableRecord
100
AcDbRegAppTableRecord
  2
ACAD_DSTYLE_DIM_EXT1_LINETYPE
 70
     0
  0
APPID
  5
1A54
330
32
100
AcDbSymbolTableRecord
100
AcDbRegAppTableRecord
  2
ACAD_DSTYLE_DIM_EXT2_LINETYPE
 70
     0
  0
APPID
  5
1A55
330
32
100
AcDbSymbolTableRecord
100
AcDbRegAppTableRecord
  2
ACAD_DSTYLE_DIMINSPECT
 70
     0
  0
APPID
  5
1A56
330
32
100
AcDbSymbolTableRecord
100
AcDbRegAppTableRecord
  2
AcadAnnotative
 70
     0
  0
APPID
  5
1A57
330
32
100
AcDbSymbolTableRecord
100
AcDbRegAppTableRecord
  2
GENIUS_GENDTOL_13
 70
     0
  0
APPID
  5
1A58
330
32
100
AcDbSymbolTableRecord
100
AcDbRegAppTableRecord
  2
GENIUS_GENFIL_13
 70
     0
  0
APPID
  5
1A59
330
32
100
AcDbSymbolTableRecord
100
AcDbRegAppTableRecord
  2
GENIUS_GENOBJ-N-CHA_13
 70
     0
  0
APPID
  5
1A5A
330
32
100
AcDbSymbolTableRecord
100
AcDbRegAppTableRecord
  2
AcadAnnotativeDecomposition
 70
     0
  0
APPID
  5
1A5B
330
32
100
AcDbSymbolTableRecord
100
AcDbRegAppTableRecord
  2
MCAD_NO_VIS
 70
     0
  0
APPID
  5
1A5C
330
32
100
AcDbSymbolTableRecord
100
AcDbRegAppTableRecord
  2
ACAD_TEMP_GRAPHIC
 70
     0
  0
APPID
  5
1A5D
330
32
100
AcDbSymbolTableRecord
100
AcDbRegAppTableRecord
  2
ACATTRIBSERVICES
 70
     0
  0
APPID
  5
1A5E
330
32
100
AcDbSymbolTableRecord
100
AcDbRegAppTableRecord
  2
DESIGNERASSEMBLIES
 70
     0
  0
APPID
  5
1A5F
330
32
100
AcDbSymbolTableRecord
100
AcDbRegAppTableRecord
  2
GENIUS_GENDIMSH_14
 70
     0
  0
APPID
  5
1A60
330
32
100
AcDbSymbolTableRecord
100
AcDbRegAppTableRecord
  2
ACAD_DSTYLE_DIMARC_LENGTH_SYMBOL
 70
     0
  0
APPID
  5
1A61
330
32
100
AcDbSymbolTableRecord
100
AcDbRegAppTableRecord
  2
ACAD_SPLINE_DATA
 70
     0
  0
APPID
  5
1A62
330
32
100
AcDbSymbolTableRecord
100
AcDbRegAppTableRecord
  2
GENIUS_GENOREF_13
 70
     0
  0
APPID
  5
1A63
330
32
100
AcDbSymbolTableRecord
100
AcDbRegAppTableRecord
  2
ACAD_DSTYLE_DIMANGULAR_EXTENSION
 70
     0
  0
APPID
  5
318CC
330
32
100
AcDbSymbolTableRecord
100
AcDbRegAppTableRecord
  2
HATCHBACKGROUNDCOLOR
 70
     0
  0
ENDTAB
  0
TABLE
  2
DIMSTYLE
  5
33
330
0
100
AcDbSymbolTable
 70
     3
100
AcDbDimStyleTable
 71
     1
340
34
  0
DIMSTYLE
105
34
102
{ACAD_REACTORS
330
3FFC4
102
}
330
33
100
AcDbSymbolTableRecord
100
AcDbDimStyleTableRecord
  2
Standard
 70
     0
 41
2.5
 73
     0
 77
     3
 78
     8
140
2.5
141
-1.0
147
1.0
175
     1
176
     3
177
     3
178
     2
179
     8
271
     8
272
     8
275
     1
340
35
1001
ACAD_DSTYLE_DIMJOGGED_JOGANGLE_SYMBOL
1070
   384
1040
0.7853981633974483
1001
ACAD_DSTYLE_DIMJAG
1070
   388
1040
1.5
1001
ACAD_DSTYLE_DIMTALN
1070
   392
1070
     0
  0
DIMSTYLE
105
1A8
102
{ACAD_REACTORS
330
3D2A9
330
3D2F2
330
3F3DF
330
3F3E0
330
3FE36
102
}
330
33
100
AcDbSymbolTableRecord
100
AcDbDimStyleTableRecord
  2
Standard$0
 70
     0
 41
2.5
 73
     0
 77
     3
 78
     8
140
2.5
141
-1.0
147
1.0
175
     1
176
     3
177
     3
178
     2
179
     8
271
     8
272
     8
275
     1
340
35
  0
ENDTAB
  0
TABLE
  2
BLOCK_RECORD
  5
1
330
0
100
AcDbSymbolTable
 70
     9
  0
BLOCK_RECORD
  5
2
102
{ACAD_XDICTIONARY
360
3
102
}
330
1
100
AcDbSymbolTableRecord
100
AcDbBlockTableRecord
  2
*Model_Space
340
16
 70
     0
280
     1
281
     0
  0
BLOCK_RECORD
  5
1B
330
1
100
AcDbSymbolTableRecord
100
AcDbBlockTableRecord
  2
*Paper_Space
340
1E
 70
     0
280
     1
281
     0
  0
BLOCK_RECORD
  5
3D44A
330
1
100
AcDbSymbolTableRecord
100
AcDbBlockTableRecord
  2
*D0
340
0
 70
     0
280
     1
281
     0
  0
BLOCK_RECORD
  5
3D4AA
330
1
100
AcDbSymbolTableRecord
100
AcDbBlockTableRecord
  2
*D1
340
0
 70
     0
280
     1
281
     0
  0
BLOCK_RECORD
  5
3F49B
330
1
100
AcDbSymbolTableRecord
100
AcDbBlockTableRecord
  2
*D2
340
0
 70
     0
280
     1
281
     0
  0
BLOCK_RECORD
  5
3F4A7
330
1
100
AcDbSymbolTableRecord
100
AcDbBlockTableRecord
  2
*D3
340
0
 70
     0
280
     1
281
     0
  0
BLOCK_RECORD
  5
3FEE3
330
1
100
AcDbSymbolTableRecord
100
AcDbBlockTableRecord
  2
*D4
340
0
 70
     0
280
     1
281
     0
  0
BLOCK_RECORD
  5
3FFEF
102
{ACAD_REACTORS
330
40001
102
}
330
1
100
AcDbSymbolTableRecord
100
AcDbBlockTableRecord
  2
*U5
340
0
102
{BLKREFS
331
3FFF9
331
3FFFA
331
3FFFB
331
3FFFC
102
}
 70
     0
280
     1
281
     0
  0
BLOCK_RECORD
  5
3FFF6
102
{ACAD_XDICTIONARY
360
3FFF7
102
}
102
{ACAD_REACTORS
330
40000
102
}
330
1
100
AcDbSymbolTableRecord
100
AcDbBlockTableRecord
  2
*U6
340
0
102
{BLKREFS
331
3FFBB
102
}
 70
     0
280
     1
281
     1
  0
BLOCK_RECORD
  5
40072
330
1
100
AcDbSymbolTableRecord
100
AcDbBlockTableRecord
  2
*D7
340
0
 70
     0
280
     1
281
     0
  0
ENDTAB
  0
ENDSEC
  0
SECTION
  2
BLOCKS
  0
BLOCK
  5
5
330
2
100
AcDbEntity
  8
0
100
AcDbBlockBegin
  2
*Model_Space
 70
     0
 10
0.0
 20
0.0
 30
0.0
  3
*Model_Space
  1

  0
ENDBLK
  5
15
330
2
100
AcDbEntity
  8
0
100
AcDbBlockEnd
  0
BLOCK
  5
1C
330
1B
100
AcDbEntity
 67
     1
  8
0
100
AcDbBlockBegin
  2
*Paper_Space
 70
     0
 10
0.0
 20
0.0
 30
0.0
  3
*Paper_Space
  1

  0
ENDBLK
  5
1D
330
1B
100
AcDbEntity
 67
     1
  8
0
100
AcDbBlockEnd
  0
BLOCK
  5
3D44B
330
3D44A
100
AcDbEntity
  8
0
 62
     7
100
AcDbBlockBegin
  2
*D0
 70
     1
 10
0.0
 20
0.0
 30
0.0
  3
*D0
  1

  0
LINE
  5
402EF
330
3D44A
100
AcDbEntity
  8
0
  6
Continuous
 62
     3
440
 16777216
100
AcDbLine
 10
90.29068175564692
 20
119.2511898135911
 30
0.0
 11
75.21276899837724
 21
119.2511898135911
 31
0.0
  0
LINE
  5
402F0
330
3D44A
100
AcDbEntity
  8
0
  6
Continuous
 62
     3
440
 16777216
100
AcDbLine
 10
90.29068175564692
 20
92.83518981359009
 30
0.0
 11
75.21276899837722
 21
92.83518981359009
 31
0.0
  0
LINE
  5
402F1
330
3D44A
100
AcDbEntity
  8
0
  6
Continuous
 62
     3
440
 16777216
100
AcDbLine
 10
76.46276899837724
 20
116.7511898135911
 30
0.0
 11
76.46276899837722
 21
95.33518981359009
 31
0.0
  0
SOLID
  5
402F2
330
3D44A
100
AcDbEntity
  8
0
  6
Continuous
 62
     3
440
 16777216
100
AcDbTrace
 10
76.04610233171057
 20
116.7511898135911
 30
0.0
 11
76.87943566504391
 21
116.7511898135911
 31
0.0
 12
76.46276899837724
 22
119.2511898135911
 32
0.0
 13
76.46276899837724
 23
119.2511898135911
 33
0.0
  0
SOLID
  5
402F3
330
3D44A
100
AcDbEntity
  8
0
  6
Continuous
 62
     3
440
 16777216
100
AcDbTrace
 10
76.04610233171055
 20
95.33518981359009
 30
0.0
 11
76.8794356650439
 21
95.33518981359009
 31
0.0
 12
76.46276899837722
 22
92.83518981359009
 32
0.0
 13
76.46276899837722
 23
92.83518981359009
 33
0.0
  0
MTEXT
  5
402F4
330
3D44A
100
AcDbEntity
  8
0
  6
Continuous
 62
     2
440
 16777216
100
AcDbMText
 10
74.33776899837721
 20
106.0431898135906
 30
0.0
 40
3.0
 41
0.0
 46
0.0
 71
     5
 72
     1
  1
%%C1.04
 11
0.0000000000000001
 21
1.0
 31
0.0
 73
     1
 44
1.0
  0
POINT
  5
402F5
330
3D44A
100
AcDbEntity
  8
DEFPOINTS
  6
Continuous
 62
     0
440
 16777216
100
AcDbPoint
 10
90.91568175564692
 20
119.2511898135911
 30
0.0
  0
POINT
  5
402F6
330
3D44A
100
AcDbEntity
  8
DEFPOINTS
  6
Continuous
 62
     0
440
 16777216
100
AcDbPoint
 10
90.91568175564692
 20
92.83518981359009
 30
0.0
  0
POINT
  5
402F7
330
3D44A
100
AcDbEntity
  8
DEFPOINTS
  6
Continuous
 62
     0
440
 16777216
100
AcDbPoint
 10
76.46276899837722
 20
92.83518981359009
 30
0.0
  0
ENDBLK
  5
3D44C
330
3D44A
100
AcDbEntity
  8
0
 62
     7
100
AcDbBlockEnd
  0
BLOCK
  5
3D4AB
330
3D4AA
100
AcDbEntity
  8
0
 62
     7
100
AcDbBlockBegin
  2
*D1
 70
     1
 10
0.0
 20
0.0
 30
0.0
  3
*D1
  1

  0
LINE
  5
402F8
330
3D4AA
100
AcDbEntity
  8
0
  6
Continuous
 62
     3
440
 16777216
100
AcDbLine
 10
105.7906817556583
 20
136.0431898135906
 30
0.0
 11
67.21276899838587
 21
136.0431898135906
 31
0.0
  0
LINE
  5
402F9
330
3D4AA
100
AcDbEntity
  8
0
  6
Continuous
 62
     3
440
 16777216
100
AcDbLine
 10
105.7906817556583
 20
76.04318981359063
 30
0.0
 11
67.21276899838585
 21
76.04318981359064
 31
0.0
  0
LINE
  5
402FA
330
3D4AA
100
AcDbEntity
  8
0
  6
Continuous
 62
     3
440
 16777216
100
AcDbLine
 10
68.46276899838587
 20
133.5431898135906
 30
0.0
 11
68.46276899838585
 21
78.54318981359064
 31
0.0
  0
SOLID
  5
402FB
330
3D4AA
100
AcDbEntity
  8
0
  6
Continuous
 62
     3
440
 16777216
100
AcDbTrace
 10
68.0461023317192
 20
133.5431898135906
 30
0.0
 11
68.87943566505254
 21
133.5431898135906
 31
0.0
 12
68.46276899838587
 22
136.0431898135906
 32
0.0
 13
68.46276899838587
 23
136.0431898135906
 33
0.0
  0
SOLID
  5
402FC
330
3D4AA
100
AcDbEntity
  8
0
  6
Continuous
 62
     3
440
 16777216
100
AcDbTrace
 10
68.04610233171918
 20
78.54318981359064
 30
0.0
 11
68.87943566505253
 21
78.54318981359064
 31
0.0
 12
68.46276899838585
 22
76.04318981359064
 32
0.0
 13
68.46276899838585
 23
76.04318981359064
 33
0.0
  0
MTEXT
  5
402FD
330
3D4AA
100
AcDbEntity
  8
0
  6
Continuous
 62
     2
440
 16777216
100
AcDbMText
 10
66.33747372279529
 20
106.0431898135906
 30
0.0
 40
3.0
 41
0.0
 46
0.0
 71
     5
 72
     1
  1
%%C2.36
 11
0.0000000000000001
 21
1.0
 31
0.0
 73
     1
 44
1.0
  0
POINT
  5
402FE
330
3D4AA
100
AcDbEntity
  8
DEFPOINTS
  6
Continuous
 62
     0
440
 16777216
100
AcDbPoint
 10
106.4156817556582
 20
136.0431898135906
 30
0.0
  0
POINT
  5
402FF
330
3D4AA
100
AcDbEntity
  8
DEFPOINTS
  6
Continuous
 62
     0
440
 16777216
100
AcDbPoint
 10
106.4156817556582
 20
76.04318981359063
 30
0.0
  0
POINT
  5
40300
330
3D4AA
100
AcDbEntity
  8
DEFPOINTS
  6
Continuous
 62
     0
440
 16777216
100
AcDbPoint
 10
68.46276899838585
 20
76.04318981359064
 30
0.0
  0
ENDBLK
  5
3D4AC
330
3D4AA
100
AcDbEntity
  8
0
 62
     7
100
AcDbBlockEnd
  0
BLOCK
  5
3F49C
330
3F49B
100
AcDbEntity
  8
0
 62
     7
100
AcDbBlockBegin
  2
*D2
 70
     1
 10
0.0
 20
0.0
 30
0.0
  3
*D2
  1

  0
LINE
  5
4030A
330
3F49B
100
AcDbEntity
  8
0
  6
Continuous
 62
     3
440
 16777216
100
AcDbLine
 10
26.5181255633629
 20
101.9181898135906
 30
0.0
 11
26.5181255633629
 21
81.29732211281805
 31
0.0
  0
LINE
  5
4030B
330
3F49B
100
AcDbEntity
  8
0
  6
Continuous
 62
     3
440
 16777216
100
AcDbLine
 10
51.93412556335715
 20
101.8184676020759
 30
0.0
 11
51.93412556335715
 21
81.29732211281805
 31
0.0
  0
LINE
  5
4030C
330
3F49B
100
AcDbEntity
  8
0
  6
Continuous
 62
     3
440
 16777216
100
AcDbLine
 10
29.0181255633629
 20
82.54732211281805
 30
0.0
 11
49.43412556335715
 21
82.54732211281805
 31
0.0
  0
SOLID
  5
4030D
330
3F49B
100
AcDbEntity
  8
0
  6
Continuous
 62
     3
440
 16777216
100
AcDbTrace
 10
29.0181255633629
 20
82.96398877948472
 30
0.0
 11
29.0181255633629
 21
82.13065544615139
 31
0.0
 12
26.5181255633629
 22
82.54732211281805
 32
0.0
 13
26.5181255633629
 23
82.54732211281805
 33
0.0
  0
SOLID
  5
4030E
330
3F49B
100
AcDbEntity
  8
0
  6
Continuous
 62
     3
440
 16777216
100
AcDbTrace
 10
49.43412556335715
 20
82.96398877948472
 30
0.0
 11
49.43412556335715
 21
82.13065544615139
 31
0.0
 12
51.93412556335715
 22
82.54732211281805
 32
0.0
 13
51.93412556335715
 23
82.54732211281805
 33
0.0
  0
MTEXT
  5
4030F
330
3F49B
100
AcDbEntity
  8
0
  6
Continuous
 62
     2
440
 16777216
100
AcDbMText
 10
39.22612556336003
 20
84.67232211281805
 30
0.0
 40
3.0
 41
0.0
 46
0.0
 71
     5
 72
     1
  1
1.00
 73
     1
 44
1.0
  0
POINT
  5
40310
330
3F49B
100
AcDbEntity
  8
DEFPOINTS
  6
Continuous
 62
     0
440
 16777216
100
AcDbPoint
 10
26.5181255633629
 20
102.5431898135906
 30
0.0
  0
POINT
  5
40311
330
3F49B
100
AcDbEntity
  8
DEFPOINTS
  6
Continuous
 62
     0
440
 16777216
100
AcDbPoint
 10
51.93412556335715
 20
102.4434676020758
 30
0.0
  0
POINT
  5
40312
330
3F49B
100
AcDbEntity
  8
DEFPOINTS
  6
Continuous
 62
     0
440
 16777216
100
AcDbPoint
 10
51.93412556335715
 20
82.54732211281805
 30
0.0
  0
ENDBLK
  5
3F49D
330
3F49B
100
AcDbEntity
  8
0
 62
     7
100
AcDbBlockEnd
  0
BLOCK
  5
3F4A8
330
3F4A7
100
AcDbEntity
  8
0
 62
     7
100
AcDbBlockBegin
  2
*D3
 70
     1
 10
0.0
 20
0.0
 30
0.0
  3
*D3
  1

  0
LINE
  5
40313
330
3F4A7
100
AcDbEntity
  8
0
  6
Continuous
 62
     3
440
 16777216
100
AcDbLine
 10
35.10112556335935
 20
93.33518981359373
 30
0.0
 11
15.80782030473619
 21
93.33518981359373
 31
0.0
  0
LINE
  5
40314
330
3F4A7
100
AcDbEntity
  8
0
  6
Continuous
 62
     3
440
 16777216
100
AcDbLine
 10
35.10112556336526
 20
118.7511898135875
 30
0.0
 11
15.8078203047362
 21
118.7511898135875
 31
0.0
  0
LINE
  5
40315
330
3F4A7
100
AcDbEntity
  8
0
  6
Continuous
 62
     3
440
 16777216
100
AcDbLine
 10
17.05782030473619
 20
95.83518981359373
 30
0.0
 11
17.0578203047362
 21
116.2511898135875
 31
0.0
  0
SOLID
  5
40316
330
3F4A7
100
AcDbEntity
  8
0
  6
Continuous
 62
     3
440
 16777216
100
AcDbTrace
 10
16.64115363806952
 20
95.83518981359373
 30
0.0
 11
17.47448697140286
 21
95.83518981359373
 31
0.0
 12
17.05782030473619
 22
93.33518981359373
 32
0.0
 13
17.05782030473619
 23
93.33518981359373
 33
0.0
  0
SOLID
  5
40317
330
3F4A7
100
AcDbEntity
  8
0
  6
Continuous
 62
     3
440
 16777216
100
AcDbTrace
 10
16.64115363806953
 20
116.2511898135875
 30
0.0
 11
17.47448697140286
 21
116.2511898135875
 31
0.0
 12
17.0578203047362
 22
118.7511898135875
 32
0.0
 13
17.0578203047362
 23
118.7511898135875
 33
0.0
  0
MTEXT
  5
40318
330
3F4A7
100
AcDbEntity
  8
0
  6
Continuous
 62
     2
440
 16777216
100
AcDbMText
 10
14.93282030473618
 20
106.0431898135906
 30
0.0
 40
3.0
 41
0.0
 46
0.0
 71
     5
 72
     1
  1
1.00
 11
0.0000000000000001
 21
1.0
 31
0.0
 73
     1
 44
1.0
  0
POINT
  5
40319
330
3F4A7
100
AcDbEntity
  8
DEFPOINTS
  6
Continuous
 62
     0
440
 16777216
100
AcDbPoint
 10
35.72612556335935
 20
93.33518981359373
 30
0.0
  0
POINT
  5
4031A
330
3F4A7
100
AcDbEntity
  8
DEFPOINTS
  6
Continuous
 62
     0
440
 16777216
100
AcDbPoint
 10
35.72612556336526
 20
118.7511898135875
 30
0.0
  0
POINT
  5
4031B
330
3F4A7
100
AcDbEntity
  8
DEFPOINTS
  6
Continuous
 62
     0
440
 16777216
100
AcDbPoint
 10
17.0578203047362
 20
118.7511898135875
 30
0.0
  0
ENDBLK
  5
3F4A9
330
3F4A7
100
AcDbEntity
  8
0
 62
     7
100
AcDbBlockEnd
  0
BLOCK
  5
3FEE4
330
3FEE3
100
AcDbEntity
  8
0
 62
     7
100
AcDbBlockBegin
  2
*D4
 70
     1
 10
0.0
 20
0.0
 30
0.0
  3
*D4
  1

  0
LINE
  5
40301
330
3FEE3
100
AcDbEntity
  8
0
  6
Continuous
 62
     3
440
 16777216
100
AcDbLine
 10
159.93790500593
 20
85.0431898135908
 30
0.0
 11
176.4724441786734
 21
85.04318981359078
 31
0.0
  0
LINE
  5
40302
330
3FEE3
100
AcDbEntity
  8
0
  6
Continuous
 62
     3
440
 16777216
100
AcDbLine
 10
159.9379050059301
 20
127.0431898135905
 30
0.0
 11
176.4724441786734
 21
127.0431898135905
 31
0.0
  0
LINE
  5
40303
330
3FEE3
100
AcDbEntity
  8
0
  6
Continuous
 62
     3
440
 16777216
100
AcDbLine
 10
175.2224441786734
 20
87.54318981359078
 30
0.0
 11
175.2224441786734
 21
124.5431898135905
 31
0.0
  0
SOLID
  5
40304
330
3FEE3
100
AcDbEntity
  8
0
  6
Continuous
 62
     3
440
 16777216
100
AcDbTrace
 10
174.8057775120067
 20
87.54318981359078
 30
0.0
 11
175.63911084534
 21
87.54318981359078
 31
0.0
 12
175.2224441786734
 22
85.04318981359078
 32
0.0
 13
175.2224441786734
 23
85.04318981359078
 33
0.0
  0
SOLID
  5
40305
330
3FEE3
100
AcDbEntity
  8
0
  6
Continuous
 62
     3
440
 16777216
100
AcDbTrace
 10
174.8057775120067
 20
124.5431898135905
 30
0.0
 11
175.63911084534
 21
124.5431898135905
 31
0.0
 12
175.2224441786734
 22
127.0431898135905
 32
0.0
 13
175.2224441786734
 23
127.0431898135905
 33
0.0
  0
MTEXT
  5
40306
330
3FEE3
100
AcDbEntity
  8
0
  6
Continuous
 62
     2
440
 16777216
100
AcDbMText
 10
173.0974441786734
 20
106.0431898135907
 30
0.0
 40
3.0
 41
0.0
 46
0.0
 71
     5
 72
     1
  1
%%C1.65
 11
0.0000000000000001
 21
1.0
 31
0.0
 73
     1
 44
1.0
  0
POINT
  5
40307
330
3FEE3
100
AcDbEntity
  8
DEFPOINTS
  6
Continuous
 62
     0
440
 16777216
100
AcDbPoint
 10
159.31290500593
 20
85.0431898135908
 30
0.0
  0
POINT
  5
40308
330
3FEE3
100
AcDbEntity
  8
DEFPOINTS
  6
Continuous
 62
     0
440
 16777216
100
AcDbPoint
 10
159.3129050059301
 20
127.0431898135905
 30
0.0
  0
POINT
  5
40309
330
3FEE3
100
AcDbEntity
  8
DEFPOINTS
  6
Continuous
 62
     0
440
 16777216
100
AcDbPoint
 10
175.2224441786734
 20
127.0431898135905
 30
0.0
  0
ENDBLK
  5
3FEE5
330
3FEE3
100
AcDbEntity
  8
0
 62
     7
100
AcDbBlockEnd
  0
BLOCK
  5
3FFF0
330
3FFEF
100
AcDbEntity
  8
0
 62
     7
100
AcDbBlockBegin
  2
*U5
 70
     1
 10
0.0
 20
0.0
 30
0.0
  3
*U5
  1

  0
CIRCLE
  5
3FFF1
330
3FFEF
100
AcDbEntity
  8
0
  6
Continuous
 62
     7
100
AcDbCircle
 10
0.0
 20
0.0
 30
0.0
 40
5.5
  0
CIRCLE
  5
3FFF2
330
3FFEF
100
AcDbEntity
  8
0
  6
Continuous
 62
     7
100
AcDbCircle
 10
0.0
 20
0.0
 30
0.0
 40
3.5
  0
ENDBLK
  5
3FFF3
330
3FFEF
100
AcDbEntity
  8
0
 62
     7
100
AcDbBlockEnd
  0
BLOCK
  5
3FFF8
330
3FFF6
100
AcDbEntity
  8
0
 62
     7
100
AcDbBlockBegin
  2
*U6
 70
     1
 10
0.0
 20
0.0
 30
0.0
  3
*U6
  1

  0
INSERT
  5
3FFF9
330
3FFF6
100
AcDbEntity
  8
0
  6
ByBlock
347
3E
 62
     0
440
 16777216
370
    -2
380
     1
100
AcDbBlockReference
  2
*U5
 10
3696.129716659077
 20
-926.0269080423631
 30
0.0
  0
INSERT
  5
3FFFA
330
3FFF6
100
AcDbEntity
  8
0
  6
ByBlock
347
3E
 62
     0
440
 16777216
370
    -2
380
     1
100
AcDbBlockReference
  2
*U5
 10
3696.129716659077
 20
-958.5538199769443
 30
0.0
 41
0.9999999999999998
 42
0.9999999999999998
 43
0.9999999999999998
 50
89.99999999999998
  0
INSERT
  5
3FFFB
330
3FFF6
100
AcDbEntity
  8
0
  6
ByBlock
347
3E
 62
     0
440
 16777216
370
    -2
380
     1
100
AcDbBlockReference
  2
*U5
 10
3728.656628593658
 20
-958.5538199769443
 30
0.0
 50
180.0
  0
INSERT
  5
3FFFC
330
3FFF6
100
AcDbEntity
  8
0
  6
ByBlock
347
3E
 62
     0
440
 16777216
370
    -2
380
     1
100
AcDbBlockReference
  2
*U5
 10
3728.656628593658
 20
-926.0269080423631
 30
0.0
 41
0.9999999999999998
 42
0.9999999999999998
 43
0.9999999999999998
 50
270.0
  0
ENDBLK
  5
3FFFD
330
3FFF6
100
AcDbEntity
  8
0
 62
     7
100
AcDbBlockEnd
  0
BLOCK
  5
40073
330
40072
100
AcDbEntity
  8
0
 62
     7
100
AcDbBlockBegin
  2
*D7
 70
     1
 10
0.0
 20
0.0
 30
0.0
  3
*D7
  1

  0
LINE
  5
402E7
330
40072
100
AcDbEntity
  8
0
  6
Continuous
 62
     3
440
 16777216
100
AcDbLine
 10
255.0191609898044
 20
122.3636086421675
 30
0.0
 11
238.1949545430126
 21
115.5795312752737
 31
0.0
  0
LINE
  5
402E8
330
40072
100
AcDbEntity
  8
0
  6
Continuous
 62
     3
440
 16777216
100
AcDbLine
 10
190.8955595563408
 20
96.50684835191118
 30
0.0
 11
188.5769617628766
 21
95.5719129144915
 31
0.0
  0
MTEXT
  5
402E9
330
40072
100
AcDbEntity
  8
0
  6
Continuous
 62
     2
440
 16777216
100
AcDbMText
 10
249.3322245237883
 20
122.3617029936566
 30
0.0
 40
3.0
 41
0.0
 46
0.0
 71
     5
 72
     1
  1
%%C1.811
 11
0.9274391173856647
 21
0.3739741749678702
 31
0.0
 73
     1
 44
1.0
  0
LINE
  5
402EA
330
40072
100
AcDbEntity
  8
0
  6
Continuous
 62
     3
440
 16777216
100
AcDbLine
 10
193.214157349805
 20
97.44178378933085
 30
0.0
 11
235.8763567495484
 21
114.644595837854
 31
0.0
  0
SOLID
  5
402EB
330
40072
100
AcDbEntity
  8
0
  6
Continuous
 62
     3
440
 16777216
100
AcDbTrace
 10
190.7397369834375
 20
96.89328131748853
 30
0.0
 11
191.0513821292441
 21
96.12041538633381
 31
0.0
 12
193.214157349805
 22
97.44178378933085
 32
0.0
 13
193.214157349805
 23
97.44178378933085
 33
0.0
  0
SOLID
  5
402EC
330
40072
100
AcDbEntity
  8
0
  6
Continuous
 62
     3
440
 16777216
100
AcDbTrace
 10
238.0391319701093
 20
115.9659642408511
 30
0.0
 11
238.3507771159159
 21
115.1930983096963
 31
0.0
 12
235.8763567495484
 22
114.644595837854
 32
0.0
 13
235.8763567495484
 23
114.644595837854
 33
0.0
  0
POINT
  5
402ED
330
40072
100
AcDbEntity
  8
DEFPOINTS
  6
Continuous
 62
     0
440
 16777216
100
AcDbPoint
 10
235.8763567495484
 20
114.644595837854
 30
0.0
  0
POINT
  5
402EE
330
40072
100
AcDbEntity
  8
DEFPOINTS
  6
Continuous
 62
     0
440
 16777216
100
AcDbPoint
 10
193.214157349805
 20
97.44178378933085
 30
0.0
  0
ENDBLK
  5
40074
330
40072
100
AcDbEntity
  8
0
 62
     7
100
AcDbBlockEnd
  0
ENDSEC
  0
SECTION
  2
ENTITIES
  0
LINE
  5
3C936
330
2
100
AcDbEntity
  8
0
  6
Continuous
 62
     3
100
AcDbLine
 10
105.9156817556592
 20
75.85880138402274
 30
0.0
 11
105.9156817556592
 21
57.85515259696706
 31
0.0
  0
MTEXT
  5
3C937
330
2
100
AcDbEntity
  8
0
  6
Continuous
 62
     2
100
AcDbMText
 10
105.9162159248059
 20
55.40633749317033
 30
0.0
 40
3.0
 41
0.0
 46
0.0
 71
     5
 72
     1
  1
0.00
 73
     1
 44
1.0
  0
LINE
  5
3C93C
330
2
100
AcDbEntity
  8
0
  6
Continuous
 62
     3
100
AcDbLine
 10
89.91568175565873
 20
92.50066406856774
 30
0.0
 11
89.91568175565873
 21
57.85515259696706
 31
0.0
  0
MTEXT
  5
3C93D
330
2
100
AcDbEntity
  8
0
  6
Continuous
 62
     2
100
AcDbMText
 10
89.91621592480635
 20
55.40633749317033
 30
0.0
 40
3.0
 41
0.0
 46
0.0
 71
     5
 72
     1
  1
.63
 73
     1
 44
1.0
  0
LWPOLYLINE
  5
3C9CD
330
2
100
AcDbEntity
  8
0
 62
     0
100
AcDbPolyline
 90
        4
 70
     1
 43
0.0
 10
0.5
 20
0.5
 10
0.5
 20
185.9080841645593
 10
266.19025
 20
185.9080841645593
 10
266.19025
 20
0.5
  0
LINE
  5
3C9CE
330
2
100
AcDbEntity
  8
0
  6
Continuous
 62
     7
100
AcDbLine
 10
199.7676874999999
 20
-2.740124999999977
 30
0.0
 11
199.7676874999999
 21
0.5
 31
0.0
  0
LINE
  5
3C9CF
330
2
100
AcDbEntity
  8
0
  6
Continuous
 62
     7
100
AcDbLine
 10
196.5275624999998
 20
0.5
 30
0.0
 11
196.5275624999998
 21
26.57301183564113
 31
0.0
  0
LINE
  5
3C9D0
330
2
100
AcDbEntity
  8
0
  6
Continuous
 62
     7
100
AcDbLine
 10
66.92256250000003
 20
-2.740124999999977
 30
0.0
 11
66.92256250000003
 21
0.5
 31
0.0
  0
LINE
  5
3C9D1
330
2
100
AcDbEntity
  8
0
  6
Continuous
 62
     7
100
AcDbLine
 10
199.7676874999999
 20
189.1482091645592
 30
0.0
 11
199.7676874999999
 21
185.9080841645593
 31
0.0
  0
LINE
  5
3C9D2
330
2
100
AcDbEntity
  8
0
  6
Continuous
 62
     7
100
AcDbLine
 10
66.92256250000003
 20
189.1482091645592
 30
0.0
 11
66.92256250000003
 21
185.9080841645593
 31
0.0
  0
LINE
  5
3C9D3
330
2
100
AcDbEntity
  8
0
  6
Continuous
 62
     7
100
AcDbLine
 10
-2.740124999999977
 20
46.85202104113983
 30
0.0
 11
0.5
 21
46.85202104113983
 31
0.0
  0
LINE
  5
3C9D4
330
2
100
AcDbEntity
  8
0
  6
Continuous
 62
     7
100
AcDbLine
 10
-2.740124999999977
 20
139.5560631234194
 30
0.0
 11
0.5
 21
139.5560631234194
 31
0.0
  0
LINE
  5
3C9D5
330
2
100
AcDbEntity
  8
0
  6
Continuous
 62
     7
100
AcDbLine
 10
269.430375
 20
46.85202104113983
 30
0.0
 11
266.19025
 21
46.85202104113983
 31
0.0
  0
LINE
  5
3C9D6
330
2
100
AcDbEntity
  8
0
  6
Continuous
 62
     7
100
AcDbLine
 10
269.430375
 20
139.5560631234194
 30
0.0
 11
266.19025
 21
139.5560631234194
 31
0.0
  0
LINE
  5
3C9D7
330
2
100
AcDbEntity
  8
0
  6
Continuous
 62
     7
100
AcDbLine
 10
196.5275624999998
 20
17.88200789042742
 30
0.0
 11
266.19025
 21
17.88200789042742
 31
0.0
  0
LINE
  5
3C9D8
330
2
100
AcDbEntity
  8
0
  6
Continuous
 62
     7
100
AcDbLine
 10
196.5275624999998
 20
26.57301183564113
 30
0.0
 11
266.19025
 21
26.57301183564113
 31
0.0
  0
LINE
  5
3C9D9
330
2
100
AcDbEntity
  8
0
  6
Continuous
 62
     7
100
AcDbLine
 10
196.5275624999998
 20
9.191003945213708
 30
0.0
 11
266.19025
 21
9.191003945213708
 31
0.0
  0
LINE
  5
3C9DA
330
2
100
AcDbEntity
  8
0
  6
Continuous
 62
     7
100
AcDbLine
 10
266.19025
 20
93.20404208227961
 30
0.0
 11
269.430375
 21
93.20404208227961
 31
0.0
  0
LINE
  5
3C9DB
330
2
100
AcDbEntity
  8
0
  6
Continuous
 62
     7
100
AcDbLine
 10
267.8103125
 20
92.10239958227958
 30
0.0
 11
267.8103125
 21
94.30568458227964
 31
0.0
  0
LINE
  5
3C9DC
330
2
100
AcDbEntity
  8
0
  6
Continuous
 62
     7
100
AcDbLine
 10
267.8103125
 20
92.10239958227958
 30
0.0
 11
266.19025
 21
93.20404208227961
 31
0.0
  0
LINE
  5
3C9DD
330
2
100
AcDbEntity
  8
0
  6
Continuous
 62
     7
100
AcDbLine
 10
266.19025
 20
93.20404208227961
 30
0.0
 11
267.8103125
 21
94.30568458227964
 31
0.0
  0
LINE
  5
3C9DE
330
2
100
AcDbEntity
  8
0
  6
Continuous
 62
     7
100
AcDbLine
 10
0.5
 20
93.20404208227961
 30
0.0
 11
-2.740124999999977
 21
93.20404208227961
 31
0.0
  0
LINE
  5
3C9DF
330
2
100
AcDbEntity
  8
0
  6
Continuous
 62
     7
100
AcDbLine
 10
-1.120062500000017
 20
92.10239958227958
 30
0.0
 11
-1.120062500000017
 21
94.30568458227964
 31
0.0
  0
LINE
  5
3C9E0
330
2
100
AcDbEntity
  8
0
  6
Continuous
 62
     7
100
AcDbLine
 10
-1.120062500000017
 20
92.10239958227958
 30
0.0
 11
0.5
 21
93.20404208227961
 31
0.0
  0
LINE
  5
3C9E1
330
2
100
AcDbEntity
  8
0
  6
Continuous
 62
     7
100
AcDbLine
 10
0.5
 20
93.20404208227961
 30
0.0
 11
-1.120062500000017
 21
94.30568458227964
 31
0.0
  0
LINE
  5
3C9E2
330
2
100
AcDbEntity
  8
0
  6
Continuous
 62
     7
100
AcDbLine
 10
133.345125
 20
185.9080841645593
 30
0.0
 11
133.345125
 21
189.1482091645592
 31
0.0
  0
LINE
  5
3C9E3
330
2
100
AcDbEntity
  8
0
  6
Continuous
 62
     7
100
AcDbLine
 10
132.2434824999999
 20
187.5281466645593
 30
0.0
 11
134.4467674999999
 21
187.5281466645593
 31
0.0
  0
LINE
  5
3C9E4
330
2
100
AcDbEntity
  8
0
  6
Continuous
 62
     7
100
AcDbLine
 10
132.2434824999999
 20
187.5281466645593
 30
0.0
 11
133.345125
 21
185.9080841645593
 31
0.0
  0
LINE
  5
3C9E5
330
2
100
AcDbEntity
  8
0
  6
Continuous
 62
     7
100
AcDbLine
 10
133.345125
 20
185.9080841645593
 30
0.0
 11
134.4467674999999
 21
187.5281466645593
 31
0.0
  0
LINE
  5
3C9E6
330
2
100
AcDbEntity
  8
0
  6
Continuous
 62
     7
100
AcDbLine
 10
133.345125
 20
0.5
 30
0.0
 11
133.345125
 21
-2.740124999999977
 31
0.0
  0
LINE
  5
3C9E7
330
2
100
AcDbEntity
  8
0
  6
Continuous
 62
     7
100
AcDbLine
 10
132.2434824999999
 20
-1.120062500000017
 30
0.0
 11
134.4467674999999
 21
-1.120062500000017
 31
0.0
  0
LINE
  5
3C9E8
330
2
100
AcDbEntity
  8
0
  6
Continuous
 62
     7
100
AcDbLine
 10
132.2434824999999
 20
-1.120062500000017
 30
0.0
 11
133.345125
 21
0.5
 31
0.0
  0
LINE
  5
3C9E9
330
2
100
AcDbEntity
  8
0
  6
Continuous
 62
     7
100
AcDbLine
 10
133.345125
 20
0.5
 30
0.0
 11
134.4467674999999
 21
-1.120062500000017
 31
0.0
  0
TEXT
  5
3C9EA
330
2
100
AcDbEntity
  8
0
 62
     2
100
AcDbText
 10
33.03277075827145
 20
-2.125273103603035
 30
0.0
 40
1.814469999999999
  1
4
  7
굴림
100
AcDbText
  0
TEXT
  5
3C9EB
330
2
100
AcDbEntity
  8
0
 62
     2
100
AcDbText
 10
99.51691577836767
 20
-2.125273103603035
 30
0.0
 40
1.814469999999999
  1
3
  7
굴림
100
AcDbText
  0
TEXT
  5
3C9EC
330
2
100
AcDbEntity
  8
0
 62
     2
100
AcDbText
 10
165.8535581136316
 20
-2.125273103603035
 30
0.0
 40
1.814469999999999
  1
2
  7
굴림
100
AcDbText
  0
TEXT
  5
3C9ED
330
2
100
AcDbEntity
  8
0
 62
     2
100
AcDbText
 10
232.4787020852428
 20
-2.125273103603035
 30
0.0
 40
1.814469999999999
  1
1
  7
굴림
100
AcDbText
  0
TEXT
  5
3C9EE
330
2
100
AcDbEntity
  8
0
 62
     2
100
AcDbText
 10
33.03277075827145
 20
186.9411548928954
 30
0.0
 40
1.814469999999999
  1
4
  7
굴림
100
AcDbText
  0
TEXT
  5
3C9EF
330
2
100
AcDbEntity
  8
0
 62
     2
100
AcDbText
 10
99.51691577836767
 20
186.9411548928954
 30
0.0
 40
1.814469999999999
  1
3
  7
굴림
100
AcDbText
  0
TEXT
  5
3C9F0
330
2
100
AcDbEntity
  8
0
 62
     2
100
AcDbText
 10
165.8535581136316
 20
186.9411548928954
 30
0.0
 40
1.814469999999999
  1
2
  7
굴림
100
AcDbText
  0
TEXT
  5
3C9F1
330
2
100
AcDbEntity
  8
0
 62
     2
100
AcDbText
 10
232.4787020852428
 20
186.9411548928954
 30
0.0
 40
1.814469999999999
  1
1
  7
굴림
100
AcDbText
  0
TEXT
  5
3C9F2
330
2
100
AcDbEntity
  8
0
 62
     2
100
AcDbText
 10
-2.119437416200298
 20
23.07183887467312
 30
0.0
 40
1.814469999999999
  1
A
  7
굴림
100
AcDbText
  0
TEXT
  5
3C9F3
330
2
100
AcDbEntity
  8
0
 62
     2
100
AcDbText
 10
-2.119437416200298
 20
69.03932239472533
 30
0.0
 40
1.814469999999999
  1
B
  7
굴림
100
AcDbText
  0
TEXT
  5
3C9F4
330
2
100
AcDbEntity
  8
0
 62
     2
100
AcDbText
 10
-2.119437416200298
 20
115.445442045324
 30
0.0
 40
1.814469999999999
  1
C
  7
굴림
100
AcDbText
  0
TEXT
  5
3C9F5
330
2
100
AcDbEntity
  8
0
 62
     2
100
AcDbText
 10
-2.119437416200298
 20
162.1373210017123
 30
0.0
 40
1.814469999999999
  1
D
  7
굴림
100
AcDbText
  0
TEXT
  5
3C9F6
330
2
100
AcDbEntity
  8
0
 62
     2
100
AcDbText
 10
267.1608767462983
 20
23.07183887467312
 30
0.0
 40
1.814469999999999
  1
A
  7
굴림
100
AcDbText
  0
TEXT
  5
3C9F7
330
2
100
AcDbEntity
  8
0
 62
     2
100
AcDbText
 10
267.1608767462983
 20
69.03932239472533
 30
0.0
 40
1.814469999999999
  1
B
  7
굴림
100
AcDbText
  0
TEXT
  5
3C9F8
330
2
100
AcDbEntity
  8
0
 62
     2
100
AcDbText
 10
267.1608767462983
 20
115.445442045324
 30
0.0
 40
1.814469999999999
  1
C
  7
굴림
100
AcDbText
  0
TEXT
  5
3C9F9
330
2
100
AcDbEntity
  8
0
 62
     2
100
AcDbText
 10
267.1608767462983
 20
162.1373210017123
 30
0.0
 40
1.814469999999999
  1
D
  7
굴림
100
AcDbText
  0
HATCH
  5
3C9FA
330
2
100
AcDbEntity
  8
0
  6
Continuous
 62
     0
100
AcDbHatch
 10
0.0
 20
0.0
 30
0.0
210
0.0
220
0.0
230
1.0
  2
SOLID
 70
     1
 71
     1
 91
        1
 92
        5
 93
       13
 72
     4
 94
        3
 73
     0
 74
     0
 95
        8
 96
        4
 40
1.0
 40
1.0
 40
1.0
 40
1.0
 40
2.0
 40
2.0
 40
2.0
 40
2.0
 10
217.2919402101582
 20
22.06683419947592
 10
217.2919402101582
 20
22.06683419947592
 10
216.5511997120237
 20
18.67468977108518
 10
216.5511997120237
 20
18.67468977108518
 97
        0
 72
     4
 94
        3
 73
     0
 74
     0
 95
        8
 96
        4
 40
0.0
 40
0.0
 40
0.0
 40
0.0
 40
1.0
 40
1.0
 40
1.0
 40
1.0
 10
216.5511997120237
 20
18.67468977108518
 10
216.5511997120237
 20
18.67468977108518
 10
218.180501275468
 20
18.67468977108518
 10
218.180501275468
 20
18.67468977108518
 97
        0
 72
     4
 94
        3
 73
     0
 74
     0
 95
        8
 96
        4
 40
12.0
 40
12.0
 40
12.0
 40
12.0
 40
13.0
 40
13.0
 40
13.0
 40
13.0
 10
218.180501275468
 20
18.67468977108518
 10
218.180501275468
 20
18.67468977108518
 10
219.0324878836319
 20
23.90349000964176
 10
219.0324878836319
 20
23.90349000964176
 97
        0
 72
     4
 94
        3
 73
     0
 74
     0
 95
        8
 96
        4
 40
11.0
 40
11.0
 40
11.0
 40
11.0
 40
12.0
 40
12.0
 40
12.0
 40
12.0
 10
219.0324878836319
 20
23.90349000964176
 10
219.0324878836319
 20
23.90349000964176
 10
217.2769139406475
 20
23.90349000964176
 10
217.2769139406475
 20
23.90349000964176
 97
        0
 72
     4
 94
        3
 73
     0
 74
     0
 95
        8
 96
        4
 40
10.0
 40
10.0
 40
10.0
 40
10.0
 40
11.0
 40
11.0
 40
11.0
 40
11.0
 10
217.2769139406475
 20
23.90349000964176
 10
217.2769139406475
 20
23.90349000964176
 10
215.469739271007
 20
21.02999287232188
 10
215.469739271007
 20
21.02999287232188
 97
        0
 72
     4
 94
        3
 73
     0
 74
     0
 95
        8
 96
        4
 40
9.0
 40
9.0
 40
9.0
 40
9.0
 40
10.0
 40
10.0
 40
10.0
 40
10.0
 10
215.469739271007
 20
21.02999287232188
 10
215.469739271007
 20
21.02999287232188
 10
215.1515738280522
 20
23.90349000964176
 10
215.1515738280522
 20
23.90349000964176
 97
        0
 72
     4
 94
        3
 73
     0
 74
     0
 95
        8
 96
        4
 40
8.0
 40
8.0
 40
8.0
 40
8.0
 40
9.0
 40
9.0
 40
9.0
 40
9.0
 10
215.1515738280522
 20
23.90349000964176
 10
215.1515738280522
 20
23.90349000964176
 10
213.4255926858178
 20
23.90349000964176
 10
213.4255926858178
 20
23.90349000964176
 97
        0
 72
     4
 94
        3
 73
     0
 74
     0
 95
        8
 96
        4
 40
7.0
 40
7.0
 40
7.0
 40
7.0
 40
8.0
 40
8.0
 40
8.0
 40
8.0
 10
213.4255926858178
 20
23.90349000964176
 10
213.4255926858178
 20
23.90349000964176
 10
211.5223130512451
 20
18.67468977108518
 10
211.5223130512451
 20
18.67468977108518
 97
        0
 72
     4
 94
        3
 73
     0
 74
     0
 95
        8
 96
        4
 40
6.0
 40
6.0
 40
6.0
 40
6.0
 40
7.0
 40
7.0
 40
7.0
 40
7.0
 10
211.5223130512451
 20
18.67468977108518
 10
211.5223130512451
 20
18.67468977108518
 10
213.1145805030982
 20
18.67468977108518
 10
213.1145805030982
 20
18.67468977108518
 97
        0
 72
     4
 94
        3
 73
     0
 74
     0
 95
        8
 96
        4
 40
5.0
 40
5.0
 40
5.0
 40
5.0
 40
6.0
 40
6.0
 40
6.0
 40
6.0
 10
213.1145805030982
 20
18.67468977108518
 10
213.1145805030982
 20
18.67468977108518
 10
214.188628394701
 20
22.14078757943872
 10
214.188628394701
 20
22.14078757943872
 97
        0
 72
     4
 94
        3
 73
     0
 74
     0
 95
        8
 96
        4
 40
4.0
 40
4.0
 40
4.0
 40
4.0
 40
5.0
 40
5.0
 40
5.0
 40
5.0
 10
214.188628394701
 20
22.14078757943872
 10
214.188628394701
 20
22.14078757943872
 10
214.5811501905731
 20
18.67468977108518
 10
214.5811501905731
 20
18.67468977108518
 97
        0
 72
     4
 94
        3
 73
     0
 74
     0
 95
        8
 96
        4
 40
3.0
 40
3.0
 40
3.0
 40
3.0
 40
4.0
 40
4.0
 40
4.0
 40
4.0
 10
214.5811501905731
 20
18.67468977108518
 10
214.5811501905731
 20
18.67468977108518
 10
215.0996563311084
 20
18.67468977108518
 10
215.0996563311084
 20
18.67468977108518
 97
        0
 72
     4
 94
        3
 73
     0
 74
     0
 95
        8
 96
        4
 40
2.0
 40
2.0
 40
2.0
 40
2.0
 40
3.0
 40
3.0
 40
3.0
 40
3.0
 10
215.0996563311084
 20
18.67468977108518
 10
215.0996563311084
 20
18.67468977108518
 10
217.2919402101582
 20
22.06683419947592
 10
217.2919402101582
 20
22.06683419947592
 97
        0
 97
       13
330
3CA07
330
3CA06
330
3CA05
330
3CA04
330
3CA03
330
3CA02
330
3CA01
330
3CA00
330
3C9FF
330
3C9FE
330
3C9FD
330
3C9FC
330
3C9FB
 75
     1
 76
     1
 47
0.0269459378258844
 98
        1
 10
217.3864434843398
 20
20.45240664472908
450
        0
451
        0
460
0.0
461
0.0
452
        0
462
1.0
453
        2
463
0.0
 63
     5
421
      255
463
1.0
 63
     2
421
 16776960
470
LINEAR
1001
GRADIENTCOLOR1ACI
1070
     5
1001
GRADIENTCOLOR2ACI
1070
     2
1001
ACAD
1010
0.0
1020
0.0
1030
0.0
  0
SPLINE
  5
3C9FB
102
{ACAD_REACTORS
330
3C9FA
102
}
330
2
100
AcDbEntity
  8
Layer 1
100
AcDbSpline
210
0.0
220
0.0
230
1.0
 70
    24
 71
     3
 72
     8
 73
     4
 74
     0
 42
0.000000001
 43
0.0000000001
 40
0.0
 40
0.0
 40
0.0
 40
0.0
 40
1.0
 40
1.0
 40
1.0
 40
1.0
 10
218.180501275468
 20
18.67468977108518
 30
0.0
 10
218.180501275468
 20
18.67468977108518
 30
0.0
 10
216.5511997120237
 20
18.67468977108518
 30
0.0
 10
216.5511997120237
 20
18.67468977108518
 30
0.0
  0
SPLINE
  5
3C9FC
102
{ACAD_REACTORS
330
3C9FA
102
}
330
2
100
AcDbEntity
  8
Layer 1
100
AcDbSpline
210
0.0
220
0.0
230
1.0
 70
    24
 71
     3
 72
     8
 73
     4
 74
     0
 42
0.000000001
 43
0.0000000001
 40
1.0
 40
1.0
 40
1.0
 40
1.0
 40
2.0
 40
2.0
 40
2.0
 40
2.0
 10
216.5511997120237
 20
18.67468977108518
 30
0.0
 10
216.5511997120237
 20
18.67468977108518
 30
0.0
 10
217.2919402101582
 20
22.06683419947592
 30
0.0
 10
217.2919402101582
 20
22.06683419947592
 30
0.0
  0
SPLINE
  5
3C9FD
102
{ACAD_REACTORS
330
3C9FA
102
}
330
2
100
AcDbEntity
  8
Layer 1
100
AcDbSpline
210
0.0
220
0.0
230
1.0
 70
    24
 71
     3
 72
     8
 73
     4
 74
     0
 42
0.000000001
 43
0.0000000001
 40
2.0
 40
2.0
 40
2.0
 40
2.0
 40
3.0
 40
3.0
 40
3.0
 40
3.0
 10
217.2919402101582
 20
22.06683419947592
 30
0.0
 10
217.2919402101582
 20
22.06683419947592
 30
0.0
 10
215.0996563311084
 20
18.67468977108518
 30
0.0
 10
215.0996563311084
 20
18.67468977108518
 30
0.0
  0
SPLINE
  5
3C9FE
102
{ACAD_REACTORS
330
3C9FA
102
}
330
2
100
AcDbEntity
  8
Layer 1
100
AcDbSpline
210
0.0
220
0.0
230
1.0
 70
    24
 71
     3
 72
     8
 73
     4
 74
     0
 42
0.000000001
 43
0.0000000001
 40
3.0
 40
3.0
 40
3.0
 40
3.0
 40
4.0
 40
4.0
 40
4.0
 40
4.0
 10
215.0996563311084
 20
18.67468977108518
 30
0.0
 10
215.0996563311084
 20
18.67468977108518
 30
0.0
 10
214.5811501905731
 20
18.67468977108518
 30
0.0
 10
214.5811501905731
 20
18.67468977108518
 30
0.0
  0
SPLINE
  5
3C9FF
102
{ACAD_REACTORS
330
3C9FA
102
}
330
2
100
AcDbEntity
  8
Layer 1
100
AcDbSpline
210
0.0
220
0.0
230
1.0
 70
    24
 71
     3
 72
     8
 73
     4
 74
     0
 42
0.000000001
 43
0.0000000001
 40
4.0
 40
4.0
 40
4.0
 40
4.0
 40
5.0
 40
5.0
 40
5.0
 40
5.0
 10
214.5811501905731
 20
18.67468977108518
 30
0.0
 10
214.5811501905731
 20
18.67468977108518
 30
0.0
 10
214.188628394701
 20
22.14078757943872
 30
0.0
 10
214.188628394701
 20
22.14078757943872
 30
0.0
  0
SPLINE
  5
3CA00
102
{ACAD_REACTORS
330
3C9FA
102
}
330
2
100
AcDbEntity
  8
Layer 1
100
AcDbSpline
210
0.0
220
0.0
230
1.0
 70
    24
 71
     3
 72
     8
 73
     4
 74
     0
 42
0.000000001
 43
0.0000000001
 40
5.0
 40
5.0
 40
5.0
 40
5.0
 40
6.0
 40
6.0
 40
6.0
 40
6.0
 10
214.188628394701
 20
22.14078757943872
 30
0.0
 10
214.188628394701
 20
22.14078757943872
 30
0.0
 10
213.1145805030982
 20
18.67468977108518
 30
0.0
 10
213.1145805030982
 20
18.67468977108518
 30
0.0
  0
SPLINE
  5
3CA01
102
{ACAD_REACTORS
330
3C9FA
102
}
330
2
100
AcDbEntity
  8
Layer 1
100
AcDbSpline
210
0.0
220
0.0
230
1.0
 70
    24
 71
     3
 72
     8
 73
     4
 74
     0
 42
0.000000001
 43
0.0000000001
 40
6.0
 40
6.0
 40
6.0
 40
6.0
 40
7.0
 40
7.0
 40
7.0
 40
7.0
 10
213.1145805030982
 20
18.67468977108518
 30
0.0
 10
213.1145805030982
 20
18.67468977108518
 30
0.0
 10
211.5223130512451
 20
18.67468977108518
 30
0.0
 10
211.5223130512451
 20
18.67468977108518
 30
0.0
  0
SPLINE
  5
3CA02
102
{ACAD_REACTORS
330
3C9FA
102
}
330
2
100
AcDbEntity
  8
Layer 1
100
AcDbSpline
210
0.0
220
0.0
230
1.0
 70
    24
 71
     3
 72
     8
 73
     4
 74
     0
 42
0.000000001
 43
0.0000000001
 40
7.0
 40
7.0
 40
7.0
 40
7.0
 40
8.0
 40
8.0
 40
8.0
 40
8.0
 10
211.5223130512451
 20
18.67468977108518
 30
0.0
 10
211.5223130512451
 20
18.67468977108518
 30
0.0
 10
213.4255926858178
 20
23.90349000964176
 30
0.0
 10
213.4255926858178
 20
23.90349000964176
 30
0.0
  0
SPLINE
  5
3CA03
102
{ACAD_REACTORS
330
3C9FA
102
}
330
2
100
AcDbEntity
  8
Layer 1
100
AcDbSpline
210
0.0
220
0.0
230
1.0
 70
    24
 71
     3
 72
     8
 73
     4
 74
     0
 42
0.000000001
 43
0.0000000001
 40
8.0
 40
8.0
 40
8.0
 40
8.0
 40
9.0
 40
9.0
 40
9.0
 40
9.0
 10
213.4255926858178
 20
23.90349000964176
 30
0.0
 10
213.4255926858178
 20
23.90349000964176
 30
0.0
 10
215.1515738280522
 20
23.90349000964176
 30
0.0
 10
215.1515738280522
 20
23.90349000964176
 30
0.0
  0
SPLINE
  5
3CA04
102
{ACAD_REACTORS
330
3C9FA
102
}
330
2
100
AcDbEntity
  8
Layer 1
100
AcDbSpline
210
0.0
220
0.0
230
1.0
 70
    24
 71
     3
 72
     8
 73
     4
 74
     0
 42
0.000000001
 43
0.0000000001
 40
9.0
 40
9.0
 40
9.0
 40
9.0
 40
10.0
 40
10.0
 40
10.0
 40
10.0
 10
215.1515738280522
 20
23.90349000964176
 30
0.0
 10
215.1515738280522
 20
23.90349000964176
 30
0.0
 10
215.469739271007
 20
21.02999287232188
 30
0.0
 10
215.469739271007
 20
21.02999287232188
 30
0.0
  0
SPLINE
  5
3CA05
102
{ACAD_REACTORS
330
3C9FA
102
}
330
2
100
AcDbEntity
  8
Layer 1
100
AcDbSpline
210
0.0
220
0.0
230
1.0
 70
    24
 71
     3
 72
     8
 73
     4
 74
     0
 42
0.000000001
 43
0.0000000001
 40
10.0
 40
10.0
 40
10.0
 40
10.0
 40
11.0
 40
11.0
 40
11.0
 40
11.0
 10
215.469739271007
 20
21.02999287232188
 30
0.0
 10
215.469739271007
 20
21.02999287232188
 30
0.0
 10
217.2769139406475
 20
23.90349000964176
 30
0.0
 10
217.2769139406475
 20
23.90349000964176
 30
0.0
  0
SPLINE
  5
3CA06
102
{ACAD_REACTORS
330
3C9FA
102
}
330
2
100
AcDbEntity
  8
Layer 1
100
AcDbSpline
210
0.0
220
0.0
230
1.0
 70
    24
 71
     3
 72
     8
 73
     4
 74
     0
 42
0.000000001
 43
0.0000000001
 40
11.0
 40
11.0
 40
11.0
 40
11.0
 40
12.0
 40
12.0
 40
12.0
 40
12.0
 10
217.2769139406475
 20
23.90349000964176
 30
0.0
 10
217.2769139406475
 20
23.90349000964176
 30
0.0
 10
219.0324878836319
 20
23.90349000964176
 30
0.0
 10
219.0324878836319
 20
23.90349000964176
 30
0.0
  0
SPLINE
  5
3CA07
102
{ACAD_REACTORS
330
3C9FA
102
}
330
2
100
AcDbEntity
  8
Layer 1
100
AcDbSpline
210
0.0
220
0.0
230
1.0
 70
    24
 71
     3
 72
     8
 73
     4
 74
     0
 42
0.000000001
 43
0.0000000001
 40
12.0
 40
12.0
 40
12.0
 40
12.0
 40
13.0
 40
13.0
 40
13.0
 40
13.0
 10
219.0324878836319
 20
23.90349000964176
 30
0.0
 10
219.0324878836319
 20
23.90349000964176
 30
0.0
 10
218.180501275468
 20
18.67468977108518
 30
0.0
 10
218.180501275468
 20
18.67468977108518
 30
0.0
  0
HATCH
  5
3CA08
330
2
100
AcDbEntity
  8
0
  6
Continuous
 62
     0
100
AcDbHatch
 10
0.0
 20
0.0
 30
0.0
210
0.0
220
0.0
230
1.0
  2
SOLID
 70
     1
 71
     0
 91
        1
 92
        5
 93
        1
 72
     4
 94
        3
 73
     0
 74
     0
 95
       41
 96
       37
 40
0.0
 40
0.0
 40
0.0
 40
0.0
 40
1.0
 40
1.0
 40
1.0
 40
2.0
 40
2.0
 40
2.0
 40
3.0
 40
3.0
 40
3.0
 40
4.0
 40
4.0
 40
4.0
 40
5.0
 40
5.0
 40
5.0
 40
6.0
 40
6.0
 40
6.0
 40
7.0
 40
7.0
 40
7.0
 40
8.0
 40
8.0
 40
8.0
 40
9.0
 40
9.0
 40
9.0
 40
10.0
 40
10.0
 40
10.0
 40
11.0
 40
11.0
 40
11.0
 40
12.0
 40
12.0
 40
12.0
 40
12.0
 10
220.0391904790142
 20
18.67468977108518
 10
220.0391904790142
 20
18.67468977108518
 10
218.3432331884863
 20
18.67468977108518
 10
218.3432331884863
 20
18.67468977108518
 10
218.3432331884863
 20
18.67468977108518
 10
221.7352635897299
 20
23.91078444267998
 10
221.7352635897299
 20
23.91078444267998
 10
221.7352635897299
 20
23.91078444267998
 10
223.4832526148247
 20
23.91078444267998
 10
223.4832526148247
 20
23.91078444267998
 10
223.4832526148247
 20
23.91078444267998
 10
223.8759171146865
 20
18.67468977108518
 10
223.8759171146865
 20
18.67468977108518
 10
223.8759171146865
 20
18.67468977108518
 10
222.2982450088152
 20
18.67468977108518
 10
222.2982450088152
 20
18.67468977108518
 10
222.2982450088152
 20
18.67468977108518
 10
222.2463282420739
 20
19.51909141720182
 10
222.2463282420739
 20
19.51909141720182
 10
222.2463282420739
 20
19.51909141720182
 10
221.1026940970015
 20
19.51909141720182
 10
221.1026940970015
 20
19.51909141720182
 10
221.1026940970015
 20
19.51909141720182
 10
221.6704457448039
 20
20.60756220192883
 10
221.6704457448039
 20
20.60756220192883
 10
221.6704457448039
 20
20.60756220192883
 10
222.1945551299167
 20
20.60756220192883
 10
222.1945551299167
 20
20.60756220192883
 10
222.1945551299167
 20
20.60756220192883
 10
222.1277844791654
 20
22.14078757943872
 10
222.1277844791654
 20
22.14078757943872
 10
222.1277844791654
 20
22.14078757943872
 10
220.0476094915368
 20
18.6864694469923
 10
220.0476094915368
 20
18.6864694469923
 10
220.0476094915368
 20
18.6864694469923
 10
220.0391904790142
 20
18.67468977108518
 10
220.0391904790142
 20
18.67468977108518
 97
        0
 97
        0
 75
     1
 76
     1
 47
0.0269459378258844
 98
        1
 10
223.2263372927054
 20
20.83641396663472
450
        0
451
        0
460
0.0
461
0.0
452
        0
462
1.0
453
        2
463
0.0
 63
     5
421
      255
463
1.0
 63
     2
421
 16776960
470
LINEAR
1001
GRADIENTCOLOR1ACI
1070
     5
1001
GRADIENTCOLOR2ACI
1070
     2
1001
ACAD
1010
0.0
1020
0.0
1030
0.0
  0
SPLINE
  5
3CA09
330
2
100
AcDbEntity
  8
Layer 1
100
AcDbSpline
210
0.0
220
0.0
230
1.0
 70
    11
 71
     3
 72
    41
 73
    37
 74
     0
 42
0.000000001
 43
0.0000000001
 40
0.0
 40
0.0
 40
0.0
 40
0.0
 40
1.0
 40
1.0
 40
1.0
 40
2.0
 40
2.0
 40
2.0
 40
3.0
 40
3.0
 40
3.0
 40
4.0
 40
4.0
 40
4.0
 40
5.0
 40
5.0
 40
5.0
 40
6.0
 40
6.0
 40
6.0
 40
7.0
 40
7.0
 40
7.0
 40
8.0
 40
8.0
 40
8.0
 40
9.0
 40
9.0
 40
9.0
 40
10.0
 40
10.0
 40
10.0
 40
11.0
 40
11.0
 40
11.0
 40
12.0
 40
12.0
 40
12.0
 40
12.0
 10
220.0391904790142
 20
18.67468977108518
 30
0.0
 10
220.0391904790142
 20
18.67468977108518
 30
0.0
 10
218.3432331884863
 20
18.67468977108518
 30
0.0
 10
218.3432331884863
 20
18.67468977108518
 30
0.0
 10
218.3432331884863
 20
18.67468977108518
 30
0.0
 10
221.7352635897298
 20
23.91078444267998
 30
0.0
 10
221.7352635897298
 20
23.91078444267998
 30
0.0
 10
221.7352635897298
 20
23.91078444267998
 30
0.0
 10
223.4832526148247
 20
23.91078444267998
 30
0.0
 10
223.4832526148247
 20
23.91078444267998
 30
0.0
 10
223.4832526148247
 20
23.91078444267998
 30
0.0
 10
223.8759171146865
 20
18.67468977108518
 30
0.0
 10
223.8759171146865
 20
18.67468977108518
 30
0.0
 10
223.8759171146865
 20
18.67468977108518
 30
0.0
 10
222.2982450088152
 20
18.67468977108518
 30
0.0
 10
222.2982450088152
 20
18.67468977108518
 30
0.0
 10
222.2982450088152
 20
18.67468977108518
 30
0.0
 10
222.2463282420739
 20
19.51909141720182
 30
0.0
 10
222.2463282420739
 20
19.51909141720182
 30
0.0
 10
222.2463282420739
 20
19.51909141720182
 30
0.0
 10
221.1026940970015
 20
19.51909141720182
 30
0.0
 10
221.1026940970015
 20
19.51909141720182
 30
0.0
 10
221.1026940970015
 20
19.51909141720182
 30
0.0
 10
221.6704457448039
 20
20.60756220192883
 30
0.0
 10
221.6704457448039
 20
20.60756220192883
 30
0.0
 10
221.6704457448039
 20
20.60756220192883
 30
0.0
 10
222.1945551299167
 20
20.60756220192883
 30
0.0
 10
222.1945551299167
 20
20.60756220192883
 30
0.0
 10
222.1945551299167
 20
20.60756220192883
 30
0.0
 10
222.1277844791654
 20
22.14078757943872
 30
0.0
 10
222.1277844791654
 20
22.14078757943872
 30
0.0
 10
222.1277844791654
 20
22.14078757943872
 30
0.0
 10
220.0476094915368
 20
18.68646944699225
 30
0.0
 10
220.0476094915368
 20
18.68646944699225
 30
0.0
 10
220.0476094915368
 20
18.68646944699225
 30
0.0
 10
220.0391904790142
 20
18.67468977108518
 30
0.0
 10
220.0391904790142
 20
18.67468977108518
 30
0.0
  0
HATCH
  5
3CA0A
330
2
100
AcDbEntity
  8
0
  6
Continuous
 62
     0
100
AcDbHatch
 10
0.0
 20
0.0
 30
0.0
210
0.0
220
0.0
230
1.0
  2
SOLID
 70
     1
 71
     1
 91
        1
 92
        5
 93
        1
 72
     4
 94
        3
 73
     0
 74
     0
 95
       17
 96
       13
 40
0.0
 40
0.0
 40
0.0
 40
0.0
 40
1.0
 40
1.0
 40
1.0
 40
2.0
 40
2.0
 40
2.0
 40
3.0
 40
3.0
 40
3.0
 40
4.0
 40
4.0
 40
4.0
 40
4.0
 10
231.0966584622914
 20
18.67468977108518
 10
231.0966584622914
 20
18.67468977108518
 10
229.4820947261802
 20
18.67468977108518
 10
229.4820947261802
 20
18.67468977108518
 10
229.4820947261802
 20
18.67468977108518
 10
230.8820086495226
 20
23.90349000964176
 10
230.8820086495226
 20
23.90349000964176
 10
230.8820086495226
 20
23.90349000964176
 10
232.4964563289571
 20
23.90349000964176
 10
232.4964563289571
 20
23.90349000964176
 10
232.4964563289571
 20
23.90349000964176
 10
231.0966584622914
 20
18.67468977108518
 10
231.0966584622914
 20
18.67468977108518
 97
        0
 97
        1
330
3CA0B
 75
     1
 76
     1
 47
0.0269459378258844
 98
        1
 10
230.4253623566432
 20
20.10302470765629
450
        0
451
        0
460
0.0
461
0.0
452
        0
462
1.0
453
        2
463
0.0
 63
     5
421
      255
463
1.0
 63
     2
421
 16776960
470
LINEAR
1001
GRADIENTCOLOR1ACI
1070
     5
1001
GRADIENTCOLOR2ACI
1070
     2
1001
ACAD
1010
0.0
1020
0.0
1030
0.0
  0
SPLINE
  5
3CA0B
102
{ACAD_REACTORS
330
3CA0A
102
}
330
2
100
AcDbEntity
  8
Layer 1
100
AcDbSpline
210
0.0
220
0.0
230
1.0
 70
    11
 71
     3
 72
    17
 73
    13
 74
     0
 42
0.000000001
 43
0.0000000001
 40
0.0
 40
0.0
 40
0.0
 40
0.0
 40
1.0
 40
1.0
 40
1.0
 40
2.0
 40
2.0
 40
2.0
 40
3.0
 40
3.0
 40
3.0
 40
4.0
 40
4.0
 40
4.0
 40
4.0
 10
231.0966584622914
 20
18.67468977108518
 30
0.0
 10
231.0966584622914
 20
18.67468977108518
 30
0.0
 10
229.4820947261802
 20
18.67468977108518
 30
0.0
 10
229.4820947261802
 20
18.67468977108518
 30
0.0
 10
229.4820947261802
 20
18.67468977108518
 30
0.0
 10
230.8820086495226
 20
23.90349000964176
 30
0.0
 10
230.8820086495226
 20
23.90349000964176
 30
0.0
 10
230.8820086495226
 20
23.90349000964176
 30
0.0
 10
232.4964563289571
 20
23.90349000964176
 30
0.0
 10
232.4964563289571
 20
23.90349000964176
 30
0.0
 10
232.4964563289571
 20
23.90349000964176
 30
0.0
 10
231.0966584622914
 20
18.67468977108518
 30
0.0
 10
231.0966584622914
 20
18.67468977108518
 30
0.0
  0
HATCH
  5
3CA0C
330
2
100
AcDbEntity
  8
0
  6
Continuous
 62
     0
100
AcDbHatch
 10
0.0
 20
0.0
 30
0.0
210
0.0
220
0.0
230
1.0
  2
SOLID
 70
     1
 71
     1
 91
        1
 92
        5
 93
       14
 72
     4
 94
        3
 73
     0
 74
     0
 95
        8
 96
        4
 40
12.0
 40
12.0
 40
12.0
 40
12.0
 40
13.0
 40
13.0
 40
13.0
 40
13.0
 10
228.2575255883517
 20
20.82741117763772
 10
228.4905333239761
 20
20.8982616185811
 10
228.7217310118395
 20
21.00235373031569
 10
228.9262664088692
 20
21.15862118704342
 97
        0
 72
     4
 94
        3
 73
     0
 74
     0
 95
        8
 96
        4
 40
13.0
 40
13.0
 40
13.0
 40
13.0
 40
14.0
 40
14.0
 40
14.0
 40
14.0
 10
228.9262664088692
 20
21.15862118704342
 10
229.3781462690298
 20
21.50681116830532
 10
229.6152337948465
 20
22.0031664877443
 10
229.6152337948465
 20
22.49176445963468
 97
        0
 72
     4
 94
        3
 73
     0
 74
     0
 95
        8
 96
        4
 40
0.0
 40
0.0
 40
0.0
 40
0.0
 40
1.0
 40
1.0
 40
1.0
 40
1.0
 10
229.6152337948465
 20
22.49176445963468
 10
229.6152337948465
 20
23.54337347804778
 10
228.6894661922208
 20
23.9137437271151
 10
227.8822434043097
 20
23.9137437271151
 97
        0
 72
     4
 94
        3
 73
     0
 74
     0
 95
        8
 96
        4
 40
1.0
 40
1.0
 40
1.0
 40
1.0
 40
2.0
 40
2.0
 40
2.0
 40
2.0
 10
227.8822434043097
 20
23.9137437271151
 10
227.8822434043097
 20
23.9137437271151
 10
225.5714157039745
 20
23.9137437271151
 10
225.5714157039745
 20
23.9137437271151
 97
        0
 72
     4
 94
        3
 73
     0
 74
     0
 95
        8
 96
        4
 40
2.0
 40
2.0
 40
2.0
 40
2.0
 40
3.0
 40
3.0
 40
3.0
 40
3.0
 10
225.5714157039745
 20
23.9137437271151
 10
225.5714157039745
 20
23.9137437271151
 10
224.1642031343237
 20
18.68480614182073
 10
224.1642031343237
 20
18.68480614182073
 97
        0
 72
     4
 94
        3
 73
     0
 74
     0
 95
        8
 96
        4
 40
3.0
 40
3.0
 40
3.0
 40
3.0
 40
4.0
 40
4.0
 40
4.0
 40
4.0
 10
224.1642031343237
 20
18.68480614182073
 10
224.1642031343237
 20
18.68480614182073
 10
225.8235285058725
 20
18.68480614182073
 10
225.8235285058725
 20
18.68480614182073
 97
        0
 72
     4
 94
        3
 73
     0
 74
     0
 95
        8
 96
        4
 40
4.0
 40
4.0
 40
4.0
 40
4.0
 40
5.0
 40
5.0
 40
5.0
 40
5.0
 10
225.8235285058725
 20
18.68480614182073
 10
225.8235285058725
 20
18.68480614182073
 10
226.9118843669322
 20
22.74344729120946
 10
226.9118843669322
 20
22.74344729120946
 97
        0
 72
     4
 94
        3
 73
     0
 74
     0
 95
        8
 96
        4
 40
5.0
 40
5.0
 40
5.0
 40
5.0
 40
6.0
 40
6.0
 40
6.0
 40
6.0
 10
226.9118843669322
 20
22.74344729120946
 10
226.9118843669322
 20
22.74344729120946
 10
227.4007696479909
 20
22.74344729120946
 10
227.4007696479909
 20
22.74344729120946
 97
        0
 72
     4
 94
        3
 73
     0
 74
     0
 95
        8
 96
        4
 40
6.0
 40
6.0
 40
6.0
 40
6.0
 40
7.0
 40
7.0
 40
7.0
 40
7.0
 10
227.9859322314023
 20
22.32147631548588
 10
227.9859322314023
 20
22.67682029504255
 10
227.6894866313809
 20
22.74344729120946
 10
227.4007696479909
 20
22.74344729120946
 97
        0
 72
     4
 94
        3
 73
     0
 74
     0
 95
        8
 96
        4
 40
7.0
 40
7.0
 40
7.0
 40
7.0
 40
8.0
 40
8.0
 40
8.0
 40
8.0
 10
227.9859322314023
 20
22.32147631548588
 10
227.9859322314023
 20
22.12900790353166
 10
227.8379105478094
 20
21.81770841950055
 10
227.3490252667508
 20
21.83270595809432
 97
        0
 72
     4
 94
        3
 73
     0
 74
     0
 95
        8
 96
        4
 40
8.0
 40
8.0
 40
8.0
 40
8.0
 40
9.0
 40
9.0
 40
9.0
 40
9.0
 10
227.3490252667508
 20
21.83270595809432
 10
227.3490252667508
 20
21.83270595809432
 10
227.0358870040415
 20
20.68642856867234
 10
227.0358870040415
 20
20.68642856867234
 97
        0
 72
     4
 94
        3
 73
     0
 74
     0
 95
        8
 96
        4
 40
9.0
 40
9.0
 40
9.0
 40
9.0
 40
10.0
 40
10.0
 40
10.0
 40
10.0
 10
227.0358870040415
 20
20.68642856867234
 10
227.0358870040415
 20
20.68642856867234
 10
227.6339497691166
 20
18.6042702938945
 10
227.6339497691166
 20
18.6042702938945
 97
        0
 72
     4
 94
        3
 73
     0
 74
     0
 95
        8
 96
        4
 40
10.0
 40
10.0
 40
10.0
 40
10.0
 40
11.0
 40
11.0
 40
11.0
 40
11.0
 10
227.6339497691166
 20
18.6042702938945
 10
227.6339497691166
 20
18.6042702938945
 10
229.0021745712758
 20
18.6042702938945
 10
229.0021745712758
 20
18.6042702938945
 97
        0
 72
     4
 94
        3
 73
     0
 74
     0
 95
        8
 96
        4
 40
11.0
 40
11.0
 40
11.0
 40
11.0
 40
12.0
 40
12.0
 40
12.0
 40
12.0
 10
229.0021745712758
 20
18.6042702938945
 10
229.0021745712758
 20
18.6042702938945
 10
228.2575255883517
 20
20.82741117763772
 10
228.2575255883517
 20
20.82741117763772
 97
        0
 97
       13
330
3CA17
330
3CA18
330
3CA19
330
3CA0D
330
3CA0E
330
3CA0F
330
3CA10
330
3CA11
330
3CA12
330
3CA13
330
3CA14
330
3CA15
330
3CA16
 75
     1
 76
     1
 47
0.0269459378258844
 98
        1
 10
227.8917258167204
 20
20.55702736606975
450
        0
451
        0
460
0.0
461
0.0
452
        0
462
1.0
453
        2
463
0.0
 63
     5
421
      255
463
1.0
 63
     2
421
 16776960
470
LINEAR
1001
GRADIENTCOLOR1ACI
1070
     5
1001
GRADIENTCOLOR2ACI
1070
     2
1001
ACAD
1010
0.0
1020
0.0
1030
0.0
  0
SPLINE
  5
3CA0D
102
{ACAD_REACTORS
330
3CA0C
102
}
330
2
100
AcDbEntity
  8
Layer 1
100
AcDbSpline
210
0.0
220
0.0
230
1.0
 70
     8
 71
     3
 72
     8
 73
     4
 74
     0
 42
0.000000001
 43
0.0000000001
 40
0.0
 40
0.0
 40
0.0
 40
0.0
 40
1.0
 40
1.0
 40
1.0
 40
1.0
 10
229.6152337948465
 20
22.49176445963468
 30
0.0
 10
229.6152337948465
 20
23.54337347804778
 30
0.0
 10
228.6894661922208
 20
23.9137437271151
 30
0.0
 10
227.8822434043097
 20
23.9137437271151
 30
0.0
  0
SPLINE
  5
3CA0E
102
{ACAD_REACTORS
330
3CA0C
102
}
330
2
100
AcDbEntity
  8
Layer 1
100
AcDbSpline
210
0.0
220
0.0
230
1.0
 70
    24
 71
     3
 72
     8
 73
     4
 74
     0
 42
0.000000001
 43
0.0000000001
 40
1.0
 40
1.0
 40
1.0
 40
1.0
 40
2.0
 40
2.0
 40
2.0
 40
2.0
 10
227.8822434043097
 20
23.9137437271151
 30
0.0
 10
227.8822434043097
 20
23.9137437271151
 30
0.0
 10
225.5714157039745
 20
23.9137437271151
 30
0.0
 10
225.5714157039745
 20
23.9137437271151
 30
0.0
  0
SPLINE
  5
3CA0F
102
{ACAD_REACTORS
330
3CA0C
102
}
330
2
100
AcDbEntity
  8
Layer 1
100
AcDbSpline
210
0.0
220
0.0
230
1.0
 70
    24
 71
     3
 72
     8
 73
     4
 74
     0
 42
0.000000001
 43
0.0000000001
 40
2.0
 40
2.0
 40
2.0
 40
2.0
 40
3.0
 40
3.0
 40
3.0
 40
3.0
 10
225.5714157039745
 20
23.9137437271151
 30
0.0
 10
225.5714157039745
 20
23.9137437271151
 30
0.0
 10
224.1642031343237
 20
18.68480614182073
 30
0.0
 10
224.1642031343237
 20
18.68480614182073
 30
0.0
  0
SPLINE
  5
3CA10
102
{ACAD_REACTORS
330
3CA0C
102
}
330
2
100
AcDbEntity
  8
Layer 1
100
AcDbSpline
210
0.0
220
0.0
230
1.0
 70
    24
 71
     3
 72
     8
 73
     4
 74
     0
 42
0.000000001
 43
0.0000000001
 40
3.0
 40
3.0
 40
3.0
 40
3.0
 40
4.0
 40
4.0
 40
4.0
 40
4.0
 10
224.1642031343237
 20
18.68480614182073
 30
0.0
 10
224.1642031343237
 20
18.68480614182073
 30
0.0
 10
225.8235285058725
 20
18.68480614182073
 30
0.0
 10
225.8235285058725
 20
18.68480614182073
 30
0.0
  0
SPLINE
  5
3CA11
102
{ACAD_REACTORS
330
3CA0C
102
}
330
2
100
AcDbEntity
  8
Layer 1
100
AcDbSpline
210
0.0
220
0.0
230
1.0
 70
    24
 71
     3
 72
     8
 73
     4
 74
     0
 42
0.000000001
 43
0.0000000001
 40
4.0
 40
4.0
 40
4.0
 40
4.0
 40
5.0
 40
5.0
 40
5.0
 40
5.0
 10
225.8235285058725
 20
18.68480614182073
 30
0.0
 10
225.8235285058725
 20
18.68480614182073
 30
0.0
 10
226.9118843669322
 20
22.74344729120946
 30
0.0
 10
226.9118843669322
 20
22.74344729120946
 30
0.0
  0
SPLINE
  5
3CA12
102
{ACAD_REACTORS
330
3CA0C
102
}
330
2
100
AcDbEntity
  8
Layer 1
100
AcDbSpline
210
0.0
220
0.0
230
1.0
 70
    24
 71
     3
 72
     8
 73
     4
 74
     0
 42
0.000000001
 43
0.0000000001
 40
5.0
 40
5.0
 40
5.0
 40
5.0
 40
6.0
 40
6.0
 40
6.0
 40
6.0
 10
226.9118843669322
 20
22.74344729120946
 30
0.0
 10
226.9118843669322
 20
22.74344729120946
 30
0.0
 10
227.4007696479909
 20
22.74344729120946
 30
0.0
 10
227.4007696479909
 20
22.74344729120946
 30
0.0
  0
SPLINE
  5
3CA13
102
{ACAD_REACTORS
330
3CA0C
102
}
330
2
100
AcDbEntity
  8
Layer 1
100
AcDbSpline
210
0.0
220
0.0
230
1.0
 70
     8
 71
     3
 72
    11
 73
     7
 74
     0
 42
0.000000001
 43
0.0000000001
 40
6.0
 40
6.0
 40
6.0
 40
6.0
 40
7.0
 40
7.0
 40
7.0
 40
8.0
 40
8.0
 40
8.0
 40
8.0
 10
227.4007696479909
 20
22.74344729120946
 30
0.0
 10
227.6894866313809
 20
22.74344729120946
 30
0.0
 10
227.9859322314023
 20
22.67682029504255
 30
0.0
 10
227.9859322314023
 20
22.32147631548588
 30
0.0
 10
227.9859322314023
 20
22.12900790353166
 30
0.0
 10
227.8379105478094
 20
21.81770841950055
 30
0.0
 10
227.3490252667508
 20
21.83270595809432
 30
0.0
  0
SPLINE
  5
3CA14
102
{ACAD_REACTORS
330
3CA0C
102
}
330
2
100
AcDbEntity
  8
Layer 1
100
AcDbSpline
210
0.0
220
0.0
230
1.0
 70
    24
 71
     3
 72
     8
 73
     4
 74
     0
 42
0.000000001
 43
0.0000000001
 40
8.0
 40
8.0
 40
8.0
 40
8.0
 40
9.0
 40
9.0
 40
9.0
 40
9.0
 10
227.3490252667508
 20
21.83270595809432
 30
0.0
 10
227.3490252667508
 20
21.83270595809432
 30
0.0
 10
227.0358870040415
 20
20.68642856867234
 30
0.0
 10
227.0358870040415
 20
20.68642856867234
 30
0.0
  0
SPLINE
  5
3CA15
102
{ACAD_REACTORS
330
3CA0C
102
}
330
2
100
AcDbEntity
  8
Layer 1
100
AcDbSpline
210
0.0
220
0.0
230
1.0
 70
    24
 71
     3
 72
     8
 73
     4
 74
     0
 42
0.000000001
 43
0.0000000001
 40
9.0
 40
9.0
 40
9.0
 40
9.0
 40
10.0
 40
10.0
 40
10.0
 40
10.0
 10
227.0358870040415
 20
20.68642856867234
 30
0.0
 10
227.0358870040415
 20
20.68642856867234
 30
0.0
 10
227.6339497691166
 20
18.6042702938945
 30
0.0
 10
227.6339497691166
 20
18.6042702938945
 30
0.0
  0
SPLINE
  5
3CA16
102
{ACAD_REACTORS
330
3CA0C
102
}
330
2
100
AcDbEntity
  8
Layer 1
100
AcDbSpline
210
0.0
220
0.0
230
1.0
 70
    24
 71
     3
 72
     8
 73
     4
 74
     0
 42
0.000000001
 43
0.0000000001
 40
10.0
 40
10.0
 40
10.0
 40
10.0
 40
11.0
 40
11.0
 40
11.0
 40
11.0
 10
227.6339497691166
 20
18.6042702938945
 30
0.0
 10
227.6339497691166
 20
18.6042702938945
 30
0.0
 10
229.0021745712758
 20
18.6042702938945
 30
0.0
 10
229.0021745712758
 20
18.6042702938945
 30
0.0
  0
SPLINE
  5
3CA17
102
{ACAD_REACTORS
330
3CA0C
102
}
330
2
100
AcDbEntity
  8
Layer 1
100
AcDbSpline
210
0.0
220
0.0
230
1.0
 70
    24
 71
     3
 72
     8
 73
     4
 74
     0
 42
0.000000001
 43
0.0000000001
 40
11.0
 40
11.0
 40
11.0
 40
11.0
 40
12.0
 40
12.0
 40
12.0
 40
12.0
 10
229.0021745712758
 20
18.6042702938945
 30
0.0
 10
229.0021745712758
 20
18.6042702938945
 30
0.0
 10
228.2575255883517
 20
20.82741117763772
 30
0.0
 10
228.2575255883517
 20
20.82741117763772
 30
0.0
  0
SPLINE
  5
3CA18
102
{ACAD_REACTORS
330
3CA0C
102
}
330
2
100
AcDbEntity
  8
Layer 1
100
AcDbSpline
210
0.0
220
0.0
230
1.0
 70
     8
 71
     3
 72
     8
 73
     4
 74
     0
 42
0.000000001
 43
0.0000000001
 40
12.0
 40
12.0
 40
12.0
 40
12.0
 40
13.0
 40
13.0
 40
13.0
 40
13.0
 10
228.2575255883517
 20
20.82741117763772
 30
0.0
 10
228.4905333239761
 20
20.8982616185811
 30
0.0
 10
228.7217310118395
 20
21.00235373031569
 30
0.0
 10
228.9262664088692
 20
21.15862118704342
 30
0.0
  0
SPLINE
  5
3CA19
102
{ACAD_REACTORS
330
3CA0C
102
}
330
2
100
AcDbEntity
  8
Layer 1
100
AcDbSpline
210
0.0
220
0.0
230
1.0
 70
     8
 71
     3
 72
     8
 73
     4
 74
     0
 42
0.000000001
 43
0.0000000001
 40
13.0
 40
13.0
 40
13.0
 40
13.0
 40
14.0
 40
14.0
 40
14.0
 40
14.0
 10
228.9262664088692
 20
21.15862118704342
 30
0.0
 10
229.3781462690298
 20
21.50681116830532
 30
0.0
 10
229.6152337948465
 20
22.0031664877443
 30
0.0
 10
229.6152337948465
 20
22.49176445963468
 30
0.0
  0
LWPOLYLINE
  5
3CA1A
102
{ACAD_REACTORS
330
3CA1B
102
}
330
2
100
AcDbEntity
  8
Layer 1
 62
   103
100
AcDbPolyline
 90
        8
 70
     1
 43
0.0
 10
250.9880479132393
 20
25.60728762062803
 10
226.1418383336141
 20
25.60826447180085
 10
225.7712095062954
 20
24.38918293908989
 10
234.3816354378358
 20
24.38875520743688
 10
232.7338024330255
 20
18.67468977108518
 10
234.3485374216287
 20
18.67468977108518
 10
235.9960543863536
 20
24.38875520743688
 10
250.6155819333411
 20
24.38803370241601
  0
HATCH
  5
3CA1B
330
2
100
AcDbEntity
  8
0
  6
Continuous
 62
    93
100
AcDbHatch
 10
0.0
 20
0.0
 30
0.0
210
0.0
220
0.0
230
1.0
  2
SOLID
 70
     1
 71
     1
 91
        1
 92
        7
 72
     0
 73
     1
 93
        8
 10
226.1418383336141
 20
25.60826447180085
 10
225.7712095062954
 20
24.38918293908989
 10
234.3816354378358
 20
24.38875520743688
 10
232.7338024330255
 20
18.67468977108518
 10
234.3485374216287
 20
18.67468977108518
 10
235.9960543863536
 20
24.38875520743688
 10
250.6155819333411
 20
24.38803370241601
 10
250.9880479132393
 20
25.60728762062803
 97
        1
330
3CA1A
 75
     1
 76
     1
 47
0.0428322549537331
 98
        1
 10
237.0752894295143
 20
25.00589142586006
450
        0
451
        0
460
0.0
461
0.0
452
        0
462
1.0
453
        2
463
0.0
 63
     5
421
      255
463
1.0
 63
     2
421
 16776960
470
LINEAR
1001
GRADIENTCOLOR1ACI
1070
     5
1001
GRADIENTCOLOR2ACI
1070
     2
1001
ACAD
1010
0.0
1020
0.0
1030
0.0
  0
HATCH
  5
3CA1C
330
2
100
AcDbEntity
  8
0
  6
Continuous
 62
     0
100
AcDbHatch
 10
0.0
 20
0.0
 30
0.0
210
0.0
220
0.0
230
1.0
  2
SOLID
 70
     1
 71
     1
 91
        2
 92
        5
 93
        4
 72
     4
 94
        3
 73
     0
 74
     0
 95
        8
 96
        4
 40
0.0
 40
0.0
 40
0.0
 40
0.0
 40
1.0
 40
1.0
 40
1.0
 40
1.0
 10
236.0960954388125
 20
20.7948590488507
 10
236.0960954388125
 20
19.43982281762248
 10
237.0241040529523
 20
18.40125763545768
 10
238.6295589554144
 20
18.40125763545768
 97
        0
 72
     4
 94
        3
 73
     0
 74
     0
 95
        8
 96
        4
 40
3.0
 40
3.0
 40
3.0
 40
3.0
 40
4.0
 40
4.0
 40
4.0
 40
4.0
 10
238.6295589554144
 20
18.40125763545768
 10
240.7581176608991
 20
18.40125763545768
 10
241.8554662989316
 20
20.02889280572492
 10
241.8554662989316
 20
21.50189818152461
 97
        0
 72
     4
 94
        3
 73
     0
 74
     0
 95
        8
 96
        4
 40
2.0
 40
2.0
 40
2.0
 40
2.0
 40
3.0
 40
3.0
 40
3.0
 40
3.0
 10
241.8554662989316
 20
21.50189818152461
 10
241.8554662989316
 20
22.82033441716857
 10
240.927601339376
 20
23.91035347892722
 10
239.2557780189989
 20
23.91035347892722
 97
        0
 72
     4
 94
        3
 73
     0
 74
     0
 95
        8
 96
        4
 40
1.0
 40
1.0
 40
1.0
 40
1.0
 40
2.0
 40
2.0
 40
2.0
 40
2.0
 10
239.2557780189989
 20
23.91035347892722
 10
237.2008566533917
 20
23.91035347892722
 10
236.0960954388125
 20
22.27516207752945
 10
236.0960954388125
 20
20.7948590488507
 97
        0
 97
        1
330
3CA1D
 92
       20
 93
        4
 72
     4
 94
        3
 73
     0
 74
     0
 95
        8
 96
        4
 40
1.0
 40
1.0
 40
1.0
 40
1.0
 40
2.0
 40
2.0
 40
2.0
 40
2.0
 10
237.7089916487378
 20
20.78026374309275
 10
237.7089916487378
 20
21.57571106793955
 10
238.2615746864555
 20
22.71721596412863
 10
239.2705169793413
 20
22.71721596412863
 97
        0
 72
     4
 94
        3
 73
     0
 74
     0
 95
        8
 96
        4
 40
0.0
 40
0.0
 40
0.0
 40
0.0
 40
1.0
 40
1.0
 40
1.0
 40
1.0
 10
239.2705169793413
 20
22.71721596412863
 10
239.8008035115759
 20
22.71721596412863
 10
240.257452703933
 20
22.35641311037114
 10
240.257452703933
 20
21.59771578920743
 97
        0
 72
     4
 94
        3
 73
     0
 74
     0
 95
        8
 96
        4
 40
3.0
 40
3.0
 40
3.0
 40
3.0
 40
4.0
 40
4.0
 40
4.0
 40
4.0
 10
240.257452703933
 20
21.59771578920743
 10
240.257452703933
 20
20.83919085354478
 10
239.8156861265024
 20
19.65335099162513
 10
238.7254914867644
 20
19.65335099162513
 97
        0
 72
     4
 94
        3
 73
     0
 74
     0
 95
        8
 96
        4
 40
2.0
 40
2.0
 40
2.0
 40
2.0
 40
3.0
 40
3.0
 40
3.0
 40
3.0
 10
238.7254914867644
 20
19.65335099162513
 10
238.1804947251045
 20
19.65335099162513
 10
237.7089916487378
 20
20.01429749996697
 10
237.7089916487378
 20
20.78026374309275
 97
        0
 97
        1
330
3CA1E
 75
     1
 76
     1
 47
0.0269459378258844
 98
        2
 10
237.205025177107
 20
19.9982556782864
 10
237.205025177107
 20
19.9982556782864
450
        0
451
        0
460
0.0
461
0.0
452
        0
462
1.0
453
        2
463
0.0
 63
     5
421
      255
463
1.0
 63
     2
421
 16776960
470
LINEAR
1001
GRADIENTCOLOR1ACI
1070
     5
1001
GRADIENTCOLOR2ACI
1070
     2
1001
ACAD
1010
0.0
1020
0.0
1030
0.0
  0
SPLINE
  5
3CA1D
102
{ACAD_REACTORS
330
3CA1C
102
}
330
2
100
AcDbEntity
  8
Layer 1
100
AcDbSpline
210
0.0
220
0.0
230
1.0
 70
     9
 71
     3
 72
    17
 73
    13
 74
     0
 42
0.000000001
 43
0.0000000001
 40
0.0
 40
0.0
 40
0.0
 40
0.0
 40
1.0
 40
1.0
 40
1.0
 40
2.0
 40
2.0
 40
2.0
 40
3.0
 40
3.0
 40
3.0
 40
4.0
 40
4.0
 40
4.0
 40
4.0
 10
238.6295589554144
 20
18.40125763545768
 30
0.0
 10
237.0241040529523
 20
18.40125763545768
 30
0.0
 10
236.0960954388125
 20
19.43982281762248
 30
0.0
 10
236.0960954388125
 20
20.7948590488507
 30
0.0
 10
236.0960954388125
 20
22.27516207752945
 30
0.0
 10
237.2008566533917
 20
23.91035347892722
 30
0.0
 10
239.2557780189989
 20
23.91035347892722
 30
0.0
 10
240.927601339376
 20
23.91035347892722
 30
0.0
 10
241.8554662989316
 20
22.82033441716857
 30
0.0
 10
241.8554662989316
 20
21.50189818152461
 30
0.0
 10
241.8554662989316
 20
20.02889280572492
 30
0.0
 10
240.7581176608991
 20
18.40125763545768
 30
0.0
 10
238.6295589554144
 20
18.40125763545768
 30
0.0
  0
SPLINE
  5
3CA1E
102
{ACAD_REACTORS
330
3CA1C
102
}
330
2
100
AcDbEntity
  8
Layer 1
100
AcDbSpline
210
0.0
220
0.0
230
1.0
 70
     9
 71
     3
 72
    17
 73
    13
 74
     0
 42
0.000000001
 43
0.0000000001
 40
0.0
 40
0.0
 40
0.0
 40
0.0
 40
1.0
 40
1.0
 40
1.0
 40
2.0
 40
2.0
 40
2.0
 40
3.0
 40
3.0
 40
3.0
 40
4.0
 40
4.0
 40
4.0
 40
4.0
 10
240.257452703933
 20
21.59771578920743
 30
0.0
 10
240.257452703933
 20
22.35641311037114
 30
0.0
 10
239.8008035115759
 20
22.71721596412863
 30
0.0
 10
239.2705169793413
 20
22.71721596412863
 30
0.0
 10
238.2615746864555
 20
22.71721596412863
 30
0.0
 10
237.7089916487378
 20
21.57571106793955
 30
0.0
 10
237.7089916487378
 20
20.78026374309275
 30
0.0
 10
237.7089916487378
 20
20.01429749996697
 30
0.0
 10
238.1804947251045
 20
19.65335099162513
 30
0.0
 10
238.7254914867644
 20
19.65335099162513
 30
0.0
 10
239.8156861265024
 20
19.65335099162513
 30
0.0
 10
240.257452703933
 20
20.83919085354478
 30
0.0
 10
240.257452703933
 20
21.59771578920743
 30
0.0
  0
HATCH
  5
3CA1F
330
2
100
AcDbEntity
  8
0
  6
Continuous
 62
     0
100
AcDbHatch
 10
0.0
 20
0.0
 30
0.0
210
0.0
220
0.0
230
1.0
  2
SOLID
 70
     1
 71
     1
 91
        2
 92
        5
 93
        4
 72
     4
 94
        3
 73
     0
 74
     0
 95
        8
 96
        4
 40
0.0
 40
0.0
 40
0.0
 40
0.0
 40
1.0
 40
1.0
 40
1.0
 40
1.0
 10
242.0353218383899
 20
20.7948590488507
 10
242.0353218383899
 20
19.43982281762248
 10
242.9634453761972
 20
18.40125763545768
 10
244.5687566240748
 20
18.40125763545768
 97
        0
 72
     4
 94
        3
 73
     0
 74
     0
 95
        8
 96
        4
 40
3.0
 40
3.0
 40
3.0
 40
3.0
 40
4.0
 40
4.0
 40
4.0
 40
4.0
 10
244.5687566240748
 20
18.40125763545768
 10
246.6973440604765
 20
18.40125763545768
 10
247.794692698509
 20
20.02889280572492
 10
247.794692698509
 20
21.50189818152461
 97
        0
 72
     4
 94
        3
 73
     0
 74
     0
 95
        8
 96
        4
 40
2.0
 40
2.0
 40
2.0
 40
2.0
 40
3.0
 40
3.0
 40
3.0
 40
3.0
 10
247.794692698509
 20
21.50189818152461
 10
247.794692698509
 20
22.82033441716857
 10
246.8666840843692
 20
23.91035347892722
 10
245.1950044185766
 20
23.91035347892722
 97
        0
 72
     4
 94
        3
 73
     0
 74
     0
 95
        8
 96
        4
 40
1.0
 40
1.0
 40
1.0
 40
1.0
 40
2.0
 40
2.0
 40
2.0
 40
2.0
 10
245.1950044185766
 20
23.91035347892722
 10
243.139939398385
 20
23.91035347892722
 10
242.0353218383899
 20
22.27516207752945
 10
242.0353218383899
 20
20.7948590488507
 97
        0
 97
        1
330
3CA21
 92
       20
 93
        4
 72
     4
 94
        3
 73
     0
 74
     0
 95
        8
 96
        4
 40
1.0
 40
1.0
 40
1.0
 40
1.0
 40
2.0
 40
2.0
 40
2.0
 40
2.0
 10
243.6483344220739
 20
20.78026374309275
 10
243.6483344220739
 20
21.57571106793955
 10
244.2006561174384
 20
22.71721596412863
 10
245.209312415166
 20
22.71721596412863
 97
        0
 72
     4
 94
        3
 73
     0
 74
     0
 95
        8
 96
        4
 40
0.0
 40
0.0
 40
0.0
 40
0.0
 40
1.0
 40
1.0
 40
1.0
 40
1.0
 10
245.209312415166
 20
22.71721596412863
 10
245.7398862565691
 20
22.71721596412863
 10
246.1965354489264
 20
22.35641311037114
 10
246.1965354489264
 20
21.59771578920743
 97
        0
 72
     4
 94
        3
 73
     0
 74
     0
 95
        8
 96
        4
 40
3.0
 40
3.0
 40
3.0
 40
3.0
 40
4.0
 40
4.0
 40
4.0
 40
4.0
 10
246.1965354489264
 20
21.59771578920743
 10
246.1965354489264
 20
20.83919085354478
 10
245.7544815623271
 20
19.65335099162513
 10
244.6644305771735
 20
19.65335099162513
 97
        0
 72
     4
 94
        3
 73
     0
 74
     0
 95
        8
 96
        4
 40
2.0
 40
2.0
 40
2.0
 40
2.0
 40
3.0
 40
3.0
 40
3.0
 40
3.0
 10
244.6644305771735
 20
19.65335099162513
 10
244.1194338155135
 20
19.65335099162513
 10
243.6483344220739
 20
20.01429749996697
 10
243.6483344220739
 20
20.78026374309275
 97
        0
 97
        1
330
3CA20
 75
     1
 76
     1
 47
0.0269459378258844
 98
        2
 10
243.5478539098793
 20
20.41733482246053
 10
243.5478539098793
 20
20.41733482246053
450
        0
451
        0
460
0.0
461
0.0
452
        0
462
1.0
453
        2
463
0.0
 63
     5
421
      255
463
1.0
 63
     2
421
 16776960
470
LINEAR
1001
GRADIENTCOLOR1ACI
1070
     5
1001
GRADIENTCOLOR2ACI
1070
     2
1001
ACAD
1010
0.0
1020
0.0
1030
0.0
  0
SPLINE
  5
3CA20
102
{ACAD_REACTORS
330
3CA1F
102
}
330
2
100
AcDbEntity
  8
Layer 1
100
AcDbSpline
210
0.0
220
0.0
230
1.0
 70
     9
 71
     3
 72
    17
 73
    13
 74
     0
 42
0.000000001
 43
0.0000000001
 40
0.0
 40
0.0
 40
0.0
 40
0.0
 40
1.0
 40
1.0
 40
1.0
 40
2.0
 40
2.0
 40
2.0
 40
3.0
 40
3.0
 40
3.0
 40
4.0
 40
4.0
 40
4.0
 40
4.0
 10
246.1965354489264
 20
21.59771578920743
 30
0.0
 10
246.1965354489264
 20
22.35641311037114
 30
0.0
 10
245.7398862565691
 20
22.71721596412863
 30
0.0
 10
245.209312415166
 20
22.71721596412863
 30
0.0
 10
244.2006561174384
 20
22.71721596412863
 30
0.0
 10
243.6483344220739
 20
21.57571106793955
 30
0.0
 10
243.6483344220739
 20
20.78026374309275
 30
0.0
 10
243.6483344220739
 20
20.01429749996697
 30
0.0
 10
244.1194338155135
 20
19.65335099162513
 30
0.0
 10
244.6644305771735
 20
19.65335099162513
 30
0.0
 10
245.7544815623271
 20
19.65335099162513
 30
0.0
 10
246.1965354489264
 20
20.83919085354478
 30
0.0
 10
246.1965354489264
 20
21.59771578920743
 30
0.0
  0
SPLINE
  5
3CA21
102
{ACAD_REACTORS
330
3CA1F
102
}
330
2
100
AcDbEntity
  8
Layer 1
100
AcDbSpline
210
0.0
220
0.0
230
1.0
 70
     9
 71
     3
 72
    17
 73
    13
 74
     0
 42
0.000000001
 43
0.0000000001
 40
0.0
 40
0.0
 40
0.0
 40
0.0
 40
1.0
 40
1.0
 40
1.0
 40
2.0
 40
2.0
 40
2.0
 40
3.0
 40
3.0
 40
3.0
 40
4.0
 40
4.0
 40
4.0
 40
4.0
 10
244.5687566240748
 20
18.40125763545768
 30
0.0
 10
242.9634453761972
 20
18.40125763545768
 30
0.0
 10
242.0353218383899
 20
19.43982281762248
 30
0.0
 10
242.0353218383899
 20
20.7948590488507
 30
0.0
 10
242.0353218383899
 20
22.27516207752945
 30
0.0
 10
243.139939398385
 20
23.91035347892722
 30
0.0
 10
245.1950044185766
 20
23.91035347892722
 30
0.0
 10
246.8666840843692
 20
23.91035347892722
 30
0.0
 10
247.794692698509
 20
22.82033441716857
 30
0.0
 10
247.794692698509
 20
21.50189818152461
 30
0.0
 10
247.794692698509
 20
20.02889280572492
 30
0.0
 10
246.6973440604765
 20
18.40125763545768
 30
0.0
 10
244.5687566240748
 20
18.40125763545768
 30
0.0
  0
HATCH
  5
3CA22
330
2
100
AcDbEntity
  8
0
  6
Continuous
 62
     0
100
AcDbHatch
 10
0.0
 20
0.0
 30
0.0
210
0.0
220
0.0
230
1.0
  2
SOLID
 70
     1
 71
     1
 91
        1
 92
        5
 93
        6
 72
     4
 94
        3
 73
     0
 74
     0
 95
        8
 96
        4
 40
4.0
 40
4.0
 40
4.0
 40
4.0
 40
5.0
 40
5.0
 40
5.0
 40
5.0
 10
249.388197134655
 20
19.76373517414919
 10
249.388197134655
 20
19.76373517414919
 10
250.4562099114949
 20
23.75578114629343
 10
250.4562099114949
 20
23.75578114629343
 97
        0
 72
     4
 94
        3
 73
     0
 74
     0
 95
        8
 96
        4
 40
3.0
 40
3.0
 40
3.0
 40
3.0
 40
4.0
 40
4.0
 40
4.0
 40
4.0
 10
250.4562099114949
 20
23.75578114629343
 10
250.4562099114949
 20
23.75578114629343
 10
248.820874855513
 20
23.75578114629343
 10
248.820874855513
 20
23.75578114629343
 97
        0
 72
     4
 94
        3
 73
     0
 74
     0
 95
        8
 96
        4
 40
2.0
 40
2.0
 40
2.0
 40
2.0
 40
3.0
 40
3.0
 40
3.0
 40
3.0
 10
248.820874855513
 20
23.75578114629343
 10
248.820874855513
 20
23.75578114629343
 10
247.4290917816382
 20
18.55600235359253
 10
247.4290917816382
 20
18.55600235359253
 97
        0
 72
     4
 94
        3
 73
     0
 74
     0
 95
        8
 96
        4
 40
1.0
 40
1.0
 40
1.0
 40
1.0
 40
2.0
 40
2.0
 40
2.0
 40
2.0
 10
247.4290917816382
 20
18.55600235359253
 10
247.4290917816382
 20
18.55600235359253
 10
250.7951501681676
 20
18.55600235359253
 10
250.7951501681676
 20
18.55600235359253
 97
        0
 72
     4
 94
        3
 73
     0
 74
     0
 95
        8
 96
        4
 40
0.0
 40
0.0
 40
0.0
 40
0.0
 40
1.0
 40
1.0
 40
1.0
 40
1.0
 10
250.7951501681676
 20
18.55600235359253
 10
250.7951501681676
 20
18.55600235359253
 10
251.194680667199
 20
19.76373517414919
 10
251.194680667199
 20
19.76373517414919
 97
        0
 72
     4
 94
        3
 73
     0
 74
     0
 95
        8
 96
        4
 40
5.0
 40
5.0
 40
5.0
 40
5.0
 40
6.0
 40
6.0
 40
6.0
 40
6.0
 10
251.194680667199
 20
19.76373517414919
 10
251.194680667199
 20
19.76373517414919
 10
249.388197134655
 20
19.76373517414919
 10
249.388197134655
 20
19.76373517414919
 97
        0
 97
        6
330
3CA27
330
3CA26
330
3CA25
330
3CA24
330
3CA23
330
3CA28
 75
     1
 76
     1
 47
0.0168242271866721
 98
        1
 10
248.8874131184788
 20
20.10292785343307
450
        0
451
        0
460
0.0
461
0.0
452
        0
462
1.0
453
        2
463
0.0
 63
     5
421
      255
463
1.0
 63
     2
421
 16776960
470
LINEAR
1001
GRADIENTCOLOR1ACI
1070
     5
1001
GRADIENTCOLOR2ACI
1070
     2
1001
ACAD
1010
0.0
1020
0.0
1030
0.0
  0
SPLINE
  5
3CA23
102
{ACAD_REACTORS
330
3CA22
102
}
330
2
100
AcDbEntity
  8
Layer 1
100
AcDbSpline
210
0.0
220
0.0
230
1.0
 70
    24
 71
     3
 72
     8
 73
     4
 74
     0
 42
0.000000001
 43
0.0000000001
 40
0.0
 40
0.0
 40
0.0
 40
0.0
 40
1.0
 40
1.0
 40
1.0
 40
1.0
 10
251.194680667199
 20
19.76373517414919
 30
0.0
 10
251.194680667199
 20
19.76373517414919
 30
0.0
 10
250.7951501681676
 20
18.55600235359253
 30
0.0
 10
250.7951501681676
 20
18.55600235359253
 30
0.0
  0
SPLINE
  5
3CA24
102
{ACAD_REACTORS
330
3CA22
102
}
330
2
100
AcDbEntity
  8
Layer 1
100
AcDbSpline
210
0.0
220
0.0
230
1.0
 70
    24
 71
     3
 72
     8
 73
     4
 74
     0
 42
0.000000001
 43
0.0000000001
 40
1.0
 40
1.0
 40
1.0
 40
1.0
 40
2.0
 40
2.0
 40
2.0
 40
2.0
 10
250.7951501681676
 20
18.55600235359253
 30
0.0
 10
250.7951501681676
 20
18.55600235359253
 30
0.0
 10
247.4290917816382
 20
18.55600235359253
 30
0.0
 10
247.4290917816382
 20
18.55600235359253
 30
0.0
  0
SPLINE
  5
3CA25
102
{ACAD_REACTORS
330
3CA22
102
}
330
2
100
AcDbEntity
  8
Layer 1
100
AcDbSpline
210
0.0
220
0.0
230
1.0
 70
    24
 71
     3
 72
     8
 73
     4
 74
     0
 42
0.000000001
 43
0.0000000001
 40
2.0
 40
2.0
 40
2.0
 40
2.0
 40
3.0
 40
3.0
 40
3.0
 40
3.0
 10
247.4290917816382
 20
18.55600235359253
 30
0.0
 10
247.4290917816382
 20
18.55600235359253
 30
0.0
 10
248.820874855513
 20
23.75578114629343
 30
0.0
 10
248.820874855513
 20
23.75578114629343
 30
0.0
  0
SPLINE
  5
3CA26
102
{ACAD_REACTORS
330
3CA22
102
}
330
2
100
AcDbEntity
  8
Layer 1
100
AcDbSpline
210
0.0
220
0.0
230
1.0
 70
    24
 71
     3
 72
     8
 73
     4
 74
     0
 42
0.000000001
 43
0.0000000001
 40
3.0
 40
3.0
 40
3.0
 40
3.0
 40
4.0
 40
4.0
 40
4.0
 40
4.0
 10
248.820874855513
 20
23.75578114629343
 30
0.0
 10
248.820874855513
 20
23.75578114629343
 30
0.0
 10
250.4562099114949
 20
23.75578114629343
 30
0.0
 10
250.4562099114949
 20
23.75578114629343
 30
0.0
  0
SPLINE
  5
3CA27
102
{ACAD_REACTORS
330
3CA22
102
}
330
2
100
AcDbEntity
  8
Layer 1
100
AcDbSpline
210
0.0
220
0.0
230
1.0
 70
    24
 71
     3
 72
     8
 73
     4
 74
     0
 42
0.000000001
 43
0.0000000001
 40
4.0
 40
4.0
 40
4.0
 40
4.0
 40
5.0
 40
5.0
 40
5.0
 40
5.0
 10
250.4562099114949
 20
23.75578114629343
 30
0.0
 10
250.4562099114949
 20
23.75578114629343
 30
0.0
 10
249.388197134655
 20
19.76373517414919
 30
0.0
 10
249.388197134655
 20
19.76373517414919
 30
0.0
  0
SPLINE
  5
3CA28
102
{ACAD_REACTORS
330
3CA22
102
}
330
2
100
AcDbEntity
  8
Layer 1
100
AcDbSpline
210
0.0
220
0.0
230
1.0
 70
    24
 71
     3
 72
     8
 73
     4
 74
     0
 42
0.000000001
 43
0.0000000001
 40
5.0
 40
5.0
 40
5.0
 40
5.0
 40
6.0
 40
6.0
 40
6.0
 40
6.0
 10
249.388197134655
 20
19.76373517414919
 30
0.0
 10
249.388197134655
 20
19.76373517414919
 30
0.0
 10
251.194680667199
 20
19.76373517414919
 30
0.0
 10
251.194680667199
 20
19.76373517414919
 30
0.0
  0
TEXT
  5
3CA29
330
2
100
AcDbEntity
  8
0
 62
     2
100
AcDbText
 10
216.5107526826763
 20
12.44259612545357
 30
0.0
 40
2.540257999999999
  1
www.maritool.com
  7
굴림
100
AcDbText
  0
TEXT
  5
3CA2A
330
2
100
AcDbEntity
  8
0
 62
     2
100
AcDbText
 10
199.1432827353754
 20
3.933672850249706
 30
0.0
 40
2.032206399999999
  1
ITEM#
  7
굴림
100
AcDbText
  0
TEXT
  5
3CA2B
330
2
100
AcDbEntity
  8
0
 62
     2
100
AcDbText
 10
214.0085661489341
 20
3.450826278019405
 30
0.0
 40
3.048309599999998
  1
FL2.36-ER25-2.25
  7
굴림
100
AcDbText
  0
DIMENSION
  5
3D2A9
330
2
100
AcDbEntity
  8
0
  6
Continuous
 62
     7
100
AcDbDimension
280
     0
  2
*D0
 10
76.46276899837722
 20
92.83518981359009
 30
0.0
 11
76.46276899837721
 21
106.0431898135906
 31
0.0
 70
   160
  1
%%C1.04
 71
     5
 42
26.41600000000108
 73
     0
 74
     0
 75
     0
  3
Standard$0
100
AcDbAlignedDimension
 13
90.91568175564692
 23
119.2511898135911
 33
0.0
 14
90.91568175564692
 24
92.83518981359009
 34
0.0
 50
90.0
100
AcDbRotatedDimension
1001
ACAD
1000
DSTYLE
1002
{
1070
    42
1040
0.625
1070
    43
1040
3.75
1070
    44
1040
1.25
1070
    48
1040
0.000000001
1070
    74
1070
     0
1070
    77
1070
     1
1070
    90
1070
     1
1070
   140
1040
3.0
1070
   143
1040
0.03937007874016
1070
   146
1040
0.7
1070
   147
1040
0.625
1070
   171
1070
     3
1070
   172
1070
     1
1070
   175
1070
     0
1070
   274
1070
     3
1070
   283
1070
     0
1070
   284
1070
     8
1070
   340
1005
25
1070
   371
1070
    -1
1070
   372
1070
    -1
1002
}
  0
DIMENSION
  5
3D2F2
330
2
100
AcDbEntity
  8
0
  6
Continuous
 62
     7
100
AcDbDimension
280
     0
  2
*D1
 10
68.46276899838585
 20
76.04318981359064
 30
0.0
 11
66.33747372279529
 21
106.0431898135906
 31
0.0
 70
    32
  1
%%C2.36
 71
     5
 42
60.0
 73
     0
 74
     0
 75
     0
  3
Standard$0
100
AcDbAlignedDimension
 13
106.4156817556582
 23
136.0431898135906
 33
0.0
 14
106.4156817556582
 24
76.04318981359063
 34
0.0
 50
270.0
100
AcDbRotatedDimension
1001
ACAD
1000
DSTYLE
1002
{
1070
    42
1040
0.625
1070
    43
1040
3.75
1070
    44
1040
1.25
1070
    48
1040
0.000000001
1070
    74
1070
     0
1070
    77
1070
     1
1070
    90
1070
     1
1070
   140
1040
3.0
1070
   141
1040
-0.5
1070
   143
1040
0.03937007874016
1070
   146
1040
0.7
1070
   147
1040
0.625
1070
   171
1070
     3
1070
   172
1070
     1
1070
   175
1070
     0
1070
   274
1070
     3
1070
   283
1070
     0
1070
   284
1070
     8
1070
   340
1005
25
1070
   371
1070
    -1
1070
   372
1070
    -1
1002
}
  0
LINE
  5
3DB26
330
2
100
AcDbEntity
  8
0
  6
Continuous
 62
     3
100
AcDbLine
 10
119.9156817556582
 20
75.85880138402297
 30
0.0
 11
119.9156817556582
 21
57.85515259696729
 31
0.0
  0
MTEXT
  5
3DB27
330
2
100
AcDbEntity
  8
0
  6
Continuous
 62
     2
100
AcDbMText
 10
119.916215924805
 20
55.40633749317056
 30
0.0
 40
3.0
 41
0.0
 46
0.0
 71
     5
 72
     1
  1
.55
 73
     1
 44
1.0
  0
LINE
  5
3DD8F
330
2
100
AcDbEntity
  8
0
  6
Continuous
 62
     3
100
AcDbLine
 10
163.0656817556624
 20
93.41844301467483
 30
0.0
 11
163.0656817556624
 21
57.85515259696729
 31
0.0
  0
MTEXT
  5
3DD90
330
2
100
AcDbEntity
  8
0
  6
Continuous
 62
     2
100
AcDbMText
 10
163.0662159248091
 20
55.40633749317056
 30
0.0
 40
3.0
 41
0.0
 46
0.0
 71
     5
 72
     1
  1
2.25
 73
     1
 44
1.0
  0
DIMENSION
  5
3F3DF
330
2
100
AcDbEntity
  8
0
  6
Continuous
 62
     7
100
AcDbDimension
280
     0
  2
*D2
 10
51.93412556335715
 20
82.54732211281805
 30
0.0
 11
39.22612556336003
 21
84.67232211281805
 31
0.0
 70
    32
  1
1.00
 71
     5
 42
25.41599999999426
 73
     0
 74
     0
 75
     0
  3
Standard$0
100
AcDbAlignedDimension
 13
26.5181255633629
 23
102.5431898135906
 33
0.0
 14
51.93412556335715
 24
102.4434676020758
 34
0.0
100
AcDbRotatedDimension
1001
ACAD
1000
DSTYLE
1002
{
1070
    42
1040
0.625
1070
    43
1040
3.75
1070
    44
1040
1.25
1070
    48
1040
0.000000001
1070
    74
1070
     0
1070
    77
1070
     1
1070
    90
1070
     1
1070
   140
1040
3.0
1070
   141
1040
-0.5
1070
   143
1040
0.03937007874016
1070
   146
1040
0.7
1070
   147
1040
0.625
1070
   171
1070
     3
1070
   172
1070
     1
1070
   175
1070
     0
1070
   274
1070
     3
1070
   283
1070
     0
1070
   284
1070
     8
1070
   340
1005
25
1070
   371
1070
    -1
1070
   372
1070
    -1
1002
}
  0
DIMENSION
  5
3F3E0
330
2
100
AcDbEntity
  8
0
  6
Continuous
 62
     7
100
AcDbDimension
280
     0
  2
*D3
 10
17.0578203047362
 20
118.7511898135875
 30
0.0
 11
14.93282030473618
 21
106.0431898135906
 31
0.0
 70
    32
  1
1.00
 71
     5
 42
25.4159999999938
 73
     0
 74
     0
 75
     0
  3
Standard$0
100
AcDbAlignedDimension
 13
35.72612556335935
 23
93.33518981359373
 33
0.0
 14
35.72612556336526
 24
118.7511898135875
 34
0.0
 50
90.0
100
AcDbRotatedDimension
1001
ACAD
1000
DSTYLE
1002
{
1070
    42
1040
0.625
1070
    43
1040
3.75
1070
    44
1040
1.25
1070
    48
1040
0.000000001
1070
    74
1070
     0
1070
    77
1070
     1
1070
    90
1070
     1
1070
   140
1040
3.0
1070
   141
1040
-0.5
1070
   143
1040
0.03937007874016
1070
   146
1040
0.7
1070
   147
1040
0.625
1070
   171
1070
     3
1070
   172
1070
     1
1070
   175
1070
     0
1070
   274
1070
     3
1070
   283
1070
     0
1070
   284
1070
     8
1070
   340
1005
25
1070
   371
1070
    -1
1070
   372
1070
    -1
1002
}
  0
DIMENSION
  5
3FE36
330
2
100
AcDbEntity
  8
0
  6
Continuous
 62
     7
100
AcDbDimension
280
     0
  2
*D4
 10
175.2224441786734
 20
127.0431898135905
 30
0.0
 11
173.0974441786734
 21
106.0431898135907
 31
0.0
 70
    32
  1
%%C1.65
 71
     5
 42
41.99999999999977
 73
     0
 74
     0
 75
     0
  3
Standard$0
100
AcDbAlignedDimension
 13
159.31290500593
 23
85.0431898135908
 33
0.0
 14
159.3129050059301
 24
127.0431898135905
 34
0.0
 50
90.0
100
AcDbRotatedDimension
1001
ACAD
1000
DSTYLE
1002
{
1070
    42
1040
0.625
1070
    43
1040
3.75
1070
    44
1040
1.25
1070
    48
1040
0.000000001
1070
    74
1070
     0
1070
    77
1070
     1
1070
    90
1070
     1
1070
   140
1040
3.0
1070
   141
1040
-0.5
1070
   143
1040
0.03937007874016
1070
   146
1040
0.7
1070
   147
1040
0.625
1070
   171
1070
     3
1070
   172
1070
     1
1070
   175
1070
     0
1070
   274
1070
     3
1070
   283
1070
     0
1070
   284
1070
     8
1070
   340
1005
25
1070
   371
1070
    -1
1070
   372
1070
    -1
1002
}
  0
LEADER
  5
3FE3F
330
2
100
AcDbEntity
  8
0
  6
Continuous
 62
     7
100
AcDbLeader
  3
Standard
 73
     0
 40
3.000590551181101
 41
16.9375
 76
     3
 10
150.4392933807961
 20
127.0431898135905
 30
0.0
 10
162.4133197323673
 20
150.7220661843471
 30
0.0
 10
165.6972971082137
 20
150.7220661843471
 30
0.0
340
3FE40
213
0.0
223
1.5
233
0.0
1001
ACAD
1000
DSTYLE
1002
{
1070
    42
1040
0.625
1070
    43
1040
3.75
1070
    44
1040
1.25
1070
    48
1040
0.000000001
1070
    74
1070
     0
1070
    77
1070
     0
1070
    90
1070
     1
1070
   140
1040
3.0
1070
   141
1040
-0.5
1070
   143
1040
0.03937007874016
1070
   146
1040
0.7
1070
   147
1040
0.625
1070
   171
1070
     3
1070
   172
1070
     1
1070
   175
1070
     0
1070
   179
1070
     0
1070
   274
1070
     3
1070
   283
1070
     0
1070
   284
1070
     8
1070
   340
1005
25
1070
   371
1070
    -1
1070
   372
1070
    -1
1002
}
  0
MTEXT
  5
3FE40
102
{ACAD_REACTORS
330
3FE3F
102
}
330
2
100
AcDbEntity
  8
0
  6
Continuous
 62
     2
100
AcDbMText
 10
166.3222971082138
 20
149.2220661843471
 30
0.0
 40
3.0
 41
23.71157479549004
 46
7.323006358310191
 71
     7
 72
     1
  1
ER25 NUT
 73
     1
 44
1.0
1001
ACAD
1000
ACAD_MTEXT_DEFINED_HEIGHT_BEGIN
1070
    46
1040
7.323006358310191
1000
ACAD_MTEXT_DEFINED_HEIGHT_END
  0
HATCH
  5
3FE42
330
2
100
AcDbEntity
  8
0
  6
Continuous
 62
     4
100
AcDbHatch
 10
0.0
 20
0.0
 30
0.0
210
0.0
220
0.0
230
1.0
  2
ANSI31
 70
     0
 71
     0
 91
        2
 92
        7
 72
     1
 73
     1
 93
       21
 10
159.7459177078222
 20
126.7931898135906
 42
0.267949192431127
 10
159.3129050059299
 20
127.0431898135905
 42
0.0
 10
144.0656817556626
 20
127.0431898135905
 42
0.0
 10
143.0656817556626
 20
126.0431898135905
 42
0.0
 10
143.0656817556624
 20
122.3431898135905
 42
0.0763208340542157
 10
143.1117425542454
 20
122.0431898135905
 42
0.0
 10
153.1326690537702
 20
122.0431898135905
 42
0.0
 10
153.5656817556627
 20
122.2931898135907
 42
0.0
 10
155.9656817556624
 20
122.2931898135906
 42
0.0
 10
155.9656817556624
 20
119.1431898135905
 42
0.0
 10
156.1656817556625
 20
118.9431898135904
 42
0.0
 10
157.3656817556615
 20
118.9431898135905
 42
0.0
 10
157.3656817556615
 20
119.4431898135906
 42
0.0
 10
159.3656817556624
 20
119.4431898135906
 42
0.0
 10
159.3656817556624
 20
118.3952841944544
 42
0.0
 10
159.665681755662
 20
118.0952841944547
 42
0.0
 10
162.4405906218391
 20
116.4931898135906
 42
0.0
 10
162.8656817556624
 20
116.4931898135906
 42
0.0
 10
163.0656817556624
 20
116.6931898135906
 42
0.0
 10
163.0656817556624
 20
120.909215217375
 42
0.1316524975873926
 10
162.9986944575546
 20
121.159215217375
 42
0.0
 97
        0
 92
       23
 72
     0
 73
     1
 93
        4
 10
153.1326690537702
 20
122.0431898135905
 10
148.5656817556735
 20
122.0431898135905
 10
149.2656817556732
 20
121.3431898135905
 10
151.9202334884719
 20
121.3431898135905
 97
        0
 75
     1
 76
     1
 52
90.0
 41
1.0
 77
     0
 78
     1
 53
135.0
 43
-21.50511815645064
 44
239.949921365906
 45
-2.245064030267288
 46
-2.245064030267287
 79
     0
 47
0.0235047852878425
 98
        2
 10
152.8561038278918
 20
124.2903088525194
 10
151.2802749665578
 20
121.6812775109589
1001
GRADIENTCOLOR1ACI
1070
     5
1001
GRADIENTCOLOR2ACI
1070
     2
1001
ACAD
1010
0.0
1020
0.0
1030
0.0
  0
LINE
  5
3FE43
330
2
100
AcDbEntity
  8
0
  6
Continuous
100
AcDbLine
 10
143.0656817556624
 20
86.04318981359057
 30
0.0
 11
143.0656817556624
 21
106.0431898135905
 31
0.0
  0
LINE
  5
3FE44
330
2
100
AcDbEntity
  8
0
  6
Continuous
100
AcDbLine
 10
159.31290500593
 20
85.0431898135908
 30
0.0
 11
144.0656817556624
 21
85.04318981359057
 31
0.0
  0
LINE
  5
3FE45
330
2
100
AcDbEntity
  8
0
  6
Continuous
100
AcDbLine
 10
143.0656817556624
 20
121.2931898135915
 30
0.0
 11
143.0656817556626
 21
126.0431898135905
 31
0.0
  0
LINE
  5
3FE46
330
2
100
AcDbEntity
  8
0
  6
HIDDEN
 62
     0
100
AcDbLine
 10
151.9202334884719
 20
121.3431898135905
 30
0.0
 11
144.0656817556624
 21
121.3431898135905
 31
0.0
  0
LINE
  5
3FE47
330
2
100
AcDbEntity
  8
0
  6
HIDDEN
 62
     0
100
AcDbLine
 10
153.1326690537703
 20
122.0431898135905
 30
0.0
 11
143.1117425542455
 21
122.0431898135905
 31
0.0
  0
LINE
  5
3FE48
330
2
100
AcDbEntity
  8
0
  6
HIDDEN
 62
     0
100
AcDbLine
 10
155.9656817556624
 20
122.2931898135906
 30
0.0
 11
155.9656817556624
 21
106.0431898135905
 31
0.0
  0
LINE
  5
3FE49
330
2
100
AcDbEntity
  8
0
  6
HIDDEN
 62
     0
100
AcDbLine
 10
155.9656817556624
 20
122.2931898135906
 30
0.0
 11
153.5656817556624
 21
122.2931898135907
 31
0.0
  0
LINE
  5
3FE4A
330
2
100
AcDbEntity
  8
0
  6
HIDDEN
 62
     0
100
AcDbLine
 10
153.5656817556624
 20
122.2931898135906
 30
0.0
 11
153.5656817556624
 21
121.0426974967574
 31
0.0
  0
ARC
  5
3FE4B
330
2
100
AcDbEntity
  8
0
  6
HIDDEN
 62
     0
100
AcDbCircle
 10
144.0656817556624
 20
122.3431898135905
 30
0.0
 40
1.0
100
AcDbArc
 50
180.0
 51
270.0
  0
LINE
  5
3FE4C
330
2
100
AcDbEntity
  8
0
  6
HIDDEN
 62
     0
100
AcDbLine
 10
157.3656817556615
 20
118.9431898135905
 30
0.0
 11
156.1656817556625
 21
118.9431898135904
 31
0.0
  0
LINE
  5
3FE4D
330
2
100
AcDbEntity
  8
0
  6
Continuous
100
AcDbLine
 10
163.0656817556624
 20
91.1771644098062
 30
0.0
 11
163.0656817556624
 21
120.909215217375
 31
0.0
  0
LINE
  5
3FE4E
330
2
100
AcDbEntity
  8
0
  6
Continuous
100
AcDbLine
 10
162.9986944575547
 20
90.92716440980622
 30
0.0
 11
159.7459177078222
 21
85.29318981359081
 31
0.0
  0
LINE
  5
3FE4F
330
2
100
AcDbEntity
  8
0
  6
Continuous
100
AcDbLine
 10
159.3129050059299
 20
127.0431898135905
 30
0.0
 11
144.0656817556626
 21
127.0431898135905
 31
0.0
  0
LINE
  5
3FE50
330
2
100
AcDbEntity
  8
0
  6
Continuous
100
AcDbLine
 10
162.9986944575546
 20
121.159215217375
 30
0.0
 11
159.7459177078222
 21
126.7931898135906
 31
0.0
  0
LINE
  5
3FE51
330
2
100
AcDbEntity
  8
0
  6
HIDDEN
 62
     0
100
AcDbLine
 10
162.8656817556624
 20
116.4931898135905
 30
0.0
 11
162.8656817556624
 21
106.0431898135905
 31
0.0
  0
LINE
  5
3FE52
330
2
100
AcDbEntity
  8
0
  6
HIDDEN
 62
     0
100
AcDbLine
 10
162.4405906218391
 20
116.4931898135906
 30
0.0
 11
162.4405906218391
 21
106.0431898135905
 31
0.0
  0
LINE
  5
3FE53
330
2
100
AcDbEntity
  8
0
  6
HIDDEN
 62
     0
100
AcDbLine
 10
162.8656817556624
 20
116.4931898135906
 30
0.0
 11
163.0656817556624
 21
116.6931898135906
 31
0.0
  0
LINE
  5
3FE54
330
2
100
AcDbEntity
  8
0
  6
HIDDEN
 62
     0
100
AcDbLine
 10
162.4405906218391
 20
116.4931898135906
 30
0.0
 11
162.8656817556625
 21
116.4931898135906
 31
0.0
  0
LINE
  5
3FE55
330
2
100
AcDbEntity
  8
0
  6
HIDDEN
 62
     0
100
AcDbLine
 10
159.6656817556624
 20
118.0952841944545
 30
0.0
 11
162.4405906218391
 21
116.4931898135906
 31
0.0
  0
LINE
  5
3FE56
330
2
100
AcDbEntity
  8
0
  6
HIDDEN
 62
     0
100
AcDbLine
 10
156.1656817556625
 20
118.9431898135904
 30
0.0
 11
155.9656817556624
 21
119.1431898135905
 31
0.0
  0
LINE
  5
3FE57
330
2
100
AcDbEntity
  8
0
  6
Continuous
100
AcDbLine
 10
144.0656817556626
 20
127.0431898135905
 30
0.0
 11
143.0656817556626
 21
126.0431898135905
 31
0.0
  0
LINE
  5
3FE58
330
2
100
AcDbEntity
  8
0
  6
Continuous
100
AcDbLine
 10
144.0656817556624
 20
85.04318981359057
 30
0.0
 11
143.0656817556624
 21
86.04318981359057
 31
0.0
  0
ARC
  5
3FE59
330
2
100
AcDbEntity
  8
0
  6
Continuous
100
AcDbCircle
 10
159.3129050059299
 20
126.5431898135906
 30
0.0
 40
0.5
100
AcDbArc
 50
30.00000000000057
 51
90.0
  0
ARC
  5
3FE5A
330
2
100
AcDbEntity
  8
0
  6
Continuous
100
AcDbCircle
 10
159.31290500593
 20
85.54318981359079
 30
0.0
 40
0.5
100
AcDbArc
 50
270.0
 51
329.9999999999966
  0
LINE
  5
3FE5B
330
2
100
AcDbEntity
  8
0
  6
HIDDEN
 62
     0
100
AcDbLine
 10
153.5656817556624
 20
122.2931898135906
 30
0.0
 11
151.9202334884719
 21
121.3431898135905
 31
0.0
  0
LINE
  5
3FE5D
330
2
100
AcDbEntity
  8
0
  6
HIDDEN
 62
     0
100
AcDbLine
 10
157.3656817556615
 20
119.4431898135906
 30
0.0
 11
159.3656817556624
 21
119.4431898135906
 31
0.0
  0
LINE
  5
3FE5E
330
2
100
AcDbEntity
  8
0
  6
HIDDEN
 62
     0
100
AcDbLine
 10
159.6656817556624
 20
118.0952841944544
 30
0.0
 11
159.3656817556624
 21
118.3952841944544
 31
0.0
  0
ARC
  5
3FE5F
330
2
100
AcDbEntity
  8
0
  6
Continuous
100
AcDbCircle
 10
162.5656817556624
 20
120.909215217375
 30
0.0
 40
0.5
100
AcDbArc
 50
0.0
 51
30.00000000000057
  0
ARC
  5
3FE60
330
2
100
AcDbEntity
  8
0
  6
Continuous
100
AcDbCircle
 10
162.5656817556624
 20
91.1771644098062
 30
0.0
 40
0.5
100
AcDbArc
 50
329.9999999999966
 51
0.0
  0
LINE
  5
3FE61
330
2
100
AcDbEntity
  8
0
  6
Continuous
 62
     7
100
AcDbLine
 10
159.3129050058625
 20
86.19699882889056
 30
0.0
 11
154.0656817556624
 21
86.19699882889056
 31
0.0
  0
LINE
  5
3FE62
330
2
100
AcDbEntity
  8
0
  6
Continuous
 62
     7
100
AcDbLine
 10
159.8913643473624
 20
86.84053725739056
 30
0.0
 11
154.0656817556624
 21
86.84053725739056
 31
0.0
  0
LINE
  5
3FE63
330
2
100
AcDbEntity
  8
0
  6
Continuous
 62
     7
100
AcDbLine
 10
160.9480652676624
 20
88.56048467979059
 30
0.0
 11
154.0656817556624
 21
88.56048467979059
 31
0.0
  0
LINE
  5
3FE64
330
2
100
AcDbEntity
  8
0
  6
Continuous
 62
     7
100
AcDbLine
 10
161.2273847322625
 20
89.16450745329058
 30
0.0
 11
154.0656817556624
 21
89.16450745329058
 31
0.0
  0
LINE
  5
3FE65
330
2
100
AcDbEntity
  8
0
  6
Continuous
 62
     7
100
AcDbLine
 10
154.0656817556624
 20
90.17479974929058
 30
0.0
 11
159.3129050058625
 21
90.17479974929058
 31
0.0
  0
LINE
  5
3FE66
330
2
100
AcDbEntity
  8
0
  6
Continuous
 62
     7
100
AcDbLine
 10
161.0491604005624
 20
91.74495763769057
 30
0.0
 11
161.2273847322625
 21
91.74495763769057
 31
0.0
  0
LINE
  5
3FE67
330
2
100
AcDbEntity
  8
0
  6
Continuous
 62
     7
100
AcDbLine
 10
159.3129050058625
 20
102.0653888932905
 30
0.0
 11
154.0656817556624
 21
102.0653888932905
 31
0.0
  0
LINE
  5
3FE68
330
2
100
AcDbEntity
  8
0
  6
Continuous
 62
     7
100
AcDbLine
 10
159.8913643473624
 20
102.6525023154905
 30
0.0
 11
154.0656817556624
 21
102.6525023154905
 31
0.0
  0
LINE
  5
3FE69
330
2
100
AcDbEntity
  8
0
  6
Continuous
 62
     7
100
AcDbLine
 10
160.9480652676624
 20
102.9703357526905
 30
0.0
 11
154.0656817556624
 21
102.9703357526905
 31
0.0
  0
LINE
  5
3FE6A
330
2
100
AcDbEntity
  8
0
  6
Continuous
 62
     7
100
AcDbLine
 10
161.2273847322625
 20
103.4627396291906
 30
0.0
 11
154.0656817556624
 21
103.4627396291906
 31
0.0
  0
LINE
  5
3FE6B
330
2
100
AcDbEntity
  8
0
  6
Continuous
 62
     7
100
AcDbLine
 10
154.0656817556624
 20
102.0653888932905
 30
0.0
 11
154.0656817556624
 21
103.4627396291906
 31
0.0
  0
LINE
  5
3FE6C
330
2
100
AcDbEntity
  8
0
  6
Continuous
 62
     7
100
AcDbLine
 10
154.0656817556624
 20
86.19699882889056
 30
0.0
 11
154.0656817556624
 21
89.16450745329058
 31
0.0
  0
LINE
  5
3FE6D
330
2
100
AcDbEntity
  8
0
  6
Continuous
 62
     7
100
AcDbLine
 10
159.3129050058625
 20
85.04318981359057
 30
0.0
 11
159.3129050058625
 21
86.19699882889056
 31
0.0
  0
LINE
  5
3FE6E
330
2
100
AcDbEntity
  8
0
  6
Continuous
 62
     7
100
AcDbLine
 10
159.3129050058625
 20
90.17479974929058
 30
0.0
 11
159.3129050058625
 21
102.0653888932905
 31
0.0
  0
LINE
  5
3FE6F
330
2
100
AcDbEntity
  8
0
  6
Continuous
 62
     7
100
AcDbLine
 10
159.7459177077625
 20
102.3560177542905
 30
0.0
 11
159.7459177077625
 21
90.20273086899056
 31
0.0
  0
LINE
  5
3FE70
330
2
100
AcDbEntity
  8
0
  6
Continuous
 62
     7
100
AcDbLine
 10
159.7459177077625
 20
85.29318981359057
 30
0.0
 11
159.7459177077625
 21
86.51555880969056
 31
0.0
  0
ARC
  5
3FE71
330
2
100
AcDbEntity
  8
0
  6
Continuous
 62
     7
100
AcDbCircle
 10
91.30109181476246
 20
117.3436117227905
 30
0.0
 40
75.06705694209999
100
AcDbArc
 50
335.7528483648975
 51
336.0246014965989
  0
ARC
  5
3FE72
330
2
100
AcDbEntity
  8
0
  6
Continuous
 62
     7
100
AcDbCircle
 10
100.8724418279624
 20
131.4215384079906
 30
0.0
 40
65.6573731811
100
AcDbArc
 50
333.7246926317973
 51
334.0128753894021
  0
ARC
  5
3FE73
330
2
100
AcDbEntity
  8
0
  6
Continuous
 62
     7
100
AcDbCircle
 10
147.9467404788624
 20
150.8169258403906
 30
0.0
 40
61.7519328872
100
AcDbArc
 50
281.015457279397
 51
281.1529734796994
  0
ARC
  5
3FE74
330
2
100
AcDbEntity
  8
0
  6
Continuous
 62
     7
100
AcDbCircle
 10
129.9442239802624
 20
106.0431898135905
 30
0.0
 40
31.38940696780001
100
AcDbArc
 50
355.2845256646003
 51
0.0
  0
ARC
  5
3FE75
330
2
100
AcDbEntity
  8
0
  6
Continuous
 62
     7
100
AcDbCircle
 10
153.8201114498624
 20
85.9642236694906
 30
0.0
 40
4.227001075
100
AcDbArc
 50
113.9698247745014
 51
114.702345959199
  0
ARC
  5
3FE76
330
2
100
AcDbEntity
  8
0
  6
Continuous
 62
     7
100
AcDbCircle
 10
153.7982896961624
 20
86.01171732859057
 30
0.0
 40
4.174734105899999
100
AcDbArc
 50
114.7026607254975
 51
115.3424805338012
  0
ARC
  5
3FE77
330
2
100
AcDbEntity
  8
0
  6
Continuous
 62
     7
100
AcDbCircle
 10
154.0656817556624
 20
106.0431898135905
 30
0.0
 40
3.072854060899999
100
AcDbArc
 50
180.0
 51
270.0
  0
ARC
  5
3FE78
330
2
100
AcDbEntity
  8
0
  6
Continuous
 62
     7
100
AcDbCircle
 10
154.0656817556624
 20
106.0431898135905
 30
0.0
 40
2.5804501844
100
AcDbArc
 50
180.0
 51
270.0
  0
ARC
  5
3FE79
330
2
100
AcDbEntity
  8
0
  6
Continuous
 62
     7
100
AcDbCircle
 10
152.9753444583624
 20
91.14813103339059
 30
0.0
 40
1.761294226199999
100
AcDbArc
 50
233.3610363547975
 51
234.107533895601
  0
SPLINE
  5
3FE7A
330
2
100
AcDbEntity
  8
0
  6
Continuous
 62
     7
100
AcDbSpline
210
0.0
220
0.0
230
1.0
 70
     8
 71
     3
 72
    10
 73
     6
 74
     0
 42
0.000000001
 43
0.0000000001
 40
0.0
 40
0.0
 40
0.0
 40
0.0
 40
0.4952547626
 40
0.7487862537000001
 40
1.0
 40
1.0
 40
1.0
 40
1.0
 10
152.0081908790624
 20
89.79345220299057
 30
0.0
 10
152.3310739454624
 20
89.92092878839059
 30
0.0
 10
152.8406528962624
 20
90.06344319349057
 30
0.0
 10
153.5354911141625
 20
90.15919474869059
 30
0.0
 10
153.8896008707625
 20
90.17543388999058
 30
0.0
 10
154.0656817556624
 20
90.17479974929058
 30
0.0
  0
SPLINE
  5
3FE7B
330
2
100
AcDbEntity
  8
0
  6
Continuous
 62
     7
100
AcDbSpline
210
0.0
220
0.0
230
1.0
 70
     8
 71
     3
 72
    12
 73
     8
 74
     0
 42
0.000000001
 43
0.0000000001
 40
0.0
 40
0.0
 40
0.0
 40
0.0
 40
0.1986586891
 40
0.3109122512
 40
0.4321901035000001
 40
0.7006420434999999
 40
1.0
 40
1.0
 40
1.0
 40
1.0
 10
150.6282006026624
 20
88.39376864649057
 30
0.0
 10
150.6550417341624
 20
88.52493631149059
 30
0.0
 10
150.7396379791624
 20
88.72208829339058
 30
0.0
 10
150.9060522836624
 20
88.96132589689058
 30
0.0
 10
151.1315955170625
 20
89.21464057349055
 30
0.0
 10
151.4943421422624
 20
89.50928443599059
 30
0.0
 10
151.8290508025625
 20
89.69834047959057
 30
0.0
 10
152.0113863749624
 20
89.78469776529061
 30
0.0
  0
LINE
  5
3FE7C
330
2
100
AcDbEntity
  8
0
  6
Continuous
 62
     7
100
AcDbLine
 10
160.9480652676624
 20
91.63333874069058
 30
0.0
 11
159.8913643473624
 21
90.23122475549058
 31
0.0
  0
SPLINE
  5
3FE7D
330
2
100
AcDbEntity
  8
0
  6
Continuous
 62
     7
100
AcDbSpline
210
0.0
220
0.0
230
1.0
 70
     8
 71
     3
 72
    10
 73
     6
 74
     0
 42
0.000000001
 43
0.0000000001
 40
0.0
 40
0.0
 40
0.0
 40
0.0
 40
0.1597183983
 40
0.3818405813
 40
1.0
 40
1.0
 40
1.0
 40
1.0
 10
159.7459177077625
 20
90.20273086899056
 30
0.0
 10
159.7232197521624
 20
90.19831213239058
 30
0.0
 10
159.6684136269624
 20
90.19061666019059
 30
0.0
 10
159.5241690476624
 20
90.17795122839061
 30
0.0
 10
159.4024022664624
 20
90.17479974929058
 30
0.0
 10
159.3129050058625
 20
90.17479974929058
 30
0.0
  0
SPLINE
  5
3FE7E
330
2
100
AcDbEntity
  8
0
  6
Continuous
 62
     7
100
AcDbSpline
210
0.0
220
0.0
230
1.0
 70
     8
 71
     3
 72
    11
 73
     7
 74
     0
 42
0.000000001
 43
0.0000000001
 40
0.0
 40
0.0
 40
0.0
 40
0.0
 40
0.3290439035
 40
0.6096377493000001
 40
0.8335921438999999
 40
1.0
 40
1.0
 40
1.0
 40
1.0
 10
160.9480652676624
 20
91.63333874069058
 30
0.0
 10
160.9671837183624
 20
91.6587067017906
 30
0.0
 10
161.0044147210625
 20
91.70437339049057
 30
0.0
 10
161.0619701863624
 20
91.76108815239059
 30
0.0
 10
161.1146266770624
 20
91.79891836339061
 30
0.0
 10
161.1516663647625
 20
91.81194426649057
 30
0.0
 10
161.1677311904624
 20
91.81194498319058
 30
0.0
  0
SPLINE
  5
3FE7F
330
2
100
AcDbEntity
  8
0
  6
Continuous
 62
     7
100
AcDbSpline
210
0.0
220
0.0
230
1.0
 70
     8
 71
     3
 72
    11
 73
     7
 74
     0
 42
0.000000001
 43
0.0000000001
 40
0.0
 40
0.0
 40
0.0
 40
0.0
 40
0.2199899243
 40
0.4376999572999999
 40
0.6895527645000001
 40
1.0
 40
1.0
 40
1.0
 40
1.0
 10
161.1677311904624
 20
91.81194498319058
 30
0.0
 10
161.1749333993624
 20
91.81194530459061
 30
0.0
 10
161.1895538456624
 20
91.80948174729058
 30
0.0
 10
161.2083484276625
 20
91.79563891789058
 30
0.0
 10
161.2212338787625
 20
91.77299652409056
 30
0.0
 10
161.2257412235625
 20
91.75498755019054
 30
0.0
 10
161.2273847322625
 20
91.74495763769057
 30
0.0
  0
SPLINE
  5
3FE80
330
2
100
AcDbEntity
  8
0
  6
Continuous
 62
     7
100
AcDbSpline
210
0.0
220
0.0
230
1.0
 70
     8
 71
     3
 72
    23
 73
    19
 74
     0
 42
0.000000001
 43
0.0000000001
 40
0.0
 40
0.0
 40
0.0
 40
0.0
 40
0.0835163591
 40
0.1660449074
 40
0.2452885795
 40
0.3194421197
 40
0.3872721503
 40
0.4476840897
 40
0.5005951411
 40
0.5471689337
 40
0.5899133069
 40
0.6323569408
 40
0.6779753205
 40
0.7292145405000001
 40
0.7872848102
 40
0.8523398072
 40
0.9235782956999999
 40
1.0
 40
1.0
 40
1.0
 40
1.0
 10
154.0656817556624
 20
86.19699882889056
 30
0.0
 10
153.8572287926624
 20
86.19693197339058
 30
0.0
 10
153.4426960745625
 20
86.20788597919057
 30
0.0
 10
152.8321805963625
 20
86.25783276449055
 30
0.0
 10
152.2489543132624
 20
86.34236782979058
 30
0.0
 10
151.7094652340624
 20
86.46310030139057
 30
0.0
 10
151.2284725980624
 20
86.62081263859056
 30
0.0
 10
150.8189373822624
 20
86.81632378279056
 30
0.0
 10
150.4919691929624
 20
87.04985327979057
 30
0.0
 10
150.2568251389624
 20
87.3216765300906
 30
0.0
 10
150.1249013253624
 20
87.62955657979057
 30
0.0
 10
150.1048816080624
 20
87.96161438209059
 30
0.0
 10
150.1940584333624
 20
88.30256304519059
 30
0.0
 10
150.3844362582624
 20
88.64284934749059
 30
0.0
 10
150.6699110747624
 20
88.97442793619058
 30
0.0
 10
151.0434120764624
 20
89.28685762139059
 30
0.0
 10
151.4952072966624
 20
89.56849092199059
 30
0.0
 10
151.8307726495625
 20
89.7234061942906
 30
0.0
 10
152.0081908790624
 20
89.79345220299057
 30
0.0
  0
LINE
  5
3FE81
330
2
100
AcDbEntity
  8
0
  6
Continuous
 62
     7
100
AcDbLine
 10
159.8913643473624
 20
86.84053725739056
 30
0.0
 11
160.9480652676624
 21
88.56048467979059
 31
0.0
  0
SPLINE
  5
3FE82
330
2
100
AcDbEntity
  8
0
  6
Continuous
 62
     7
100
AcDbSpline
210
0.0
220
0.0
230
1.0
 70
     8
 71
     3
 72
     9
 73
     5
 74
     0
 42
0.000000001
 43
0.0000000001
 40
0.0
 40
0.0
 40
0.0
 40
0.0
 40
0.5000000004000001
 40
1.0
 40
1.0
 40
1.0
 40
1.0
 10
161.2273847322625
 20
89.16450745329058
 30
0.0
 10
161.2971650629624
 20
89.59035893999056
 30
0.0
 10
161.3700968331625
 20
90.45473254589058
 30
0.0
 10
161.2971650628625
 20
91.31910615169056
 30
0.0
 10
161.2273847322625
 20
91.74495763769057
 30
0.0
  0
LINE
  5
3FE83
330
2
100
AcDbEntity
  8
0
  6
Continuous
 62
     7
100
AcDbLine
 10
159.8913643473624
 20
102.6525023154905
 30
0.0
 11
160.9480652676624
 21
102.9703357526905
 31
0.0
  0
SPLINE
  5
3FE84
330
2
100
AcDbEntity
  8
0
  6
Continuous
 62
     7
100
AcDbSpline
210
0.0
220
0.0
230
1.0
 70
     8
 71
     3
 72
    11
 73
     7
 74
     0
 42
0.000000001
 43
0.0000000001
 40
0.0
 40
0.0
 40
0.0
 40
0.0
 40
0.2591557994
 40
0.5124425375000001
 40
0.7589010737999999
 40
1.0
 40
1.0
 40
1.0
 40
1.0
 10
159.3129050058625
 20
86.19699882889056
 30
0.0
 10
159.3618444934624
 20
86.19699882889056
 30
0.0
 10
159.4594727145625
 20
86.21565378179059
 30
0.0
 10
159.5845749982625
 20
86.29014187679059
 30
0.0
 10
159.6810514046624
 20
86.39349208929059
 30
0.0
 10
159.7272206151624
 20
86.47404540809054
 30
0.0
 10
159.7459177077625
 20
86.51555880969056
 30
0.0
  0
SPLINE
  5
3FE85
330
2
100
AcDbEntity
  8
0
  6
Continuous
 62
     7
100
AcDbSpline
210
0.0
220
0.0
230
1.0
 70
     8
 71
     3
 72
    12
 73
     8
 74
     0
 42
0.000000001
 43
0.0000000001
 40
0.0
 40
0.0
 40
0.0
 40
0.0
 40
0.0835175158
 40
0.1881388872
 40
0.4406959566
 40
0.7207880175
 40
1.0
 40
1.0
 40
1.0
 40
1.0
 10
161.2273847322625
 20
89.16450745329058
 30
0.0
 10
161.2243774962625
 20
89.14615506259059
 30
0.0
 10
161.2140442742625
 20
89.10542848639057
 30
0.0
 10
161.1823130932624
 20
89.0125361475906
 30
0.0
 10
161.1252678764624
 20
88.88236233459059
 30
0.0
 10
161.0429368975624
 20
88.72137037149059
 30
0.0
 10
160.9806113367624
 20
88.61345873979059
 30
0.0
 10
160.9480652676624
 20
88.56048467979059
 30
0.0
  0
SPLINE
  5
3FE86
330
2
100
AcDbEntity
  8
0
  6
Continuous
 62
     7
100
AcDbSpline
210
0.0
220
0.0
230
1.0
 70
     8
 71
     3
 72
    11
 73
     7
 74
     0
 42
0.000000001
 43
0.0000000001
 40
0.0
 40
0.0
 40
0.0
 40
0.0
 40
0.2850705769
 40
0.5547529537
 40
0.7959051012999999
 40
1.0
 40
1.0
 40
1.0
 40
1.0
 10
154.0656817556624
 20
88.56048467979059
 30
0.0
 10
153.7911559069624
 20
88.5604846796906
 30
0.0
 10
153.2562099617624
 20
88.59584937519059
 30
0.0
 10
152.5030402980625
 20
88.75307089809059
 30
0.0
 10
151.8578657325624
 20
89.00212863919056
 30
0.0
 10
151.4947605426624
 20
89.24168299109055
 30
0.0
 10
151.3516596740625
 20
89.37641329919058
 30
0.0
  0
SPLINE
  5
3FE87
330
2
100
AcDbEntity
  8
0
  6
Continuous
 62
     7
100
AcDbSpline
210
0.0
220
0.0
230
1.0
 70
     8
 71
     3
 72
    18
 73
    14
 74
     0
 42
0.000000001
 43
0.0000000001
 40
0.0
 40
0.0
 40
0.0
 40
0.0
 40
0.1696866974
 40
0.332792153
 40
0.4834805701000001
 40
0.61731191
 40
0.731960161
 40
0.7823780156
 40
0.8288360834999998
 40
0.8723476777
 40
0.9143027298999999
 40
0.9563304434
 40
1.0
 40
1.0
 40
1.0
 40
1.0
 10
154.0656817556624
 20
86.84053725739056
 30
0.0
 10
153.8279075711624
 20
86.84153975209056
 30
0.0
 10
153.3614210762624
 20
86.85436993519056
 30
0.0
 10
152.6865857313624
 20
86.9205312278906
 30
0.0
 10
152.0683535146624
 20
87.03233677699058
 30
0.0
 10
151.5314027708624
 20
87.19363785239057
 30
0.0
 10
151.1522551898624
 20
87.38010885419056
 30
0.0
 10
150.9169908426625
 20
87.56206783769057
 30
0.0
 10
150.7819321681625
 20
87.7065093165906
 30
0.0
 10
150.6832337850625
 20
87.86436395679061
 30
0.0
 10
150.6229939037624
 20
88.03418881319055
 30
0.0
 10
150.6029838957624
 20
88.21342693729059
 30
0.0
 10
150.6159328247624
 20
88.3338182755906
 30
0.0
 10
150.6282006026624
 20
88.39376864649057
 30
0.0
  0
SPLINE
  5
3FE88
330
2
100
AcDbEntity
  8
0
  6
Continuous
 62
     7
100
AcDbSpline
210
0.0
220
0.0
230
1.0
 70
     8
 71
     3
 72
    11
 73
     7
 74
     0
 42
0.000000001
 43
0.0000000001
 40
0.0
 40
0.0
 40
0.0
 40
0.0
 40
0.2779124362
 40
0.5438458957
 40
0.787167568
 40
1.0
 40
1.0
 40
1.0
 40
1.0
 10
154.0656817556624
 20
89.16450745329058
 30
0.0
 10
153.8595580605624
 20
89.16450745329058
 30
0.0
 10
153.4557657274624
 20
89.18845149539061
 30
0.0
 10
152.8800385963625
 20
89.29505649589055
 30
0.0
 10
152.3705132311625
 20
89.46578040659057
 30
0.0
 10
152.0706362516624
 20
89.62872499959059
 30
0.0
 10
151.9427578224624
 20
89.72127358069059
 30
0.0
  0
SPLINE
  5
3FE89
330
2
100
AcDbEntity
  8
0
  6
Continuous
 62
     7
100
AcDbSpline
210
0.0
220
0.0
230
1.0
 70
     8
 71
     3
 72
    11
 73
     7
 74
     0
 42
0.000000001
 43
0.0000000001
 40
0.0
 40
0.0
 40
0.0
 40
0.0
 40
0.2672175481
 40
0.5235121121000001
 40
0.7668478412999999
 40
1.0
 40
1.0
 40
1.0
 40
1.0
 10
159.3129050058625
 20
102.0653888932905
 30
0.0
 10
159.3617059361625
 20
102.0653888932905
 30
0.0
 10
159.4580682548625
 20
102.0819905842905
 30
0.0
 10
159.5831855969625
 20
102.1493156987906
 30
0.0
 10
159.6802056556624
 20
102.2435595534906
 30
0.0
 10
159.7270690281624
 20
102.3178371587905
 30
0.0
 10
159.7459177077625
 20
102.3560177542905
 30
0.0
  0
SPLINE
  5
3FE8A
330
2
100
AcDbEntity
  8
0
  6
Continuous
 62
     7
100
AcDbSpline
210
0.0
220
0.0
230
1.0
 70
     8
 71
     3
 72
    11
 73
     7
 74
     0
 42
0.000000001
 43
0.0000000001
 40
0.0
 40
0.0
 40
0.0
 40
0.0
 40
0.3122571193
 40
0.5895455962
 40
0.8175366230999999
 40
1.0
 40
1.0
 40
1.0
 40
1.0
 10
161.2273847322625
 20
103.4627396291906
 30
0.0
 10
161.2223439588624
 20
103.4012145314906
 30
0.0
 10
161.2005122224624
 20
103.2856536767905
 30
0.0
 10
161.1366782847625
 20
103.1356632284905
 30
0.0
 10
161.0535073116624
 20
103.0261135281906
 30
0.0
 10
160.9826084083624
 20
102.9807256427906
 30
0.0
 10
160.9480652676624
 20
102.9703357526905
 30
0.0
  0
SPLINE
  5
3FE8B
330
2
100
AcDbEntity
  8
0
  6
Continuous
 62
     7
100
AcDbSpline
210
0.0
220
0.0
230
1.0
 70
     8
 71
     3
 72
    14
 73
    10
 74
     0
 42
0.000000001
 43
0.0000000001
 40
0.0
 40
0.0
 40
0.0
 40
0.0
 40
0.1228644913
 40
0.1853428989
 40
0.2483006355
 40
0.3114644517
 40
0.3745457008
 40
0.4374157517000001
 40
0.4997027050555159
 40
0.4997027050555159
 40
0.4997027050555159
 40
0.4997027050555159
 10
154.0656817556624
 20
102.0653888932905
 30
0.0
 10
153.5568888137625
 20
102.0637244424906
 30
0.0
 10
152.7788414203625
 20
102.2206597389905
 30
0.0
 10
151.8680192937624
 20
102.7073906787906
 30
0.0
 10
151.2604523853624
 20
103.2069398240905
 30
0.0
 10
150.7617524618624
 20
103.8177457378906
 30
0.0
 10
150.3927136949624
 20
104.5142725612905
 30
0.0
 10
150.1675032800241
 20
105.2657376339164
 30
0.0
 10
150.1171531156567
 20
105.7848473476195
 30
0.0
 10
150.1171575620803
 20
106.0431898135905
 30
0.0
  0
SPLINE
  5
3FE8C
330
2
100
AcDbEntity
  8
0
  6
Continuous
 62
     7
100
AcDbSpline
210
0.0
220
0.0
230
1.0
 70
     8
 71
     3
 72
    15
 73
    11
 74
     0
 42
0.000000001
 43
0.0000000001
 40
0.0
 40
0.0
 40
0.0
 40
0.0
 40
0.0626633716
 40
0.1252353726
 40
0.1876669324
 40
0.2500037276
 40
0.3123389682
 40
0.3747692458
 40
0.4373362977000001
 40
0.4999999544308235
 40
0.4999999544308235
 40
0.4999999544308235
 40
0.4999999544308235
 10
154.0656817556624
 20
102.6525023154905
 30
0.0
 10
153.8413887371624
 20
102.6526758924906
 30
0.0
 10
153.3919519161625
 20
102.6954976307905
 30
0.0
 10
152.7439412136624
 20
102.8869163036905
 30
0.0
 10
152.1452356945624
 20
103.1981331303906
 30
0.0
 10
151.6183010263624
 20
103.6182926068905
 30
0.0
 10
151.1831039253625
 20
104.1330149119906
 30
0.0
 10
150.8572685203624
 20
104.7241376071906
 30
0.0
 10
150.6552359543996
 20
105.3695104403807
 30
0.0
 10
150.6095798455483
 20
105.818514569784
 30
0.0
 10
150.6095798072101
 20
106.0431898135906
 30
0.0
  0
LINE
  5
3FE8D
330
2
100
AcDbEntity
  8
0
  6
Continuous
100
AcDbLine
 10
144.0656817556624
 20
106.0431898135905
 30
0.0
 11
144.0656817556624
 21
85.04318981359057
 31
0.0
  0
LINE
  5
3FE8E
330
2
100
AcDbEntity
  8
0
  6
Continuous
 62
     0
100
AcDbLine
 10
157.3656817556615
 20
119.4431898135906
 30
0.0
 11
157.3656817556615
 21
106.0431898135905
 31
0.0
  0
LINE
  5
3FE8F
330
2
100
AcDbEntity
  8
0
  6
Continuous
 62
     0
100
AcDbLine
 10
159.3656817556624
 20
119.4431898135906
 30
0.0
 11
159.3656817556624
 21
106.0431898135905
 31
0.0
  0
HATCH
  5
3FF4C
330
2
100
AcDbEntity
  8
0
  6
Continuous
 62
     4
100
AcDbHatch
 10
0.0
 20
0.0
 30
0.0
210
0.0
220
0.0
230
1.0
  2
ANSI31
 70
     0
 71
     0
 91
        2
 92
        7
 72
     0
 73
     1
 93
        6
 10
113.4156817556587
 20
86.54318981359063
 10
113.4156817556587
 20
88.54318981359062
 10
119.9156817556578
 20
88.54318981359062
 10
119.9156817556578
 20
89.90720965729668
 10
105.9156817556674
 20
89.90720965729668
 10
105.9156817556655
 20
86.54318981359063
 97
        0
 92
        7
 72
     0
 73
     1
 93
        8
 10
105.9156817556614
 20
79.54318981359063
 10
105.9156817556596
 20
76.54318981359063
 10
106.4156817556582
 20
76.04318981359063
 10
119.4156817556578
 20
76.04318981359063
 10
119.9156817556578
 20
76.54318981359063
 10
119.9156817556578
 20
77.54318981359062
 10
113.4156817556587
 20
77.54318981359062
 10
113.4156817556587
 20
79.54318981359063
 97
        0
 75
     1
 76
     1
 52
90.0
 41
1.0
 77
     0
 78
     1
 53
135.0
 43
-2652.387867655387
 44
13655.93137665203
 45
-2.245064030267288
 46
-2.245064030267288
 79
     0
 47
0.0880936508652451
 98
        2
 10
110.5483119611746
 20
87.51470542098138
 10
111.6060803653673
 20
77.91250032038113
1001
GRADIENTCOLOR1ACI
1070
     5
1001
GRADIENTCOLOR2ACI
1070
     2
1001
ACAD
1010
0.0
1020
0.0
1030
0.0
  0
LINE
  5
3FF4D
330
2
100
AcDbEntity
  8
0
  6
Continuous
 62
     7
100
AcDbLine
 10
106.4156817556582
 20
76.04318981359063
 30
0.0
 11
119.4156817556578
 21
76.04318981359063
 31
0.0
  0
LINE
  5
3FF4E
330
2
100
AcDbEntity
  8
0
  6
Continuous
 62
     7
100
AcDbLine
 10
105.9156817556583
 20
76.54318981359063
 30
0.0
 11
106.4156817556582
 21
76.04318981359063
 31
0.0
  0
HATCH
  5
3FF4F
330
2
100
AcDbEntity
  8
0
  6
Continuous
 62
     4
100
AcDbHatch
 10
0.0
 20
0.0
 30
0.0
210
0.0
220
0.0
230
1.0
  2
ANSI31
 70
     0
 71
     0
 91
        5
 92
        7
 72
     1
 73
     1
 93
       26
 10
153.4756817556505
 20
118.4448112292961
 42
0.0
 10
153.6756817556585
 20
118.5602812831315
 42
0.0
 10
154.1756817556589
 20
119.0602812831351
 42
0.0
 10
154.1756817556676
 20
120.4081898135886
 42
0.4142135623730951
 10
153.5406817556683
 20
121.043189813587
 42
0.0
 10
152.6756817556676
 20
121.0431898135906
 42
0.0
 10
152.4256817556676
 20
121.2931898135906
 42
0.0
 10
138.1756817556589
 20
121.2931898135906
 42
0.0
 10
136.8766436499787
 20
122.0431898135906
 42
0.0
 10
120.3156817556602
 20
122.0431898135906
 42
-0.4142135623731181
 10
119.9156817556592
 20
122.4431898135921
 42
0.0
 10
119.9156817556592
 20
124.8931898135891
 42
0.0
 10
119.7656817556582
 20
125.0431898135906
 42
0.0
 10
111.7156817556584
 20
125.0431898135906
 42
0.0
 10
111.7156817556584
 20
123.5431898135906
 42
0.0
 10
106.1156817556594
 20
123.5431898135906
 42
0.0
 10
105.9156817556587
 20
123.3431898135862
 42
0.0
 10
105.9156817556587
 20
119.0047796520779
 42
-0.1316524975826415
 10
105.7156817556648
 20
118.9511898135937
 42
0.0
 10
105.4156817556587
 20
118.9511898135937
 42
0.0
 10
105.4156817556592
 20
118.7511898135966
 42
0.0
 10
90.0496563518701
 20
118.7511898135893
 42
0.1316524975861964
 10
89.91568175565646
 20
118.2511898135893
 42
0.0
 10
89.91568175565646
 20
115.9405400827639
 42
0.0
 10
90.91568175565873
 20
115.3631898135758
 42
0.0
 10
131.5488060384501
 20
115.363189813583
 42
0.0
 97
        0
 92
        7
 72
     0
 73
     1
 93
        4
 10
119.2156817556589
 20
125.5931898135935
 10
111.7156817556584
 20
125.5931898135935
 10
111.7156817556584
 20
125.0431898135906
 10
119.7656817556582
 20
125.0431898135906
 97
        0
 92
        7
 72
     0
 73
     1
 93
        4
 10
119.7656817556573
 20
133.0431898135906
 10
111.7156817556584
 20
133.0431898135906
 10
111.7156817556584
 20
132.4931898135913
 10
119.2156817556589
 20
132.4931898135913
 97
        0
 92
        7
 72
     0
 73
     1
 93
       10
 10
119.9156817556587
 20
135.5431898135906
 10
119.4156817556587
 20
136.0431898135906
 10
106.4156817556582
 20
136.0431898135906
 10
105.9156817556592
 20
135.5431898135906
 10
105.9156817556592
 20
134.7431898135877
 10
106.1156817556599
 20
134.5431898135906
 10
111.7156817556584
 20
134.5431898135906
 10
111.7156817556584
 20
133.0431898135906
 10
119.7656817556573
 20
133.0431898135906
 10
119.9156817556587
 20
133.1931898135921
 97
        0
 92
       23
 72
     0
 73
     1
 93
        4
 10
151.675681755668
 20
122.0431898135906
 10
136.8766436499787
 20
122.0431898135906
 10
138.1756817556589
 20
121.2931898135906
 10
152.4256817556676
 20
121.2931898135906
 97
        0
 75
     1
 76
     1
 52
0.0
 41
1.0
 77
     0
 78
     1
 53
45.0
 43
-2687.763633115989
 44
16967.56402813285
 45
-2.245064030267288
 46
2.245064030267288
 79
     0
 47
0.2252121245326498
 98
        5
 10
115.3528740803441
 20
118.1099407022669
 10
114.7447651897229
 20
125.3056269841439
 10
115.2375609951697
 20
132.5288721027503
 10
116.8803710825297
 20
134.1768295873593
 10
145.8136613372618
 20
121.7236747996106
1001
GRADIENTCOLOR1ACI
1070
     5
1001
GRADIENTCOLOR2ACI
1070
     2
1001
ACAD
1010
0.0
1020
0.0
1030
0.0
  0
LINE
  5
3FF50
330
2
100
AcDbEntity
  8
0
  6
Continuous
 62
     7
100
AcDbLine
 10
106.4156817556582
 20
136.0431898135906
 30
0.0
 11
119.4156817556587
 21
136.0431898135906
 31
0.0
  0
LINE
  5
3FF51
330
2
100
AcDbEntity
  8
0
  6
Continuous
 62
     7
100
AcDbLine
 10
119.9156817556587
 20
135.5431898135906
 30
0.0
 11
119.4156817556587
 21
136.0431898135906
 31
0.0
  0
LINE
  5
3FF52
330
2
100
AcDbEntity
  8
0
  6
Continuous
 62
     7
100
AcDbLine
 10
105.9156817556583
 20
135.5431898135906
 30
0.0
 11
106.4156817556582
 21
136.0431898135906
 31
0.0
  0
LINE
  5
3FF53
330
2
100
AcDbEntity
  8
0
  6
Continuous
 62
     7
100
AcDbLine
 10
119.9156817556587
 20
135.5431898135906
 30
0.0
 11
119.9156817556592
 21
122.4431898135921
 31
0.0
  0
ARC
  5
3FF54
330
2
100
AcDbEntity
  8
0
  6
Continuous
 62
     7
100
AcDbCircle
 10
120.3156817556592
 20
122.4431898135921
 30
0.0
 40
0.4
100
AcDbArc
 50
180.0
 51
270.0
  0
LINE
  5
3FF55
330
2
100
AcDbEntity
  8
0
  6
Continuous
 62
     7
100
AcDbLine
 10
119.9156817556578
 20
76.54318981359063
 30
0.0
 11
119.9156817556578
 21
106.0431898135906
 31
0.0
  0
ARC
  5
3FF56
330
2
100
AcDbEntity
  8
0
  6
Continuous
 62
     7
100
AcDbCircle
 10
120.3156817556579
 20
89.64318981358553
 30
0.0
 40
0.4
100
AcDbArc
 50
90.0
 51
180.0
  0
LINE
  5
3FF57
330
2
100
AcDbEntity
  8
0
  6
Continuous
 62
     7
100
AcDbLine
 10
119.4156817556578
 20
76.04318981359063
 30
0.0
 11
119.9156817556578
 21
76.54318981359063
 31
0.0
  0
LINE
  5
3FF58
330
2
100
AcDbEntity
  8
0
  6
CENTER
 62
     3
100
AcDbLine
 10
87.91568175565918
 20
106.0431898135906
 30
0.0
 11
164.229954377313
 21
106.0431898135906
 31
0.0
  0
LINE
  5
3FF59
330
2
100
AcDbEntity
  8
0
  6
Continuous
 62
     7
100
AcDbLine
 10
106.4156817556582
 20
89.90720965729668
 30
0.0
 11
106.4156817556582
 21
106.0431898135906
 31
0.0
  0
LINE
  5
3FF5A
330
2
100
AcDbEntity
  8
0
  6
Continuous
 62
     7
100
AcDbLine
 10
119.4156817556578
 20
89.90720965729668
 30
0.0
 11
119.4156817556578
 21
106.0431898135906
 31
0.0
  0
LINE
  5
3FF5B
330
2
100
AcDbEntity
  8
0
  6
Continuous
 62
     2
100
AcDbLine
 10
105.9156817556587
 20
89.90720965729668
 30
0.0
 11
119.9156817556578
 21
89.90720965729668
 31
0.0
  0
LINE
  5
3FF63
330
2
100
AcDbEntity
  8
0
  6
Continuous
 62
     7
100
AcDbLine
 10
105.9156817556592
 20
135.5431898135943
 30
0.0
 11
105.9156817556587
 21
119.0047796520742
 31
0.0
  0
LINE
  5
3FF64
330
2
100
AcDbEntity
  8
0
  6
Continuous
 62
     7
100
AcDbLine
 10
105.9156817556596
 20
76.54318981359063
 30
0.0
 11
105.9156817556769
 21
106.0431898135906
 31
0.0
  0
LINE
  5
3FF65
330
2
100
AcDbEntity
  8
0
  6
Continuous
 62
     7
100
AcDbLine
 10
89.91568175565873
 20
118.251189813593
 30
0.0
 11
89.91568175565873
 21
93.83518981359191
 31
0.0
  0
LINE
  5
3FF66
330
2
100
AcDbEntity
  8
0
  6
Continuous
 62
     7
100
AcDbLine
 10
90.91568175565873
 20
115.3631898135721
 30
0.0
 11
90.91568175565919
 21
106.0431898135942
 31
0.0
  0
LINE
  5
3FF67
330
2
100
AcDbEntity
  8
0
  6
Continuous
 62
     7
100
AcDbLine
 10
105.0352969979368
 20
102.5431898135906
 30
0.0
 11
105.0352969979395
 21
106.0431898135942
 31
0.0
  0
LINE
  5
3FF68
330
2
100
AcDbEntity
  8
0
  6
Continuous
 62
     7
100
AcDbLine
 10
103.9156817556674
 20
93.13518981358754
 30
0.0
 11
103.9156817556728
 21
102.5431898135906
 31
0.0
  0
LINE
  5
3FF69
330
2
100
AcDbEntity
  8
0
  6
Continuous
 62
     7
100
AcDbLine
 10
90.91568175565873
 20
115.3631898135758
 30
0.0
 11
89.91568175565829
 21
115.9405400827639
 31
0.0
  0
LINE
  5
3FF6A
330
2
100
AcDbEntity
  8
0
  6
Continuous
 62
     7
100
AcDbLine
 10
105.0352969979382
 20
93.13518981359118
 30
0.0
 11
105.0352969979368
 21
102.5431898135906
 31
0.0
  0
LINE
  5
3FF6B
330
2
100
AcDbEntity
  8
0
  6
Continuous
 62
     7
100
AcDbLine
 10
89.91568175565873
 20
102.5431898135906
 30
0.0
 11
105.0352969979368
 21
102.5431898135906
 31
0.0
  0
LINE
  5
3FF6C
330
2
100
AcDbEntity
  8
0
  6
Continuous
 62
     4
100
AcDbLine
 10
89.91568175565873
 20
102.5431898135906
 30
0.0
 11
98.47548937679732
 21
106.0431898135906
 31
0.0
  0
LINE
  5
3FF6D
330
2
100
AcDbEntity
  8
0
  6
Continuous
 62
     4
100
AcDbLine
 10
98.47548937679732
 20
106.0431898135906
 30
0.0
 11
105.0352969979368
 21
102.5431898135906
 31
0.0
  0
LINE
  5
3FF6E
330
2
100
AcDbEntity
  8
0
  6
Continuous
 62
     4
100
AcDbLine
 10
90.91568175565873
 20
119.251189813593
 30
0.0
 11
103.9156817556669
 21
119.251189813593
 31
0.0
  0
ARC
  5
3FF6F
330
2
100
AcDbEntity
  8
0
  6
Continuous
 62
     4
100
AcDbCircle
 10
90.91568175565829
 20
118.2511898135966
 30
0.0
 40
0.999999999998181
100
AcDbArc
 50
89.99999999997395
 51
150.0000000002637
  0
ARC
  5
3FF70
330
2
100
AcDbEntity
  8
0
  6
Continuous
 62
     7
100
AcDbCircle
 10
90.91568175566147
 20
118.2511898135893
 30
0.0
 40
1.000000000004929
100
AcDbArc
 50
150.0000000000039
 51
179.9999999995831
  0
ARC
  5
3FF71
330
2
100
AcDbEntity
  8
0
  6
Continuous
100
AcDbCircle
 10
105.7156817556675
 20
119.3511898135952
 30
0.0
 40
0.4
100
AcDbArc
 50
270.0
 51
300.0000000001055
  0
LINE
  5
3FF72
330
2
100
AcDbEntity
  8
0
  6
Continuous
 62
     4
100
AcDbLine
 10
103.9156817556678
 20
119.251189813593
 30
0.0
 11
105.0352969979382
 21
118.9511898135937
 31
0.0
  0
LINE
  5
3FF73
330
2
100
AcDbEntity
  8
0
  6
Continuous
 62
     4
100
AcDbLine
 10
103.9156817556678
 20
118.751189813593
 30
0.0
 11
103.9156817556683
 21
119.2511898135966
 31
0.0
  0
LINE
  5
3FF74
330
2
100
AcDbEntity
  8
0
  6
Continuous
 62
     4
100
AcDbLine
 10
105.0352969979309
 20
118.9511898135937
 30
0.0
 11
105.4156817556596
 21
118.9511898135937
 31
0.0
  0
LINE
  5
3FF75
330
2
100
AcDbEntity
  8
0
  6
Continuous
 62
     7
100
AcDbLine
 10
105.4156817556587
 20
118.9511898135937
 30
0.0
 11
105.7156817556675
 21
118.9511898135937
 31
0.0
  0
LINE
  5
3FF78
330
2
100
AcDbEntity
  8
0
  6
Continuous
 62
     7
100
AcDbLine
 10
90.04965635187238
 20
118.7511898135893
 30
0.0
 11
105.4156817556587
 21
118.7511898135966
 31
0.0
  0
LINE
  5
3FF79
330
2
100
AcDbEntity
  8
0
  6
Continuous
 62
     3
100
AcDbLine
 10
38.22612556335935
 20
106.0431898135906
 30
0.0
 11
40.22612556335935
 21
106.0431898135906
 31
0.0
  0
LINE
  5
3FF7A
330
2
100
AcDbEntity
  8
0
  6
Continuous
 62
     3
100
AcDbLine
 10
39.22612556335934
 20
105.0431898135906
 30
0.0
 11
39.22612556335934
 21
107.0431898135906
 31
0.0
  0
LINE
  5
3FF7B
330
2
100
AcDbEntity
  8
0
  6
Continuous
 62
     3
100
AcDbLine
 10
37.22612556335935
 20
106.0431898135906
 30
0.0
 11
25.72612556335935
 21
106.0431898135906
 31
0.0
  0
LINE
  5
3FF7C
330
2
100
AcDbEntity
  8
0
  6
Continuous
 62
     3
100
AcDbLine
 10
41.22612556335934
 20
106.0431898135906
 30
0.0
 11
52.72612556335935
 21
106.0431898135906
 31
0.0
  0
LINE
  5
3FF7D
330
2
100
AcDbEntity
  8
0
  6
Continuous
 62
     3
100
AcDbLine
 10
39.22612556335934
 20
104.0431898135906
 30
0.0
 11
39.22612556335934
 21
92.54318981359062
 31
0.0
  0
LINE
  5
3FF7E
330
2
100
AcDbEntity
  8
0
  6
Continuous
 62
     3
100
AcDbLine
 10
39.22612556335934
 20
108.0431898135906
 30
0.0
 11
39.22612556335934
 21
119.5431898135906
 31
0.0
  0
LINE
  5
3FF7F
330
2
100
AcDbEntity
  8
0
  6
Continuous
 62
     7
100
AcDbLine
 10
105.4156817556587
 20
118.9511898135937
 30
0.0
 11
105.4156817556592
 21
118.7511898135966
 31
0.0
  0
LINE
  5
3FF80
330
2
100
AcDbEntity
  8
0
  6
Continuous
 62
     4
100
AcDbLine
 10
105.0352969979323
 20
118.7511898135966
 30
0.0
 11
105.0352969979323
 21
118.9511898135937
 31
0.0
  0
LINE
  5
3FF81
330
2
100
AcDbEntity
  8
0
  6
Continuous
 62
     4
100
AcDbLine
 10
90.91568175565873
 20
92.83518981358827
 30
0.0
 11
103.9156817556669
 21
92.83518981358827
 31
0.0
  0
ARC
  5
3FF82
330
2
100
AcDbEntity
  8
0
  6
Continuous
 62
     4
100
AcDbCircle
 10
90.91568175565829
 20
93.83518981358463
 30
0.0
 40
0.999999999998181
100
AcDbArc
 50
209.9999999997525
 51
270.000000000026
  0
ARC
  5
3FF83
330
2
100
AcDbEntity
  8
0
  6
Continuous
 62
     7
100
AcDbCircle
 10
90.91568175566147
 20
93.83518981359191
 30
0.0
 40
1.000000000004929
100
AcDbArc
 50
180.0000000004169
 51
209.9999999999961
  0
ARC
  5
3FF84
330
2
100
AcDbEntity
  8
0
  6
Continuous
100
AcDbCircle
 10
105.7156817556675
 20
92.73518981358609
 30
0.0
 40
0.4
100
AcDbArc
 50
59.99999999986822
 51
90.0
  0
LINE
  5
3FF85
330
2
100
AcDbEntity
  8
0
  6
Continuous
 62
     4
100
AcDbLine
 10
103.9156817556678
 20
92.83518981358827
 30
0.0
 11
105.0352969979382
 21
93.13518981358754
 31
0.0
  0
LINE
  5
3FF86
330
2
100
AcDbEntity
  8
0
  6
Continuous
 62
     4
100
AcDbLine
 10
103.9156817556678
 20
93.33518981358826
 30
0.0
 11
103.9156817556683
 21
92.83518981358463
 31
0.0
  0
LINE
  5
3FF87
330
2
100
AcDbEntity
  8
0
  6
Continuous
 62
     4
100
AcDbLine
 10
105.0352969979309
 20
93.13518981358754
 30
0.0
 11
105.4156817556596
 21
93.13518981358754
 31
0.0
  0
LINE
  5
3FF88
330
2
100
AcDbEntity
  8
0
  6
Continuous
 62
     7
100
AcDbLine
 10
105.4156817556587
 20
93.13518981358754
 30
0.0
 11
105.7156817556675
 21
93.13518981358754
 31
0.0
  0
LINE
  5
3FF89
330
2
100
AcDbEntity
  8
0
  6
Continuous
 62
     7
100
AcDbLine
 10
90.04965635187238
 20
93.33518981359191
 30
0.0
 11
105.4156817556587
 21
93.33518981358464
 31
0.0
  0
LINE
  5
3FF8A
330
2
100
AcDbEntity
  8
0
  6
Continuous
 62
     7
100
AcDbLine
 10
105.4156817556587
 20
93.13518981358754
 30
0.0
 11
105.4156817556592
 21
93.33518981358464
 31
0.0
  0
LINE
  5
3FF8B
330
2
100
AcDbEntity
  8
0
  6
Continuous
 62
     4
100
AcDbLine
 10
105.0352969979323
 20
93.33518981358464
 30
0.0
 11
105.0352969979323
 21
93.13518981358754
 31
0.0
  0
ARC
  5
3FF8C
330
2
100
AcDbEntity
  8
0
  6
Continuous
 62
     7
100
AcDbCircle
 10
39.22612556335934
 20
106.0431898135906
 30
0.0
 40
13.20800000000054
100
AcDbArc
 50
15.81553035012875
 51
74.18446964980002
  0
ARC
  5
3FF8D
330
2
100
AcDbEntity
  8
0
  6
Continuous
 62
     7
100
AcDbCircle
 10
39.22612556335934
 20
106.0431898135906
 30
0.0
 40
13.20800000000054
100
AcDbArc
 50
105.8155303502
 51
164.1844696496713
  0
ARC
  5
3FF8E
330
2
100
AcDbEntity
  8
0
  6
Continuous
 62
     7
100
AcDbCircle
 10
39.22612556335934
 20
106.0431898135906
 30
0.0
 40
13.20800000000054
100
AcDbArc
 50
195.8155303501287
 51
254.1844696497999
  0
ARC
  5
3FF8F
330
2
100
AcDbEntity
  8
0
  6
Continuous
 62
     7
100
AcDbCircle
 10
39.22612556335934
 20
106.0431898135906
 30
0.0
 40
13.20800000000054
100
AcDbArc
 50
285.8155303502
 51
344.1844696498713
  0
LINE
  5
3FF90
330
2
100
AcDbEntity
  8
0
  6
Continuous
 62
     7
100
AcDbLine
 10
92.049880343489
 20
118.7511898135893
 30
0.0
 11
90.04965635187284
 21
118.7511898135893
 31
0.0
  0
LINE
  5
3FF91
330
2
100
AcDbEntity
  8
0
  6
Continuous
 62
     7
100
AcDbLine
 10
42.825847774875
 20
118.7511898135893
 30
0.0
 11
35.62640335184142
 21
118.7511898135893
 31
0.0
  0
LINE
  5
3FF92
330
2
100
AcDbEntity
  8
0
  6
Continuous
 62
     7
100
AcDbLine
 10
42.825847774875
 20
93.33518981359555
 30
0.0
 11
35.62640335184142
 21
93.33518981359555
 31
0.0
  0
LINE
  5
3FF93
330
2
100
AcDbEntity
  8
0
  6
Continuous
 62
     7
100
AcDbLine
 10
26.5181255633629
 20
109.642912025109
 30
0.0
 11
26.5181255633629
 21
102.4434676020722
 31
0.0
  0
LINE
  5
3FF94
330
2
100
AcDbEntity
  8
0
  6
Continuous
 62
     7
100
AcDbLine
 10
51.9341255633567
 20
109.642912025109
 30
0.0
 11
51.9341255633567
 21
102.4434676020722
 31
0.0
  0
LINE
  5
3FF97
330
2
100
AcDbEntity
  8
0
  6
CENTER
 62
     3
100
AcDbLine
 10
121.9156719901053
 20
128.9869398441082
 30
0.0
 11
103.9156817556587
 21
129.0431898135906
 31
0.0
  0
LINE
  5
3FF98
330
2
100
AcDbEntity
  8
0
 62
     0
100
AcDbLine
 10
111.7156817556584
 20
134.5431898135906
 30
0.0
 11
111.7156817556584
 21
123.5431898135906
 31
0.0
  0
LINE
  5
3FF99
330
2
100
AcDbEntity
  8
0
 62
     0
100
AcDbLine
 10
111.7156817556584
 20
123.5431898135906
 30
0.0
 11
106.1156817556594
 21
123.5431898135906
 31
0.0
  0
LINE
  5
3FF9A
330
2
100
AcDbEntity
  8
0
 62
     0
100
AcDbLine
 10
119.2156817556589
 20
125.5931898135935
 30
0.0
 11
111.7156817556584
 21
125.5931898135935
 31
0.0
  0
LINE
  5
3FF9B
330
2
100
AcDbEntity
  8
0
 62
     3
100
AcDbLine
 10
119.7656817556586
 20
125.0431898135906
 30
0.0
 11
111.7156817556584
 21
125.0431898135906
 31
0.0
  0
LINE
  5
3FF9C
330
2
100
AcDbEntity
  8
0
 62
     0
100
AcDbLine
 10
119.2156817556589
 20
132.4931898135913
 30
0.0
 11
111.7156817556584
 21
132.4931898135913
 31
0.0
  0
LINE
  5
3FF9D
330
2
100
AcDbEntity
  8
0
 62
     3
100
AcDbLine
 10
119.7656817556586
 20
133.0431898135906
 30
0.0
 11
111.7156817556584
 21
133.0431898135906
 31
0.0
  0
LINE
  5
3FF9E
330
2
100
AcDbEntity
  8
0
 62
     0
100
AcDbLine
 10
119.2156817556589
 20
129.0431898135906
 30
0.0
 11
119.2156817556589
 21
125.5931898135935
 31
0.0
  0
LINE
  5
3FF9F
330
2
100
AcDbEntity
  8
0
 62
     0
100
AcDbLine
 10
119.2156817556589
 20
125.5931898135935
 30
0.0
 11
119.9156817556587
 21
124.8931898135891
 31
0.0
  0
LINE
  5
3FFA0
330
2
100
AcDbEntity
  8
0
 62
     0
100
AcDbLine
 10
119.2156817556589
 20
129.0431898135906
 30
0.0
 11
119.2156817556589
 21
132.4931898135913
 31
0.0
  0
LINE
  5
3FFA1
330
2
100
AcDbEntity
  8
0
 62
     0
100
AcDbLine
 10
119.2156817556589
 20
132.4931898135913
 30
0.0
 11
119.9156817556587
 21
133.1931898135921
 31
0.0
  0
LINE
  5
3FFA2
330
2
100
AcDbEntity
  8
0
  6
Continuous
 62
     7
100
AcDbLine
 10
105.9156817556596
 20
123.3431898135862
 30
0.0
 11
106.1156817556594
 21
123.5431898135906
 31
0.0
  0
LINE
  5
3FFA3
330
2
100
AcDbEntity
  8
0
 62
     0
100
AcDbLine
 10
111.7156817556584
 20
134.5431898135906
 30
0.0
 11
106.1156817556599
 21
134.5431898135906
 31
0.0
  0
LINE
  5
3FFA4
330
2
100
AcDbEntity
  8
0
  6
Continuous
 62
     7
100
AcDbLine
 10
105.9156817556601
 20
134.7431898135877
 30
0.0
 11
106.1156817556599
 21
134.5431898135906
 31
0.0
  0
LINE
  5
3FFA5
330
2
100
AcDbEntity
  8
0
  6
Continuous
 62
     7
100
AcDbLine
 10
106.1156817556599
 20
134.5431898135906
 30
0.0
 11
106.1156817556594
 21
123.5431898135906
 31
0.0
  0
LINE
  5
3FFA6
330
2
100
AcDbEntity
  8
0
  6
Continuous
 62
     7
100
AcDbLine
 10
113.4156817556587
 20
77.54318981359062
 30
0.0
 11
113.4156817556587
 21
88.54318981359062
 31
0.0
  0
LINE
  5
3FFA7
330
2
100
AcDbEntity
  8
0
  6
Continuous
 62
     7
100
AcDbLine
 10
119.9156817556587
 20
88.54318981359062
 30
0.0
 11
113.4156817556587
 21
88.54318981359062
 31
0.0
  0
LINE
  5
3FFA8
330
2
100
AcDbEntity
  8
0
  6
Continuous
 62
     7
100
AcDbLine
 10
119.9156817556587
 20
77.54318981359062
 30
0.0
 11
113.4156817556587
 21
77.54318981359062
 31
0.0
  0
LINE
  5
3FFA9
330
2
100
AcDbEntity
  8
0
  6
Continuous
 62
     7
100
AcDbLine
 10
113.4156817556587
 20
86.54318981359063
 30
0.0
 11
105.9156817556578
 21
86.54318981359063
 31
0.0
  0
LINE
  5
3FFAA
330
2
100
AcDbEntity
  8
0
  6
Continuous
 62
     7
100
AcDbLine
 10
113.4156817556587
 20
79.54318981359063
 30
0.0
 11
105.9156817556578
 21
79.54318981359063
 31
0.0
  0
LINE
  5
3FFAB
330
2
100
AcDbEntity
  8
0
  6
CENTER
 62
     3
100
AcDbLine
 10
121.9156817556587
 20
83.04318981359063
 30
0.0
 11
103.9156817556578
 21
83.04318981359063
 31
0.0
  0
CIRCLE
  5
3FFAC
330
2
100
AcDbEntity
  8
0
  6
Continuous
 62
     7
100
AcDbCircle
 10
214.5452570496681
 20
106.0431898136052
 30
0.0
 40
15.99999999997817
  0
CIRCLE
  5
3FFAD
330
2
100
AcDbEntity
  8
0
  6
Continuous
 62
     7
100
AcDbCircle
 10
214.5452570496681
 20
106.0431898136052
 30
0.0
 40
30.00000000000006
  0
CIRCLE
  5
3FFAE
330
2
100
AcDbEntity
  8
0
  6
CENTER
 62
     3
100
AcDbCircle
 10
214.5452570496681
 20
106.0431898136052
 30
0.0
 40
23.0
  0
ARC
  5
3FFAF
330
2
100
AcDbEntity
  8
0
  6
Continuous
 62
     3
100
AcDbCircle
 10
191.545257049668
 20
106.0431898136052
 30
0.0
 40
4.0
100
AcDbArc
 50
14.25198577012699
 51
295.3187246653294
  0
CIRCLE
  5
3FFB0
330
2
100
AcDbEntity
  8
0
  6
Continuous
 62
     7
100
AcDbCircle
 10
191.545257049668
 20
106.0431898136052
 30
0.0
 40
3.549999999999999
  0
CIRCLE
  5
3FFB1
330
2
100
AcDbEntity
  8
0
  6
HIDDEN
 62
     2
 48
0.05
100
AcDbCircle
 10
191.545257049668
 20
106.0431898136052
 30
0.0
 40
5.5
  0
ARC
  5
3FFB2
330
2
100
AcDbEntity
  8
0
  6
Continuous
 62
     3
100
AcDbCircle
 10
214.5452570496672
 20
83.04318981360518
 30
0.0
 40
4.0
100
AcDbArc
 50
14.25198577012699
 51
295.3187246653294
  0
CIRCLE
  5
3FFB3
330
2
100
AcDbEntity
  8
0
  6
Continuous
 62
     7
100
AcDbCircle
 10
214.5452570496672
 20
83.04318981360518
 30
0.0
 40
3.549999999999999
  0
CIRCLE
  5
3FFB4
330
2
100
AcDbEntity
  8
0
  6
HIDDEN
 62
     2
 48
0.05
100
AcDbCircle
 10
214.5452570496681
 20
83.04318981360518
 30
0.0
 40
5.5
  0
ARC
  5
3FFB5
330
2
100
AcDbEntity
  8
0
  6
Continuous
 62
     3
100
AcDbCircle
 10
237.5452570496681
 20
106.0431898136052
 30
0.0
 40
4.0
100
AcDbArc
 50
14.25198577012699
 51
295.3187246653294
  0
CIRCLE
  5
3FFB6
330
2
100
AcDbEntity
  8
0
  6
Continuous
 62
     7
100
AcDbCircle
 10
237.5452570496681
 20
106.0431898136052
 30
0.0
 40
3.549999999999999
  0
CIRCLE
  5
3FFB7
330
2
100
AcDbEntity
  8
0
  6
HIDDEN
 62
     2
 48
0.05
100
AcDbCircle
 10
237.5452570496681
 20
106.0431898136052
 30
0.0
 40
5.5
  0
ARC
  5
3FFB8
330
2
100
AcDbEntity
  8
0
  6
Continuous
 62
     3
100
AcDbCircle
 10
214.5452570496681
 20
129.0431898136052
 30
0.0
 40
4.0
100
AcDbArc
 50
14.25198577011985
 51
295.3187246653294
  0
CIRCLE
  5
3FFB9
330
2
100
AcDbEntity
  8
0
  6
Continuous
 62
     7
100
AcDbCircle
 10
214.5452570496681
 20
129.0431898136052
 30
0.0
 40
3.549999999999999
  0
CIRCLE
  5
3FFBA
330
2
100
AcDbEntity
  8
0
  6
HIDDEN
 62
     2
 48
0.05
100
AcDbCircle
 10
214.5452570496681
 20
129.0431898136052
 30
0.0
 40
5.5
  0
INSERT
  5
3FFBB
102
{ACAD_REACTORS
330
40002
102
}
330
2
100
AcDbEntity
  8
0
  6
Continuous
 62
     7
100
AcDbBlockReference
  2
*U6
 10
-727.7451069599857
 20
-3606.349982812764
 30
0.0
 50
90.0
  0
CIRCLE
  5
3FFBC
330
2
100
AcDbEntity
  8
0
  6
Continuous
 62
     7
100
AcDbCircle
 10
214.5452570496699
 20
106.0431898136015
 30
0.0
 40
12.49999999998908
  0
CIRCLE
  5
3FFBD
330
2
100
AcDbEntity
  8
0
  6
Continuous
 62
     7
100
AcDbCircle
 10
214.5452570496699
 20
106.0431898136015
 30
0.0
 40
9.319999999974243
  0
LINE
  5
3FFBE
330
2
100
AcDbEntity
  8
0
  6
Continuous
 62
     3
100
AcDbLine
 10
214.5452570496662
 20
105.5431898136051
 30
0.0
 11
214.5452570496662
 21
106.5431898136051
 31
0.0
  0
LINE
  5
3FFBF
330
2
100
AcDbEntity
  8
0
  6
Continuous
 62
     3
100
AcDbLine
 10
215.0452570496662
 20
106.0431898136052
 30
0.0
 11
214.0452570496663
 21
106.0431898136052
 31
0.0
  0
LINE
  5
3FFC0
330
2
100
AcDbEntity
  8
0
  6
Continuous
 62
     3
100
AcDbLine
 10
214.5452570496681
 20
105.0431898136052
 30
0.0
 11
214.5452570496662
 21
75.54318981360518
 31
0.0
  0
LINE
  5
3FFC1
330
2
100
AcDbEntity
  8
0
  6
Continuous
 62
     3
100
AcDbLine
 10
214.5452570496681
 20
107.0431898136052
 30
0.0
 11
214.5452570496662
 21
136.5431898136052
 31
0.0
  0
LINE
  5
3FFC2
330
2
100
AcDbEntity
  8
0
  6
Continuous
 62
     3
100
AcDbLine
 10
215.5452570496681
 20
106.0431898136052
 30
0.0
 11
245.0452570496663
 21
106.0431898136052
 31
0.0
  0
LINE
  5
3FFC3
330
2
100
AcDbEntity
  8
0
  6
Continuous
 62
     3
100
AcDbLine
 10
213.5452570496681
 20
106.0431898136052
 30
0.0
 11
184.0452570496662
 21
106.0431898136052
 31
0.0
  0
DIMENSION
  5
3FFC4
330
2
100
AcDbEntity
  8
0
  6
Continuous
 62
     7
100
AcDbDimension
280
     0
  2
*D7
 10
193.214157349805
 20
97.44178378933085
 30
0.0
 11
250.126919645595
 21
120.390894869212
 31
0.0
 70
   163
  1
%%C1.811
 71
     5
 42
46.00000000000313
 73
     0
 74
     0
 75
     0
  3
Standard
100
AcDbDiametricDimension
 15
235.8763567495484
 25
114.644595837854
 35
0.0
 40
0.0
1001
ACAD_DSTYLE_DIMRADIAL_EXTENSION
1070
   387
1070
     1
1070
   388
1040
0.0
1070
   390
1040
0.0
1001
ACAD
1000
DSTYLE
1002
{
1070
    42
1040
0.625
1070
    43
1040
3.75
1070
    44
1040
1.25
1070
    48
1040
0.000000001
1070
    74
1070
     0
1070
    77
1070
     1
1070
    90
1070
     1
1070
   140
1040
3.0
1070
   141
1040
-0.5
1070
   143
1040
0.03937007874016
1070
   146
1040
0.7
1070
   147
1040
0.625
1070
   171
1070
     3
1070
   172
1070
     1
1070
   175
1070
     0
1070
   274
1070
     3
1070
   283
1070
     0
1070
   284
1070
     8
1070
   288
1070
     1
1070
   340
1005
25
1070
   371
1070
    -1
1070
   372
1070
    -1
1002
}
  0
LEADER
  5
3FFC5
330
2
100
AcDbEntity
  8
0
  6
Continuous
 62
     7
100
AcDbLeader
  3
Standard
 73
     0
 40
3.0
 41
15.0023622047244
 76
     3
 10
211.9039670583692
 20
132.0471184382298
 30
0.0
 10
202.9990084494851
 20
146.8298624909624
 30
0.0
 10
202.2034179797933
 20
146.8298624909624
 30
0.0
340
3FFC6
213
0.0
223
1.5
233
0.0
1001
ACAD
1000
DSTYLE
1002
{
1070
    42
1040
0.625
1070
    43
1040
3.75
1070
    44
1040
1.25
1070
    48
1040
0.000000001
1070
    74
1070
     0
1070
    77
1070
     0
1070
    90
1070
     1
1070
   140
1040
3.0
1070
   141
1040
-0.5
1070
   143
1040
0.03937007874016
1070
   146
1040
0.7
1070
   147
1040
0.625
1070
   171
1070
     3
1070
   172
1070
     1
1070
   175
1070
     0
1070
   179
1070
     0
1070
   274
1070
     3
1070
   283
1070
     0
1070
   284
1070
     8
1070
   340
1005
25
1070
   371
1070
    -1
1070
   372
1070
    -1
1002
}
  0
MTEXT
  5
3FFC6
102
{ACAD_REACTORS
330
3FFC5
102
}
330
2
100
AcDbEntity
  8
0
  6
Continuous
 62
     2
100
AcDbMText
 10
201.5784179797933
 20
145.3298624909624
 30
0.0
 40
3.0
 41
3.0
 46
0.0
 71
     9
 72
     1
  1
4-M8*1.0
 73
     1
 44
1.0
  0
LINE
  5
3FFC7
330
2
100
AcDbEntity
  8
0
  6
Continuous
 62
     7
100
AcDbLine
 10
154.1756817556589
 20
106.0431898135906
 30
0.0
 11
154.1756817556589
 21
120.4081898135886
 31
0.0
  0
LINE
  5
3FFC9
330
2
100
AcDbEntity
  8
0
  6
Continuous
 62
     3
100
AcDbLine
 10
143.0656817556624
 20
90.79318981358937
 30
0.0
 11
138.1756817556589
 21
90.79318981359064
 31
0.0
  0
LINE
  5
3FFCA
330
2
100
AcDbEntity
  8
0
  6
Continuous
 62
     2
100
AcDbLine
 10
138.1756817556589
 20
90.04318981359062
 30
0.0
 11
138.1756817556589
 21
106.0431898135906
 31
0.0
  0
LINE
  5
3FFCB
330
2
100
AcDbEntity
  8
0
  6
Continuous
 62
     3
100
AcDbLine
 10
138.1756817556589
 20
90.79318981359064
 30
0.0
 11
136.8766436499819
 21
90.04318981359062
 31
0.0
  0
LINE
  5
3FFCC
330
2
100
AcDbEntity
  8
0
  6
Continuous
 62
     3
100
AcDbLine
 10
152.425681755668
 20
121.2931898135906
 30
0.0
 11
138.1756817556589
 21
121.2931898135906
 31
0.0
  0
LINE
  5
3FFCD
330
2
100
AcDbEntity
  8
0
  6
Continuous
 62
     3
100
AcDbLine
 10
138.1756817556589
 20
121.2931898135906
 30
0.0
 11
136.8766436499819
 21
122.043189813587
 31
0.0
  0
LINE
  5
3FFCE
330
2
100
AcDbEntity
  8
0
  6
Continuous
 62
     7
100
AcDbLine
 10
143.0656817556624
 20
90.04318981358801
 30
0.0
 11
120.3156817556579
 21
90.04318981359062
 31
0.0
  0
LINE
  5
3FFCF
330
2
100
AcDbEntity
  8
0
  6
Continuous
 62
     7
100
AcDbLine
 10
143.0656817556624
 20
122.0431898135895
 30
0.0
 11
120.3156817556592
 21
122.043189813587
 31
0.0
  0
LINE
  5
3FFD5
330
2
100
AcDbEntity
  8
0
  6
ByBlock
 62
     0
100
AcDbLine
 10
152.6756817556676
 20
121.0431898135906
 30
0.0
 11
153.5406817556678
 21
121.0431898135906
 31
0.0
  0
ARC
  5
3FFD6
330
2
100
AcDbEntity
  8
0
  6
Continuous
 62
     7
100
AcDbCircle
 10
153.5406817556673
 20
120.4081898135886
 30
0.0
 40
0.635
100
AcDbArc
 50
0.0
 51
90.0
  0
LINE
  5
3FFD7
330
2
100
AcDbEntity
  8
0
100
AcDbLine
 10
151.675681755668
 20
122.0431898135906
 30
0.0
 11
152.6756817556676
 21
121.0431898135906
 31
0.0
  0
LINE
  5
3FFD8
330
2
100
AcDbEntity
  8
0
 62
     7
100
AcDbLine
 10
153.4756817556587
 20
118.4448112292997
 30
0.0
 11
153.6756817556576
 21
118.5602812831315
 31
0.0
  0
LINE
  5
3FFD9
330
2
100
AcDbEntity
  8
0
  6
Continuous
 62
     7
100
AcDbLine
 10
153.675681755658
 20
118.5602812831315
 30
0.0
 11
154.175681755658
 21
119.0602812831351
 31
0.0
  0
LINE
  5
3FFDA
330
2
100
AcDbEntity
  8
0
  6
Continuous
 62
     7
100
AcDbLine
 10
153.675681755658
 20
118.5602812831351
 30
0.0
 11
153.675681755658
 21
106.043189813587
 31
0.0
  0
LINE
  5
3FFDB
330
2
100
AcDbEntity
  8
0
  6
Continuous
 62
     7
100
AcDbLine
 10
153.4756817556587
 20
118.4448112292997
 30
0.0
 11
153.4756817556587
 21
106.043189813587
 31
0.0
  0
LINE
  5
3FFE5
330
2
100
AcDbEntity
  8
0
  6
Continuous
 62
     7
100
AcDbLine
 10
153.4756817556582
 20
118.4448112292961
 30
0.0
 11
131.5488060384501
 21
115.363189813583
 31
0.0
  0
LINE
  5
3FFE8
330
2
100
AcDbEntity
  8
0
  6
Continuous
 62
     7
100
AcDbLine
 10
131.5488060384501
 20
115.363189813583
 30
0.0
 11
131.5488060384501
 21
106.043189813587
 31
0.0
  0
LINE
  5
3FFE9
330
2
100
AcDbEntity
  8
0
  6
Continuous
 62
     7
100
AcDbLine
 10
131.5488060384501
 20
115.363189813583
 30
0.0
 11
90.91568175565873
 21
115.3631898135758
 31
0.0
  0
CIRCLE
  5
3FFEC
330
2
100
AcDbEntity
  8
0
  6
Continuous
 62
     7
100
AcDbCircle
 10
39.22612556335934
 20
106.0431898135906
 30
0.0
 40
9.319999999992433
  0
CIRCLE
  5
3FFED
330
2
100
AcDbEntity
  8
0
  6
Continuous
 62
     7
100
AcDbCircle
 10
214.5452570496699
 20
106.0431898136015
 30
0.0
 40
14.99999999998181
  0
ARC
  5
3FFEE
330
2
100
AcDbEntity
  8
0
  6
Continuous
 62
     3
100
AcDbCircle
 10
214.5452570497081
 20
106.0431898136052
 30
0.0
 40
15.25
100
AcDbArc
 50
353.4157358748605
 51
277.4868003900625
  0
VIEWPORT
  5
2C7EC
102
{ACAD_XDICTIONARY
360
2C7ED
102
}
330
1B
100
AcDbEntity
 67
     1
  8
0
  6
Continuous
 62
     7
100
AcDbViewport
 10
212.4908200734394
 20
97.5
 30
0.0
 40
464.9816401468789
 41
210.0
 68
     1
 69
     1
 12
212.4908200734394
 22
97.5
 13
0.0
 23
0.0
 14
2.0
 24
2.0
 15
2.0
 25
2.0
 16
0.0
 26
0.0
 36
1.0
 17
0.0
 27
0.0
 37
0.0
 42
50.0
 43
0.0
 44
0.0
 45
210.0
 50
0.0
 51
0.0
 72
  1000
 90
   823328
  1

281
     0
 71
     1
 74
     0
110
0.0
120
0.0
130
0.0
111
1.0
121
0.0
131
0.0
112
0.0
122
1.0
132
0.0
 79
     0
146
0.0
170
     0
 61
     5
348
2E
292
     1
282
     1
141
0.0
142
0.0
 63
   250
421
  3355443
  0
ENDSEC
  0
SECTION
  2
OBJECTS
  0
DICTIONARY
  5
B
330
0
100
AcDbDictionary
281
     1
  3
ACAD_ASSOCNETWORK
350
3C0B2
  3
ACAD_CIP_PREVIOUS_PRODUCT_INFO
350
BE4
  3
ACAD_COLOR
350
3F
  3
ACAD_DETAILVIEWSTYLE
350
BDC
  3
ACAD_GROUP
350
3A
  3
ACAD_LAYOUT
350
17
  3
ACAD_MATERIAL
350
D
  3
ACAD_MLEADERSTYLE
350
42
  3
ACAD_MLINESTYLE
350
3B
  3
ACAD_PLOTSETTINGS
350
3C
  3
ACAD_PLOTSTYLENAME
350
A
  3
ACAD_SCALELIST
350
40
  3
ACAD_SECTIONVIEWSTYLE
350
BDA
  3
ACAD_TABLESTYLE
350
41
  3
ACAD_VISUALSTYLE
350
2F
  3
ACDB_RECOMPOSE_DATA
350
4039A
  3
AcDbVariableDictionary
350
BB8
  3
AEC_PROPERTY_SET_DEFS
350
24C9
  0
DICTIONARY
  5
31
330
2C
100
AcDbDictionary
280
     1
281
     1
  0
DICTIONARY
  5
22
330
21
100
AcDbDictionary
280
     1
281
     1
  3
ACAD_LAYERSTATES
360
23
  0
DICTIONARY
  5
7
330
6
100
AcDbDictionary
280
     1
281
     1
  3
ADSK_XREC_LAYER_RECONCILED
360
8
  0
DICTIONARY
  5
3
330
2
100
AcDbDictionary
280
     1
281
     1
  3
ACAD_ASSOCNETWORK
360
3C4DA
  3
ACAD_SORTENTS
360
BB0
  0
DICTIONARY
  5
3FFF7
330
3FFF6
100
AcDbDictionary
280
     1
281
     1
  0
DICTIONARY
  5
2C7ED
330
2C7EC
100
AcDbDictionary
280
     1
281
     1
  3
ASDK_XREC_ANNOTATION_SCALE_INFO
360
2C7EE
  0
DICTIONARY
  5
3C0B2
102
{ACAD_REACTORS
330
B
102
}
330
B
100
AcDbDictionary
281
     1
  3
ACAD_ASSOCNETWORK
350
3C0B3
  0
XRECORD
  5
BE4
102
{ACAD_REACTORS
330
B
102
}
330
B
100
AcDbXrecord
280
     1
300
ACD
300
2014
300
ACD_F_S
  0
DICTIONARY
  5
3F
102
{ACAD_REACTORS
330
B
102
}
330
B
100
AcDbDictionary
281
     1
  0
DICTIONARY
  5
BDC
102
{ACAD_REACTORS
330
B
102
}
330
B
100
AcDbDictionary
281
     1
  3
Imperial24
350
283CD
  3
Metric50
350
BDD
  0
DICTIONARY
  5
3A
102
{ACAD_REACTORS
330
B
102
}
330
B
100
AcDbDictionary
281
     1
  0
DICTIONARY
  5
17
102
{ACAD_REACTORS
330
B
102
}
330
B
100
AcDbDictionary
281
     1
  3
Model
350
16
  3
배치1
350
1E
  0
DICTIONARY
  5
D
102
{ACAD_REACTORS
330
B
102
}
330
B
100
AcDbDictionary
281
     1
  3
ByBlock
350
3E
  3
ByLayer
350
3D
  3
Global
350
C
  0
DICTIONARY
  5
42
102
{ACAD_REACTORS
330
B
102
}
330
B
100
AcDbDictionary
281
     1
  3
Standard
350
BD9
  0
DICTIONARY
  5
3B
102
{ACAD_REACTORS
330
B
102
}
330
B
100
AcDbDictionary
281
     1
  3
Standard
350
43
  0
DICTIONARY
  5
3C
102
{ACAD_REACTORS
330
B
102
}
330
B
100
AcDbDictionary
281
     1
  0
ACDBDICTIONARYWDFLT
  5
A
102
{ACAD_REACTORS
330
B
102
}
330
B
100
AcDbDictionary
281
     1
  3
Normal
350
9
100
AcDbDictionaryWithDefault
340
9
  0
DICTIONARY
  5
40
102
{ACAD_REACTORS
330
B
102
}
330
B
100
AcDbDictionary
281
     1
  3
A0
350
48
  3
A1
350
49
  3
A2
350
4A
  3
A3
350
4B
  3
A4
350
4C
  3
A5
350
4D
  3
A6
350
4E
  3
A7
350
4F
  3
A8
350
50
  3
A9
350
51
  3
B0
350
52
  3
B1
350
53
  3
B2
350
54
  3
B3
350
55
  3
B4
350
56
  3
B5
350
57
  3
B6
350
58
  0
DICTIONARY
  5
BDA
102
{ACAD_REACTORS
330
B
102
}
330
B
100
AcDbDictionary
281
     1
  3
Imperial24
350
283CC
  3
Metric50
350
BDB
  0
DICTIONARY
  5
41
102
{ACAD_REACTORS
330
B
102
}
330
B
100
AcDbDictionary
281
     1
  3
Standard
350
44
  0
DICTIONARY
  5
2F
102
{ACAD_REACTORS
330
B
102
}
330
B
100
AcDbDictionary
281
     1
  3
2dWireframe
350
2E
  3
3D Hidden
350
1A64
  3
3dWireframe
350
47
  3
Basic
350
BC7
  3
Brighten
350
BCC
  3
ColorChange
350
BD0
  3
Conceptual
350
BCA
  3
Dim
350
BCB
  3
EdgeColorOff
350
BD8
  3
Facepattern
350
BCF
  3
Flat
350
BC3
  3
FlatWithEdges
350
BC4
  3
Gouraud
350
BC5
  3
GouraudWithEdges
350
BC6
  3
Hidden
350
BC9
  3
JitterOff
350
BD6
  3
Linepattern
350
BCE
  3
OverhangOff
350
BD7
  3
Realistic
350
46
  3
Shaded
350
BD5
  3
Shaded with edges
350
BD4
  3
Shades of Gray
350
BD1
  3
Sketchy
350
BD2
  3
Thicken
350
BCD
  3
Wireframe
350
BC8
  3
X-Ray
350
BD3
  0
XRECORD
  5
4039A
102
{ACAD_REACTORS
330
B
102
}
330
B
100
AcDbXrecord
280
     1
 90
        1
330
44
330
BDB
330
BDD
330
283CC
330
283CD
  0
DICTIONARY
  5
BB8
102
{ACAD_REACTORS
330
B
102
}
330
B
100
AcDbDictionary
281
     1
  3
CANNOSCALE
350
BBE
  3
CMLEADERSTYLE
350
BBA
  3
CTABLESTYLE
350
BB9
  3
CVIEWDETAILSTYLE
350
BBB
  3
CVIEWSECTIONSTYLE
350
BBC
  3
DIMASSOC
350
C3B
  3
HIDETEXT
350
C39
  3
HPCOLOR
350
FF3
  3
INDEXCTL
350
C38
  3
LAYEREVAL
350
BC0
  3
LAYERNOTIFY
350
BC1
  3
LIGHTINGUNITS
350
BBF
  3
MSLTSCALE
350
BBD
  3
SOLIDHIST
350
C3C
  3
SORTENTS
350
C37
  0
DICTIONARY
  5
24C9
102
{ACAD_REACTORS
330
B
102
}
330
B
100
AcDbDictionary
281
     1
  0
DICTIONARY
  5
23
102
{ACAD_REACTORS
330
22
102
}
330
22
100
AcDbDictionary
281
     1
  0
XRECORD
  5
8
102
{ACAD_REACTORS
330
7
102
}
330
7
100
AcDbXrecord
280
     1
290
     1
  0
DICTIONARY
  5
3C4DA
102
{ACAD_REACTORS
330
3
102
}
330
3
100
AcDbDictionary
281
     1
  3
ACAD_ASSOCNETWORK
350
3C4DB
  0
SORTENTSTABLE
  5
BB0
102
{ACAD_REACTORS
330
3
102
}
330
3
100
AcDbSortentsTable
330
2
331
3C9F6
  5
3C9F6
331
3C9F2
  5
3C9F2
331
3C9EE
  5
3C9EE
331
3C9EA
  5
3C9EA
331
3CA29
  5
3CA29
331
3CA25
  5
3CA25
331
3CA21
  5
3CA21
331
3DD90
  5
3DD90
331
3C9E6
  5
3C9E6
331
3C9E2
  5
3C9E2
331
3C9DE
  5
3C9DE
331
3C9DA
  5
3C9DA
331
3CA1D
  5
3CA1D
331
3CA19
  5
3CA19
331
3CA15
  5
3CA15
331
3CA11
  5
3CA11
331
3C9D6
  5
3C9D6
331
3C9D2
  5
3C9D2
331
3C9CE
  5
3C9CE
331
3CA0D
  5
3CA0D
331
3CA09
  5
3CA09
331
3CA05
  5
3CA05
331
3CA01
  5
3CA01
331
3C936
  5
3C936
331
3C9FD
  5
3C9FD
331
3C9F9
  5
3C9F9
331
3C9F5
  5
3C9F5
331
3C9F1
  5
3C9F1
331
3C9ED
  5
3C9ED
331
3C9E9
  5
3C9E9
331
3F3DF
  5
3F3E3
331
3CA28
  5
3CA28
331
3CA24
  5
3CA24
331
3CA20
  5
3CA20
331
3C9E5
  5
3C9E5
331
3C9E1
  5
3C9E1
331
3C9DD
  5
3C9DD
331
3C9D9
  5
3C9D9
331
3DD8F
  5
3DD8F
331
3CA1C
  5
3CA1C
331
3CA18
  5
3CA18
331
3DB27
  5
3DB27
331
3CA14
  5
3CA14
331
3CA10
  5
3CA10
331
3C9D5
  5
3C9D5
331
3C9D1
  5
3C9D1
331
3C9CD
  5
3C9CD
331
3CA0C
  5
3CA0C
331
3CA08
  5
3CA08
331
3C93D
  5
3C93D
331
3CA04
  5
3CA04
331
3CA00
  5
3CA00
331
3C9FC
  5
3C9FC
331
3C9F8
  5
3C9F8
331
3C9F4
  5
3C9F4
331
3C9F0
  5
3C9F0
331
3C9EC
  5
3C9EC
331
3C9E8
  5
3C9E8
331
3CA2B
  5
3CA2B
331
3CA27
  5
3CA27
331
3CA23
  5
3CA23
331
3C9E4
  5
3C9E4
331
3C9E0
  5
3C9E0
331
3C9DC
  5
3C9DC
331
3C9D8
  5
3C9D8
331
3CA1F
  5
3CA1F
331
3CA1B
  5
3CA1B
331
3CA17
  5
3CA17
331
3DB26
  5
3DB26
331
3CA13
  5
3CA13
331
3C9D4
  5
3C9D4
331
3C9D0
  5
3C9D0
331
3CA0F
  5
3CA0F
331
3CA0B
  5
3CA0B
331
3CA07
  5
3CA07
331
3C93C
  5
3C93C
331
3CA03
  5
3CA03
331
3C9FF
  5
3C9FF
331
3C9FB
  5
3C9FB
331
3D2F2
  5
3D2F2
331
3C9F7
  5
3C9F7
331
3C9F3
  5
3C9F3
331
3C9EF
  5
3C9EF
331
3C9EB
  5
3C9EB
331
3CA2A
  5
3CA2A
331
3CA26
  5
3CA26
331
3CA22
  5
3CA22
331
3C9E7
  5
3C9E7
331
3C9E3
  5
3C9E3
331
3C9DF
  5
3C9DF
331
3C9DB
  5
3C9DB
331
3CA1E
  5
3CA1E
331
3CA1A
  5
3CA1A
331
3CA16
  5
3CA16
331
3CA12
  5
3CA12
331
3C9D7
  5
3C9D7
331
3C9D3
  5
3C9D3
331
3C9CF
  5
3C9CF
331
3CA0E
  5
3CA0E
331
3CA0A
  5
3CA0A
331
3CA06
  5
3CA06
331
3CA02
  5
3CA02
331
3C937
  5
3C937
331
3C9FE
  5
3C9FE
331
3C9FA
  5
3C9FA
331
3F3E0
  5
3F3E4
331
3D2A9
  5
3D2A9
  0
XRECORD
  5
2C7EE
102
{ACAD_REACTORS
330
2C7ED
102
}
330
2C7ED
100
AcDbXrecord
280
     1
 90
        1
340
48
  0
ACDBASSOCNETWORK
  5
3C0B3
102
{ACAD_REACTORS
330
3C0B2
102
}
330
3C0B2
100
AcDbAssocAction
 90
        2
 90
        0
330
0
360
0
 90
        0
 90
        0
 90
        0
 90
        0
 90
        0
 90
        0
 90
        0
100
AcDbAssocNetwork
 90
        0
 90
        6
 90
        1
330
3C4DB
 90
        0
  0
ACDBDETAILVIEWSTYLE
  5
283CD
102
{ACAD_XDICTIONARY
360
40398
102
}
102
{ACAD_REACTORS
330
BDC
102
}
330
BDC
100
AcDbModelDocViewStyle
 70
     0
  3
Imperial24
290
     0
100
AcDbDetailViewStyle
 70
     0
 71
     0
 90
        3
 71
     1
340
25
 62
   256
 40
0.24
340
0
 62
   256
 40
0.24
300

 40
0.36
280
     3
 71
     2
340
14
 90
       25
 62
   256
 71
     3
340
25
 62
   256
 40
0.24
 90
        1
 40
0.75
 90
        1
300
%<\AcVar ViewType \f "%tc1">% %<\AcVar ViewDetailId>%\PSCALE %<\AcVar ViewScale \f "%sn">%
 71
     4
340
14
 90
       25
 62
   256
340
14
 90
       25
 62
   256
280
     0
  0
ACDBDETAILVIEWSTYLE
  5
BDD
102
{ACAD_XDICTIONARY
360
40394
102
}
102
{ACAD_REACTORS
330
BDC
102
}
330
BDC
100
AcDbModelDocViewStyle
 70
     0
  3
Metric50
290
     0
100
AcDbDetailViewStyle
 70
     0
 71
     0
 90
        3
 71
     1
340
25
 62
   256
 40
5.0
340
0
 62
   256
 40
5.0
300

 40
0.0
280
     1
 71
     2
340
14
 90
       25
 62
   256
 71
     3
340
25
 62
   256
 40
5.0
 90
        0
 40
15.0
 90
        1
300
%<\AcVar ViewDetailId>% (%<\AcVar ViewScale \f "%sn">%)
 71
     4
340
14
 90
       25
 62
   256
340
14
 90
       25
 62
   256
280
     0
  0
LAYOUT
  5
16
102
{ACAD_XDICTIONARY
360
18
102
}
102
{ACAD_REACTORS
330
17
102
}
330
17
100
AcDbPlotSettings
  1

  2
DWG To PDF.pc3
  4
ISO_expand_A4_(297.00_x_210.00_MM)
  6

 40
5.793749809265136
 41
10.79374980926513
 42
5.79376220703125
 43
10.79374694824219
 44
297.0
 45
210.0
 46
10.74179700476176
 47
0.0
 48
214.2303289092835
 49
-5.650030662565313
140
426.8811481846322
141
146.1562857013982
142
1.0
143
0.8057125389846563
 70
 11956
 72
     1
 73
     0
 74
     4
  7
ksm0910.ctb
 75
     0
147
1.241137442468229
 76
     0
 77
     2
 78
   300
148
-214.2303289092835
149
5.650030662565313
100
AcDbLayout
  1
Model
 70
     1
 71
     0
 10
0.0
 20
0.0
 11
12.0
 21
9.0
 12
0.0
 22
0.0
 32
0.0
 14
0.0
 24
0.0
 34
0.0
 15
0.0
 25
0.0
 35
0.0
146
0.0
 13
0.0
 23
0.0
 33
0.0
 16
1.0
 26
0.0
 36
0.0
 17
0.0
 27
1.0
 37
0.0
 76
     0
330
2
331
2D
1001
ACAD_PSEXT
1000
DWG To PDF.pc3
1000
DWG To PDF
1000
파일
1000

1070
     0
  0
LAYOUT
  5
1E
102
{ACAD_XDICTIONARY
360
1F
102
}
102
{ACAD_REACTORS
330
17
102
}
330
17
100
AcDbPlotSettings
  1

  2
none_device
  4
ISO_A4_(210.00_x_297.00_MM)
  6

 40
7.5
 41
20.0
 42
7.5
 43
20.0
 44
210.0
 45
297.0
 46
0.0
 47
0.0
 48
0.0
 49
0.0
140
0.0
141
0.0
142
1.0
143
1.0
 70
   688
 72
     1
 73
     1
 74
     5
  7
ksm0910.ctb
 75
    16
147
1.0
 76
     0
 77
     2
 78
   300
148
0.0
149
0.0
100
AcDbLayout
  1
배치1
 70
     1
 71
     1
 10
-20.0
 20
-7.5
 11
277.0
 21
202.5
 12
0.0
 22
0.0
 32
0.0
 14
1.000000000000000E+20
 24
1.000000000000000E+20
 34
1.000000000000000E+20
 15
-1.000000000000000E+20
 25
-1.000000000000000E+20
 35
-1.000000000000000E+20
146
0.0
 13
0.0
 23
0.0
 33
0.0
 16
1.0
 26
0.0
 36
0.0
 17
0.0
 27
1.0
 37
0.0
 76
     0
330
1B
331
2C7EC
1001
ACAD_PSEXT
1000
없음
1000
없음
1000
해당 없음
1000
배치가 새로운 플로터 구성을 선택할 때까지 플롯되지 않습니다.
1070
     0
  0
MATERIAL
  5
3E
102
{ACAD_REACTORS
330
D
102
}
330
D
100
AcDbMaterial
  1
ByBlock
 94
       63
  0
MATERIAL
  5
3D
102
{ACAD_REACTORS
330
D
102
}
330
D
100
AcDbMaterial
  1
ByLayer
 94
       63
  0
MATERIAL
  5
C
102
{ACAD_XDICTIONARY
360
E
102
}
102
{ACAD_REACTORS
330
D
102
}
330
D
100
AcDbMaterial
  1
Global
 43
0.0007999999797903
 43
0.0
 43
0.0
 43
0.0
 43
0.0
 43
0.0007999999797903
 43
0.0
 43
0.0
 43
0.0
 43
0.0
 43
1.0
 43
0.0
 43
0.0
 43
0.0
 43
0.0
 43
1.0
 49
0.0007999999797903
 49
0.0
 49
0.0
 49
0.0
 49
0.0
 49
0.0007999999797903
 49
0.0
 49
0.0
 49
0.0
 49
0.0
 49
1.0
 49
0.0
 49
0.0
 49
0.0
 49
0.0
 49
1.0
142
0.0007999999797903
142
0.0
142
0.0
142
0.0
142
0.0
142
0.0007999999797903
142
0.0
142
0.0
142
0.0
142
0.0
142
1.0
142
0.0
142
0.0
142
0.0
142
0.0
142
1.0
144
0.0007999999797903
144
0.0
144
0.0
144
0.0
144
0.0
144
0.0007999999797903
144
0.0
144
0.0
144
0.0
144
0.0
144
1.0
144
0.0
144
0.0
144
0.0
144
0.0
144
1.0
 94
       63
1001
ACAD
1070
    -1
1070
     3
1070
     0
1000

1071
        0
1070
     0
  0
MLEADERSTYLE
  5
BD9
102
{ACAD_REACTORS
330
42
102
}
330
42
100
AcDbMLeaderStyle
179
     2
170
     2
171
     1
172
     0
 90
        2
 40
0.0
 41
0.0
173
     1
 91
-1023410173
340
28
 92
       -2
290
     1
 42
2.0
291
     1
 43
0.36
  3
Standard
 44
4.0
300

342
25
174
     1
178
     6
175
     1
176
     0
 93
-1023410174
 45
3.0
292
     0
297
     0
 46
4.0
 94
-1056964608
 47
1.0
 49
1.0
140
1.0
293
     1
141
0.0
294
     1
177
     0
142
1.0
295
     0
296
     0
143
0.125
271
     0
272
     9
273
     9
298
     1
  0
MLINESTYLE
  5
43
102
{ACAD_REACTORS
330
3B
102
}
330
3B
100
AcDbMlineStyle
  2
STANDARD
 70
     0
  3

 62
   256
 51
90.0
 52
90.0
 71
     2
 49
0.5
 62
   256
  6
BYLAYER
 49
-0.5
 62
   256
  6
BYLAYER
  0
ACDBPLACEHOLDER
  5
9
102
{ACAD_REACTORS
330
A
102
}
330
A
  0
SCALE
  5
48
102
{ACAD_REACTORS
330
40
102
}
330
40
100
AcDbScale
 70
     0
300
1:1
140
1.0
141
1.0
290
     1
  0
SCALE
  5
49
102
{ACAD_REACTORS
330
40
102
}
330
40
100
AcDbScale
 70
     0
300
1:2
140
1.0
141
2.0
290
     0
  0
SCALE
  5
4A
102
{ACAD_REACTORS
330
40
102
}
330
40
100
AcDbScale
 70
     0
300
1:4
140
1.0
141
4.0
290
     0
  0
SCALE
  5
4B
102
{ACAD_REACTORS
330
40
102
}
330
40
100
AcDbScale
 70
     0
300
1:5
140
1.0
141
5.0
290
     0
  0
SCALE
  5
4C
102
{ACAD_REACTORS
330
40
102
}
330
40
100
AcDbScale
 70
     0
300
1:8
140
1.0
141
8.0
290
     0
  0
SCALE
  5
4D
102
{ACAD_REACTORS
330
40
102
}
330
40
100
AcDbScale
 70
     0
300
1:10
140
1.0
141
10.0
290
     0
  0
SCALE
  5
4E
102
{ACAD_REACTORS
330
40
102
}
330
40
100
AcDbScale
 70
     0
300
1:16
140
1.0
141
16.0
290
     0
  0
SCALE
  5
4F
102
{ACAD_REACTORS
330
40
102
}
330
40
100
AcDbScale
 70
     0
300
1:20
140
1.0
141
20.0
290
     0
  0
SCALE
  5
50
102
{ACAD_REACTORS
330
40
102
}
330
40
100
AcDbScale
 70
     0
300
1:30
140
1.0
141
30.0
290
     0
  0
SCALE
  5
51
102
{ACAD_REACTORS
330
40
102
}
330
40
100
AcDbScale
 70
     0
300
1:40
140
1.0
141
40.0
290
     0
  0
SCALE
  5
52
102
{ACAD_REACTORS
330
40
102
}
330
40
100
AcDbScale
 70
     0
300
1:50
140
1.0
141
50.0
290
     0
  0
SCALE
  5
53
102
{ACAD_REACTORS
330
40
102
}
330
40
100
AcDbScale
 70
     0
300
1:100
140
1.0
141
100.0
290
     0
  0
SCALE
  5
54
102
{ACAD_REACTORS
330
40
102
}
330
40
100
AcDbScale
 70
     0
300
2:1
140
2.0
141
1.0
290
     0
  0
SCALE
  5
55
102
{ACAD_REACTORS
330
40
102
}
330
40
100
AcDbScale
 70
     0
300
4:1
140
4.0
141
1.0
290
     0
  0
SCALE
  5
56
102
{ACAD_REACTORS
330
40
102
}
330
40
100
AcDbScale
 70
     0
300
8:1
140
8.0
141
1.0
290
     0
  0
SCALE
  5
57
102
{ACAD_REACTORS
330
40
102
}
330
40
100
AcDbScale
 70
     0
300
10:1
140
10.0
141
1.0
290
     0
  0
SCALE
  5
58
102
{ACAD_REACTORS
330
40
102
}
330
40
100
AcDbScale
 70
     0
300
100:1
140
100.0
141
1.0
290
     0
  0
ACDBSECTIONVIEWSTYLE
  5
283CC
102
{ACAD_XDICTIONARY
360
40396
102
}
102
{ACAD_REACTORS
330
BDA
102
}
330
BDA
100
AcDbModelDocViewStyle
 70
     0
  3
Imperial24
290
     0
100
AcDbSectionViewStyle
 70
     0
 71
     0
 90
       78
 71
     1
340
25
 62
   256
 40
0.24
340
0
340
0
 62
   256
 40
0.24
300
I, O, Q, S, X, Z
 40
0.48
 90
        3
 40
0.18
 90
        1
 71
     2
340
14
 90
       25
 62
   256
340
14
 90
       50
 62
   256
 40
0.24
 40
0.0
 40
0.24
 71
     3
340
25
 62
   256
 40
0.24
 90
        1
 40
0.75
 90
        1
300
%<\AcVar ViewType \f "%tc1">% %<\AcVar ViewSectionStartId>%-%<\AcVar ViewSectionEndId>%\PSCALE %<\AcVar ViewScale \f "%sn">%
 71
     4
 62
   256
 62
   257
300
ANSI31
 40
1.0
 90
        0
290
     0
290
     0
 90
        6
 40
0.0
 40
1.570796326794896
 40
0.2617993877991494
 40
1.308996938995747
 40
-0.2617993877991494
 40
1.832595714594046
  0
ACDBSECTIONVIEWSTYLE
  5
BDB
102
{ACAD_XDICTIONARY
360
40392
102
}
102
{ACAD_REACTORS
330
BDA
102
}
330
BDA
100
AcDbModelDocViewStyle
 70
     0
  3
Metric50
290
     0
100
AcDbSectionViewStyle
 70
     0
 71
     0
 90
      102
 71
     1
340
25
 62
   256
 40
5.0
340
0
340
0
 62
   256
 40
5.0
300
I, O, Q, S, X, Z
 40
10.0
 90
        0
 40
2.5
 90
        0
 71
     2
340
14
 90
       25
 62
   256
340
14
 90
       50
 62
   256
 40
5.0
 40
2.5
 40
5.0
 71
     3
340
25
 62
   256
 40
5.0
 90
        0
 40
15.0
 90
        1
300
%<\AcVar ViewSectionStartId>%-%<\AcVar ViewSectionEndId>% (%<\AcVar ViewScale \f "%sn">%)
 71
     4
 62
   256
 62
   257
300
ANSI31
 40
1.0
 90
        0
290
     0
290
     0
 90
        6
 40
0.0
 40
1.570796326794896
 40
0.2617993877991494
 40
1.308996938995747
 40
-0.2617993877991494
 40
1.832595714594046
  0
TABLESTYLE
  5
44
102
{ACAD_XDICTIONARY
360
45
102
}
102
{ACAD_REACTORS
330
41
102
}
330
41
100
AcDbTableStyle
280
     0
  3
Standard
 70
     0
 71
     0
 40
1.5
 41
1.5
280
     0
281
     0
  7
Standard
140
4.5
170
     2
 62
     0
 63
     7
283
     0
 90
      512
 91
        0
  1

274
    -2
284
     1
 64
     0
275
    -2
285
     1
 65
     0
276
    -2
286
     1
 66
     0
277
    -2
287
     1
 67
     0
278
    -2
288
     1
 68
     0
279
    -2
289
     1
 69
     0
  7
Standard
140
6.0
170
     5
 62
     0
 63
     7
283
     0
 90
      512
 91
        0
  1

274
    -2
284
     1
 64
     0
275
    -2
285
     1
 65
     0
276
    -2
286
     1
 66
     0
277
    -2
287
     1
 67
     0
278
    -2
288
     1
 68
     0
279
    -2
289
     1
 69
     0
  7
Standard
140
4.5
170
     5
 62
     0
 63
     7
283
     0
 90
      512
 91
        0
  1

274
    -2
284
     1
 64
     0
275
    -2
285
     1
 65
     0
276
    -2
286
     1
 66
     0
277
    -2
287
     1
 67
     0
278
    -2
288
     1
 68
     0
279
    -2
289
     1
 69
     0
  0
VISUALSTYLE
  5
2E
102
{ACAD_REACTORS
330
2F
102
}
330
2F
100
AcDbVisualStyle
  2
2dWireframe
 70
     4
177
     3
291
     0
 70
    58
 90
        0
176
     1
 90
        2
176
     1
 90
        1
176
     1
 90
        0
176
     1
 40
0.6
176
     1
 40
30.0
176
     1
 62
     7
176
     1
 90
        1
176
     1
 90
        4
176
     1
 62
     7
176
     1
 62
   257
176
     1
 90
        1
176
     1
 90
        1
176
     1
 40
1.0
176
     1
 90
        0
176
     1
 62
   257
176
     1
 40
1.0
176
     1
 90
        1
176
     1
 90
        6
176
     1
 90
        2
176
     1
 62
     7
176
     1
 90
        5
176
     1
 90
        0
176
     1
 90
        0
176
     1
290
     0
176
     1
 90
        1
176
     1
 40
0.0
176
     1
 90
        0
176
     1
290
     1
176
     1
290
     1
176
     1
290
     0
176
     1
290
     0
176
     1
290
     0
176
     1
290
     0
176
     1
290
     0
176
     1
290
     0
176
     1
290
     0
176
     1
 90
       50
176
     1
 40
0.0
176
     1
 40
1.0
176
     1
 90
        0
176
     1
 62
    18
420
        0
176
     1
 90
       50
176
     1
 90
        3
176
     1
 62
     5
420
      255
176
     1
290
     0
176
     1
 90
       50
176
     1
 90
       50
176
     1
 90
       50
176
     1
290
     0
176
     1
 90
       50
176
     1
 62
   256
176
     0
 40
1.0
176
     0
 90
        2
176
     1
  1
strokes_ogs.tif
176
     1
290
     0
176
     1
 40
1.0
176
     1
 40
1.0
176
     1
  0
VISUALSTYLE
  5
1A64
102
{ACAD_REACTORS
330
2F
102
}
330
2F
100
AcDbVisualStyle
  2
3D Hidden
 70
     6
177
     3
291
     0
 70
    58
 90
        1
176
     1
 90
        2
176
     1
 90
        2
176
     1
 90
        0
176
     1
 40
0.6
176
     1
 40
30.0
176
     1
 62
     7
176
     1
 90
        2
176
     1
 90
        2
176
     1
 62
     7
176
     1
 62
   257
176
     1
 90
        2
176
     1
 90
        1
176
     1
 40
40.0
176
     1
 90
        0
176
     1
 62
   257
176
     1
 40
1.0
176
     1
 90
        1
176
     1
 90
        6
176
     1
 90
        2
176
     1
 62
     7
176
     1
 90
        3
176
     1
 90
        0
176
     1
 90
        0
176
     1
290
     0
176
     1
 90
        1
176
     1
 40
0.0
176
     1
 90
        0
176
     1
290
     0
176
     1
290
     1
176
     1
290
     1
176
     1
290
     0
176
     1
290
     0
176
     1
290
     0
176
     1
290
     0
176
     1
290
     0
176
     1
290
     0
176
     1
 90
       50
176
     1
 40
0.0
176
     1
 40
1.0
176
     1
 90
        0
176
     1
 62
    18
420
        0
176
     1
 90
       50
176
     1
 90
        3
176
     1
 62
     5
420
      255
176
     1
290
     0
176
     1
 90
       50
176
     1
 90
       50
176
     1
 90
       50
176
     1
290
     0
176
     1
 90
       50
176
     1
 62
   256
176
     0
 40
1.0
176
     0
 90
        2
176
     1
  1
strokes_ogs.tif
176
     1
290
     0
176
     1
 40
1.0
176
     1
 40
1.0
176
     1
  0
VISUALSTYLE
  5
47
102
{ACAD_REACTORS
330
2F
102
}
330
2F
100
AcDbVisualStyle
  2
3dWireframe
 70
     5
177
     3
291
     0
 70
    58
 90
        0
176
     1
 90
        2
176
     1
 90
        1
176
     1
 90
        0
176
     1
 40
0.6
176
     1
 40
30.0
176
     1
 62
     7
176
     1
 90
        1
176
     1
 90
        4
176
     1
 62
     7
176
     1
 62
   257
176
     1
 90
        1
176
     1
 90
        1
176
     1
 40
1.0
176
     1
 90
        0
176
     1
 62
   257
176
     1
 40
1.0
176
     1
 90
        1
176
     1
 90
        6
176
     1
 90
        2
176
     1
 62
     7
176
     1
 90
        5
176
     1
 90
        0
176
     1
 90
        0
176
     1
290
     0
176
     1
 90
        1
176
     1
 40
0.0
176
     1
 90
        0
176
     1
290
     0
176
     1
290
     1
176
     1
290
     1
176
     1
290
     0
176
     1
290
     0
176
     1
290
     0
176
     1
290
     0
176
     1
290
     0
176
     1
290
     0
176
     1
 90
       50
176
     1
 40
0.0
176
     1
 40
1.0
176
     1
 90
        0
176
     1
 62
    18
420
        0
176
     1
 90
       50
176
     1
 90
        3
176
     1
 62
     5
420
      255
176
     1
290
     0
176
     1
 90
       50
176
     1
 90
       50
176
     1
 90
       50
176
     1
290
     0
176
     1
 90
       50
176
     1
 62
   256
176
     0
 40
1.0
176
     0
 90
        2
176
     1
  1
strokes_ogs.tif
176
     1
290
     0
176
     1
 40
1.0
176
     1
 40
1.0
176
     1
  0
VISUALSTYLE
  5
BC7
102
{ACAD_REACTORS
330
2F
102
}
330
2F
100
AcDbVisualStyle
  2
Basic
 70
     7
177
     3
291
     1
 70
    58
 90
        1
176
     1
 90
        0
176
     1
 90
        1
176
     1
 90
        0
176
     1
 40
0.6
176
     1
 40
30.0
176
     1
 62
     7
176
     1
 90
        0
176
     1
 90
        4
176
     1
 62
     7
176
     1
 62
   257
176
     1
 90
        1
176
     1
 90
        1
176
     1
 40
1.0
176
     1
 90
        8
176
     1
 62
     7
176
     1
 40
1.0
176
     1
 90
        1
176
     1
 90
        6
176
     1
 90
        2
176
     1
 62
     7
176
     1
 90
        5
176
     1
 90
        0
176
     1
 90
        0
176
     1
290
     0
176
     1
 90
        1
176
     1
 40
0.0
176
     1
 90
        0
176
     1
290
     0
176
     1
290
     1
176
     1
290
     1
176
     1
290
     0
176
     1
290
     0
176
     1
290
     0
176
     1
290
     0
176
     1
290
     0
176
     1
290
     0
176
     1
 90
       50
176
     1
 40
0.0
176
     1
 40
1.0
176
     1
 90
        0
176
     1
 62
    18
420
        0
176
     1
 90
       50
176
     1
 90
        3
176
     1
 62
     5
420
      255
176
     1
290
     0
176
     1
 90
       50
176
     1
 90
       50
176
     1
 90
       50
176
     1
290
     0
176
     1
 90
       50
176
     1
 62
   256
176
     0
 40
1.0
176
     0
 90
        2
176
     1
  1
strokes_ogs.tif
176
     1
290
     0
176
     1
 40
1.0
176
     1
 40
1.0
176
     1
  0
VISUALSTYLE
  5
BCC
102
{ACAD_REACTORS
330
2F
102
}
330
2F
100
AcDbVisualStyle
  2
Brighten
 70
    12
177
     3
291
     1
 70
    58
 90
        2
176
     1
 90
        2
176
     1
 90
        0
176
     1
 90
        0
176
     1
 40
0.6
176
     1
 40
30.0
176
     1
 62
     7
176
     1
 90
        1
176
     1
 90
        4
176
     1
 62
     7
176
     1
 62
   257
176
     1
 90
        1
176
     1
 90
        1
176
     1
 40
1.0
176
     1
 90
        8
176
     1
 62
     7
176
     1
 40
1.0
176
     1
 90
        1
176
     1
 90
        6
176
     1
 90
        2
176
     1
 62
     7
176
     1
 90
        5
176
     1
 90
        0
176
     1
 90
        0
176
     1
290
     0
176
     1
 90
        1
176
     1
 40
50.0
176
     1
 90
        0
176
     1
290
     0
176
     1
290
     1
176
     1
290
     1
176
     1
290
     0
176
     1
290
     0
176
     1
290
     0
176
     1
290
     0
176
     1
290
     0
176
     1
290
     0
176
     1
 90
       50
176
     1
 40
0.0
176
     1
 40
1.0
176
     1
 90
        0
176
     1
 62
    18
420
        0
176
     1
 90
       50
176
     1
 90
        3
176
     1
 62
     5
420
      255
176
     1
290
     0
176
     1
 90
       50
176
     1
 90
       50
176
     1
 90
       50
176
     1
290
     0
176
     1
 90
       50
176
     1
 62
   256
176
     0
 40
1.0
176
     0
 90
        2
176
     1
  1
strokes_ogs.tif
176
     1
290
     0
176
     1
 40
1.0
176
     1
 40
1.0
176
     1
  0
VISUALSTYLE
  5
BD0
102
{ACAD_REACTORS
330
2F
102
}
330
2F
100
AcDbVisualStyle
  2
ColorChange
 70
    16
177
     3
291
     1
 70
    58
 90
        2
176
     1
 90
        2
176
     1
 90
        3
176
     1
 90
        0
176
     1
 40
0.6
176
     1
 40
30.0
176
     1
 62
     8
176
     1
 90
        1
176
     1
 90
        4
176
     1
 62
     7
176
     1
 62
   257
176
     1
 90
        1
176
     1
 90
        1
176
     1
 40
1.0
176
     1
 90
        8
176
     1
 62
     8
176
     1
 40
1.0
176
     1
 90
        1
176
     1
 90
        6
176
     1
 90
        2
176
     1
 62
     7
176
     1
 90
        5
176
     1
 90
        0
176
     1
 90
        0
176
     1
290
     0
176
     1
 90
        1
176
     1
 40
0.0
176
     1
 90
        0
176
     1
290
     0
176
     1
290
     1
176
     1
290
     1
176
     1
290
     0
176
     1
290
     0
176
     1
290
     0
176
     1
290
     0
176
     1
290
     0
176
     1
290
     0
176
     1
 90
       50
176
     1
 40
0.0
176
     1
 40
1.0
176
     1
 90
        0
176
     1
 62
    18
420
        0
176
     1
 90
       50
176
     1
 90
        3
176
     1
 62
     5
420
      255
176
     1
290
     0
176
     1
 90
       50
176
     1
 90
       50
176
     1
 90
       50
176
     1
290
     0
176
     1
 90
       50
176
     1
 62
   256
176
     0
 40
1.0
176
     0
 90
        2
176
     1
  1
strokes_ogs.tif
176
     1
290
     0
176
     1
 40
1.0
176
     1
 40
1.0
176
     1
  0
VISUALSTYLE
  5
BCA
102
{ACAD_REACTORS
330
2F
102
}
330
2F
100
AcDbVisualStyle
  2
Conceptual
 70
     9
177
     3
291
     0
 70
    58
 90
        3
176
     1
 90
        2
176
     1
 90
        0
176
     1
 90
        0
176
     1
 40
0.6
176
     1
 40
30.0
176
     1
 62
     7
176
     1
 90
        2
176
     1
 90
        2
176
     1
 62
     7
176
     1
 62
   257
176
     1
 90
        1
176
     1
 90
        1
176
     1
 40
179.0
176
     1
 90
        8
176
     1
 62
     7
176
     1
 40
1.0
176
     1
 90
        1
176
     1
 90
        6
176
     1
 90
        2
176
     1
 62
     7
176
     1
 90
        3
176
     1
 90
        0
176
     1
 90
        0
176
     1
290
     0
176
     1
 90
        1
176
     1
 40
0.0
176
     1
 90
        0
176
     1
290
     0
176
     1
290
     1
176
     1
290
     1
176
     1
290
     0
176
     1
290
     0
176
     1
290
     0
176
     1
290
     0
176
     1
290
     0
176
     1
290
     0
176
     1
 90
       50
176
     1
 40
0.0
176
     1
 40
1.0
176
     1
 90
        0
176
     1
 62
    18
420
        0
176
     1
 90
       50
176
     1
 90
        3
176
     1
 62
     5
420
      255
176
     1
290
     0
176
     1
 90
       50
176
     1
 90
       50
176
     1
 90
       50
176
     1
290
     0
176
     1
 90
       50
176
     1
 62
   256
176
     0
 40
1.0
176
     0
 90
        2
176
     1
  1
strokes_ogs.tif
176
     1
290
     0
176
     1
 40
1.0
176
     1
 40
1.0
176
     1
  0
VISUALSTYLE
  5
BCB
102
{ACAD_REACTORS
330
2F
102
}
330
2F
100
AcDbVisualStyle
  2
Dim
 70
    11
177
     3
291
     1
 70
    58
 90
        2
176
     1
 90
        2
176
     1
 90
        0
176
     1
 90
        0
176
     1
 40
0.6
176
     1
 40
30.0
176
     1
 62
     7
176
     1
 90
        1
176
     1
 90
        4
176
     1
 62
     7
176
     1
 62
   257
176
     1
 90
        1
176
     1
 90
        1
176
     1
 40
1.0
176
     1
 90
        8
176
     1
 62
     7
176
     1
 40
1.0
176
     1
 90
        1
176
     1
 90
        6
176
     1
 90
        2
176
     1
 62
     7
176
     1
 90
        5
176
     1
 90
        0
176
     1
 90
        0
176
     1
290
     0
176
     1
 90
        1
176
     1
 40
-50.0
176
     1
 90
        0
176
     1
290
     0
176
     1
290
     1
176
     1
290
     1
176
     1
290
     0
176
     1
290
     0
176
     1
290
     0
176
     1
290
     0
176
     1
290
     0
176
     1
290
     0
176
     1
 90
       50
176
     1
 40
0.0
176
     1
 40
1.0
176
     1
 90
        0
176
     1
 62
    18
420
        0
176
     1
 90
       50
176
     1
 90
        3
176
     1
 62
     5
420
      255
176
     1
290
     0
176
     1
 90
       50
176
     1
 90
       50
176
     1
 90
       50
176
     1
290
     0
176
     1
 90
       50
176
     1
 62
   256
176
     0
 40
1.0
176
     0
 90
        2
176
     1
  1
strokes_ogs.tif
176
     1
290
     0
176
     1
 40
1.0
176
     1
 40
1.0
176
     1
  0
VISUALSTYLE
  5
BD8
102
{ACAD_REACTORS
330
2F
102
}
330
2F
100
AcDbVisualStyle
  2
EdgeColorOff
 70
    22
177
     3
291
     1
 70
    58
 90
        2
176
     0
 90
        2
176
     0
 90
        0
176
     0
 90
        0
176
     0
 40
0.6
176
     0
 40
30.0
176
     0
 62
     7
176
     0
 90
        1
176
     0
 90
        4
176
     0
 62
     7
176
     0
 62
   257
176
     0
 90
        1
176
     0
 90
        1
176
     0
 40
1.0
176
     0
 90
        8
176
     2
 62
     7
176
     0
 40
1.0
176
     0
 90
        1
176
     0
 90
        6
176
     0
 90
        2
176
     0
 62
     7
176
     0
 90
        5
176
     0
 90
        0
176
     0
 90
        0
176
     0
290
     0
176
     0
 90
        1
176
     0
 40
0.0
176
     0
 90
        0
176
     0
290
     0
176
     0
290
     1
176
     0
290
     1
176
     0
290
     0
176
     0
290
     0
176
     0
290
     0
176
     0
290
     0
176
     0
290
     0
176
     0
290
     0
176
     0
 90
       50
176
     0
 40
0.0
176
     0
 40
1.0
176
     0
 90
        0
176
     0
 62
    18
420
        0
176
     0
 90
       50
176
     0
 90
        3
176
     0
 62
     5
420
      255
176
     0
290
     0
176
     0
 90
       50
176
     0
 90
       50
176
     0
 90
       50
176
     0
290
     0
176
     0
 90
       50
176
     0
 62
   256
176
     0
 40
1.0
176
     0
 90
        2
176
     0
  1
strokes_ogs.tif
176
     0
290
     0
176
     0
 40
1.0
176
     0
 40
1.0
176
     0
  0
VISUALSTYLE
  5
BCF
102
{ACAD_REACTORS
330
2F
102
}
330
2F
100
AcDbVisualStyle
  2
Facepattern
 70
    15
177
     3
291
     1
 70
    58
 90
        2
176
     1
 90
        2
176
     1
 90
        0
176
     1
 90
        0
176
     1
 40
0.6
176
     1
 40
30.0
176
     1
 62
     7
176
     1
 90
        1
176
     1
 90
        4
176
     1
 62
     7
176
     1
 62
   257
176
     1
 90
        1
176
     1
 90
        1
176
     1
 40
1.0
176
     1
 90
        8
176
     1
 62
     7
176
     1
 40
1.0
176
     1
 90
        1
176
     1
 90
        6
176
     1
 90
        2
176
     1
 62
     7
176
     1
 90
        5
176
     1
 90
        0
176
     1
 90
        0
176
     1
290
     0
176
     1
 90
        1
176
     1
 40
0.0
176
     1
 90
        0
176
     1
290
     0
176
     1
290
     1
176
     1
290
     1
176
     1
290
     0
176
     1
290
     0
176
     1
290
     0
176
     1
290
     0
176
     1
290
     0
176
     1
290
     0
176
     1
 90
       50
176
     1
 40
0.0
176
     1
 40
1.0
176
     1
 90
        0
176
     1
 62
    18
420
        0
176
     1
 90
       50
176
     1
 90
        3
176
     1
 62
     5
420
      255
176
     1
290
     0
176
     1
 90
       50
176
     1
 90
       50
176
     1
 90
       50
176
     1
290
     0
176
     1
 90
       50
176
     1
 62
   256
176
     0
 40
1.0
176
     0
 90
        2
176
     1
  1
strokes_ogs.tif
176
     1
290
     0
176
     1
 40
1.0
176
     1
 40
1.0
176
     1
  0
VISUALSTYLE
  5
BC3
102
{ACAD_REACTORS
330
2F
102
}
330
2F
100
AcDbVisualStyle
  2
Flat
 70
     0
177
     3
291
     1
 70
    58
 90
        2
176
     1
 90
        1
176
     1
 90
        1
176
     1
 90
        2
176
     1
 40
0.6
176
     1
 40
30.0
176
     1
 62
     7
176
     1
 90
        0
176
     1
 90
        0
176
     1
 62
     7
176
     1
 62
   257
176
     1
 90
        1
176
     1
 90
        1
176
     1
 40
1.0
176
     1
 90
        8
176
     1
 62
     7
176
     1
 40
1.0
176
     1
 90
        1
176
     1
 90
        6
176
     1
 90
        2
176
     1
 62
     7
176
     1
 90
        5
176
     1
 90
        0
176
     1
 90
        0
176
     1
290
     0
176
     1
 90
       13
176
     1
 40
0.0
176
     1
 90
        0
176
     1
290
     0
176
     1
290
     1
176
     1
290
     1
176
     1
290
     0
176
     1
290
     0
176
     1
290
     0
176
     1
290
     0
176
     1
290
     0
176
     1
290
     0
176
     1
 90
       50
176
     1
 40
0.0
176
     1
 40
1.0
176
     1
 90
        0
176
     1
 62
    18
420
        0
176
     1
 90
       50
176
     1
 90
        3
176
     1
 62
     5
420
      255
176
     1
290
     0
176
     1
 90
       50
176
     1
 90
       50
176
     1
 90
       50
176
     1
290
     0
176
     1
 90
       50
176
     1
 62
   256
176
     0
 40
1.0
176
     0
 90
        2
176
     1
  1
strokes_ogs.tif
176
     1
290
     0
176
     1
 40
1.0
176
     1
 40
1.0
176
     1
  0
VISUALSTYLE
  5
BC4
102
{ACAD_REACTORS
330
2F
102
}
330
2F
100
AcDbVisualStyle
  2
FlatWithEdges
 70
     1
177
     3
291
     1
 70
    58
 90
        2
176
     1
 90
        1
176
     1
 90
        1
176
     1
 90
        2
176
     1
 40
0.6
176
     1
 40
30.0
176
     1
 62
     7
176
     1
 90
        1
176
     1
 90
        0
176
     1
 62
     7
176
     1
 62
   257
176
     1
 90
        1
176
     1
 90
        1
176
     1
 40
1.0
176
     1
 90
        0
176
     1
 62
   257
176
     1
 40
1.0
176
     1
 90
        1
176
     1
 90
        6
176
     1
 90
        2
176
     1
 62
     7
176
     1
 90
        5
176
     1
 90
        0
176
     1
 90
        0
176
     1
290
     0
176
     1
 90
       13
176
     1
 40
0.0
176
     1
 90
        0
176
     1
290
     0
176
     1
290
     1
176
     1
290
     1
176
     1
290
     0
176
     1
290
     0
176
     1
290
     0
176
     1
290
     0
176
     1
290
     0
176
     1
290
     0
176
     1
 90
       50
176
     1
 40
0.0
176
     1
 40
1.0
176
     1
 90
        0
176
     1
 62
    18
420
        0
176
     1
 90
       50
176
     1
 90
        3
176
     1
 62
     5
420
      255
176
     1
290
     0
176
     1
 90
       50
176
     1
 90
       50
176
     1
 90
       50
176
     1
290
     0
176
     1
 90
       50
176
     1
 62
   256
176
     0
 40
1.0
176
     0
 90
        2
176
     1
  1
strokes_ogs.tif
176
     1
290
     0
176
     1
 40
1.0
176
     1
 40
1.0
176
     1
  0
VISUALSTYLE
  5
BC5
102
{ACAD_REACTORS
330
2F
102
}
330
2F
100
AcDbVisualStyle
  2
Gouraud
 70
     2
177
     3
291
     1
 70
    58
 90
        2
176
     1
 90
        2
176
     1
 90
        1
176
     1
 90
        2
176
     1
 40
0.6
176
     1
 40
30.0
176
     1
 62
     7
176
     1
 90
        0
176
     1
 90
        0
176
     1
 62
     7
176
     1
 62
   257
176
     1
 90
        1
176
     1
 90
        1
176
     1
 40
1.0
176
     1
 90
        0
176
     1
 62
     7
176
     1
 40
1.0
176
     1
 90
        1
176
     1
 90
        6
176
     1
 90
        2
176
     1
 62
     7
176
     1
 90
        5
176
     1
 90
        0
176
     1
 90
        0
176
     1
290
     0
176
     1
 90
       13
176
     1
 40
0.0
176
     1
 90
        0
176
     1
290
     0
176
     1
290
     1
176
     1
290
     1
176
     1
290
     0
176
     1
290
     0
176
     1
290
     0
176
     1
290
     0
176
     1
290
     0
176
     1
290
     0
176
     1
 90
       50
176
     1
 40
0.0
176
     1
 40
1.0
176
     1
 90
        0
176
     1
 62
    18
420
        0
176
     1
 90
       50
176
     1
 90
        3
176
     1
 62
     5
420
      255
176
     1
290
     0
176
     1
 90
       50
176
     1
 90
       50
176
     1
 90
       50
176
     1
290
     0
176
     1
 90
       50
176
     1
 62
   256
176
     0
 40
1.0
176
     0
 90
        2
176
     1
  1
strokes_ogs.tif
176
     1
290
     0
176
     1
 40
1.0
176
     1
 40
1.0
176
     1
  0
VISUALSTYLE
  5
BC6
102
{ACAD_REACTORS
330
2F
102
}
330
2F
100
AcDbVisualStyle
  2
GouraudWithEdges
 70
     3
177
     3
291
     1
 70
    58
 90
        2
176
     1
 90
        2
176
     1
 90
        1
176
     1
 90
        2
176
     1
 40
0.6
176
     1
 40
30.0
176
     1
 62
     7
176
     1
 90
        1
176
     1
 90
        0
176
     1
 62
     7
176
     1
 62
   257
176
     1
 90
        1
176
     1
 90
        1
176
     1
 40
1.0
176
     1
 90
        0
176
     1
 62
   257
176
     1
 40
1.0
176
     1
 90
        1
176
     1
 90
        6
176
     1
 90
        2
176
     1
 62
     7
176
     1
 90
        5
176
     1
 90
        0
176
     1
 90
        0
176
     1
290
     0
176
     1
 90
       13
176
     1
 40
0.0
176
     1
 90
        0
176
     1
290
     0
176
     1
290
     1
176
     1
290
     1
176
     1
290
     0
176
     1
290
     0
176
     1
290
     0
176
     1
290
     0
176
     1
290
     0
176
     1
290
     0
176
     1
 90
       50
176
     1
 40
0.0
176
     1
 40
1.0
176
     1
 90
        0
176
     1
 62
    18
420
        0
176
     1
 90
       50
176
     1
 90
        3
176
     1
 62
     5
420
      255
176
     1
290
     0
176
     1
 90
       50
176
     1
 90
       50
176
     1
 90
       50
176
     1
290
     0
176
     1
 90
       50
176
     1
 62
   256
176
     0
 40
1.0
176
     0
 90
        2
176
     1
  1
strokes_ogs.tif
176
     1
290
     0
176
     1
 40
1.0
176
     1
 40
1.0
176
     1
  0
VISUALSTYLE
  5
BC9
102
{ACAD_REACTORS
330
2F
102
}
330
2F
100
AcDbVisualStyle
  2
Hidden
 70
     6
177
     3
291
     0
 70
    58
 90
        1
176
     1
 90
        2
176
     1
 90
        2
176
     1
 90
        0
176
     1
 40
0.6
176
     1
 40
30.0
176
     1
 62
     7
176
     1
 90
        2
176
     1
 90
        2
176
     1
 62
     7
176
     1
 62
   257
176
     1
 90
        2
176
     1
 90
        1
176
     1
 40
40.0
176
     1
 90
        0
176
     1
 62
   257
176
     1
 40
1.0
176
     1
 90
        1
176
     1
 90
        6
176
     1
 90
        2
176
     1
 62
     7
176
     1
 90
        3
176
     1
 90
        0
176
     1
 90
        0
176
     1
290
     0
176
     1
 90
        1
176
     1
 40
0.0
176
     1
 90
        0
176
     1
290
     0
176
     1
290
     1
176
     1
290
     1
176
     1
290
     0
176
     1
290
     0
176
     1
290
     0
176
     1
290
     0
176
     1
290
     0
176
     1
290
     0
176
     1
 90
       50
176
     1
 40
0.0
176
     1
 40
1.0
176
     1
 90
        0
176
     1
 62
    18
420
        0
176
     1
 90
       50
176
     1
 90
        3
176
     1
 62
     5
420
      255
176
     1
290
     0
176
     1
 90
       50
176
     1
 90
       50
176
     1
 90
       50
176
     1
290
     0
176
     1
 90
       50
176
     1
 62
   256
176
     0
 40
1.0
176
     0
 90
        2
176
     1
  1
strokes_ogs.tif
176
     1
290
     0
176
     1
 40
1.0
176
     1
 40
1.0
176
     1
  0
VISUALSTYLE
  5
BD6
102
{ACAD_REACTORS
330
2F
102
}
330
2F
100
AcDbVisualStyle
  2
JitterOff
 70
    20
177
     3
291
     1
 70
    58
 90
        2
176
     0
 90
        2
176
     0
 90
        0
176
     0
 90
        0
176
     0
 40
0.6
176
     0
 40
30.0
176
     0
 62
     7
176
     0
 90
        1
176
     0
 90
        4
176
     0
 62
     7
176
     0
 62
   257
176
     0
 90
        1
176
     0
 90
        1
176
     0
 40
1.0
176
     0
 90
       10
176
     2
 62
     7
176
     0
 40
1.0
176
     0
 90
        1
176
     0
 90
        6
176
     0
 90
        2
176
     0
 62
     7
176
     0
 90
        5
176
     0
 90
        0
176
     0
 90
        0
176
     0
290
     0
176
     0
 90
        1
176
     0
 40
0.0
176
     0
 90
        0
176
     0
290
     0
176
     0
290
     1
176
     0
290
     1
176
     0
290
     0
176
     0
290
     0
176
     0
290
     0
176
     0
290
     0
176
     0
290
     0
176
     0
290
     0
176
     0
 90
       50
176
     0
 40
0.0
176
     0
 40
1.0
176
     0
 90
        0
176
     0
 62
    18
420
        0
176
     0
 90
       50
176
     0
 90
        3
176
     0
 62
     5
420
      255
176
     0
290
     0
176
     0
 90
       50
176
     0
 90
       50
176
     0
 90
       50
176
     0
290
     0
176
     0
 90
       50
176
     0
 62
   256
176
     0
 40
1.0
176
     0
 90
        2
176
     0
  1
strokes_ogs.tif
176
     0
290
     0
176
     0
 40
1.0
176
     0
 40
1.0
176
     0
  0
VISUALSTYLE
  5
BCE
102
{ACAD_REACTORS
330
2F
102
}
330
2F
100
AcDbVisualStyle
  2
Linepattern
 70
    14
177
     3
291
     1
 70
    58
 90
        2
176
     1
 90
        2
176
     1
 90
        0
176
     1
 90
        0
176
     1
 40
0.6
176
     1
 40
30.0
176
     1
 62
     7
176
     1
 90
        1
176
     1
 90
        4
176
     1
 62
     7
176
     1
 62
   257
176
     1
 90
        7
176
     1
 90
        7
176
     1
 40
1.0
176
     1
 90
        8
176
     1
 62
     7
176
     1
 40
1.0
176
     1
 90
        1
176
     1
 90
        6
176
     1
 90
        2
176
     1
 62
     7
176
     1
 90
        5
176
     1
 90
        0
176
     1
 90
        0
176
     1
290
     0
176
     1
 90
        1
176
     1
 40
0.0
176
     1
 90
        0
176
     1
290
     0
176
     1
290
     1
176
     1
290
     1
176
     1
290
     0
176
     1
290
     0
176
     1
290
     0
176
     1
290
     0
176
     1
290
     0
176
     1
290
     0
176
     1
 90
       50
176
     1
 40
0.0
176
     1
 40
1.0
176
     1
 90
        0
176
     1
 62
    18
420
        0
176
     1
 90
       50
176
     1
 90
        3
176
     1
 62
     5
420
      255
176
     1
290
     0
176
     1
 90
       50
176
     1
 90
       50
176
     1
 90
       50
176
     1
290
     0
176
     1
 90
       50
176
     1
 62
   256
176
     0
 40
1.0
176
     0
 90
        2
176
     1
  1
strokes_ogs.tif
176
     1
290
     0
176
     1
 40
1.0
176
     1
 40
1.0
176
     1
  0
VISUALSTYLE
  5
BD7
102
{ACAD_REACTORS
330
2F
102
}
330
2F
100
AcDbVisualStyle
  2
OverhangOff
 70
    21
177
     3
291
     1
 70
    58
 90
        2
176
     0
 90
        2
176
     0
 90
        0
176
     0
 90
        0
176
     0
 40
0.6
176
     0
 40
30.0
176
     0
 62
     7
176
     0
 90
        1
176
     0
 90
        4
176
     0
 62
     7
176
     0
 62
   257
176
     0
 90
        1
176
     0
 90
        1
176
     0
 40
1.0
176
     0
 90
        9
176
     2
 62
     7
176
     0
 40
1.0
176
     0
 90
        1
176
     0
 90
        6
176
     0
 90
        2
176
     0
 62
     7
176
     0
 90
        5
176
     0
 90
        0
176
     0
 90
        0
176
     0
290
     0
176
     0
 90
        1
176
     0
 40
0.0
176
     0
 90
        0
176
     0
290
     0
176
     0
290
     1
176
     0
290
     1
176
     0
290
     0
176
     0
290
     0
176
     0
290
     0
176
     0
290
     0
176
     0
290
     0
176
     0
290
     0
176
     0
 90
       50
176
     0
 40
0.0
176
     0
 40
1.0
176
     0
 90
        0
176
     0
 62
    18
420
        0
176
     0
 90
       50
176
     0
 90
        3
176
     0
 62
     5
420
      255
176
     0
290
     0
176
     0
 90
       50
176
     0
 90
       50
176
     0
 90
       50
176
     0
290
     0
176
     0
 90
       50
176
     0
 62
   256
176
     0
 40
1.0
176
     0
 90
        2
176
     0
  1
strokes_ogs.tif
176
     0
290
     0
176
     0
 40
1.0
176
     0
 40
1.0
176
     0
  0
VISUALSTYLE
  5
46
102
{ACAD_REACTORS
330
2F
102
}
330
2F
100
AcDbVisualStyle
  2
Realistic
 70
     8
177
     3
291
     0
 70
    58
 90
        2
176
     1
 90
        2
176
     1
 90
        1
176
     1
 90
        0
176
     1
 40
0.6
176
     1
 40
30.0
176
     1
 62
     7
176
     1
 90
        1
176
     1
 90
        0
176
     1
 62
     7
176
     1
 62
   257
176
     1
 90
        1
176
     1
 90
        1
176
     1
 40
1.0
176
     1
 90
        8
176
     1
 62
     8
176
     1
 40
1.0
176
     1
 90
        1
176
     1
 90
        6
176
     1
 90
        2
176
     1
 62
     7
176
     1
 90
        5
176
     1
 90
        0
176
     1
 90
        0
176
     1
290
     0
176
     1
 90
       13
176
     1
 40
0.0
176
     1
 90
        0
176
     1
290
     0
176
     1
290
     1
176
     1
290
     1
176
     1
290
     0
176
     1
290
     0
176
     1
290
     0
176
     1
290
     0
176
     1
290
     0
176
     1
290
     0
176
     1
 90
       50
176
     1
 40
0.0
176
     1
 40
1.0
176
     1
 90
        0
176
     1
 62
    18
420
        0
176
     1
 90
       50
176
     1
 90
        3
176
     1
 62
     5
420
      255
176
     1
290
     0
176
     1
 90
       50
176
     1
 90
       50
176
     1
 90
       50
176
     1
290
     0
176
     1
 90
       50
176
     1
 62
   256
176
     0
 40
1.0
176
     0
 90
        2
176
     1
  1
strokes_ogs.tif
176
     1
290
     0
176
     1
 40
1.0
176
     1
 40
1.0
176
     1
  0
VISUALSTYLE
  5
BD5
102
{ACAD_REACTORS
330
2F
102
}
330
2F
100
AcDbVisualStyle
  2
Shaded
 70
    27
177
     3
291
     0
 70
    58
 90
        2
176
     1
 90
        2
176
     1
 90
        1
176
     1
 90
        2
176
     1
 40
0.6
176
     1
 40
30.0
176
     1
 62
     7
176
     1
 90
        0
176
     1
 90
        4
176
     1
 62
     7
176
     1
 62
   257
176
     1
 90
        1
176
     1
 90
        1
176
     1
 40
1.0
176
     1
 90
        8
176
     1
 62
   257
176
     1
 40
1.0
176
     1
 90
        1
176
     1
 90
        6
176
     1
 90
        2
176
     1
 62
     8
176
     1
 90
        3
176
     1
 90
        0
176
     1
 90
        0
176
     1
290
     0
176
     1
 90
        5
176
     1
 40
0.0
176
     1
 90
        0
176
     1
290
     0
176
     1
290
     1
176
     1
290
     1
176
     1
290
     0
176
     1
290
     0
176
     1
290
     0
176
     1
290
     0
176
     1
290
     0
176
     1
290
     0
176
     1
 90
       50
176
     1
 40
0.0
176
     1
 40
1.0
176
     1
 90
        0
176
     1
 62
    18
420
        0
176
     1
 90
       50
176
     1
 90
        3
176
     1
 62
     5
420
      255
176
     1
290
     0
176
     1
 90
       50
176
     1
 90
       50
176
     1
 90
       50
176
     1
290
     0
176
     1
 90
       50
176
     1
 62
   256
176
     0
 40
1.0
176
     0
 90
        2
176
     1
  1
strokes_ogs.tif
176
     1
290
     0
176
     1
 40
1.0
176
     1
 40
1.0
176
     1
  0
VISUALSTYLE
  5
BD4
102
{ACAD_REACTORS
330
2F
102
}
330
2F
100
AcDbVisualStyle
  2
Shaded with edges
 70
    26
177
     3
291
     0
 70
    58
 90
        2
176
     1
 90
        2
176
     1
 90
        1
176
     1
 90
        2
176
     1
 40
0.6
176
     1
 40
30.0
176
     1
 62
     7
176
     1
 90
        1
176
     1
 90
       10
176
     1
 62
     7
176
     1
 62
   257
176
     1
 90
        2
176
     1
 90
        1
176
     1
 40
1.0
176
     1
 90
        8
176
     1
 62
   257
176
     1
 40
1.0
176
     1
 90
        1
176
     1
 90
        6
176
     1
 90
        2
176
     1
 62
     7
176
     1
 90
        3
176
     1
 90
        0
176
     1
 90
        0
176
     1
290
     0
176
     1
 90
        5
176
     1
 40
0.0
176
     1
 90
        0
176
     1
290
     0
176
     1
290
     1
176
     1
290
     1
176
     1
290
     0
176
     1
290
     0
176
     1
290
     0
176
     1
290
     0
176
     1
290
     0
176
     1
290
     0
176
     1
 90
       50
176
     1
 40
0.0
176
     1
 40
1.0
176
     1
 90
        0
176
     1
 62
    18
420
        0
176
     1
 90
       50
176
     1
 90
        3
176
     1
 62
     5
420
      255
176
     1
290
     0
176
     1
 90
       50
176
     1
 90
       50
176
     1
 90
       50
176
     1
290
     0
176
     1
 90
       50
176
     1
 62
   256
176
     0
 40
1.0
176
     0
 90
        2
176
     1
  1
strokes_ogs.tif
176
     1
290
     0
176
     1
 40
1.0
176
     1
 40
1.0
176
     1
  0
VISUALSTYLE
  5
BD1
102
{ACAD_REACTORS
330
2F
102
}
330
2F
100
AcDbVisualStyle
  2
Shades of Gray
 70
    23
177
     3
291
     0
 70
    58
 90
        2
176
     1
 90
        2
176
     1
 90
        3
176
     1
 90
        0
176
     1
 40
0.6
176
     1
 40
30.0
176
     1
 62
     7
176
     1
 90
        2
176
     1
 90
        2
176
     1
 62
     7
176
     1
 62
     7
176
     1
 90
        1
176
     1
 90
        1
176
     1
 40
40.0
176
     1
 90
        8
176
     1
 62
     7
176
     1
 40
1.0
176
     1
 90
        1
176
     1
 90
        6
176
     1
 90
        2
176
     1
 62
     7
176
     1
 90
        3
176
     1
 90
        0
176
     1
 90
        0
176
     1
290
     0
176
     1
 90
        1
176
     1
 40
0.0
176
     1
 90
        0
176
     1
290
     0
176
     1
290
     1
176
     1
290
     1
176
     1
290
     0
176
     1
290
     0
176
     1
290
     0
176
     1
290
     0
176
     1
290
     0
176
     1
290
     0
176
     1
 90
       50
176
     1
 40
0.0
176
     1
 40
1.0
176
     1
 90
        0
176
     1
 62
    18
420
        0
176
     1
 90
       50
176
     1
 90
        3
176
     1
 62
     5
420
      255
176
     1
290
     0
176
     1
 90
       50
176
     1
 90
       50
176
     1
 90
       50
176
     1
290
     0
176
     1
 90
       50
176
     1
 62
   256
176
     0
 40
1.0
176
     0
 90
        2
176
     1
  1
strokes_ogs.tif
176
     1
290
     0
176
     1
 40
1.0
176
     1
 40
1.0
176
     1
  0
VISUALSTYLE
  5
BD2
102
{ACAD_REACTORS
330
2F
102
}
330
2F
100
AcDbVisualStyle
  2
Sketchy
 70
    24
177
     3
291
     0
 70
    58
 90
        1
176
     1
 90
        2
176
     1
 90
        2
176
     1
 90
        0
176
     1
 40
0.6
176
     1
 40
30.0
176
     1
 62
     7
176
     1
 90
        2
176
     1
 90
        2
176
     1
 62
     7
176
     1
 62
     7
176
     1
 90
        1
176
     1
 90
        1
176
     1
 40
40.0
176
     1
 90
       11
176
     1
 62
     7
176
     1
 40
1.0
176
     1
 90
        1
176
     1
 90
        6
176
     1
 90
        2
176
     1
 62
     7
176
     1
 90
        6
176
     1
 90
        0
176
     1
 90
        0
176
     1
290
     0
176
     1
 90
        1
176
     1
 40
0.0
176
     1
 90
        0
176
     1
290
     0
176
     1
290
     1
176
     1
290
     1
176
     1
290
     0
176
     1
290
     0
176
     1
290
     0
176
     1
290
     0
176
     1
290
     0
176
     1
290
     0
176
     1
 90
       50
176
     1
 40
0.0
176
     1
 40
1.0
176
     1
 90
        0
176
     1
 62
    18
420
        0
176
     1
 90
       50
176
     1
 90
        3
176
     1
 62
     5
420
      255
176
     1
290
     0
176
     1
 90
       50
176
     1
 90
       50
176
     1
 90
       50
176
     1
290
     0
176
     1
 90
       50
176
     1
 62
   256
176
     0
 40
1.0
176
     0
 90
        2
176
     1
  1
strokes_ogs.tif
176
     1
290
     0
176
     1
 40
1.0
176
     1
 40
1.0
176
     1
  0
VISUALSTYLE
  5
BCD
102
{ACAD_REACTORS
330
2F
102
}
330
2F
100
AcDbVisualStyle
  2
Thicken
 70
    13
177
     3
291
     1
 70
    58
 90
        2
176
     1
 90
        2
176
     1
 90
        0
176
     1
 90
        0
176
     1
 40
0.6
176
     1
 40
30.0
176
     1
 62
     7
176
     1
 90
        1
176
     1
 90
        4
176
     1
 62
     7
176
     1
 62
   257
176
     1
 90
        1
176
     1
 90
        1
176
     1
 40
1.0
176
     1
 90
       12
176
     1
 62
     7
176
     1
 40
1.0
176
     1
 90
        1
176
     1
 90
        6
176
     1
 90
        2
176
     1
 62
     7
176
     1
 90
        5
176
     1
 90
        0
176
     1
 90
        0
176
     1
290
     0
176
     1
 90
        1
176
     1
 40
0.0
176
     1
 90
        0
176
     1
290
     0
176
     1
290
     1
176
     1
290
     1
176
     1
290
     0
176
     1
290
     0
176
     1
290
     0
176
     1
290
     0
176
     1
290
     0
176
     1
290
     0
176
     1
 90
       50
176
     1
 40
0.0
176
     1
 40
1.0
176
     1
 90
        0
176
     1
 62
    18
420
        0
176
     1
 90
       50
176
     1
 90
        3
176
     1
 62
     5
420
      255
176
     1
290
     0
176
     1
 90
       50
176
     1
 90
       50
176
     1
 90
       50
176
     1
290
     0
176
     1
 90
       50
176
     1
 62
   256
176
     0
 40
1.0
176
     0
 90
        2
176
     1
  1
strokes_ogs.tif
176
     1
290
     0
176
     1
 40
1.0
176
     1
 40
1.0
176
     1
  0
VISUALSTYLE
  5
BC8
102
{ACAD_REACTORS
330
2F
102
}
330
2F
100
AcDbVisualStyle
  2
Wireframe
 70
     5
177
     3
291
     0
 70
    58
 90
        0
176
     1
 90
        2
176
     1
 90
        0
176
     1
 90
        0
176
     1
 40
0.6
176
     1
 40
30.0
176
     1
 62
     7
176
     1
 90
        1
176
     1
 90
        4
176
     1
 62
     7
176
     1
 62
   257
176
     1
 90
        1
176
     1
 90
        1
176
     1
 40
1.0
176
     1
 90
        0
176
     1
 62
   257
176
     1
 40
1.0
176
     1
 90
        1
176
     1
 90
        6
176
     1
 90
        2
176
     1
 62
     7
176
     1
 90
        3
176
     1
 90
        0
176
     1
 90
        0
176
     1
290
     0
176
     1
 90
        1
176
     1
 40
0.0
176
     1
 90
        0
176
     1
290
     0
176
     1
290
     1
176
     1
290
     1
176
     1
290
     0
176
     1
290
     0
176
     1
290
     0
176
     1
290
     0
176
     1
290
     0
176
     1
290
     0
176
     1
 90
       50
176
     1
 40
0.0
176
     1
 40
1.0
176
     1
 90
        0
176
     1
 62
    18
420
        0
176
     1
 90
       50
176
     1
 90
        3
176
     1
 62
     5
420
      255
176
     1
290
     0
176
     1
 90
       50
176
     1
 90
       50
176
     1
 90
       50
176
     1
290
     0
176
     1
 90
       50
176
     1
 62
   256
176
     0
 40
1.0
176
     0
 90
        2
176
     1
  1
strokes_ogs.tif
176
     1
290
     0
176
     1
 40
1.0
176
     1
 40
1.0
176
     1
  0
VISUALSTYLE
  5
BD3
102
{ACAD_REACTORS
330
2F
102
}
330
2F
100
AcDbVisualStyle
  2
X-Ray
 70
    25
177
     3
291
     0
 70
    58
 90
        2
176
     1
 90
        2
176
     1
 90
        1
176
     1
 90
        1
176
     1
 40
0.5
176
     1
 40
30.0
176
     1
 62
     7
176
     1
 90
        1
176
     1
 90
        0
176
     1
 62
     7
176
     1
 62
   257
176
     1
 90
        1
176
     1
 90
        1
176
     1
 40
1.0
176
     1
 90
        8
176
     1
 62
     7
176
     1
 40
1.0
176
     1
 90
        1
176
     1
 90
        6
176
     1
 90
        2
176
     1
 62
     7
176
     1
 90
        3
176
     1
 90
        0
176
     1
 90
        0
176
     1
290
     0
176
     1
 90
       13
176
     1
 40
0.0
176
     1
 90
        0
176
     1
290
     0
176
     1
290
     1
176
     1
290
     1
176
     1
290
     0
176
     1
290
     0
176
     1
290
     0
176
     1
290
     0
176
     1
290
     0
176
     1
290
     0
176
     1
 90
       50
176
     1
 40
0.0
176
     1
 40
1.0
176
     1
 90
        0
176
     1
 62
    18
420
        0
176
     1
 90
       50
176
     1
 90
        3
176
     1
 62
     5
420
      255
176
     1
290
     0
176
     1
 90
       50
176
     1
 90
       50
176
     1
 90
       50
176
     1
290
     0
176
     1
 90
       50
176
     1
 62
   256
176
     0
 40
1.0
176
     0
 90
        2
176
     1
  1
strokes_ogs.tif
176
     1
290
     0
176
     1
 40
1.0
176
     1
 40
1.0
176
     1
  0
DICTIONARYVAR
  5
BBE
102
{ACAD_REACTORS
330
BB8
102
}
330
BB8
100
DictionaryVariables
280
     0
  1
1:1
  0
DICTIONARYVAR
  5
BBA
102
{ACAD_REACTORS
330
BB8
102
}
330
BB8
100
DictionaryVariables
280
     0
  1
STANDARD
  0
DICTIONARYVAR
  5
BB9
102
{ACAD_REACTORS
330
BB8
102
}
330
BB8
100
DictionaryVariables
280
     0
  1
STANDARD
  0
DICTIONARYVAR
  5
BBB
102
{ACAD_REACTORS
330
BB8
102
}
330
BB8
100
DictionaryVariables
280
     0
  1
Metric50
  0
DICTIONARYVAR
  5
BBC
102
{ACAD_REACTORS
330
BB8
102
}
330
BB8
100
DictionaryVariables
280
     0
  1
Metric50
  0
DICTIONARYVAR
  5
C3B
102
{ACAD_REACTORS
330
BB8
102
}
330
BB8
100
DictionaryVariables
280
     0
  1
1
  0
DICTIONARYVAR
  5
C39
102
{ACAD_REACTORS
330
BB8
102
}
330
BB8
100
DictionaryVariables
280
     0
  1
1
  0
DICTIONARYVAR
  5
FF3
102
{ACAD_REACTORS
330
BB8
102
}
330
BB8
100
DictionaryVariables
280
     0
  1
4
  0
DICTIONARYVAR
  5
C38
102
{ACAD_REACTORS
330
BB8
102
}
330
BB8
100
DictionaryVariables
280
     0
  1
0
  0
DICTIONARYVAR
  5
BC0
102
{ACAD_REACTORS
330
BB8
102
}
330
BB8
100
DictionaryVariables
280
     0
  1
1
  0
DICTIONARYVAR
  5
BC1
102
{ACAD_REACTORS
330
BB8
102
}
330
BB8
100
DictionaryVariables
280
     0
  1
15
  0
DICTIONARYVAR
  5
BBF
102
{ACAD_REACTORS
330
BB8
102
}
330
BB8
100
DictionaryVariables
280
     0
  1
0
  0
DICTIONARYVAR
  5
BBD
102
{ACAD_REACTORS
330
BB8
102
}
330
BB8
100
DictionaryVariables
280
     0
  1
0
  0
DICTIONARYVAR
  5
C3C
102
{ACAD_REACTORS
330
BB8
102
}
330
BB8
100
DictionaryVariables
280
     0
  1
1
  0
DICTIONARYVAR
  5
C37
102
{ACAD_REACTORS
330
BB8
102
}
330
BB8
100
DictionaryVariables
280
     0
  1
127
  0
ACDBASSOCNETWORK
  5
3C4DB
102
{ACAD_REACTORS
330
3C4DA
102
}
330
3C4DA
100
AcDbAssocAction
 90
        2
 90
        0
330
3C0B3
360
0
 90
        2
 90
        0
 90
        0
 90
        0
 90
        0
 90
        0
 90
        0
100
AcDbAssocNetwork
 90
        0
 90
      195
 90
        1
360
3FFFE
 90
        0
  0
DICTIONARY
  5
40398
330
283CD
100
AcDbDictionary
280
     1
281
     1
  3
ACAD_XREC_ROUNDTRIP
360
40399
  0
DICTIONARY
  5
40394
330
BDD
100
AcDbDictionary
280
     1
281
     1
  3
ACAD_XREC_ROUNDTRIP
360
40395
  0
DICTIONARY
  5
18
330
16
100
AcDbDictionary
280
     1
281
     1
  0
DICTIONARY
  5
1F
330
1E
100
AcDbDictionary
280
     1
281
     1
  0
DICTIONARY
  5
E
330
C
100
AcDbDictionary
280
     1
281
     1
  3
BUMPTILE
360
F
  3
DIFFUSETILE
360
10
  3
OPACITYTILE
360
11
  3
REFLECTIONTILE
360
12
  0
DICTIONARY
  5
40396
330
283CC
100
AcDbDictionary
280
     1
281
     1
  3
ACAD_XREC_ROUNDTRIP
360
40397
  0
DICTIONARY
  5
40392
330
BDB
100
AcDbDictionary
280
     1
281
     1
  3
ACAD_XREC_ROUNDTRIP
360
40393
  0
DICTIONARY
  5
45
330
44
100
AcDbDictionary
280
     1
281
     1
  3
ACAD_ROUNDTRIP_2008_TABLESTYLE_CELLSTYLEMAP
360
40391
  0
ACDBASSOCACTION
  5
3FFFE
330
3C4DB
100
AcDbAssocAction
 90
        2
 90
        0
330
3C4DB
360
3FFFF
 90
      195
 90
        3
 90
        3
360
40000
360
40001
360
40002
 90
        0
 90
        3
360
40003
360
40004
360
40005
 90
        0
 90
       10
 90
        0
  1
FillAngle
 90
        2
 90
        1
 40
6.283185307179586
330
0
330
0
 90
        0
  1
ItemSpacing
 90
        2
 90
        1
 40
1.570796326794896
330
0
330
0
 90
        0
  1
Items
 90
        0
 90
        1
 90
        4
330
0
330
0
 90
        0
  1
LevelSpacing
 90
        1
 90
        1
 40
1.0
330
0
330
0
 90
        0
  1
Levels
 90
        0
 90
        1
 90
        1
330
0
330
0
 90
        0
  1
RowElevation
 90
        1
 90
        1
 40
0.0
330
0
330
0
 90
        0
  1
RowSpacing
 90
        1
 90
        1
 40
16.50000003000002
330
0
330
0
 90
        0
  1
Rows
 90
        0
 90
        1
 90
        1
330
0
330
0
 90
        0
  1
Radius
 90
        1
 90
        1
 40
23.00000000000002
330
0
330
0
 90
        0
  1
StartAngle
 90
        2
 90
        1
 40
2.356194490192344
330
0
330
0
  0
XRECORD
  5
40399
102
{ACAD_REACTORS
330
40398
102
}
330
40398
100
AcDbXrecord
280
     1
102
DISPLAYNAME
  1
Imperial24
102
FLAGS
 90
        0
  0
XRECORD
  5
40395
102
{ACAD_REACTORS
330
40394
102
}
330
40394
100
AcDbXrecord
280
     1
102
DISPLAYNAME
  1
Metric50
102
FLAGS
 90
        0
  0
XRECORD
  5
F
102
{ACAD_REACTORS
330
E
102
}
330
E
100
AcDbXrecord
280
     1
270
     1
271
     1
  0
XRECORD
  5
10
102
{ACAD_REACTORS
330
E
102
}
330
E
100
AcDbXrecord
280
     1
270
     1
271
     1
  0
XRECORD
  5
11
102
{ACAD_REACTORS
330
E
102
}
330
E
100
AcDbXrecord
280
     1
270
     1
271
     1
  0
XRECORD
  5
12
102
{ACAD_REACTORS
330
E
102
}
330
E
100
AcDbXrecord
280
     1
270
     1
271
     1
  0
XRECORD
  5
40397
102
{ACAD_REACTORS
330
40396
102
}
330
40396
100
AcDbXrecord
280
     1
102
DISPLAYNAME
  1
Imperial24
102
FLAGS
 90
        0
  0
XRECORD
  5
40393
102
{ACAD_REACTORS
330
40392
102
}
330
40392
100
AcDbXrecord
280
     1
102
DISPLAYNAME
  1
Metric50
102
FLAGS
 90
        0
  0
CELLSTYLEMAP
  5
40391
102
{ACAD_REACTORS
330
45
102
}
330
45
100
AcDbCellStyleMap
 90
        3
300
CELLSTYLE
  1
TABLEFORMAT_BEGIN
 90
        5
170
     1
 91
        0
 92
    32768
 62
   257
 93
        1
300
CONTENTFORMAT
  1
CONTENTFORMAT_BEGIN
 90
        0
 91
        0
 92
      512
 93
        0
300

 40
0.0
140
1.0
 94
        5
 62
     0
340
25
144
6.0
309
CONTENTFORMAT_END
171
     1
301
MARGIN
  1
CELLMARGIN_BEGIN
 40
1.5
 40
1.5
 40
1.5
 40
1.5
 40
0.18
 40
0.18
309
CELLMARGIN_END
 94
        6
 95
        1
302
GRIDFORMAT
  1
GRIDFORMAT_BEGIN
 90
        0
 91
        1
 62
     0
 92
       -2
340
28
 93
        0
 40
1.125
309
GRIDFORMAT_END
 95
        2
302
GRIDFORMAT
  1
GRIDFORMAT_BEGIN
 90
        0
 91
        1
 62
     0
 92
       -2
340
28
 93
        0
 40
1.125
309
GRIDFORMAT_END
 95
        4
302
GRIDFORMAT
  1
GRIDFORMAT_BEGIN
 90
        0
 91
        1
 62
     0
 92
       -2
340
28
 93
        0
 40
1.125
309
GRIDFORMAT_END
 95
        8
302
GRIDFORMAT
  1
GRIDFORMAT_BEGIN
 90
        0
 91
        1
 62
     0
 92
       -2
340
28
 93
        0
 40
1.125
309
GRIDFORMAT_END
 95
       16
302
GRIDFORMAT
  1
GRIDFORMAT_BEGIN
 90
        0
 91
        1
 62
     0
 92
       -2
340
28
 93
        0
 40
1.125
309
GRIDFORMAT_END
 95
       32
302
GRIDFORMAT
  1
GRIDFORMAT_BEGIN
 90
        0
 91
        1
 62
     0
 92
       -2
340
28
 93
        0
 40
1.125
309
GRIDFORMAT_END
309
TABLEFORMAT_END
  1
CELLSTYLE_BEGIN
 90
        1
 91
        1
300
_TITLE
309
CELLSTYLE_END
300
CELLSTYLE
  1
TABLEFORMAT_BEGIN
 90
        5
170
     1
 91
        0
 92
        0
 62
   257
 93
        1
300
CONTENTFORMAT
  1
CONTENTFORMAT_BEGIN
 90
        0
 91
        0
 92
      512
 93
        0
300

 40
0.0
140
1.0
 94
        5
 62
     0
340
25
144
4.5
309
CONTENTFORMAT_END
171
     1
301
MARGIN
  1
CELLMARGIN_BEGIN
 40
1.5
 40
1.5
 40
1.5
 40
1.5
 40
0.18
 40
0.18
309
CELLMARGIN_END
 94
        6
 95
        1
302
GRIDFORMAT
  1
GRIDFORMAT_BEGIN
 90
        0
 91
        1
 62
     0
 92
       -2
340
28
 93
        0
 40
1.125
309
GRIDFORMAT_END
 95
        2
302
GRIDFORMAT
  1
GRIDFORMAT_BEGIN
 90
        0
 91
        1
 62
     0
 92
       -2
340
28
 93
        0
 40
1.125
309
GRIDFORMAT_END
 95
        4
302
GRIDFORMAT
  1
GRIDFORMAT_BEGIN
 90
        0
 91
        1
 62
     0
 92
       -2
340
28
 93
        0
 40
1.125
309
GRIDFORMAT_END
 95
        8
302
GRIDFORMAT
  1
GRIDFORMAT_BEGIN
 90
        0
 91
        1
 62
     0
 92
       -2
340
28
 93
        0
 40
1.125
309
GRIDFORMAT_END
 95
       16
302
GRIDFORMAT
  1
GRIDFORMAT_BEGIN
 90
        0
 91
        1
 62
     0
 92
       -2
340
28
 93
        0
 40
1.125
309
GRIDFORMAT_END
 95
       32
302
GRIDFORMAT
  1
GRIDFORMAT_BEGIN
 90
        0
 91
        1
 62
     0
 92
       -2
340
28
 93
        0
 40
1.125
309
GRIDFORMAT_END
309
TABLEFORMAT_END
  1
CELLSTYLE_BEGIN
 90
        2
 91
        1
300
_HEADER
309
CELLSTYLE_END
300
CELLSTYLE
  1
TABLEFORMAT_BEGIN
 90
        5
170
     1
 91
        0
 92
        0
 62
   257
 93
        1
300
CONTENTFORMAT
  1
CONTENTFORMAT_BEGIN
 90
        0
 91
        0
 92
      512
 93
        0
300

 40
0.0
140
1.0
 94
        2
 62
     0
340
25
144
4.5
309
CONTENTFORMAT_END
171
     1
301
MARGIN
  1
CELLMARGIN_BEGIN
 40
1.5
 40
1.5
 40
1.5
 40
1.5
 40
0.18
 40
0.18
309
CELLMARGIN_END
 94
        6
 95
        1
302
GRIDFORMAT
  1
GRIDFORMAT_BEGIN
 90
        0
 91
        1
 62
     0
 92
       -2
340
28
 93
        0
 40
1.125
309
GRIDFORMAT_END
 95
        2
302
GRIDFORMAT
  1
GRIDFORMAT_BEGIN
 90
        0
 91
        1
 62
     0
 92
       -2
340
28
 93
        0
 40
1.125
309
GRIDFORMAT_END
 95
        4
302
GRIDFORMAT
  1
GRIDFORMAT_BEGIN
 90
        0
 91
        1
 62
     0
 92
       -2
340
28
 93
        0
 40
1.125
309
GRIDFORMAT_END
 95
        8
302
GRIDFORMAT
  1
GRIDFORMAT_BEGIN
 90
        0
 91
        1
 62
     0
 92
       -2
340
28
 93
        0
 40
1.125
309
GRIDFORMAT_END
 95
       16
302
GRIDFORMAT
  1
GRIDFORMAT_BEGIN
 90
        0
 91
        1
 62
     0
 92
       -2
340
28
 93
        0
 40
1.125
309
GRIDFORMAT_END
 95
       32
302
GRIDFORMAT
  1
GRIDFORMAT_BEGIN
 90
        0
 91
        1
 62
     0
 92
       -2
340
28
 93
        0
 40
1.125
309
GRIDFORMAT_END
309
TABLEFORMAT_END
  1
CELLSTYLE_BEGIN
 90
        3
 91
        2
300
_DATA
309
CELLSTYLE_END
  0
ACDBASSOCARRAYACTIONBODY
  5
3FFFF
330
3FFFE
100
AcDbAssocActionBody
 90
        2
100
AcDbAssocArrayActionBody
 90
        1
  1
AcDbAssocArrayPolarParameters
 90
        0
 90
        4
  1
AcDbAssocArrayItem
100
AcDbAssocArrayItem
 90
        0
 90
        0
 90
        0
 90
        0
 90
        8
 11
3696.129716659077
 21
-926.0269080423631
 31
0.0
330
3FFF9
100
AcDbAssocArrayItem
 90
        0
 90
        1
 90
        0
 90
        0
 90
       12
 40
0.0000000000000003
 40
-1.0
 40
0.0
 40
3696.129716659077
 40
0.9999999999999998
 40
0.0000000000000001
 40
0.0
 40
-958.5538199769443
 40
0.0
 40
0.0
 40
1.0
 40
0.0
 40
0.0
 40
0.0
 40
0.0
 40
1.0
330
3FFFA
100
AcDbAssocArrayItem
 90
        0
 90
        2
 90
        0
 90
        0
 90
       12
 40
-1.0
 40
-0.0000000000000003
 40
0.0
 40
3728.656628593658
 40
0.0000000000000003
 40
-1.0
 40
0.0
 40
-958.5538199769443
 40
0.0
 40
0.0
 40
1.0
 40
0.0
 40
0.0
 40
0.0
 40
0.0
 40
1.0
330
3FFFB
100
AcDbAssocArrayItem
 90
        0
 90
        3
 90
        0
 90
        0
 90
       12
 40
-0.0000000000000002
 40
1.0
 40
0.0
 40
3728.656628593658
 40
-0.9999999999999998
 40
0.0
 40
0.0
 40
-926.0269080423631
 40
0.0
 40
0.0
 40
1.0
 40
0.0
 40
0.0
 40
0.0
 40
0.0
 40
1.0
330
3FFFC
 40
0.0000000000000002
 40
-1.0
 40
0.0
 40
-727.7451069599857
 40
1.0
 40
0.0000000000000002
 40
0.0
 40
-3606.349982812764
 40
0.0
 40
0.0
 40
1.0
 40
0.0
 40
0.0
 40
0.0
 40
0.0
 40
1.0
  0
ACDBASSOCDEPENDENCY
  5
40000
330
3FFFE
100
AcDbAssocDependency
 90
        2
 90
        0
290
     0
290
     1
290
     1
290
     1
 90
        0
330
3FFF6
290
     0
330
0
330
0
360
0
 90
        1
  0
ACDBASSOCDEPENDENCY
  5
40001
330
3FFFE
100
AcDbAssocDependency
 90
        2
 90
        0
290
     1
290
     0
290
     1
290
     1
 90
        0
330
3FFEF
290
     0
330
0
330
0
360
0
 90
        2
  0
ACDBASSOCDEPENDENCY
  5
40002
330
3FFFE
100
AcDbAssocDependency
 90
        2
 90
        0
290
     1
290
     1
290
     1
290
     1
 90
-2147483648
330
3FFBB
290
     0
330
0
330
0
360
0
 90
        3
  0
ACDBASSOCVERTEXACTIONPARAM
  5
40003
330
3FFFE
100
AcDbAssocActionParam
 90
        1
 90
        0
  1
BaseNormal
100
AcDbAssocSingleDependencyActionParam
 90
        0
330
0
100
AcDbAssocVertexActionParam
 90
        0
 10
0.0
 20
0.0
 30
1.0
  0
ACDBASSOCVERTEXACTIONPARAM
  5
40004
330
3FFFE
100
AcDbAssocActionParam
 90
        1
 90
        0
  1
Origin
100
AcDbAssocSingleDependencyActionParam
 90
        0
330
0
100
AcDbAssocVertexActionParam
 90
        0
 10
3712.393172626367
 20
-942.2903640096537
 30
0.0
  0
ACDBASSOCVERTEXACTIONPARAM
  5
40005
330
3FFFE
100
AcDbAssocActionParam
 90
        1
 90
        0
  1
basePoint
100
AcDbAssocSingleDependencyActionParam
 90
        0
330
0
100
AcDbAssocVertexActionParam
 90
        0
 10
0.0
 20
0.0
 30
0.0
  0
ENDSEC
  0
SECTION
  2
ACDSDATA
 70
     2
 71
     6
  0
ACDSSCHEMA
 90
        0
  1
AcDb_Thumbnail_Schema
  2
AcDbDs::ID
280
    10
 91
        8
  2
Thumbnail_Data
280
    15
 91
        0
101
ACDSRECORD
 95
        0
 90
        1
  2
AcDbDs::TreatedAsObjectData
280
     1
291
     1
101
ACDSRECORD
 95
        0
 90
        2
  2
AcDbDs::Legacy
280
     1
291
     1
101
ACDSRECORD
  1
AcDbDs::ID
 90
        3
  2
AcDs:Indexable
280
     1
291
     1
101
ACDSRECORD
  1
AcDbDs::ID
 90
        4
  2
AcDbDs::HandleAttribute
280
     7
282
     1
  0
ACDSSCHEMA
 90
        1
  1
AcDbDs::TreatedAsObjectDataSchema
  2
AcDbDs::TreatedAsObjectData
280
     1
 91
        0
  0
ACDSSCHEMA
 90
        2
  1
AcDbDs::LegacySchema
  2
AcDbDs::Legacy
280
     1
 91
        0
  0
ACDSSCHEMA
 90
        3
  1
AcDbDs::IndexedPropertySchema
  2
AcDs:Indexable
280
     1
 91
        0
  0
ACDSSCHEMA
 90
        4
  1
AcDbDs::HandleAttributeSchema
  2
AcDbDs::HandleAttribute
280
     7
 91
        1
284
     1
  0
ACDSRECORD
 90
        0
  2
AcDbDs::ID
280
    10
320
16
  2
Thumbnail_Data
280
    15
 94
     2098
310
89504E470D0A1A0A0000000D49484452000001000000007508030000009634CF9200000300504C5445000000000000C8C8C80000000000000000000000000000000000000000000000000000330000660000990000CC0000FF0033000033330033660033990033CC0033FF0066000066330066660066990066CC0066FF0099
310
000099330099660099990099CC0099FF00CC0000CC3300CC6600CC9900CCCC00CCFF00FF0000FF3300FF6600FF9900FFCC00FFFF3300003300333300663300993300CC3300FF3333003333333333663333993333CC3333FF3366003366333366663366993366CC3366FF3399003399333399663399993399CC3399FF33CC00
310
33CC3333CC6633CC9933CCCC33CCFF33FF0033FF3333FF6633FF9933FFCC33FFFF6600006600336600666600996600CC6600FF6633006633336633666633996633CC6633FF6666006666336666666666996666CC6666FF6699006699336699666699996699CC6699FF66CC0066CC3366CC6666CC9966CCCC66CCFF66FF0066
310
FF3366FF6666FF9966FFCC66FFFF9900009900339900669900999900CC9900FF9933009933339933669933999933CC9933FF9966009966339966669966999966CC9966FF9999009999339999669999999999CC9999FF99CC0099CC3399CC6699CC9999CCCC99CCFF99FF0099FF3399FF6699FF9999FFCC99FFFFCC0000CC00
310
33CC0066CC0099CC00CCCC00FFCC3300CC3333CC3366CC3399CC33CCCC33FFCC6600CC6633CC6666CC6699CC66CCCC66FFCC9900CC9933CC9966CC9999CC99CCCC99FFCCCC00CCCC33CCCC66CCCC99CCCCCCCCCCFFCCFF00CCFF33CCFF66CCFF99CCFFCCCCFFFFFF0000FF0033FF0066FF0099FF00CCFF00FFFF3300FF3333
310
FF3366FF3399FF33CCFF33FFFF6600FF6633FF6666FF6699FF66CCFF66FFFF9900FF9933FF9966FF9999FF99CCFF99FFFFCC00FFCC33FFCC66FFCC99FFCCCCFFCCFFFFFF00FFFF33FFFF66FFFF99FFFFCCFFFFFF0000000D0D0D1A1A1A2828283535354343435050505D5D5D6B6B6B787878868686939393A1A1A1AEAEAEBB
310
BBBBC9C9C9D6D6D6E4E4E4F1F1F1FFFFFF00000000000000000000000000000000000000000000000000000000000008F1915C000004ED4944415478DAED9D597A84200C80739CBC78B33932D7C87B85B0040197E928A8A15F5B67DCC84FC886D3029CD3E8D70712DCABED96EB6E00A8D28CA15DEDD7C751F5B80E236BCCBE
310
737F7D1C980E9A424F997B0A4001280005A00014800250000A40012880036DCED38607B03B9552000A406D800250000A603C0088686C03FEF942002C390378A106E0D2F3DA2F47E3AD0042437C0580424AA101F84A003BF73D0500FE63EF151D3C7DE9ED07004EEE2275947F178151A60036DAFA22EE2680F9445C1FE3616C
310
00363594606A5C0737B57B8E12D1C0DA2AF8F000BC721C06C032CF272287442D04370040ADEBE0F67DCD0C20943CEA08060730F7BF096025D4A324FF7C6132D02630BE06CC0CEC1428C56D03085673D67E7B3219146F3E620A3861D843247F81D95E72C80CF11488EEE42146707E3559DF20DD432EBF378256059C0958B8D3
310
942CDEC10D5A491700A640608A774800EC64B743EECD80092ED141A19831DE46039CB08B67DB429064D1507E013B69ACFADBF7FD0421F68AE80148F97B01C0EA3B713E4FB1114C49DDFDE614D5DF45493900F2D27A4CD60B848092A705E5C592CB0020AD47B7988D62681355E407F73B5E650120B382C15686BB82D38AEB8C
310
A05C1942E9A3B1F0CB390039CE4BF9133E3FAC0500EF1FE2ADBC4DB06F95F6F4B2A5B15C45591B694B03D69F6DAD00A0B0C9F2B3067038E1E32AE80DC0F518858BAF02D865521A0090ED09C55BB979E26229846B01C8BBA10C6C1096047E06C05B781B422775700611FC3EEA1308850EC65E4132606C98856F3A0CC0180C03
310
CACF8F63982DDEBD5803C0FBFA0008C24900700A00E7EF2D007FB0357CEE4E3300BFAF23009B9D8A724F0CE06D313B01B0C3656301376EE1D0F8CB88F35D13007057BB810658276803DDA80AA29FC66B0891B846D0006B766D028CAC01DEEEB106980134A00D0093102CB90F84D6008840484C81600380C73A022008FB3A1B
310
C19A17283460690C2A00A00E60DE9AAFE3ACBEB0B72E0C0EFBBA02A0E806850B2B23C13D00724F12DDACC5C8E247D6145E18B3B4B05703E0CCCC4727908A183F04E0E3BD1408F9D4280605D01540CC56B8DEF573002EFD83100A027910A1487C35002A01A45098E0F7009C52614A0659036219A1164B9C2B7F4A878BE59EBC
310
2E80326516E9F06100321D46A90151ED5A5D3C5903AA9510ACEFC0424365DA2453DA941EE615212E8A64387D4588E0420D28A7D86100E1818F3227CEF47A010030C60A183750661FBDAAC287014CB58AFE1A80BC28CA9E3F1545690C00B128B90DA03A73B34810ABE7A4B2B8CBF8B1B5CA3C3C00F1BD5C19C917467049C03D
310
40C8D13F8EB330C25DE5A7B8B2FA5C1D402B87DB28A8C7081B79696CC5E05D0FA0F1EA98066CAD28845511AF012B067FCC85912D1BB00920B8F7B036D8F677C30308AB420701405C1C444E80E8BF1D3C19802C14ED7F46680D00648BC8FF1FA1B33560233CC06F00ECD9FD7C00A0003A02F8F65363570218F263738F01A036
310
4001280005A00014C017DED3C40DBFD9FC18DC779F16BC1D00F32E00573605A00014C09957A7F101DCFA73833A0514800250000A4001280005A0001480022822FCBDEDA1008A773E8B764D07BBFD4549CA74212AC4A71CF787FE494DAACE05B81C40FF299001F87CCAA9FF2A232801BCCE08BECD0D2A006989974D016824A8
310
46508DE0D30164EBCA66C50C28009D02C398E34EADC3F0D4F2AFBDFF97B0D661B3F7FF081A18A3FD0700F406F007FA6C372CF32610670000000049454E44AE426082
  0
ACDSRECORD
 90
        0
  2
AcDbDs::ID
280
    10
320
1E
  2
Thumbnail_Data
280
    15
 94
      882
310
89504E470D0A1A0A0000000D49484452000000B80000007F08030000006B00F8F900000300504C5445FFFFFF000000C8C8C80000000000000000000000000000000000000000000000000000330000660000990000CC0000FF0033000033330033660033990033CC0033FF0066000066330066660066990066CC0066FF0099
310
000099330099660099990099CC0099FF00CC0000CC3300CC6600CC9900CCCC00CCFF00FF0000FF3300FF6600FF9900FFCC00FFFF3300003300333300663300993300CC3300FF3333003333333333663333993333CC3333FF3366003366333366663366993366CC3366FF3399003399333399663399993399CC3399FF33CC00
310
33CC3333CC6633CC9933CCCC33CCFF33FF0033FF3333FF6633FF9933FFCC33FFFF6600006600336600666600996600CC6600FF6633006633336633666633996633CC6633FF6666006666336666666666996666CC6666FF6699006699336699666699996699CC6699FF66CC0066CC3366CC6666CC9966CCCC66CCFF66FF0066
310
FF3366FF6666FF9966FFCC66FFFF9900009900339900669900999900CC9900FF9933009933339933669933999933CC9933FF9966009966339966669966999966CC9966FF9999009999339999669999999999CC9999FF99CC0099CC3399CC6699CC9999CCCC99CCFF99FF0099FF3399FF6699FF9999FFCC99FFFFCC0000CC00
310
33CC0066CC0099CC00CCCC00FFCC3300CC3333CC3366CC3399CC33CCCC33FFCC6600CC6633CC6666CC6699CC66CCCC66FFCC9900CC9933CC9966CC9999CC99CCCC99FFCCCC00CCCC33CCCC66CCCC99CCCCCCCCCCFFCCFF00CCFF33CCFF66CCFF99CCFFCCCCFFFFFF0000FF0033FF0066FF0099FF00CCFF00FFFF3300FF3333
310
FF3366FF3399FF33CCFF33FFFF6600FF6633FF6666FF6699FF66CCFF66FFFF9900FF9933FF9966FF9999FF99CCFF99FFFFCC00FFCC33FFCC66FFCC99FFCCCCFFCCFFFFFF00FFFF33FFFF66FFFF99FFFFCCFFFFFF0000000D0D0D1A1A1A2828283535354343435050505D5D5D6B6B6B787878868686939393A1A1A1AEAEAEBB
310
BBBBC9C9C9D6D6D6E4E4E4F1F1F1FFFFFF000000000000000000000000000000000000000000000000000000000000B0E2D2350000002D4944415478DAEDC13101000000C2A0F54FED6F06A00000000000000000000000000000000000000000000080335BC70001E79522D80000000049454E44AE426082
  0
ENDSEC
  0
EOF
