  0
SECTION
  2
HEADER
  9
$ACADVER
  1
AC1027
  9
$ACADMAINTVER
 70
    55
  9
$DWGCODEPAGE
  3
ANSI_949
  9
$LASTSAVEDBY
  1
DESKTOP
  9
$REQUIREDVERSIONS
160
                 0
  9
$INSBASE
 10
0.0
 20
0.0
 30
0.0
  9
$EXTMIN
 10
-2.876728311394572
 20
-2.870230121888312
 30
-0.0000000000000058
  9
$EXTMAX
 10
278.7055667799327
 20
195.6385732653817
 30
0.0000000000000094
  9
$LIMMIN
 10
0.0
 20
0.0
  9
$LIMMAX
 10
420.0
 20
297.0
  9
$ORTHOMODE
 70
     1
  9
$REGENMODE
 70
     1
  9
$FILLMODE
 70
     1
  9
$QTEXTMODE
 70
     0
  9
$MIRRTEXT
 70
     0
  9
$LTSCALE
 40
5.0
  9
$ATTMODE
 70
     1
  9
$TEXTSIZE
 40
3.0
  9
$TRACEWID
 40
1.0
  9
$TEXTSTYLE
  7
Standard
  9
$CLAYER
  8
0
  9
$CELTYPE
  6
Continuous
  9
$CECOLOR
 62
     7
  9
$CELTSCALE
 40
1.0
  9
$DISPSILH
 70
     0
  9
$DIMSCALE
 40
1.0
  9
$DIMASZ
 40
2.5
  9
$DIMEXO
 40
0.625
  9
$DIMDLI
 40
3.75
  9
$DIMRND
 40
0.0
  9
$DIMDLE
 40
0.0
  9
$DIMEXE
 40
1.25
  9
$DIMTP
 40
0.0
  9
$DIMTM
 40
0.000000001
  9
$DIMTXT
 40
3.0
  9
$DIMCEN
 40
-0.5
  9
$DIMTSZ
 40
0.0
  9
$DIMTOL
 70
     0
  9
$DIMLIM
 70
     0
  9
$DIMTIH
 70
     0
  9
$DIMTOH
 70
     0
  9
$DIMSE1
 70
     0
  9
$DIMSE2
 70
     0
  9
$DIMTAD
 70
     1
  9
$DIMZIN
 70
     8
  9
$DIMBLK
  1

  9
$DIMASO
 70
     1
  9
$DIMSHO
 70
     1
  9
$DIMPOST
  1

  9
$DIMAPOST
  1

  9
$DIMALT
 70
     0
  9
$DIMALTD
 70
     3
  9
$DIMALTF
 40
0.03937007874016
  9
$DIMLFAC
 40
1.0
  9
$DIMTOFL
 70
     1
  9
$DIMTVP
 40
0.0
  9
$DIMTIX
 70
     0
  9
$DIMSOXD
 70
     0
  9
$DIMSAH
 70
     0
  9
$DIMBLK1
  1

  9
$DIMBLK2
  1

  9
$DIMSTYLE
  2
Standard
  9
$DIMCLRD
 70
     3
  9
$DIMCLRE
 70
     3
  9
$DIMCLRT
 70
     2
  9
$DIMTFAC
 40
0.7
  9
$DIMGAP
 40
0.625
  9
$DIMJUST
 70
     0
  9
$DIMSD1
 70
     0
  9
$DIMSD2
 70
     0
  9
$DIMTOLJ
 70
     0
  9
$DIMTZIN
 70
     8
  9
$DIMALTZ
 70
     0
  9
$DIMALTTZ
 70
     0
  9
$DIMUPT
 70
     0
  9
$DIMDEC
 70
     8
  9
$DIMTDEC
 70
     8
  9
$DIMALTU
 70
     2
  9
$DIMALTTD
 70
     3
  9
$DIMTXSTY
  7
Standard
  9
$DIMAUNIT
 70
     1
  9
$DIMADEC
 70
     0
  9
$DIMALTRND
 40
0.0
  9
$DIMAZIN
 70
     0
  9
$DIMDSEP
 70
    46
  9
$DIMATFIT
 70
     3
  9
$DIMFRAC
 70
     0
  9
$DIMLDRBLK
  1

  9
$DIMLUNIT
 70
     2
  9
$DIMLWD
 70
    -1
  9
$DIMLWE
 70
    -1
  9
$DIMTMOVE
 70
     0
  9
$DIMFXL
 40
1.0
  9
$DIMFXLON
 70
     0
  9
$DIMJOGANG
 40
0.7853981633974483
  9
$DIMTFILL
 70
     0
  9
$DIMTFILLCLR
 70
     0
  9
$DIMARCSYM
 70
     1
  9
$DIMLTYPE
  6

  9
$DIMLTEX1
  6

  9
$DIMLTEX2
  6

  9
$DIMTXTDIRECTION
 70
     0
  9
$LUNITS
 70
     2
  9
$LUPREC
 70
     4
  9
$SKETCHINC
 40
0.0
  9
$FILLETRAD
 40
0.0
  9
$AUNITS
 70
     0
  9
$AUPREC
 70
     0
  9
$MENU
  1
.
  9
$ELEVATION
 40
0.0
  9
$PELEVATION
 40
0.0
  9
$THICKNESS
 40
0.0
  9
$LIMCHECK
 70
     0
  9
$CHAMFERA
 40
1.5
  9
$CHAMFERB
 40
1.5
  9
$CHAMFERC
 40
0.0
  9
$CHAMFERD
 40
0.0087266462599716
  9
$SKPOLY
 70
     0
  9
$TDCREATE
 40
2455072.745932974
  9
$TDUCREATE
 40
2455072.370932974
  9
$TDUPDATE
 40
2460908.423416007
  9
$TDUUPDATE
 40
2460908.048416007
  9
$TDINDWG
 40
132.0244971528
  9
$TDUSRTIMER
 40
132.0244969676
  9
$USRTIMER
 70
     1
  9
$ANGBASE
 50
0.0
  9
$ANGDIR
 70
     0
  9
$PDMODE
 70
     0
  9
$PDSIZE
 40
0.0
  9
$PLINEWID
 40
0.0
  9
$SPLFRAME
 70
     0
  9
$SPLINETYPE
 70
     6
  9
$SPLINESEGS
 70
     8
  9
$HANDSEED
  5
37662
  9
$SURFTAB1
 70
     6
  9
$SURFTAB2
 70
     6
  9
$SURFTYPE
 70
     6
  9
$SURFU
 70
     6
  9
$SURFV
 70
     6
  9
$UCSBASE
  2

  9
$UCSNAME
  2

  9
$UCSORG
 10
0.0
 20
0.0
 30
0.0
  9
$UCSXDIR
 10
1.0
 20
0.0
 30
0.0
  9
$UCSYDIR
 10
0.0
 20
1.0
 30
0.0
  9
$UCSORTHOREF
  2

  9
$UCSORTHOVIEW
 70
     0
  9
$UCSORGTOP
 10
0.0
 20
0.0
 30
0.0
  9
$UCSORGBOTTOM
 10
0.0
 20
0.0
 30
0.0
  9
$UCSORGLEFT
 10
0.0
 20
0.0
 30
0.0
  9
$UCSORGRIGHT
 10
0.0
 20
0.0
 30
0.0
  9
$UCSORGFRONT
 10
0.0
 20
0.0
 30
0.0
  9
$UCSORGBACK
 10
0.0
 20
0.0
 30
0.0
  9
$PUCSBASE
  2

  9
$PUCSNAME
  2

  9
$PUCSORG
 10
0.0
 20
0.0
 30
0.0
  9
$PUCSXDIR
 10
1.0
 20
0.0
 30
0.0
  9
$PUCSYDIR
 10
0.0
 20
1.0
 30
0.0
  9
$PUCSORTHOREF
  2

  9
$PUCSORTHOVIEW
 70
     0
  9
$PUCSORGTOP
 10
0.0
 20
0.0
 30
0.0
  9
$PUCSORGBOTTOM
 10
0.0
 20
0.0
 30
0.0
  9
$PUCSORGLEFT
 10
0.0
 20
0.0
 30
0.0
  9
$PUCSORGRIGHT
 10
0.0
 20
0.0
 30
0.0
  9
$PUCSORGFRONT
 10
0.0
 20
0.0
 30
0.0
  9
$PUCSORGBACK
 10
0.0
 20
0.0
 30
0.0
  9
$USERI1
 70
     0
  9
$USERI2
 70
     0
  9
$USERI3
 70
     0
  9
$USERI4
 70
     0
  9
$USERI5
 70
     0
  9
$USERR1
 40
0.0
  9
$USERR2
 40
0.0
  9
$USERR3
 40
0.0
  9
$USERR4
 40
0.0
  9
$USERR5
 40
0.0
  9
$WORLDVIEW
 70
     1
  9
$SHADEDGE
 70
     3
  9
$SHADEDIF
 70
    70
  9
$TILEMODE
 70
     1
  9
$MAXACTVP
 70
    64
  9
$PINSBASE
 10
0.0
 20
0.0
 30
0.0
  9
$PLIMCHECK
 70
     0
  9
$PEXTMIN
 10
1.000000000000000E+20
 20
1.000000000000000E+20
 30
1.000000000000000E+20
  9
$PEXTMAX
 10
-1.000000000000000E+20
 20
-1.000000000000000E+20
 30
-1.000000000000000E+20
  9
$PLIMMIN
 10
-20.0
 20
-7.5
  9
$PLIMMAX
 10
277.0
 20
202.5
  9
$UNITMODE
 70
     0
  9
$VISRETAIN
 70
     1
  9
$PLINEGEN
 70
     0
  9
$PSLTSCALE
 70
     1
  9
$TREEDEPTH
 70
  3020
  9
$CMLSTYLE
  2
Standard
  9
$CMLJUST
 70
     0
  9
$CMLSCALE
 40
20.0
  9
$PROXYGRAPHICS
 70
     1
  9
$MEASUREMENT
 70
     1
  9
$CELWEIGHT
370
    -1
  9
$ENDCAPS
280
     0
  9
$JOINSTYLE
280
     0
  9
$LWDISPLAY
290
     0
  9
$INSUNITS
 70
     4
  9
$HYPERLINKBASE
  1

  9
$STYLESHEET
  1
ksm0910.ctb
  9
$XEDIT
290
     1
  9
$CEPSNTYPE
380
     0
  9
$PSTYLEMODE
290
     1
  9
$FINGERPRINTGUID
  2
{D2C70C36-9B4F-4E20-9CCB-531AA1EE4AC8}
  9
$VERSIONGUID
  2
{E2CEE1D5-CDB8-4701-9793-1055475EE8F2}
  9
$EXTNAMES
290
     1
  9
$PSVPSCALE
 40
0.0
  9
$OLESTARTUP
290
     0
  9
$SORTENTS
280
   127
  9
$INDEXCTL
280
     0
  9
$HIDETEXT
280
     1
  9
$XCLIPFRAME
280
     2
  9
$HALOGAP
280
     0
  9
$OBSCOLOR
 70
   257
  9
$OBSLTYPE
280
     0
  9
$INTERSECTIONDISPLAY
280
     0
  9
$INTERSECTIONCOLOR
 70
   257
  9
$DIMASSOC
280
     1
  9
$PROJECTNAME
  1

  9
$CAMERADISPLAY
290
     0
  9
$LENSLENGTH
 40
50.0
  9
$CAMERAHEIGHT
 40
0.0
  9
$STEPSPERSEC
 40
2.0
  9
$STEPSIZE
 40
6.0
  9
$3DDWFPREC
 40
2.0
  9
$PSOLWIDTH
 40
5.0
  9
$PSOLHEIGHT
 40
80.0
  9
$LOFTANG1
 40
1.570796326794896
  9
$LOFTANG2
 40
1.570796326794896
  9
$LOFTMAG1
 40
0.0
  9
$LOFTMAG2
 40
0.0
  9
$LOFTPARAM
 70
     7
  9
$LOFTNORMALS
280
     1
  9
$LATITUDE
 40
37.795
  9
$LONGITUDE
 40
-122.394
  9
$NORTHDIRECTION
 40
0.0
  9
$TIMEZONE
 70
 -8000
  9
$LIGHTGLYPHDISPLAY
280
     1
  9
$TILEMODELIGHTSYNCH
280
     1
  9
$CMATERIAL
347
3D
  9
$SOLIDHIST
280
     1
  9
$SHOWHIST
280
     1
  9
$DWFFRAME
280
     2
  9
$DGNFRAME
280
     0
  9
$REALWORLDSCALE
290
     1
  9
$INTERFERECOLOR
 62
     1
  9
$INTERFEREOBJVS
345
46
  9
$INTERFEREVPVS
346
47
  9
$CSHADOW
280
     0
  9
$SHADOWPLANELOCATION
 40
0.0
  0
ENDSEC
  0
SECTION
  2
CLASSES
  0
CLASS
  1
ACDBDICTIONARYWDFLT
  2
AcDbDictionaryWithDefault
  3
ObjectDBX Classes
 90
        0
 91
        1
280
     0
281
     0
  0
CLASS
  1
DICTIONARYVAR
  2
AcDbDictionaryVar
  3
ObjectDBX Classes
 90
        0
 91
       18
280
     0
281
     0
  0
CLASS
  1
TABLESTYLE
  2
AcDbTableStyle
  3
ObjectDBX Classes
 90
     4095
 91
        1
280
     0
281
     0
  0
CLASS
  1
MATERIAL
  2
AcDbMaterial
  3
ObjectDBX Classes
 90
     1153
 91
        3
280
     0
281
     0
  0
CLASS
  1
VISUALSTYLE
  2
AcDbVisualStyle
  3
ObjectDBX Classes
 90
     4095
 91
       26
280
     0
281
     0
  0
CLASS
  1
SCALE
  2
AcDbScale
  3
ObjectDBX Classes
 90
     1153
 91
       17
280
     0
281
     0
  0
CLASS
  1
MLEADERSTYLE
  2
AcDbMLeaderStyle
  3
ACDB_MLEADERSTYLE_CLASS
 90
     4095
 91
        1
280
     0
281
     0
  0
CLASS
  1
CELLSTYLEMAP
  2
AcDbCellStyleMap
  3
ObjectDBX Classes
 90
     1152
 91
        2
280
     0
281
     0
  0
CLASS
  1
SORTENTSTABLE
  2
AcDbSortentsTable
  3
ObjectDBX Classes
 90
        0
 91
        1
280
     0
281
     0
  0
CLASS
  1
DIMASSOC
  2
AcDbDimAssoc
  3
"AcDbDimAssoc|Product Desc:     AcDim ARX App For Dimension|Company:          Autodesk, Inc.|WEB Address:      www.autodesk.com"
 90
        0
 91
        0
280
     0
281
     0
  0
CLASS
  1
SOLID_BACKGROUND
  2
AcDbSolidBackground
  3
SCENEOE
 90
     4095
 91
        0
280
     0
281
     0
  0
CLASS
  1
NPOCOLLECTION
  2
AcDbImpNonPersistentObjectsCollection
  3
ObjectDBX Classes
 90
     1153
 91
        0
280
     0
281
     0
  0
CLASS
  1
ACAD_EVALUATION_GRAPH
  2
AcDbEvalGraph
  3
ObjectDBX Classes
 90
     1153
 91
        0
280
     0
281
     0
  0
CLASS
  1
ACAECUSTOBJ
  2
AcAeEditorObj
  3
AcAeEditorObj
 90
     1024
 91
        0
280
     1
281
     0
  0
CLASS
  1
ACDB_DYNAMICBLOCKPURGEPREVENTER_VERSION
  2
AcDbDynamicBlockPurgePreventer
  3
ObjectDBX Classes
 90
     1153
 91
        0
280
     0
281
     0
  0
CLASS
  1
HELIX
  2
AcDbHelix
  3
ObjectDBX Classes
 90
     4095
 91
        0
280
     0
281
     1
  0
CLASS
  1
MULTILEADER
  2
AcDbMLeader
  3
ACDB_MLEADER_CLASS
 90
     1025
 91
        7
280
     0
281
     1
  0
CLASS
  1
ACMDIMBREAKPERSREACTOR
  2
AcmDimBreakPersReactor
  3
amgDimApp().moduleName()
 90
     1023
 91
        0
280
     1
281
     0
  0
CLASS
  1
ACDB_MTEXTOBJECTCONTEXTDATA_CLASS
  2
AcDbMTextObjectContextData
  3
ObjectDBX Classes
 90
     1153
 91
        0
280
     0
281
     0
  0
CLASS
  1
BREAKDATA
  2
AcDbBreakData
  3
ObjectDBX Classes
 90
     1024
 91
        0
280
     0
281
     0
  0
CLASS
  1
EXACXREFPANELOBJECT
  2
ExAcXREFPanelObject
  3
EXAC_ESW
 90
     1025
 91
        0
280
     1
281
     0
  0
CLASS
  1
ACDBSECTIONVIEWSTYLE
  2
AcDbSectionViewStyle
  3
ObjectDBX Classes
 90
     1025
 91
        2
280
     0
281
     0
  0
CLASS
  1
ACDBDETAILVIEWSTYLE
  2
AcDbDetailViewStyle
  3
ObjectDBX Classes
 90
     1025
 91
        2
280
     0
281
     0
  0
CLASS
  1
ACDBASSOCACTION
  2
AcDbAssocAction
  3
ObjectDBX Classes
 90
     1025
 91
        0
280
     0
281
     0
  0
CLASS
  1
ACDBASSOCARRAYACTIONBODY
  2
AcDbAssocArrayActionBody
  3
ObjectDBX Classes
 90
     1025
 91
        0
280
     0
281
     0
  0
CLASS
  1
ACDBASSOCDEPENDENCY
  2
AcDbAssocDependency
  3
ObjectDBX Classes
 90
     1025
 91
        0
280
     0
281
     0
  0
CLASS
  1
ACDBASSOCVERTEXACTIONPARAM
  2
AcDbAssocVertexActionParam
  3
ObjectDBX Classes
 90
     1025
 91
        0
280
     0
281
     0
  0
CLASS
  1
ACDBASSOCARRAYPOLARPARAMETERS
  2
AcDbAssocArrayPolarParameters
  3
ObjectDBX Classes
 90
     1025
 91
        0
280
     0
281
     0
  0
CLASS
  1
ACDBASSOCNETWORK
  2
AcDbAssocNetwork
  3
ObjectDBX Classes
 90
     1025
 91
        0
280
     0
281
     0
  0
CLASS
  1
ACARRAYJIGENTITY
  2
AcArrayJigEntity
  3
ACAD_ARRAY
 90
      129
 91
        0
280
     0
281
     1
  0
ENDSEC
  0
SECTION
  2
TABLES
  0
TABLE
  2
VPORT
  5
2C
102
{ACAD_XDICTIONARY
360
31
102
}
330
0
100
AcDbSymbolTable
 70
     1
  0
VPORT
  5
2D
330
2C
100
AcDbSymbolTableRecord
100
AcDbViewportTableRecord
  2
*Active
 70
     0
 10
0.0
 20
0.0
 11
1.0
 21
1.0
 12
137.9176368464167
 22
96.39029322707198
 13
0.0
 23
0.0
 14
2.0
 24
2.0
 15
2.0
 25
2.0
 16
0.0
 26
0.0
 36
1.0
 17
0.0
 27
0.0
 37
0.0
 40
199.9854437314515
 41
2.15871121718377
 42
50.0
 43
0.0
 44
0.0
 50
0.0
 51
0.0
 71
     0
 72
  1000
 73
     1
 74
     3
 75
     0
 76
     0
 77
     0
 78
     1
281
     0
 65
     1
110
0.0
120
0.0
130
0.0
111
1.0
121
0.0
131
0.0
112
0.0
122
1.0
132
0.0
 79
     0
146
0.0
348
2E
 60
     3
 61
     5
292
     1
282
     1
141
0.0
142
0.0
 63
   250
421
  3355443
1001
ACAD_NAV_VCDISPLAY
1070
     3
  0
ENDTAB
  0
TABLE
  2
LTYPE
  5
27
330
0
100
AcDbSymbolTable
 70
     4
  0
LTYPE
  5
28
330
27
100
AcDbSymbolTableRecord
100
AcDbLinetypeTableRecord
  2
ByBlock
 70
     0
  3

 72
    65
 73
     0
 40
0.0
  0
LTYPE
  5
29
330
27
100
AcDbSymbolTableRecord
100
AcDbLinetypeTableRecord
  2
ByLayer
 70
     0
  3

 72
    65
 73
     0
 40
0.0
  0
LTYPE
  5
14
330
27
100
AcDbSymbolTableRecord
100
AcDbLinetypeTableRecord
  2
Continuous
 70
     0
  3
Solid line
 72
    65
 73
     0
 40
0.0
  0
LTYPE
  5
33216
330
27
100
AcDbSymbolTableRecord
100
AcDbLinetypeTableRecord
  2
CENTER
 70
     0
  3
____ _ ____ _ ____ _ ____ _ ____ _ ____ _ ____ 
 72
    65
 73
     4
 40
2.0
 49
1.25
 74
     0
 49
-0.25
 74
     0
 49
0.25
 74
     0
 49
-0.25
 74
     0
  0
LTYPE
  5
36DF9
330
27
100
AcDbSymbolTableRecord
100
AcDbLinetypeTableRecord
  2
CENTER2
 70
     0
  3
Center (.5x) ___ _ ___ _ ___ _ ___ _ ___ _ ___
 72
    65
 73
     4
 40
1.125
 49
0.75
 74
     0
 49
-0.125
 74
     0
 49
0.125
 74
     0
 49
-0.125
 74
     0
  0
LTYPE
  5
36DFA
330
27
100
AcDbSymbolTableRecord
100
AcDbLinetypeTableRecord
  2
HIDDEN
 70
     0
  3
Hidden __ __ __ __ __ __ __ __ __ __ __ __ __ _
 72
    65
 73
     2
 40
9.524999999999998
 49
6.349999999999999
 74
     0
 49
-3.174999999999999
 74
     0
  0
ENDTAB
  0
TABLE
  2
LAYER
  5
21
102
{ACAD_XDICTIONARY
360
22
102
}
330
0
100
AcDbSymbolTable
 70
     9
  0
LAYER
  5
6
102
{ACAD_XDICTIONARY
360
7
102
}
330
21
100
AcDbSymbolTableRecord
100
AcDbLayerTableRecord
  2
0
 70
     0
 62
     7
  6
Continuous
370
    -3
390
9
347
C
348
0
  0
LAYER
  5
1A4
330
21
100
AcDbSymbolTableRecord
100
AcDbLayerTableRecord
  2
DEFPOINTS
 70
     0
 62
     7
  6
Continuous
290
     0
370
    -3
390
9
347
C
348
0
  0
LAYER
  5
283CB
330
21
100
AcDbSymbolTableRecord
100
AcDbLayerTableRecord
  2
Layer 1
 70
     0
 62
     7
  6
Continuous
370
     0
390
9
347
C
348
0
  0
LAYER
  5
36DFC
330
21
100
AcDbSymbolTableRecord
100
AcDbLayerTableRecord
  2
06-D06-75
 70
     0
 62
     7
  6
Continuous
370
    -3
390
9
347
C
348
0
1001
AcAecLayerStandard
1000

1000

  0
LAYER
  5
36DFD
330
21
100
AcDbSymbolTableRecord
100
AcDbLayerTableRecord
  2
26-D06-105
 70
     0
 62
     7
  6
Continuous
370
    -3
390
9
347
C
348
0
1001
AcAecLayerStandard
1000

1000

  0
LAYER
  5
36DFE
330
21
100
AcDbSymbolTableRecord
100
AcDbLayerTableRecord
  2
32-D12-105
 70
     0
 62
     7
  6
Continuous
370
    -3
390
9
347
C
348
0
1001
AcAecLayerStandard
1000

1000

  0
LAYER
  5
36DFF
330
21
100
AcDbSymbolTableRecord
100
AcDbLayerTableRecord
  2
28-D08-105
 70
     0
 62
     7
  6
Continuous
370
    -3
390
9
347
C
348
0
1001
AcAecLayerStandard
1000

1000

  0
LAYER
  5
36E00
330
21
100
AcDbSymbolTableRecord
100
AcDbLayerTableRecord
  2
30-D10-105
 70
     0
 62
     7
  6
Continuous
370
    -3
390
9
347
C
348
0
1001
AcAecLayerStandard
1000

1000

  0
LAYER
  5
36E01
330
21
100
AcDbSymbolTableRecord
100
AcDbLayerTableRecord
  2
36-D16-105
 70
     0
 62
     7
  6
Continuous
370
    -3
390
9
347
C
348
0
1001
AcAecLayerStandard
1000

1000

  0
ENDTAB
  0
TABLE
  2
STYLE
  5
24
330
0
100
AcDbSymbolTable
 70
     4
  0
STYLE
  5
25
330
24
100
AcDbSymbolTableRecord
100
AcDbTextStyleTableRecord
  2
Standard
 70
     0
 40
3.0
 41
1.0
 50
0.0
 71
     0
 42
3.0
  3
isocp.shx
  4
whgtxt.shx
  0
STYLE
  5
35
330
24
100
AcDbSymbolTableRecord
100
AcDbTextStyleTableRecord
  2
ROMANS
 70
     0
 40
2.5
 41
1.0
 50
0.0
 71
     0
 42
2.5
  3
romans.shx
  4

  0
STYLE
  5
5C
330
24
100
AcDbSymbolTableRecord
100
AcDbTextStyleTableRecord
  2
굴림
 70
     0
 40
3.0
 41
1.0
 50
0.0
 71
     0
 42
3.0
  3

  4

1001
ACAD
1000
Gulim
1071
    33074
  0
ENDTAB
  0
TABLE
  2
VIEW
  5
2A
330
0
100
AcDbSymbolTable
 70
     0
  0
ENDTAB
  0
TABLE
  2
UCS
  5
2B
330
0
100
AcDbSymbolTable
 70
     0
  0
ENDTAB
  0
TABLE
  2
APPID
  5
32
330
0
100
AcDbSymbolTable
 70
    45
  0
APPID
  5
13
330
32
100
AcDbSymbolTableRecord
100
AcDbRegAppTableRecord
  2
ACAD
 70
     0
  0
APPID
  5
1A
330
32
100
AcDbSymbolTableRecord
100
AcDbRegAppTableRecord
  2
ACAD_PSEXT
 70
     0
  0
APPID
  5
37
330
32
100
AcDbSymbolTableRecord
100
AcDbRegAppTableRecord
  2
ACAD_DSTYLE_DIMJAG
 70
     0
  0
APPID
  5
38
330
32
100
AcDbSymbolTableRecord
100
AcDbRegAppTableRecord
  2
ACAD_DSTYLE_DIMTALN
 70
     0
  0
APPID
  5
36
330
32
100
AcDbSymbolTableRecord
100
AcDbRegAppTableRecord
  2
ACAD_DSTYLE_DIMJOGGED_JOGANGLE_SYMBOL
 70
     0
  0
APPID
  5
183
330
32
100
AcDbSymbolTableRecord
100
AcDbRegAppTableRecord
  2
AcAecLayerStandard
 70
     0
  0
APPID
  5
3DE
330
32
100
AcDbSymbolTableRecord
100
AcDbRegAppTableRecord
  2
ACAD_DSTYLE_DIMRADIAL_EXTENSION
 70
     0
  0
APPID
  5
530
330
32
100
AcDbSymbolTableRecord
100
AcDbRegAppTableRecord
  2
GRADIENTCOLOR1ACI
 70
     0
  0
APPID
  5
531
330
32
100
AcDbSymbolTableRecord
100
AcDbRegAppTableRecord
  2
GRADIENTCOLOR2ACI
 70
     0
  0
APPID
  5
30
330
32
100
AcDbSymbolTableRecord
100
AcDbRegAppTableRecord
  2
ACAD_NAV_VCDISPLAY
 70
     0
  0
APPID
  5
C34
330
32
100
AcDbSymbolTableRecord
100
AcDbRegAppTableRecord
  2
ACAD_MLEADERVER
 70
     0
  0
APPID
  5
C97
330
32
100
AcDbSymbolTableRecord
100
AcDbRegAppTableRecord
  2
ACAD_EXEMPT_FROM_CAD_STANDARDS
 70
     0
  0
APPID
  5
D79
330
32
100
AcDbSymbolTableRecord
100
AcDbRegAppTableRecord
  2
AcadAnnoMonitorAlertIconDisabled
 70
     0
  0
APPID
  5
1A45
330
32
100
AcDbSymbolTableRecord
100
AcDbRegAppTableRecord
  2
GENIUS_GENODEF_13
 70
     0
  0
APPID
  5
1A46
330
32
100
AcDbSymbolTableRecord
100
AcDbRegAppTableRecord
  2
GENIUS_GENOBJ-N-FIL_13
 70
     0
  0
APPID
  5
1A47
330
32
100
AcDbSymbolTableRecord
100
AcDbRegAppTableRecord
  2
ACAD_DSTYLE_DIMBREAK
 70
     0
  0
APPID
  5
1A48
330
32
100
AcDbSymbolTableRecord
100
AcDbRegAppTableRecord
  2
GENIUS_GENOBJ-N-HTC_13
 70
     0
  0
APPID
  5
1A49
330
32
100
AcDbSymbolTableRecord
100
AcDbRegAppTableRecord
  2
GENIUS_GENHATCH_13
 70
     0
  0
APPID
  5
1A4A
330
32
100
AcDbSymbolTableRecord
100
AcDbRegAppTableRecord
  2
GENIUS_GENREC_14
 70
     0
  0
APPID
  5
1A4B
330
32
100
AcDbSymbolTableRecord
100
AcDbRegAppTableRecord
  2
GENIUS_GENOBJ-N-REC_13
 70
     0
  0
APPID
  5
1A4C
330
32
100
AcDbSymbolTableRecord
100
AcDbRegAppTableRecord
  2
ACAUTHENVIRON
 70
     0
  0
APPID
  5
1A4D
330
32
100
AcDbSymbolTableRecord
100
AcDbRegAppTableRecord
  2
AcDbDynamicBlockTrueName
 70
     0
  0
APPID
  5
1A4E
330
32
100
AcDbSymbolTableRecord
100
AcDbRegAppTableRecord
  2
AcDbDynamicBlockGUID
 70
     0
  0
APPID
  5
1A4F
330
32
100
AcDbSymbolTableRecord
100
AcDbRegAppTableRecord
  2
AcDbBlockRepETag
 70
     0
  0
APPID
  5
1A50
330
32
100
AcDbSymbolTableRecord
100
AcDbRegAppTableRecord
  2
DCO15
 70
     0
  0
APPID
  5
1A51
330
32
100
AcDbSymbolTableRecord
100
AcDbRegAppTableRecord
  2
ACAD_DSTYLE_DIMTEXT_FILL
 70
     0
  0
APPID
  5
1A52
330
32
100
AcDbSymbolTableRecord
100
AcDbRegAppTableRecord
  2
ACAD_DSTYLE_DIM_LINETYPE
 70
     0
  0
APPID
  5
1A53
330
32
100
AcDbSymbolTableRecord
100
AcDbRegAppTableRecord
  2
ACAD_DSTYLE_DIM_EXT1_LINETYPE
 70
     0
  0
APPID
  5
1A54
330
32
100
AcDbSymbolTableRecord
100
AcDbRegAppTableRecord
  2
ACAD_DSTYLE_DIM_EXT2_LINETYPE
 70
     0
  0
APPID
  5
1A55
330
32
100
AcDbSymbolTableRecord
100
AcDbRegAppTableRecord
  2
ACAD_DSTYLE_DIMINSPECT
 70
     0
  0
APPID
  5
1A56
330
32
100
AcDbSymbolTableRecord
100
AcDbRegAppTableRecord
  2
AcadAnnotative
 70
     0
  0
APPID
  5
1A57
330
32
100
AcDbSymbolTableRecord
100
AcDbRegAppTableRecord
  2
GENIUS_GENDTOL_13
 70
     0
  0
APPID
  5
1A58
330
32
100
AcDbSymbolTableRecord
100
AcDbRegAppTableRecord
  2
GENIUS_GENFIL_13
 70
     0
  0
APPID
  5
1A59
330
32
100
AcDbSymbolTableRecord
100
AcDbRegAppTableRecord
  2
GENIUS_GENOBJ-N-CHA_13
 70
     0
  0
APPID
  5
1A5A
330
32
100
AcDbSymbolTableRecord
100
AcDbRegAppTableRecord
  2
AcadAnnotativeDecomposition
 70
     0
  0
APPID
  5
1A5B
330
32
100
AcDbSymbolTableRecord
100
AcDbRegAppTableRecord
  2
MCAD_NO_VIS
 70
     0
  0
APPID
  5
1A5C
330
32
100
AcDbSymbolTableRecord
100
AcDbRegAppTableRecord
  2
ACAD_TEMP_GRAPHIC
 70
     0
  0
APPID
  5
1A5D
330
32
100
AcDbSymbolTableRecord
100
AcDbRegAppTableRecord
  2
ACATTRIBSERVICES
 70
     0
  0
APPID
  5
1A5E
330
32
100
AcDbSymbolTableRecord
100
AcDbRegAppTableRecord
  2
DESIGNERASSEMBLIES
 70
     0
  0
APPID
  5
1A5F
330
32
100
AcDbSymbolTableRecord
100
AcDbRegAppTableRecord
  2
GENIUS_GENDIMSH_14
 70
     0
  0
APPID
  5
1A60
330
32
100
AcDbSymbolTableRecord
100
AcDbRegAppTableRecord
  2
ACAD_DSTYLE_DIMARC_LENGTH_SYMBOL
 70
     0
  0
APPID
  5
1A61
330
32
100
AcDbSymbolTableRecord
100
AcDbRegAppTableRecord
  2
ACAD_SPLINE_DATA
 70
     0
  0
APPID
  5
1A62
330
32
100
AcDbSymbolTableRecord
100
AcDbRegAppTableRecord
  2
GENIUS_GENOREF_13
 70
     0
  0
APPID
  5
1A63
330
32
100
AcDbSymbolTableRecord
100
AcDbRegAppTableRecord
  2
ACAD_DSTYLE_DIMANGULAR_EXTENSION
 70
     0
  0
APPID
  5
318CC
330
32
100
AcDbSymbolTableRecord
100
AcDbRegAppTableRecord
  2
HATCHBACKGROUNDCOLOR
 70
     0
  0
ENDTAB
  0
TABLE
  2
DIMSTYLE
  5
33
330
0
100
AcDbSymbolTable
 70
     4
100
AcDbDimStyleTable
 71
     1
340
34
  0
DIMSTYLE
105
34
330
33
100
AcDbSymbolTableRecord
100
AcDbDimStyleTableRecord
  2
Standard
 70
     0
 41
2.5
 73
     0
 77
     3
 78
     8
140
2.5
141
-1.0
147
1.0
175
     1
176
     3
177
     3
178
     2
179
     8
271
     8
272
     8
275
     1
340
35
1001
ACAD_DSTYLE_DIMJOGGED_JOGANGLE_SYMBOL
1070
   384
1040
0.7853981633974483
1001
ACAD_DSTYLE_DIMJAG
1070
   388
1040
1.5
1001
ACAD_DSTYLE_DIMTALN
1070
   392
1070
     0
  0
DIMSTYLE
105
1A8
102
{ACAD_REACTORS
330
36FC0
330
36FC1
330
37038
330
37320
102
}
330
33
100
AcDbSymbolTableRecord
100
AcDbDimStyleTableRecord
  2
Standard$0
 70
     0
 41
2.5
 73
     0
 77
     3
 78
     8
140
2.5
141
-1.0
147
1.0
175
     1
176
     3
177
     3
178
     2
179
     8
271
     8
272
     8
275
     1
340
35
  0
DIMSTYLE
105
367C9
102
{ACAD_REACTORS
330
37031
330
37032
330
37036
102
}
330
33
100
AcDbSymbolTableRecord
100
AcDbDimStyleTableRecord
  2
사본 ISO-25
 70
     0
 41
2.5
 42
0.625
 43
3.75
 44
1.25
 48
0.000000001
 73
     0
 74
     0
 77
     1
 78
     8
140
3.0
141
-0.5
143
0.03937007874016
146
0.7
147
0.625
171
     3
172
     1
176
     3
177
     3
178
     2
179
     8
271
     8
272
     8
274
     3
275
     1
283
     0
284
     8
340
25
371
    -1
372
    -1
1001
ACAD_DSTYLE_DIMBREAK
1070
   391
1040
3.75
1001
ACAD_DSTYLE_DIMJAG
1070
   388
1040
1.5
1001
ACAD_DSTYLE_DIMTALN
1070
   392
1070
     0
  0
ENDTAB
  0
TABLE
  2
BLOCK_RECORD
  5
1
330
0
100
AcDbSymbolTable
 70
     8
  0
BLOCK_RECORD
  5
2
102
{ACAD_XDICTIONARY
360
3
102
}
330
1
100
AcDbSymbolTableRecord
100
AcDbBlockTableRecord
  2
*Model_Space
340
16
 70
     0
280
     1
281
     0
  0
BLOCK_RECORD
  5
1B
330
1
100
AcDbSymbolTableRecord
100
AcDbBlockTableRecord
  2
*Paper_Space
340
1E
 70
     0
280
     1
281
     0
  0
BLOCK_RECORD
  5
37052
330
1
100
AcDbSymbolTableRecord
100
AcDbBlockTableRecord
  2
*D0
340
0
 70
     0
280
     1
281
     0
  0
BLOCK_RECORD
  5
3705C
330
1
100
AcDbSymbolTableRecord
100
AcDbBlockTableRecord
  2
*D1
340
0
 70
     0
280
     1
281
     0
  0
BLOCK_RECORD
  5
370AE
330
1
100
AcDbSymbolTableRecord
100
AcDbBlockTableRecord
  2
*D2
340
0
 70
     0
280
     1
281
     0
  0
BLOCK_RECORD
  5
370BB
330
1
100
AcDbSymbolTableRecord
100
AcDbBlockTableRecord
  2
*D3
340
0
 70
     0
280
     1
281
     0
  0
BLOCK_RECORD
  5
370C7
330
1
100
AcDbSymbolTableRecord
100
AcDbBlockTableRecord
  2
*D4
340
0
 70
     0
280
     1
281
     0
  0
BLOCK_RECORD
  5
370E0
330
1
100
AcDbSymbolTableRecord
100
AcDbBlockTableRecord
  2
*D5
340
0
 70
     0
280
     1
281
     0
  0
BLOCK_RECORD
  5
373A6
330
1
100
AcDbSymbolTableRecord
100
AcDbBlockTableRecord
  2
*D6
340
0
 70
     0
280
     1
281
     0
  0
ENDTAB
  0
ENDSEC
  0
SECTION
  2
BLOCKS
  0
BLOCK
  5
5
330
2
100
AcDbEntity
  8
0
100
AcDbBlockBegin
  2
*Model_Space
 70
     0
 10
0.0
 20
0.0
 30
0.0
  3
*Model_Space
  1

  0
ENDBLK
  5
15
330
2
100
AcDbEntity
  8
0
100
AcDbBlockEnd
  0
BLOCK
  5
1C
330
1B
100
AcDbEntity
 67
     1
  8
0
100
AcDbBlockBegin
  2
*Paper_Space
 70
     0
 10
0.0
 20
0.0
 30
0.0
  3
*Paper_Space
  1

  0
ENDBLK
  5
1D
330
1B
100
AcDbEntity
 67
     1
  8
0
100
AcDbBlockEnd
  0
BLOCK
  5
37053
330
37052
100
AcDbEntity
  8
0
 62
     7
100
AcDbBlockBegin
  2
*D0
 70
     1
 10
0.0
 20
0.0
 30
0.0
  3
*D0
  1

  0
LINE
  5
37534
330
37052
100
AcDbEntity
  8
0
  6
Continuous
 62
     3
440
 16777216
100
AcDbLine
 10
150.8504703204967
 20
104.0239158466311
 30
0.0
 11
181.3809530699373
 21
104.0239158466311
 31
0.0
  0
LINE
  5
37535
330
37052
100
AcDbEntity
  8
0
  6
Continuous
 62
     3
440
 16777216
100
AcDbLine
 10
180.1309530699372
 20
101.5239158466311
 30
0.0
 11
180.1309530699372
 21
92.54773474426851
 31
0.0
  0
SOLID
  5
37536
330
37052
100
AcDbEntity
  8
0
  6
Continuous
 62
     3
440
 16777216
100
AcDbTrace
 10
179.7142864032706
 20
101.5239158466311
 30
0.0
 11
180.5476197366039
 21
101.5239158466311
 31
0.0
 12
180.1309530699372
 22
104.0239158466311
 32
0.0
 13
180.1309530699372
 23
104.0239158466311
 33
0.0
  0
MTEXT
  5
37537
330
37052
100
AcDbEntity
  8
0
  6
Continuous
 62
     2
440
 16777216
100
AcDbMText
 10
178.0059530699372
 20
97.67391584663075
 30
0.0
 40
3.0
 41
0.0
 46
0.0
 71
     5
 72
     1
  1
%%C.500
 11
0.0000000000000001
 21
1.0
 31
0.0
 73
     1
 44
1.0
  0
POINT
  5
37538
330
37052
100
AcDbEntity
  8
DEFPOINTS
  6
Continuous
 62
     0
440
 16777216
100
AcDbPoint
 10
150.2254703204967
 20
104.0239158466311
 30
0.0
  0
POINT
  5
37539
330
37052
100
AcDbEntity
  8
DEFPOINTS
  6
Continuous
 62
     0
440
 16777216
100
AcDbPoint
 10
149.9674703205088
 20
91.32391584663038
 30
0.0
  0
POINT
  5
3753A
330
37052
100
AcDbEntity
  8
DEFPOINTS
  6
Continuous
 62
     0
440
 16777216
100
AcDbPoint
 10
180.1309530699372
 20
91.32391584663036
 30
0.0
  0
ENDBLK
  5
37054
330
37052
100
AcDbEntity
  8
0
 62
     7
100
AcDbBlockEnd
  0
BLOCK
  5
3705D
330
3705C
100
AcDbEntity
  8
0
 62
     7
100
AcDbBlockBegin
  2
*D1
 70
     1
 10
0.0
 20
0.0
 30
0.0
  3
*D1
  1

  0
LINE
  5
3753B
330
3705C
100
AcDbEntity
  8
0
  6
Continuous
 62
     3
440
 16777216
100
AcDbLine
 10
141.9090924204848
 20
113.4040095827526
 30
0.0
 11
189.3809530699373
 21
113.4040095827526
 31
0.0
  0
LINE
  5
3753C
330
3705C
100
AcDbEntity
  8
0
  6
Continuous
 62
     3
440
 16777216
100
AcDbLine
 10
188.1309530699373
 20
110.9040095827526
 30
0.0
 11
188.1309530699373
 21
92.69891584663161
 31
0.0
  0
SOLID
  5
3753D
330
3705C
100
AcDbEntity
  8
0
  6
Continuous
 62
     3
440
 16777216
100
AcDbTrace
 10
187.7142864032706
 20
110.9040095827526
 30
0.0
 11
188.5476197366039
 21
110.9040095827526
 31
0.0
 12
188.1309530699373
 22
113.4040095827526
 32
0.0
 13
188.1309530699373
 23
113.4040095827526
 33
0.0
  0
MTEXT
  5
3753E
330
3705C
100
AcDbEntity
  8
0
  6
Continuous
 62
     2
440
 16777216
100
AcDbMText
 10
186.0056577943467
 20
97.67391584663165
 30
0.0
 40
3.0
 41
0.0
 46
0.0
 71
     5
 72
     1
  1
%%C1.24
 11
0.0000000000000001
 21
1.0
 31
0.0
 73
     1
 44
1.0
  0
POINT
  5
3753F
330
3705C
100
AcDbEntity
  8
DEFPOINTS
  6
Continuous
 62
     0
440
 16777216
100
AcDbPoint
 10
141.2840924204848
 20
113.4040095827526
 30
0.0
  0
POINT
  5
37540
330
3705C
100
AcDbEntity
  8
DEFPOINTS
  6
Continuous
 62
     0
440
 16777216
100
AcDbPoint
 10
141.335470320497
 20
81.92591584662523
 30
0.0
  0
POINT
  5
37541
330
3705C
100
AcDbEntity
  8
DEFPOINTS
  6
Continuous
 62
     0
440
 16777216
100
AcDbPoint
 10
188.1309530699373
 20
81.92591584662521
 30
0.0
  0
ENDBLK
  5
3705E
330
3705C
100
AcDbEntity
  8
0
 62
     7
100
AcDbBlockEnd
  0
BLOCK
  5
370AF
330
370AE
100
AcDbEntity
  8
0
 62
     7
100
AcDbBlockBegin
  2
*D2
 70
     1
 10
0.0
 20
0.0
 30
0.0
  3
*D2
  1

  0
LINE
  5
3756C
330
370AE
100
AcDbEntity
  8
0
  6
Continuous
 62
     3
440
 16777216
100
AcDbLine
 10
215.7668566372
 20
113.705252982601
 30
0.0
 11
215.7668566372
 21
122.2127200173654
 31
0.0
  0
LINE
  5
3756D
330
370AE
100
AcDbEntity
  8
0
  6
Continuous
 62
     3
440
 16777216
100
AcDbLine
 10
222.1468566371999
 20
113.705252982601
 30
0.0
 11
222.1468566371999
 21
122.2127200173654
 31
0.0
  0
LINE
  5
3756E
330
370AE
100
AcDbEntity
  8
0
  6
Continuous
 62
     3
440
 16777216
100
AcDbLine
 10
218.2668566372
 20
120.9627200173654
 30
0.0
 11
219.6468566371999
 21
120.9627200173654
 31
0.0
  0
LINE
  5
3756F
330
370AE
100
AcDbEntity
  8
0
  6
Continuous
 62
     3
440
 16777216
100
AcDbLine
 10
222.1468566371999
 20
120.9627200173654
 30
0.0
 11
240.8968566371999
 21
120.9627200173654
 31
0.0
  0
SOLID
  5
37570
330
370AE
100
AcDbEntity
  8
0
  6
Continuous
 62
     3
440
 16777216
100
AcDbTrace
 10
218.2668566372
 20
121.3793866840321
 30
0.0
 11
218.2668566372
 21
120.5460533506987
 31
0.0
 12
215.7668566372
 22
120.9627200173654
 32
0.0
 13
215.7668566372
 23
120.9627200173654
 33
0.0
  0
SOLID
  5
37571
330
370AE
100
AcDbEntity
  8
0
  6
Continuous
 62
     3
440
 16777216
100
AcDbTrace
 10
219.6468566371999
 20
121.3793866840321
 30
0.0
 11
219.6468566371999
 21
120.5460533506987
 31
0.0
 12
222.1468566371999
 22
120.9627200173654
 32
0.0
 13
222.1468566371999
 23
120.9627200173654
 33
0.0
  0
MTEXT
  5
37572
330
370AE
100
AcDbEntity
  8
0
  6
Continuous
 62
     2
440
 16777216
100
AcDbMText
 10
232.7718566371999
 20
123.0880152929559
 30
0.0
 40
3.0
 41
0.0
 46
0.0
 71
     5
 72
     1
  1
.253~.251
 73
     1
 44
1.0
  0
POINT
  5
37573
330
370AE
100
AcDbEntity
  8
DEFPOINTS
  6
Continuous
 62
     0
440
 16777216
100
AcDbPoint
 10
215.7668566372
 20
113.080252982601
 30
0.0
  0
POINT
  5
37574
330
370AE
100
AcDbEntity
  8
DEFPOINTS
  6
Continuous
 62
     0
440
 16777216
100
AcDbPoint
 10
222.1468566371999
 20
113.080252982601
 30
0.0
  0
POINT
  5
37575
330
370AE
100
AcDbEntity
  8
DEFPOINTS
  6
Continuous
 62
     0
440
 16777216
100
AcDbPoint
 10
222.1468566371999
 20
120.9627200173654
 30
0.0
  0
ENDBLK
  5
370B0
330
370AE
100
AcDbEntity
  8
0
 62
     7
100
AcDbBlockEnd
  0
BLOCK
  5
370BC
330
370BB
100
AcDbEntity
  8
0
 62
     7
100
AcDbBlockBegin
  2
*D3
 70
     1
 10
0.0
 20
0.0
 30
0.0
  3
*D3
  1

  0
LINE
  5
37576
330
370BB
100
AcDbEntity
  8
0
  6
Continuous
 62
     3
440
 16777216
100
AcDbLine
 10
235.811950373322
 20
97.67391584663073
 30
0.0
 11
245.0282462456681
 21
97.67391584663073
 31
0.0
  0
LINE
  5
37577
330
370BB
100
AcDbEntity
  8
0
  6
Continuous
 62
     3
440
 16777216
100
AcDbLine
 10
222.7718566372
 20
108.083915846631
 30
0.0
 11
245.0282462456681
 21
108.083915846631
 31
0.0
  0
LINE
  5
37578
330
370BB
100
AcDbEntity
  8
0
  6
Continuous
 62
     3
440
 16777216
100
AcDbLine
 10
243.7782462456681
 20
100.1739158466307
 30
0.0
 11
243.7782462456681
 21
105.583915846631
 31
0.0
  0
SOLID
  5
37579
330
370BB
100
AcDbEntity
  8
0
  6
Continuous
 62
     3
440
 16777216
100
AcDbTrace
 10
243.3615795790015
 20
100.1739158466307
 30
0.0
 11
244.1949129123348
 21
100.1739158466307
 31
0.0
 12
243.7782462456681
 22
97.67391584663073
 32
0.0
 13
243.7782462456681
 23
97.67391584663073
 33
0.0
  0
SOLID
  5
3757A
330
370BB
100
AcDbEntity
  8
0
  6
Continuous
 62
     3
440
 16777216
100
AcDbTrace
 10
243.3615795790015
 20
105.583915846631
 30
0.0
 11
244.1949129123348
 21
105.583915846631
 31
0.0
 12
243.7782462456681
 22
108.083915846631
 32
0.0
 13
243.7782462456681
 23
108.083915846631
 33
0.0
  0
MTEXT
  5
3757B
330
370BB
100
AcDbEntity
  8
0
  6
Continuous
 62
     2
440
 16777216
100
AcDbMText
 10
241.6532462456681
 20
102.8789158466309
 30
0.0
 40
3.0
 41
0.0
 46
0.0
 71
     5
 72
     1
  1
.41
 11
0.0000000000000001
 21
1.0
 31
0.0
 73
     1
 44
1.0
  0
POINT
  5
3757C
330
370BB
100
AcDbEntity
  8
DEFPOINTS
  6
Continuous
 62
     0
440
 16777216
100
AcDbPoint
 10
235.186950373322
 20
97.67391584663073
 30
0.0
  0
POINT
  5
3757D
330
370BB
100
AcDbEntity
  8
DEFPOINTS
  6
Continuous
 62
     0
440
 16777216
100
AcDbPoint
 10
222.1468566372
 20
108.083915846631
 30
0.0
  0
POINT
  5
3757E
330
370BB
100
AcDbEntity
  8
DEFPOINTS
  6
Continuous
 62
     0
440
 16777216
100
AcDbPoint
 10
243.7782462456681
 20
108.083915846631
 30
0.0
  0
ENDBLK
  5
370BD
330
370BB
100
AcDbEntity
  8
0
 62
     7
100
AcDbBlockEnd
  0
BLOCK
  5
370C8
330
370C7
100
AcDbEntity
  8
0
 62
     7
100
AcDbBlockBegin
  2
*D4
 70
     1
 10
0.0
 20
0.0
 30
0.0
  3
*D4
  1

  0
LINE
  5
37555
330
370C7
100
AcDbEntity
  8
0
  6
Continuous
 62
     3
440
 16777216
100
AcDbLine
 10
131.1754703204981
 20
113.7969158466721
 30
0.0
 11
131.1754703204981
 21
130.1858396773209
 31
0.0
  0
LINE
  5
37556
330
370C7
100
AcDbEntity
  8
0
  6
Continuous
 62
     3
440
 16777216
100
AcDbLine
 10
141.5854703204976
 20
113.7969158466712
 30
0.0
 11
141.5854703204976
 21
130.1858396773209
 31
0.0
  0
LINE
  5
37557
330
370C7
100
AcDbEntity
  8
0
  6
Continuous
 62
     3
440
 16777216
100
AcDbLine
 10
133.6754703204981
 20
128.9358396773209
 30
0.0
 11
139.0854703204976
 21
128.9358396773209
 31
0.0
  0
SOLID
  5
37558
330
370C7
100
AcDbEntity
  8
0
  6
Continuous
 62
     3
440
 16777216
100
AcDbTrace
 10
133.6754703204981
 20
129.3525063439876
 30
0.0
 11
133.6754703204981
 21
128.5191730106542
 31
0.0
 12
131.1754703204981
 22
128.9358396773209
 32
0.0
 13
131.1754703204981
 23
128.9358396773209
 33
0.0
  0
SOLID
  5
37559
330
370C7
100
AcDbEntity
  8
0
  6
Continuous
 62
     3
440
 16777216
100
AcDbTrace
 10
139.0854703204976
 20
129.3525063439876
 30
0.0
 11
139.0854703204976
 21
128.5191730106542
 31
0.0
 12
141.5854703204976
 22
128.9358396773209
 32
0.0
 13
141.5854703204976
 23
128.9358396773209
 33
0.0
  0
MTEXT
  5
3755A
330
370C7
100
AcDbEntity
  8
0
  6
Continuous
 62
     2
440
 16777216
100
AcDbMText
 10
136.3804703204978
 20
131.0608396773209
 30
0.0
 40
3.0
 41
0.0
 46
0.0
 71
     5
 72
     1
  1
.410
 73
     1
 44
1.0
  0
POINT
  5
3755B
330
370C7
100
AcDbEntity
  8
DEFPOINTS
  6
Continuous
 62
     0
440
 16777216
100
AcDbPoint
 10
131.1754703204981
 20
113.1719158466721
 30
0.0
  0
POINT
  5
3755C
330
370C7
100
AcDbEntity
  8
DEFPOINTS
  6
Continuous
 62
     0
440
 16777216
100
AcDbPoint
 10
141.5854703204976
 20
113.1719158466712
 30
0.0
  0
POINT
  5
3755D
330
370C7
100
AcDbEntity
  8
DEFPOINTS
  6
Continuous
 62
     0
440
 16777216
100
AcDbPoint
 10
141.5854703204976
 20
128.9358396773209
 30
0.0
  0
ENDBLK
  5
370C9
330
370C7
100
AcDbEntity
  8
0
 62
     7
100
AcDbBlockEnd
  0
BLOCK
  5
370E1
330
370E0
100
AcDbEntity
  8
0
 62
     7
100
AcDbBlockBegin
  2
*D5
 70
     1
 10
0.0
 20
0.0
 30
0.0
  3
*D5
  1

  0
LINE
  5
3755E
330
370E0
100
AcDbEntity
  8
0
  6
Continuous
 62
     3
440
 16777216
100
AcDbLine
 10
151.1004703204969
 20
101.4839158466266
 30
0.0
 11
173.3809530699373
 21
101.4839158466265
 31
0.0
  0
LINE
  5
3755F
330
370E0
100
AcDbEntity
  8
0
  6
Continuous
 62
     3
440
 16777216
100
AcDbLine
 10
172.1309530699373
 20
98.98391584662658
 30
0.0
 11
172.1309530699373
 21
91.37392314744323
 31
0.0
  0
SOLID
  5
37560
330
370E0
100
AcDbEntity
  8
0
  6
Continuous
 62
     3
440
 16777216
100
AcDbTrace
 10
171.7142864032706
 20
98.98391584662658
 30
0.0
 11
172.5476197366039
 21
98.98391584662658
 31
0.0
 12
172.1309530699373
 22
101.4839158466265
 32
0.0
 13
172.1309530699373
 23
101.4839158466265
 33
0.0
  0
MTEXT
  5
37561
330
370E0
100
AcDbEntity
  8
0
  6
Continuous
 62
     2
440
 16777216
100
AcDbMText
 10
170.0059530699373
 20
95.45010424980546
 30
0.0
 40
3.0
 41
0.0
 46
0.0
 71
     5
 72
     1
  1
%%c.30
 11
0.0000000000000001
 21
1.0
 31
0.0
 73
     1
 44
1.0
  0
POINT
  5
37562
330
370E0
100
AcDbEntity
  8
DEFPOINTS
  6
Continuous
 62
     0
440
 16777216
100
AcDbPoint
 10
150.4754703204969
 20
101.4839158466266
 30
0.0
  0
POINT
  5
37563
330
370E0
100
AcDbEntity
  8
DEFPOINTS
  6
Continuous
 62
     0
440
 16777216
100
AcDbPoint
 10
150.4754703204971
 20
93.86391584662806
 30
0.0
  0
POINT
  5
37564
330
370E0
100
AcDbEntity
  8
DEFPOINTS
  6
Continuous
 62
     0
440
 16777216
100
AcDbPoint
 10
172.1309530699373
 20
93.86391584662804
 30
0.0
  0
ENDBLK
  5
370E2
330
370E0
100
AcDbEntity
  8
0
 62
     7
100
AcDbBlockEnd
  0
BLOCK
  5
373A7
330
373A6
100
AcDbEntity
  8
0
 62
     7
100
AcDbBlockBegin
  2
*D6
 70
     1
 10
0.0
 20
0.0
 30
0.0
  3
*D6
  1

  0
LINE
  5
37565
330
373A6
100
AcDbEntity
  8
0
  6
Continuous
 62
     3
440
 16777216
100
AcDbLine
 10
77.96047032049796
 20
77.92391584665802
 30
0.0
 11
65.77890393620079
 21
77.92391584665802
 31
0.0
  0
LINE
  5
37566
330
373A6
100
AcDbEntity
  8
0
  6
Continuous
 62
     3
440
 16777216
100
AcDbLine
 10
67.02890393620079
 20
80.42391584665802
 30
0.0
 11
67.0289039362008
 21
97.07362057106657
 31
0.0
  0
SOLID
  5
37567
330
373A6
100
AcDbEntity
  8
0
  6
Continuous
 62
     3
440
 16777216
100
AcDbTrace
 10
66.61223726953412
 20
80.42391584665802
 30
0.0
 11
67.44557060286746
 21
80.42391584665802
 31
0.0
 12
67.02890393620079
 22
77.92391584665802
 32
0.0
 13
67.02890393620079
 23
77.92391584665802
 33
0.0
  0
MTEXT
  5
37568
330
373A6
100
AcDbEntity
  8
0
  6
Continuous
 62
     2
440
 16777216
100
AcDbMText
 10
64.90390393620078
 20
91.49862057106657
 30
0.0
 40
3.0
 41
0.0
 46
0.0
 71
     5
 72
     1
  1
%%c1.551
 11
0.0000000000000001
 21
1.0
 31
0.0
 73
     1
 44
1.0
  0
POINT
  5
37569
330
373A6
100
AcDbEntity
  8
DEFPOINTS
  6
Continuous
 62
     0
440
 16777216
100
AcDbPoint
 10
78.58547032049796
 20
117.423915846658
 30
0.0
  0
POINT
  5
3756A
330
373A6
100
AcDbEntity
  8
DEFPOINTS
  6
Continuous
 62
     0
440
 16777216
100
AcDbPoint
 10
78.58547032049796
 20
77.92391584665802
 30
0.0
  0
POINT
  5
3756B
330
373A6
100
AcDbEntity
  8
DEFPOINTS
  6
Continuous
 62
     0
440
 16777216
100
AcDbPoint
 10
67.02890393620079
 20
77.92391584665802
 30
0.0
  0
ENDBLK
  5
373A8
330
373A6
100
AcDbEntity
  8
0
 62
     7
100
AcDbBlockEnd
  0
ENDSEC
  0
SECTION
  2
ENTITIES
  0
LWPOLYLINE
  5
1DEB1
330
2
100
AcDbEntity
  8
0
 62
     0
100
AcDbPolyline
 90
        4
 70
     1
 43
0.0
 10
0.5
 20
0.5
 10
0.5
 20
192.2869634307123
 10
275.3311999999998
 20
192.2869634307123
 10
275.3311999999998
 20
0.5
  0
LINE
  5
28352
330
2
100
AcDbEntity
  8
0
  6
Continuous
 62
     7
100
AcDbLine
 10
206.6234
 20
-2.851599999999999
 30
0.0
 11
206.6234
 21
0.5
 31
0.0
  0
LINE
  5
28355
330
2
100
AcDbEntity
  8
0
  6
Continuous
 62
     7
100
AcDbLine
 10
69.20779999999999
 20
-2.851599999999999
 30
0.0
 11
69.20779999999999
 21
0.5
 31
0.0
  0
LINE
  5
28356
330
2
100
AcDbEntity
  8
0
  6
Continuous
 62
     7
100
AcDbLine
 10
206.6234
 20
195.6385634307123
 30
0.0
 11
206.6234
 21
192.2869634307123
 31
0.0
  0
LINE
  5
28357
330
2
100
AcDbEntity
  8
0
  6
Continuous
 62
     7
100
AcDbLine
 10
69.20779999999999
 20
195.6385634307123
 30
0.0
 11
69.20779999999999
 21
192.2869634307123
 31
0.0
  0
LINE
  5
2835B
330
2
100
AcDbEntity
  8
0
  6
Continuous
 62
     7
100
AcDbLine
 10
-2.851599999999999
 20
48.44674085767808
 30
0.0
 11
0.5
 21
48.44674085767808
 31
0.0
  0
LINE
  5
2835C
330
2
100
AcDbEntity
  8
0
  6
Continuous
 62
     7
100
AcDbLine
 10
-2.851599999999999
 20
144.3402225730342
 30
0.0
 11
0.5
 21
144.3402225730342
 31
0.0
  0
LINE
  5
2835D
330
2
100
AcDbEntity
  8
0
  6
Continuous
 62
     7
100
AcDbLine
 10
278.6827999999999
 20
48.44674085767808
 30
0.0
 11
275.3311999999998
 21
48.44674085767808
 31
0.0
  0
LINE
  5
2835E
330
2
100
AcDbEntity
  8
0
  6
Continuous
 62
     7
100
AcDbLine
 10
278.6827999999999
 20
144.3402225730342
 30
0.0
 11
275.3311999999998
 21
144.3402225730342
 31
0.0
  0
LINE
  5
28361
330
2
100
AcDbEntity
  8
0
  6
Continuous
 62
     7
100
AcDbLine
 10
203.2718
 20
0.4999999999999993
 30
0.0
 11
203.2718
 21
27.47004173244392
 31
0.0
  0
LINE
  5
28365
330
2
100
AcDbEntity
  8
0
  6
Continuous
 62
     7
100
AcDbLine
 10
275.3311999999998
 20
27.47004173244392
 30
0.0
 11
203.2718
 21
27.47004173244392
 31
0.0
  0
LINE
  5
28366
330
2
100
AcDbEntity
  8
0
  6
Continuous
 62
     7
100
AcDbLine
 10
203.2718
 20
9.490013910814644
 30
0.0
 11
275.3311999999998
 21
9.490013910814644
 31
0.0
  0
LINE
  5
28368
330
2
100
AcDbEntity
  8
0
  6
Continuous
 62
     7
100
AcDbLine
 10
203.2718
 20
18.48002782162928
 30
0.0
 11
275.3311999999998
 21
18.48002782162928
 31
0.0
  0
LINE
  5
28369
330
2
100
AcDbEntity
  8
0
  6
Continuous
 62
     7
100
AcDbLine
 10
203.2718
 20
0.4999999999999988
 30
0.0
 11
275.3311999999998
 21
0.5000000000000036
 31
0.0
  0
LINE
  5
2836B
330
2
100
AcDbEntity
  8
0
  6
Continuous
 62
     7
100
AcDbLine
 10
275.3311999999998
 20
96.39348171535619
 30
0.0
 11
278.6827999999999
 21
96.39348171535619
 31
0.0
  0
LINE
  5
2836C
330
2
100
AcDbEntity
  8
0
  6
Continuous
 62
     7
100
AcDbLine
 10
277.0069999999999
 20
95.25393771535616
 30
0.0
 11
277.0069999999999
 21
97.5330257153562
 31
0.0
  0
LINE
  5
2836F
330
2
100
AcDbEntity
  8
0
  6
Continuous
 62
     7
100
AcDbLine
 10
277.0069999999999
 20
95.25393771535616
 30
0.0
 11
275.3311999999998
 21
96.39348171535619
 31
0.0
  0
LINE
  5
28370
330
2
100
AcDbEntity
  8
0
  6
Continuous
 62
     7
100
AcDbLine
 10
275.3311999999998
 20
96.39348171535619
 30
0.0
 11
277.0069999999999
 21
97.5330257153562
 31
0.0
  0
LINE
  5
28371
330
2
100
AcDbEntity
  8
0
  6
Continuous
 62
     7
100
AcDbLine
 10
0.5
 20
96.39348171535619
 30
0.0
 11
-2.851599999999999
 21
96.39348171535619
 31
0.0
  0
LINE
  5
28372
330
2
100
AcDbEntity
  8
0
  6
Continuous
 62
     7
100
AcDbLine
 10
-1.175799999999999
 20
95.25393771535616
 30
0.0
 11
-1.175799999999999
 21
97.5330257153562
 31
0.0
  0
LINE
  5
28373
330
2
100
AcDbEntity
  8
0
  6
Continuous
 62
     7
100
AcDbLine
 10
-1.175799999999999
 20
95.25393771535616
 30
0.0
 11
0.5
 21
96.39348171535619
 31
0.0
  0
LINE
  5
28374
330
2
100
AcDbEntity
  8
0
  6
Continuous
 62
     7
100
AcDbLine
 10
0.5
 20
96.39348171535619
 30
0.0
 11
-1.175799999999999
 21
97.5330257153562
 31
0.0
  0
LINE
  5
28375
330
2
100
AcDbEntity
  8
0
  6
Continuous
 62
     7
100
AcDbLine
 10
137.9156
 20
192.2869634307123
 30
0.0
 11
137.9156
 21
195.6385634307123
 31
0.0
  0
LINE
  5
28376
330
2
100
AcDbEntity
  8
0
  6
Continuous
 62
     7
100
AcDbLine
 10
136.7760559999999
 20
193.9627634307123
 30
0.0
 11
139.055144
 21
193.9627634307123
 31
0.0
  0
LINE
  5
28377
330
2
100
AcDbEntity
  8
0
  6
Continuous
 62
     7
100
AcDbLine
 10
136.7760559999999
 20
193.9627634307123
 30
0.0
 11
137.9156
 21
192.2869634307123
 31
0.0
  0
LINE
  5
28378
330
2
100
AcDbEntity
  8
0
  6
Continuous
 62
     7
100
AcDbLine
 10
137.9156
 20
192.2869634307123
 30
0.0
 11
139.055144
 21
193.9627634307123
 31
0.0
  0
LINE
  5
28379
330
2
100
AcDbEntity
  8
0
  6
Continuous
 62
     7
100
AcDbLine
 10
137.9156
 20
0.5
 30
0.0
 11
137.9156
 21
-2.851599999999999
 31
0.0
  0
LINE
  5
2837A
330
2
100
AcDbEntity
  8
0
  6
Continuous
 62
     7
100
AcDbLine
 10
136.7760559999999
 20
-1.175799999999999
 30
0.0
 11
139.055144
 21
-1.175799999999999
 31
0.0
  0
LINE
  5
2837B
330
2
100
AcDbEntity
  8
0
  6
Continuous
 62
     7
100
AcDbLine
 10
136.7760559999999
 20
-1.175799999999999
 30
0.0
 11
137.9156
 21
0.5
 31
0.0
  0
LINE
  5
2837C
330
2
100
AcDbEntity
  8
0
  6
Continuous
 62
     7
100
AcDbLine
 10
137.9156
 20
0.5
 30
0.0
 11
139.055144
 21
-1.175799999999999
 31
0.0
  0
TEXT
  5
2837D
330
2
100
AcDbEntity
  8
0
 62
     2
100
AcDbText
 10
34.1520456690476
 20
-2.215594408868794
 30
0.0
 40
1.876895999999999
  1
4
  7
굴림
100
AcDbText
  0
TEXT
  5
2837E
330
2
100
AcDbEntity
  8
0
 62
     2
100
AcDbText
 10
102.9235469072265
 20
-2.215594408868794
 30
0.0
 40
1.876895999999999
  1
3
  7
굴림
100
AcDbText
  0
TEXT
  5
2837F
330
2
100
AcDbEntity
  8
0
 62
     2
100
AcDbText
 10
171.5424706990155
 20
-2.215594408868794
 30
0.0
 40
1.876895999999999
  1
2
  7
굴림
100
AcDbText
  0
TEXT
  5
28380
330
2
100
AcDbEntity
  8
0
 62
     2
100
AcDbText
 10
240.4598218923343
 20
-2.215594408868794
 30
0.0
 40
1.876895999999999
  1
1
  7
굴림
100
AcDbText
  0
TEXT
  5
28392
330
2
100
AcDbEntity
  8
0
 62
     2
100
AcDbText
 10
34.1520456690476
 20
193.3555764790025
 30
0.0
 40
1.876895999999999
  1
4
  7
굴림
100
AcDbText
  0
TEXT
  5
28393
330
2
100
AcDbEntity
  8
0
 62
     2
100
AcDbText
 10
102.9235469072265
 20
193.3555764790025
 30
0.0
 40
1.876895999999999
  1
3
  7
굴림
100
AcDbText
  0
TEXT
  5
28394
330
2
100
AcDbEntity
  8
0
 62
     2
100
AcDbText
 10
171.5424706990155
 20
193.3555764790025
 30
0.0
 40
1.876895999999999
  1
2
  7
굴림
100
AcDbText
  0
TEXT
  5
28395
330
2
100
AcDbEntity
  8
0
 62
     2
100
AcDbText
 10
240.4598218923343
 20
193.3555764790025
 30
0.0
 40
1.876895999999999
  1
1
  7
굴림
100
AcDbText
  0
TEXT
  5
28396
330
2
100
AcDbEntity
  8
0
 62
     2
100
AcDbText
 10
-2.209557947343677
 20
23.84841253728
 30
0.0
 40
1.876895999999999
  1
A
  7
굴림
100
AcDbText
  0
TEXT
  5
283A7
330
2
100
AcDbEntity
  8
0
 62
     2
100
AcDbText
 10
-2.209557947343677
 20
71.39738603855146
 30
0.0
 40
1.876895999999999
  1
B
  7
굴림
100
AcDbText
  0
TEXT
  5
283A9
330
2
100
AcDbEntity
  8
0
 62
     2
100
AcDbText
 10
-2.209557947343677
 20
119.4000867432917
 30
0.0
 40
1.876895999999999
  1
C
  7
굴림
100
AcDbText
  0
TEXT
  5
283AA
330
2
100
AcDbEntity
  8
0
 62
     2
100
AcDbText
 10
-2.209557947343677
 20
167.6983781703912
 30
0.0
 40
1.876895999999999
  1
D
  7
굴림
100
AcDbText
  0
TEXT
  5
283AB
330
2
100
AcDbEntity
  8
0
 62
     2
100
AcDbText
 10
276.3352207099705
 20
23.84841253728
 30
0.0
 40
1.876895999999999
  1
A
  7
굴림
100
AcDbText
  0
TEXT
  5
283AC
330
2
100
AcDbEntity
  8
0
 62
     2
100
AcDbText
 10
276.3352207099705
 20
71.39738603855146
 30
0.0
 40
1.876895999999999
  1
B
  7
굴림
100
AcDbText
  0
TEXT
  5
283AD
330
2
100
AcDbEntity
  8
0
 62
     2
100
AcDbText
 10
276.3352207099705
 20
119.4000867432917
 30
0.0
 40
1.876895999999999
  1
C
  7
굴림
100
AcDbText
  0
TEXT
  5
283AE
330
2
100
AcDbEntity
  8
0
 62
     2
100
AcDbText
 10
276.3352207099705
 20
167.6983781703912
 30
0.0
 40
1.876895999999999
  1
D
  7
굴림
100
AcDbText
  0
SPLINE
  5
283D6
330
2
100
AcDbEntity
  8
Layer 1
100
AcDbSpline
210
0.0
220
0.0
230
1.0
 70
    11
 71
     3
 72
    41
 73
    37
 74
     0
 42
0.000000001
 43
0.0000000001
 40
0.0
 40
0.0
 40
0.0
 40
0.0
 40
1.0
 40
1.0
 40
1.0
 40
2.0
 40
2.0
 40
2.0
 40
3.0
 40
3.0
 40
3.0
 40
4.0
 40
4.0
 40
4.0
 40
5.0
 40
5.0
 40
5.0
 40
6.0
 40
6.0
 40
6.0
 40
7.0
 40
7.0
 40
7.0
 40
8.0
 40
8.0
 40
8.0
 40
9.0
 40
9.0
 40
9.0
 40
10.0
 40
10.0
 40
10.0
 40
11.0
 40
11.0
 40
11.0
 40
12.0
 40
12.0
 40
12.0
 40
12.0
 10
227.5923346505039
 20
19.29998155526998
 30
0.0
 10
227.5923346505039
 20
19.29998155526998
 30
0.0
 10
225.8380287348576
 20
19.29998155526998
 30
0.0
 10
225.8380287348576
 20
19.29998155526998
 30
0.0
 10
225.8380287348576
 20
19.29998155526998
 30
0.0
 10
229.3467603710779
 20
24.71622163900658
 30
0.0
 10
229.3467603710779
 20
24.71622163900658
 30
0.0
 10
229.3467603710779
 20
24.71622163900658
 30
0.0
 10
231.1548881490208
 20
24.71622163900658
 30
0.0
 10
231.1548881490208
 20
24.71622163900658
 30
0.0
 10
231.1548881490208
 20
24.71622163900658
 30
0.0
 10
231.5610620891428
 20
19.29998155526998
 30
0.0
 10
231.5610620891428
 20
19.29998155526998
 30
0.0
 10
231.5610620891428
 20
19.29998155526998
 30
0.0
 10
229.9291109051489
 20
19.29998155526998
 30
0.0
 10
229.9291109051489
 20
19.29998155526998
 30
0.0
 10
229.9291109051489
 20
19.29998155526998
 30
0.0
 10
229.8754079660923
 20
20.17343444894676
 30
0.0
 10
229.8754079660923
 20
20.17343444894676
 30
0.0
 10
229.8754079660923
 20
20.17343444894676
 30
0.0
 10
228.6924276179193
 20
20.17343444894676
 30
0.0
 10
228.6924276179193
 20
20.17343444894676
 30
0.0
 10
228.6924276179193
 20
20.17343444894676
 30
0.0
 10
229.2797124982168
 20
21.29935356691016
 30
0.0
 10
229.2797124982168
 20
21.29935356691016
 30
0.0
 10
229.2797124982168
 20
21.29935356691016
 30
0.0
 10
229.8218536239894
 20
21.29935356691016
 30
0.0
 10
229.8218536239894
 20
21.29935356691016
 30
0.0
 10
229.8218536239894
 20
21.29935356691016
 30
0.0
 10
229.7527857599232
 20
22.8853288534383
 30
0.0
 10
229.7527857599232
 20
22.8853288534383
 30
0.0
 10
229.7527857599232
 20
22.8853288534383
 30
0.0
 10
227.6010433152532
 20
19.31216650547106
 30
0.0
 10
227.6010433152532
 20
19.31216650547106
 30
0.0
 10
227.6010433152532
 20
19.31216650547106
 30
0.0
 10
227.5923346505039
 20
19.29998155526998
 30
0.0
 10
227.5923346505039
 20
19.29998155526998
 30
0.0
  0
SPLINE
  5
283D7
102
{ACAD_REACTORS
330
2923A
102
}
330
2
100
AcDbEntity
  8
Layer 1
100
AcDbSpline
210
0.0
220
0.0
230
1.0
 70
    11
 71
     3
 72
    17
 73
    13
 74
     0
 42
0.000000001
 43
0.0000000001
 40
0.0
 40
0.0
 40
0.0
 40
0.0
 40
1.0
 40
1.0
 40
1.0
 40
2.0
 40
2.0
 40
2.0
 40
3.0
 40
3.0
 40
3.0
 40
4.0
 40
4.0
 40
4.0
 40
4.0
 10
239.0302296986123
 20
19.29998155526998
 30
0.0
 10
239.0302296986123
 20
19.29998155526998
 30
0.0
 10
237.360117644926
 20
19.29998155526998
 30
0.0
 10
237.360117644926
 20
19.29998155526998
 30
0.0
 10
237.360117644926
 20
19.29998155526998
 30
0.0
 10
238.8081949584476
 20
24.70867624437805
 30
0.0
 10
238.8081949584476
 20
24.70867624437805
 30
0.0
 10
238.8081949584476
 20
24.70867624437805
 30
0.0
 10
240.478186962581
 20
24.70867624437805
 30
0.0
 10
240.478186962581
 20
24.70867624437805
 30
0.0
 10
240.478186962581
 20
24.70867624437805
 30
0.0
 10
239.0302296986123
 20
19.29998155526998
 30
0.0
 10
239.0302296986123
 20
19.29998155526998
 30
0.0
  0
LWPOLYLINE
  5
283DB
102
{ACAD_REACTORS
330
28498
102
}
330
2
100
AcDbEntity
  8
Layer 1
 62
   103
100
AcDbPolyline
 90
        8
 70
     1
 43
0.0
 10
259.6059731911617
 20
26.47109222307688
 10
233.9049412781733
 20
26.47210268236184
 10
233.5215611377028
 20
25.21107921412096
 10
242.4282247856024
 20
25.21063676655853
 10
240.7236988494358
 20
19.29998155527
 10
242.3939880474768
 20
19.29998155527
 10
244.0981870703452
 20
25.21063676655853
 10
259.2206926917282
 20
25.20989043849159
  0
SPLINE
  5
283DD
102
{ACAD_REACTORS
330
2924F
102
}
330
2
100
AcDbEntity
  8
Layer 1
100
AcDbSpline
210
0.0
220
0.0
230
1.0
 70
     9
 71
     3
 72
    17
 73
    13
 74
     0
 42
0.000000001
 43
0.0000000001
 40
0.0
 40
0.0
 40
0.0
 40
0.0
 40
1.0
 40
1.0
 40
1.0
 40
2.0
 40
2.0
 40
2.0
 40
3.0
 40
3.0
 40
3.0
 40
4.0
 40
4.0
 40
4.0
 40
4.0
 10
248.5061968234257
 20
22.32357292978132
 30
0.0
 10
248.5061968234257
 20
23.10837288089808
 30
0.0
 10
248.0338368270969
 20
23.48158898973764
 30
0.0
 10
247.4853060323167
 20
23.48158898973764
 30
0.0
 10
246.4416515471238
 20
23.48158898973764
 30
0.0
 10
245.8700571459155
 20
22.30081114626944
 30
0.0
 10
245.8700571459155
 20
21.47799682461318
 30
0.0
 10
245.8700571459155
 20
20.68567786764069
 30
0.0
 10
246.3577820672537
 20
20.31231316184737
 30
0.0
 10
246.9215291900898
 20
20.31231316184737
 30
0.0
 10
248.0492314714974
 20
20.31231316184737
 30
0.0
 10
248.5061968234257
 20
21.53895129500892
 30
0.0
 10
248.5061968234257
 20
22.32357292978132
 30
0.0
  0
SPLINE
  5
283DE
102
{ACAD_REACTORS
330
2924F
102
}
330
2
100
AcDbEntity
  8
Layer 1
100
AcDbSpline
210
0.0
220
0.0
230
1.0
 70
     9
 71
     3
 72
    17
 73
    13
 74
     0
 42
0.000000001
 43
0.0000000001
 40
0.0
 40
0.0
 40
0.0
 40
0.0
 40
1.0
 40
1.0
 40
1.0
 40
2.0
 40
2.0
 40
2.0
 40
3.0
 40
3.0
 40
3.0
 40
4.0
 40
4.0
 40
4.0
 40
4.0
 10
246.8222961444286
 20
19.01714211365301
 30
0.0
 10
245.1616063095947
 20
19.01714211365301
 30
0.0
 10
244.2016699888815
 20
20.09143864991123
 30
0.0
 10
244.2016699888815
 20
21.49309427510605
 30
0.0
 10
244.2016699888815
 20
23.02432644390192
 30
0.0
 10
245.3444400013912
 20
24.7157758481455
 30
0.0
 10
247.47005998487
 20
24.7157758481455
 30
0.0
 10
249.1994016122998
 20
24.7157758481455
 30
0.0
 10
250.1591893360593
 20
23.58825518539628
 30
0.0
 10
250.1591893360593
 20
22.22445876168296
 30
0.0
 10
250.1591893360593
 20
20.70077531813356
 30
0.0
 10
249.0240869263591
 20
19.01714211365301
 30
0.0
 10
246.8222961444286
 20
19.01714211365301
 30
0.0
  0
SPLINE
  5
283E0
102
{ACAD_REACTORS
330
29296
102
}
330
2
100
AcDbEntity
  8
Layer 1
100
AcDbSpline
210
0.0
220
0.0
230
1.0
 70
     9
 71
     3
 72
    17
 73
    13
 74
     0
 42
0.000000001
 43
0.0000000001
 40
0.0
 40
0.0
 40
0.0
 40
0.0
 40
1.0
 40
1.0
 40
1.0
 40
2.0
 40
2.0
 40
2.0
 40
3.0
 40
3.0
 40
3.0
 40
4.0
 40
4.0
 40
4.0
 40
4.0
 10
254.6496109596456
 20
22.32357292978132
 30
0.0
 10
254.6496109596456
 20
23.10837288089808
 30
0.0
 10
254.1772509633169
 20
23.48158898973764
 30
0.0
 10
253.6284229746292
 20
23.48158898973764
 30
0.0
 10
252.5850643241252
 20
23.48158898973764
 30
0.0
 10
252.0137402566331
 20
22.30081114626944
 30
0.0
 10
252.0137402566331
 20
21.47799682461318
 30
0.0
 10
252.0137402566331
 20
20.68567786764069
 30
0.0
 10
252.5010476065198
 20
20.31231316184737
 30
0.0
 10
253.0647947293561
 20
20.31231316184737
 30
0.0
 10
254.1923484138098
 20
20.31231316184737
 30
0.0
 10
254.6496109596456
 20
21.53895129500892
 30
0.0
 10
254.6496109596456
 20
22.32357292978132
 30
0.0
  0
SPLINE
  5
283E1
102
{ACAD_REACTORS
330
29296
102
}
330
2
100
AcDbEntity
  8
Layer 1
100
AcDbSpline
210
0.0
220
0.0
230
1.0
 70
     9
 71
     3
 72
    17
 73
    13
 74
     0
 42
0.000000001
 43
0.0000000001
 40
0.0
 40
0.0
 40
0.0
 40
0.0
 40
1.0
 40
1.0
 40
1.0
 40
2.0
 40
2.0
 40
2.0
 40
3.0
 40
3.0
 40
3.0
 40
4.0
 40
4.0
 40
4.0
 40
4.0
 10
252.9658291582113
 20
19.01714211365301
 30
0.0
 10
251.3052879203311
 20
19.01714211365301
 30
0.0
 10
250.3452327220549
 20
20.09143864991123
 30
0.0
 10
250.3452327220549
 20
21.49309427510605
 30
0.0
 10
250.3452327220549
 20
23.02432644390192
 30
0.0
 10
251.487854137611
 20
24.7157758481455
 30
0.0
 10
253.6136227180437
 20
24.7157758481455
 30
0.0
 10
255.3428157485197
 20
24.7157758481455
 30
0.0
 10
256.3027520692327
 20
23.58825518539628
 30
0.0
 10
256.3027520692327
 20
22.22445876168296
 30
0.0
 10
256.3027520692327
 20
20.70077531813356
 30
0.0
 10
255.1676496595326
 20
19.01714211365301
 30
0.0
 10
252.9658291582113
 20
19.01714211365301
 30
0.0
  0
TEXT
  5
2844E
330
2
100
AcDbEntity
  8
0
 62
     2
100
AcDbText
 10
223.9425025859367
 20
12.85347561407977
 30
0.0
 40
2.627654399999999
  1
www.maritool.com
  7
굴림
100
AcDbText
  0
TEXT
  5
28454
330
2
100
AcDbEntity
  8
0
 62
     2
100
AcDbText
 10
205.9775128786343
 20
4.051806774398166
 30
0.0
 40
2.102123519999999
  1
ITEM#
  7
굴림
100
AcDbText
  0
TEXT
  5
28455
330
2
100
AcDbEntity
  8
0
 62
     2
100
AcDbText
 10
223.0295816888257
 20
3.552348089474925
 30
0.0
 40
3.153185279999998
  1
DSF16-FM.500-2.5
  7
굴림
100
AcDbText
  0
HATCH
  5
28498
330
2
100
AcDbEntity
  8
0
  6
Continuous
 62
    93
100
AcDbHatch
 10
0.0
 20
0.0
 30
0.0
210
0.0
220
0.0
230
0.9999999999999998
  2
SOLID
 70
     1
 71
     1
 91
        1
 92
        7
 72
     0
 73
     1
 93
        8
 10
233.9049412781733
 20
26.47210268236184
 10
233.5215611377028
 20
25.21107921412096
 10
242.4282247856024
 20
25.21063676655853
 10
240.7236988494358
 20
19.29998155527
 10
242.3939880474768
 20
19.29998155527
 10
244.0981870703452
 20
25.21063676655853
 10
259.2206926917282
 20
25.20989043849159
 10
259.6059731911617
 20
26.47109222307688
 97
        1
330
283DB
 75
     1
 76
     1
 47
0.0428322549537331
 98
        1
 10
245.2145526953313
 20
25.84900527075732
450
        0
451
        0
460
0.0
461
0.0
452
        0
462
1.0
453
        2
463
0.0
 63
     5
421
      255
463
1.0
 63
     2
421
 16776960
470
LINEAR
1001
GRADIENTCOLOR1ACI
1070
     5
1001
GRADIENTCOLOR2ACI
1070
     2
1001
ACAD
1010
0.0
1020
0.0
1030
0.0
  0
SPLINE
  5
2910D
102
{ACAD_REACTORS
330
29214
102
}
330
2
100
AcDbEntity
  8
Layer 1
100
AcDbSpline
210
0.0
220
0.0
230
1.0
 70
    24
 71
     3
 72
     8
 73
     4
 74
     0
 42
0.000000001
 43
0.0000000001
 40
0.0
 40
0.0
 40
0.0
 40
0.0
 40
1.0
 40
1.0
 40
1.0
 40
1.0
 10
259.8197150493218
 20
20.42649506104808
 30
0.0
 10
259.8197150493218
 20
20.42649506104808
 30
0.0
 10
259.406438888509
 20
19.1772107521471
 30
0.0
 10
259.406438888509
 20
19.1772107521471
 30
0.0
  0
SPLINE
  5
2910E
102
{ACAD_REACTORS
330
29214
102
}
330
2
100
AcDbEntity
  8
Layer 1
100
AcDbSpline
210
0.0
220
0.0
230
1.0
 70
    24
 71
     3
 72
     8
 73
     4
 74
     0
 42
0.000000001
 43
0.0000000001
 40
1.0
 40
1.0
 40
1.0
 40
1.0
 40
2.0
 40
2.0
 40
2.0
 40
2.0
 10
259.406438888509
 20
19.1772107521471
 30
0.0
 10
259.406438888509
 20
19.1772107521471
 30
0.0
 10
255.9245728221407
 20
19.1772107521471
 30
0.0
 10
255.9245728221407
 20
19.1772107521471
 30
0.0
  0
SPLINE
  5
2910F
102
{ACAD_REACTORS
330
29214
102
}
330
2
100
AcDbEntity
  8
Layer 1
100
AcDbSpline
210
0.0
220
0.0
230
1.0
 70
    24
 71
     3
 72
     8
 73
     4
 74
     0
 42
0.000000001
 43
0.0000000001
 40
2.0
 40
2.0
 40
2.0
 40
2.0
 40
3.0
 40
3.0
 40
3.0
 40
3.0
 10
255.9245728221407
 20
19.1772107521471
 30
0.0
 10
255.9245728221407
 20
19.1772107521471
 30
0.0
 10
257.3642395480845
 20
24.55588552599577
 30
0.0
 10
257.3642395480845
 20
24.55588552599577
 30
0.0
  0
SPLINE
  5
29110
102
{ACAD_REACTORS
330
29214
102
}
330
2
100
AcDbEntity
  8
Layer 1
100
AcDbSpline
210
0.0
220
0.0
230
1.0
 70
    24
 71
     3
 72
     8
 73
     4
 74
     0
 42
0.000000001
 43
0.0000000001
 40
3.0
 40
3.0
 40
3.0
 40
3.0
 40
4.0
 40
4.0
 40
4.0
 40
4.0
 10
257.3642395480845
 20
24.55588552599577
 30
0.0
 10
257.3642395480845
 20
24.55588552599577
 30
0.0
 10
259.0558375492818
 20
24.55588552599577
 30
0.0
 10
259.0558375492818
 20
24.55588552599577
 30
0.0
  0
SPLINE
  5
29111
102
{ACAD_REACTORS
330
29214
102
}
330
2
100
AcDbEntity
  8
Layer 1
100
AcDbSpline
210
0.0
220
0.0
230
1.0
 70
    24
 71
     3
 72
     8
 73
     4
 74
     0
 42
0.000000001
 43
0.0000000001
 40
4.0
 40
4.0
 40
4.0
 40
4.0
 40
5.0
 40
5.0
 40
5.0
 40
5.0
 10
259.0558375492818
 20
24.55588552599577
 30
0.0
 10
259.0558375492818
 20
24.55588552599577
 30
0.0
 10
257.9510802874918
 20
20.42649506104808
 30
0.0
 10
257.9510802874918
 20
20.42649506104808
 30
0.0
  0
SPLINE
  5
29112
102
{ACAD_REACTORS
330
29214
102
}
330
2
100
AcDbEntity
  8
Layer 1
100
AcDbSpline
210
0.0
220
0.0
230
1.0
 70
    24
 71
     3
 72
     8
 73
     4
 74
     0
 42
0.000000001
 43
0.0000000001
 40
5.0
 40
5.0
 40
5.0
 40
5.0
 40
6.0
 40
6.0
 40
6.0
 40
6.0
 10
257.9510802874918
 20
20.42649506104808
 30
0.0
 10
257.9510802874918
 20
20.42649506104808
 30
0.0
 10
259.8197150493218
 20
20.42649506104808
 30
0.0
 10
259.8197150493218
 20
20.42649506104808
 30
0.0
  0
HATCH
  5
29214
330
2
100
AcDbEntity
  8
0
  6
Continuous
 62
     0
100
AcDbHatch
 10
0.0
 20
0.0
 30
0.0
210
0.0
220
0.0
230
0.9999999999999998
  2
SOLID
 70
     1
 71
     1
 91
        1
 92
        5
 93
        6
 72
     4
 94
        3
 73
     0
 74
     0
 95
        8
 96
        4
 40
4.0
 40
4.0
 40
4.0
 40
4.0
 40
5.0
 40
5.0
 40
5.0
 40
5.0
 10
257.9510802874918
 20
20.42649506104808
 10
257.9510802874918
 20
20.42649506104808
 10
259.0558375492818
 20
24.55588552599577
 10
259.0558375492818
 20
24.55588552599577
 97
        0
 72
     4
 94
        3
 73
     0
 74
     0
 95
        8
 96
        4
 40
3.0
 40
3.0
 40
3.0
 40
3.0
 40
4.0
 40
4.0
 40
4.0
 40
4.0
 10
259.0558375492818
 20
24.55588552599577
 10
259.0558375492818
 20
24.55588552599577
 10
257.3642395480845
 20
24.55588552599577
 10
257.3642395480845
 20
24.55588552599577
 97
        0
 72
     4
 94
        3
 73
     0
 74
     0
 95
        8
 96
        4
 40
2.0
 40
2.0
 40
2.0
 40
2.0
 40
3.0
 40
3.0
 40
3.0
 40
3.0
 10
257.3642395480845
 20
24.55588552599577
 10
257.3642395480845
 20
24.55588552599577
 10
255.9245728221407
 20
19.1772107521471
 10
255.9245728221407
 20
19.1772107521471
 97
        0
 72
     4
 94
        3
 73
     0
 74
     0
 95
        8
 96
        4
 40
1.0
 40
1.0
 40
1.0
 40
1.0
 40
2.0
 40
2.0
 40
2.0
 40
2.0
 10
255.9245728221407
 20
19.1772107521471
 10
255.9245728221407
 20
19.1772107521471
 10
259.406438888509
 20
19.1772107521471
 10
259.406438888509
 20
19.1772107521471
 97
        0
 72
     4
 94
        3
 73
     0
 74
     0
 95
        8
 96
        4
 40
0.0
 40
0.0
 40
0.0
 40
0.0
 40
1.0
 40
1.0
 40
1.0
 40
1.0
 10
259.406438888509
 20
19.1772107521471
 10
259.406438888509
 20
19.1772107521471
 10
259.8197150493218
 20
20.42649506104808
 10
259.8197150493218
 20
20.42649506104808
 97
        0
 72
     4
 94
        3
 73
     0
 74
     0
 95
        8
 96
        4
 40
5.0
 40
5.0
 40
5.0
 40
5.0
 40
6.0
 40
6.0
 40
6.0
 40
6.0
 10
259.8197150493218
 20
20.42649506104808
 10
259.8197150493218
 20
20.42649506104808
 10
257.9510802874918
 20
20.42649506104808
 10
257.9510802874918
 20
20.42649506104808
 97
        0
 97
        6
330
29111
330
29110
330
2910F
330
2910E
330
2910D
330
29112
 75
     1
 76
     1
 47
0.0168242271866721
 98
        1
 10
257.4330670291712
 20
20.77735750736971
450
        0
451
        0
460
0.0
461
0.0
452
        0
462
1.0
453
        2
463
0.0
 63
     5
421
      255
463
1.0
 63
     2
421
 16776960
470
LINEAR
1001
GRADIENTCOLOR1ACI
1070
     5
1001
GRADIENTCOLOR2ACI
1070
     2
1001
ACAD
1010
0.0
1020
0.0
1030
0.0
  0
SPLINE
  5
29215
102
{ACAD_REACTORS
330
29234
102
}
330
2
100
AcDbEntity
  8
Layer 1
100
AcDbSpline
210
0.0
220
0.0
230
1.0
 70
     8
 71
     3
 72
     8
 73
     4
 74
     0
 42
0.000000001
 43
0.0000000001
 40
0.0
 40
0.0
 40
0.0
 40
0.0
 40
1.0
 40
1.0
 40
1.0
 40
1.0
 10
237.4978373015881
 20
23.24838093064673
 30
0.0
 10
237.4978373015881
 20
24.33617007029818
 30
0.0
 10
236.5402190933521
 20
24.71928273625215
 30
0.0
 10
235.7052241792785
 20
24.71928273625215
 30
0.0
  0
SPLINE
  5
29216
102
{ACAD_REACTORS
330
29234
102
}
330
2
100
AcDbEntity
  8
Layer 1
100
AcDbSpline
210
0.0
220
0.0
230
1.0
 70
    24
 71
     3
 72
     8
 73
     4
 74
     0
 42
0.000000001
 43
0.0000000001
 40
1.0
 40
1.0
 40
1.0
 40
1.0
 40
2.0
 40
2.0
 40
2.0
 40
2.0
 10
235.7052241792785
 20
24.71928273625215
 30
0.0
 10
235.7052241792785
 20
24.71928273625215
 30
0.0
 10
233.3148935221454
 20
24.71928273625215
 30
0.0
 10
233.3148935221454
 20
24.71928273625215
 30
0.0
  0
SPLINE
  5
29217
102
{ACAD_REACTORS
330
29234
102
}
330
2
100
AcDbEntity
  8
Layer 1
100
AcDbSpline
210
0.0
220
0.0
230
1.0
 70
    24
 71
     3
 72
     8
 73
     4
 74
     0
 42
0.000000001
 43
0.0000000001
 40
2.0
 40
2.0
 40
2.0
 40
2.0
 40
3.0
 40
3.0
 40
3.0
 40
3.0
 10
233.3148935221454
 20
24.71928273625215
 30
0.0
 10
233.3148935221454
 20
24.71928273625215
 30
0.0
 10
231.8592664557693
 20
19.31044597505541
 30
0.0
 10
231.8592664557693
 20
19.31044597505541
 30
0.0
  0
SPLINE
  5
29218
102
{ACAD_REACTORS
330
29234
102
}
330
2
100
AcDbEntity
  8
Layer 1
100
AcDbSpline
210
0.0
220
0.0
230
1.0
 70
    24
 71
     3
 72
     8
 73
     4
 74
     0
 42
0.000000001
 43
0.0000000001
 40
3.0
 40
3.0
 40
3.0
 40
3.0
 40
4.0
 40
4.0
 40
4.0
 40
4.0
 10
231.8592664557693
 20
19.31044597505541
 30
0.0
 10
231.8592664557693
 20
19.31044597505541
 30
0.0
 10
233.5756801482296
 20
19.31044597505541
 30
0.0
 10
233.5756801482296
 20
19.31044597505541
 30
0.0
  0
SPLINE
  5
29219
102
{ACAD_REACTORS
330
29234
102
}
330
2
100
AcDbEntity
  8
Layer 1
100
AcDbSpline
210
0.0
220
0.0
230
1.0
 70
    24
 71
     3
 72
     8
 73
     4
 74
     0
 42
0.000000001
 43
0.0000000001
 40
4.0
 40
4.0
 40
4.0
 40
4.0
 40
5.0
 40
5.0
 40
5.0
 40
5.0
 10
233.5756801482296
 20
19.31044597505541
 30
0.0
 10
233.5756801482296
 20
19.31044597505541
 30
0.0
 10
234.7014803886299
 20
23.50872279347789
 30
0.0
 10
234.7014803886299
 20
23.50872279347789
 30
0.0
  0
SPLINE
  5
2921A
102
{ACAD_REACTORS
330
29234
102
}
330
2
100
AcDbEntity
  8
Layer 1
100
AcDbSpline
210
0.0
220
0.0
230
1.0
 70
    24
 71
     3
 72
     8
 73
     4
 74
     0
 42
0.000000001
 43
0.0000000001
 40
5.0
 40
5.0
 40
5.0
 40
5.0
 40
6.0
 40
6.0
 40
6.0
 40
6.0
 10
234.7014803886299
 20
23.50872279347789
 30
0.0
 10
234.7014803886299
 20
23.50872279347789
 30
0.0
 10
235.2071855413623
 20
23.50872279347789
 30
0.0
 10
235.2071855413623
 20
23.50872279347789
 30
0.0
  0
SPLINE
  5
2921B
102
{ACAD_REACTORS
330
29234
102
}
330
2
100
AcDbEntity
  8
Layer 1
100
AcDbSpline
210
0.0
220
0.0
230
1.0
 70
     8
 71
     3
 72
    11
 73
     7
 74
     0
 42
0.000000001
 43
0.0000000001
 40
6.0
 40
6.0
 40
6.0
 40
6.0
 40
7.0
 40
7.0
 40
7.0
 40
8.0
 40
8.0
 40
8.0
 40
8.0
 10
235.2071855413623
 20
23.50872279347789
 30
0.0
 10
235.5058356988499
 20
23.50872279347789
 30
0.0
 10
235.812480372445
 20
23.43980352636535
 30
0.0
 10
235.812480372445
 20
23.07223410176534
 30
0.0
 10
235.812480372445
 20
22.8731439032373
 30
0.0
 10
235.6593660713825
 20
22.55113430463269
 30
0.0
 10
235.1536609186504
 20
22.56664782659588
 30
0.0
  0
SPLINE
  5
2921C
102
{ACAD_REACTORS
330
29234
102
}
330
2
100
AcDbEntity
  8
Layer 1
100
AcDbSpline
210
0.0
220
0.0
230
1.0
 70
    24
 71
     3
 72
     8
 73
     4
 74
     0
 42
0.000000001
 43
0.0000000001
 40
8.0
 40
8.0
 40
8.0
 40
8.0
 40
9.0
 40
9.0
 40
9.0
 40
9.0
 10
235.1536609186504
 20
22.56664782659588
 30
0.0
 10
235.1536609186504
 20
22.56664782659588
 30
0.0
 10
234.8297492790387
 20
21.38093329447545
 30
0.0
 10
234.8297492790387
 20
21.38093329447545
 30
0.0
  0
SPLINE
  5
2921D
102
{ACAD_REACTORS
330
29234
102
}
330
2
100
AcDbEntity
  8
Layer 1
100
AcDbSpline
210
0.0
220
0.0
230
1.0
 70
    24
 71
     3
 72
     8
 73
     4
 74
     0
 42
0.000000001
 43
0.0000000001
 40
9.0
 40
9.0
 40
9.0
 40
9.0
 40
10.0
 40
10.0
 40
10.0
 40
10.0
 10
234.8297492790387
 20
21.38093329447545
 30
0.0
 10
234.8297492790387
 20
21.38093329447545
 30
0.0
 10
235.4483881165608
 20
19.22713932858048
 30
0.0
 10
235.4483881165608
 20
19.22713932858048
 30
0.0
  0
SPLINE
  5
2921E
102
{ACAD_REACTORS
330
29234
102
}
330
2
100
AcDbEntity
  8
Layer 1
100
AcDbSpline
210
0.0
220
0.0
230
1.0
 70
    24
 71
     3
 72
     8
 73
     4
 74
     0
 42
0.000000001
 43
0.0000000001
 40
10.0
 40
10.0
 40
10.0
 40
10.0
 40
11.0
 40
11.0
 40
11.0
 40
11.0
 10
235.4483881165608
 20
19.22713932858048
 30
0.0
 10
235.4483881165608
 20
19.22713932858048
 30
0.0
 10
236.8636860593611
 20
19.22713932858048
 30
0.0
 10
236.8636860593611
 20
19.22713932858048
 30
0.0
  0
SPLINE
  5
2921F
102
{ACAD_REACTORS
330
29234
102
}
330
2
100
AcDbEntity
  8
Layer 1
100
AcDbSpline
210
0.0
220
0.0
230
1.0
 70
    24
 71
     3
 72
     8
 73
     4
 74
     0
 42
0.000000001
 43
0.0000000001
 40
11.0
 40
11.0
 40
11.0
 40
11.0
 40
12.0
 40
12.0
 40
12.0
 40
12.0
 10
236.8636860593611
 20
19.22713932858048
 30
0.0
 10
236.8636860593611
 20
19.22713932858048
 30
0.0
 10
236.0934177730549
 20
21.52676634480784
 30
0.0
 10
236.0934177730549
 20
21.52676634480784
 30
0.0
  0
SPLINE
  5
29220
102
{ACAD_REACTORS
330
29234
102
}
330
2
100
AcDbEntity
  8
Layer 1
100
AcDbSpline
210
0.0
220
0.0
230
1.0
 70
     8
 71
     3
 72
     8
 73
     4
 74
     0
 42
0.000000001
 43
0.0000000001
 40
12.0
 40
12.0
 40
12.0
 40
12.0
 40
13.0
 40
13.0
 40
13.0
 40
13.0
 10
236.0934177730549
 20
21.52676634480784
 30
0.0
 10
236.3344420319088
 20
21.60005436235835
 30
0.0
 10
236.5735939691466
 20
21.70772771498819
 30
0.0
 10
236.785166311783
 20
21.86937148119124
 30
0.0
  0
SPLINE
  5
29221
102
{ACAD_REACTORS
330
29234
102
}
330
2
100
AcDbEntity
  8
Layer 1
100
AcDbSpline
210
0.0
220
0.0
230
1.0
 70
     8
 71
     3
 72
     8
 73
     4
 74
     0
 42
0.000000001
 43
0.0000000001
 40
13.0
 40
13.0
 40
13.0
 40
13.0
 40
14.0
 40
14.0
 40
14.0
 40
14.0
 10
236.785166311783
 20
21.86937148119124
 30
0.0
 10
237.2525928892498
 20
22.2295407774984
 30
0.0
 10
237.4978373015881
 20
22.74297297182171
 30
0.0
 10
237.4978373015881
 20
23.24838093064673
 30
0.0
  0
HATCH
  5
29234
330
2
100
AcDbEntity
  8
0
  6
Continuous
 62
     0
100
AcDbHatch
 10
0.0
 20
0.0
 30
0.0
210
0.0
220
0.0
230
0.9999999999999998
  2
SOLID
 70
     1
 71
     1
 91
        1
 92
        5
 93
       14
 72
     4
 94
        3
 73
     0
 74
     0
 95
        8
 96
        4
 40
11.0
 40
11.0
 40
11.0
 40
11.0
 40
12.0
 40
12.0
 40
12.0
 40
12.0
 10
236.8636860593611
 20
19.22713932858048
 10
236.8636860593611
 20
19.22713932858048
 10
236.0934177730549
 20
21.52676634480784
 10
236.0934177730549
 20
21.52676634480784
 97
        0
 72
     4
 94
        3
 73
     0
 74
     0
 95
        8
 96
        4
 40
12.0
 40
12.0
 40
12.0
 40
12.0
 40
13.0
 40
13.0
 40
13.0
 40
13.0
 10
236.0934177730549
 20
21.52676634480784
 10
236.3344420319088
 20
21.60005436235835
 10
236.5735939691466
 20
21.70772771498819
 10
236.785166311783
 20
21.86937148119124
 97
        0
 72
     4
 94
        3
 73
     0
 74
     0
 95
        8
 96
        4
 40
13.0
 40
13.0
 40
13.0
 40
13.0
 40
14.0
 40
14.0
 40
14.0
 40
14.0
 10
236.785166311783
 20
21.86937148119124
 10
237.2525928892498
 20
22.2295407774984
 10
237.4978373015881
 20
22.74297297182171
 10
237.4978373015881
 20
23.24838093064673
 97
        0
 72
     4
 94
        3
 73
     0
 74
     0
 95
        8
 96
        4
 40
0.0
 40
0.0
 40
0.0
 40
0.0
 40
1.0
 40
1.0
 40
1.0
 40
1.0
 10
237.4978373015881
 20
23.24838093064673
 10
237.4978373015881
 20
24.33617007029818
 10
236.5402190933521
 20
24.71928273625215
 10
235.7052241792785
 20
24.71928273625215
 97
        0
 72
     4
 94
        3
 73
     0
 74
     0
 95
        8
 96
        4
 40
1.0
 40
1.0
 40
1.0
 40
1.0
 40
2.0
 40
2.0
 40
2.0
 40
2.0
 10
235.7052241792785
 20
24.71928273625215
 10
235.7052241792785
 20
24.71928273625215
 10
233.3148935221454
 20
24.71928273625215
 10
233.3148935221454
 20
24.71928273625215
 97
        0
 72
     4
 94
        3
 73
     0
 74
     0
 95
        8
 96
        4
 40
2.0
 40
2.0
 40
2.0
 40
2.0
 40
3.0
 40
3.0
 40
3.0
 40
3.0
 10
233.3148935221454
 20
24.71928273625215
 10
233.3148935221454
 20
24.71928273625215
 10
231.8592664557693
 20
19.31044597505541
 10
231.8592664557693
 20
19.31044597505541
 97
        0
 72
     4
 94
        3
 73
     0
 74
     0
 95
        8
 96
        4
 40
3.0
 40
3.0
 40
3.0
 40
3.0
 40
4.0
 40
4.0
 40
4.0
 40
4.0
 10
231.8592664557693
 20
19.31044597505541
 10
231.8592664557693
 20
19.31044597505541
 10
233.5756801482296
 20
19.31044597505541
 10
233.5756801482296
 20
19.31044597505541
 97
        0
 72
     4
 94
        3
 73
     0
 74
     0
 95
        8
 96
        4
 40
4.0
 40
4.0
 40
4.0
 40
4.0
 40
5.0
 40
5.0
 40
5.0
 40
5.0
 10
233.5756801482296
 20
19.31044597505541
 10
233.5756801482296
 20
19.31044597505541
 10
234.7014803886299
 20
23.50872279347789
 10
234.7014803886299
 20
23.50872279347789
 97
        0
 72
     4
 94
        3
 73
     0
 74
     0
 95
        8
 96
        4
 40
5.0
 40
5.0
 40
5.0
 40
5.0
 40
6.0
 40
6.0
 40
6.0
 40
6.0
 10
234.7014803886299
 20
23.50872279347789
 10
234.7014803886299
 20
23.50872279347789
 10
235.2071855413623
 20
23.50872279347789
 10
235.2071855413623
 20
23.50872279347789
 97
        0
 72
     4
 94
        3
 73
     0
 74
     0
 95
        8
 96
        4
 40
6.0
 40
6.0
 40
6.0
 40
6.0
 40
7.0
 40
7.0
 40
7.0
 40
7.0
 10
235.812480372445
 20
23.07223410176534
 10
235.812480372445
 20
23.43980352636535
 10
235.5058356988499
 20
23.50872279347789
 10
235.2071855413623
 20
23.50872279347789
 97
        0
 72
     4
 94
        3
 73
     0
 74
     0
 95
        8
 96
        4
 40
7.0
 40
7.0
 40
7.0
 40
7.0
 40
8.0
 40
8.0
 40
8.0
 40
8.0
 10
235.812480372445
 20
23.07223410176534
 10
235.812480372445
 20
22.8731439032373
 10
235.6593660713825
 20
22.55113430463269
 10
235.1536609186504
 20
22.56664782659588
 97
        0
 72
     4
 94
        3
 73
     0
 74
     0
 95
        8
 96
        4
 40
8.0
 40
8.0
 40
8.0
 40
8.0
 40
9.0
 40
9.0
 40
9.0
 40
9.0
 10
235.1536609186504
 20
22.56664782659588
 10
235.1536609186504
 20
22.56664782659588
 10
234.8297492790387
 20
21.38093329447545
 10
234.8297492790387
 20
21.38093329447545
 97
        0
 72
     4
 94
        3
 73
     0
 74
     0
 95
        8
 96
        4
 40
9.0
 40
9.0
 40
9.0
 40
9.0
 40
10.0
 40
10.0
 40
10.0
 40
10.0
 10
234.8297492790387
 20
21.38093329447545
 10
234.8297492790387
 20
21.38093329447545
 10
235.4483881165608
 20
19.22713932858048
 10
235.4483881165608
 20
19.22713932858048
 97
        0
 72
     4
 94
        3
 73
     0
 74
     0
 95
        8
 96
        4
 40
10.0
 40
10.0
 40
10.0
 40
10.0
 40
11.0
 40
11.0
 40
11.0
 40
11.0
 10
235.4483881165608
 20
19.22713932858048
 10
235.4483881165608
 20
19.22713932858048
 10
236.8636860593611
 20
19.22713932858048
 10
236.8636860593611
 20
19.22713932858048
 97
        0
 97
       13
330
2921F
330
29220
330
29221
330
29215
330
29216
330
29217
330
29218
330
29219
330
2921A
330
2921B
330
2921C
330
2921D
330
2921E
 75
     1
 76
     1
 47
0.0269459378258844
 98
        1
 10
235.7150328296965
 20
21.24708010342791
450
        0
451
        0
460
0.0
461
0.0
452
        0
462
1.0
453
        2
463
0.0
 63
     5
421
      255
463
1.0
 63
     2
421
 16776960
470
LINEAR
1001
GRADIENTCOLOR1ACI
1070
     5
1001
GRADIENTCOLOR2ACI
1070
     2
1001
ACAD
1010
0.0
1020
0.0
1030
0.0
  0
HATCH
  5
2923A
330
2
100
AcDbEntity
  8
0
  6
Continuous
 62
     0
100
AcDbHatch
 10
0.0
 20
0.0
 30
0.0
210
0.0
220
0.0
230
0.9999999999999998
  2
SOLID
 70
     1
 71
     1
 91
        1
 92
        5
 93
        1
 72
     4
 94
        3
 73
     0
 74
     0
 95
       17
 96
       13
 40
0.0
 40
0.0
 40
0.0
 40
0.0
 40
1.0
 40
1.0
 40
1.0
 40
2.0
 40
2.0
 40
2.0
 40
3.0
 40
3.0
 40
3.0
 40
4.0
 40
4.0
 40
4.0
 40
4.0
 10
239.0302296986123
 20
19.29998155526998
 10
239.0302296986123
 20
19.29998155526998
 10
237.360117644926
 20
19.29998155526998
 10
237.360117644926
 20
19.29998155526998
 10
237.360117644926
 20
19.29998155526998
 10
238.8081949584476
 20
24.70867624437805
 10
238.8081949584476
 20
24.70867624437805
 10
238.8081949584476
 20
24.70867624437805
 10
240.478186962581
 20
24.70867624437805
 10
240.478186962581
 20
24.70867624437805
 10
240.478186962581
 20
24.70867624437805
 10
239.0302296986123
 20
19.29998155526998
 10
239.0302296986123
 20
19.29998155526998
 97
        0
 97
        1
330
283D7
 75
     1
 76
     1
 47
0.0269459378258844
 98
        1
 10
238.335837961352
 20
20.77745769381764
450
        0
451
        0
460
0.0
461
0.0
452
        0
462
1.0
453
        2
463
0.0
 63
     5
421
      255
463
1.0
 63
     2
421
 16776960
470
LINEAR
1001
GRADIENTCOLOR1ACI
1070
     5
1001
GRADIENTCOLOR2ACI
1070
     2
1001
ACAD
1010
0.0
1020
0.0
1030
0.0
  0
HATCH
  5
2924F
330
2
100
AcDbEntity
  8
0
  6
Continuous
 62
     0
100
AcDbHatch
 10
0.0
 20
0.0
 30
0.0
210
0.0
220
0.0
230
0.9999999999999998
  2
SOLID
 70
     1
 71
     1
 91
        2
 92
        5
 93
        4
 72
     4
 94
        3
 73
     0
 74
     0
 95
        8
 96
        4
 40
0.0
 40
0.0
 40
0.0
 40
0.0
 40
1.0
 40
1.0
 40
1.0
 40
1.0
 10
244.2016699888815
 20
21.49309427510605
 10
244.2016699888815
 20
20.09143864991123
 10
245.1616063095947
 20
19.01714211365301
 10
246.8222961444286
 20
19.01714211365301
 97
        0
 72
     4
 94
        3
 73
     0
 74
     0
 95
        8
 96
        4
 40
3.0
 40
3.0
 40
3.0
 40
3.0
 40
4.0
 40
4.0
 40
4.0
 40
4.0
 10
246.8222961444286
 20
19.01714211365301
 10
249.0240869263591
 20
19.01714211365301
 10
250.1591893360593
 20
20.70077531813356
 10
250.1591893360593
 20
22.22445876168296
 97
        0
 72
     4
 94
        3
 73
     0
 74
     0
 95
        8
 96
        4
 40
2.0
 40
2.0
 40
2.0
 40
2.0
 40
3.0
 40
3.0
 40
3.0
 40
3.0
 10
250.1591893360593
 20
22.22445876168296
 10
250.1591893360593
 20
23.58825518539628
 10
249.1994016122998
 20
24.7157758481455
 10
247.47005998487
 20
24.7157758481455
 97
        0
 72
     4
 94
        3
 73
     0
 74
     0
 95
        8
 96
        4
 40
1.0
 40
1.0
 40
1.0
 40
1.0
 40
2.0
 40
2.0
 40
2.0
 40
2.0
 10
247.47005998487
 20
24.7157758481455
 10
245.3444400013912
 20
24.7157758481455
 10
244.2016699888815
 20
23.02432644390192
 10
244.2016699888815
 20
21.49309427510605
 97
        0
 97
        1
330
283DE
 92
       20
 93
        4
 72
     4
 94
        3
 73
     0
 74
     0
 95
        8
 96
        4
 40
2.0
 40
2.0
 40
2.0
 40
2.0
 40
3.0
 40
3.0
 40
3.0
 40
3.0
 10
246.9215291900898
 20
20.31231316184737
 10
246.3577820672537
 20
20.31231316184737
 10
245.8700571459155
 20
20.68567786764069
 10
245.8700571459155
 20
21.47799682461318
 97
        0
 72
     4
 94
        3
 73
     0
 74
     0
 95
        8
 96
        4
 40
1.0
 40
1.0
 40
1.0
 40
1.0
 40
2.0
 40
2.0
 40
2.0
 40
2.0
 10
245.8700571459155
 20
21.47799682461318
 10
245.8700571459155
 20
22.30081114626944
 10
246.4416515471238
 20
23.48158898973764
 10
247.4853060323167
 20
23.48158898973764
 97
        0
 72
     4
 94
        3
 73
     0
 74
     0
 95
        8
 96
        4
 40
0.0
 40
0.0
 40
0.0
 40
0.0
 40
1.0
 40
1.0
 40
1.0
 40
1.0
 10
247.4853060323167
 20
23.48158898973764
 10
248.0338368270969
 20
23.48158898973764
 10
248.5061968234257
 20
23.10837288089808
 10
248.5061968234257
 20
22.32357292978132
 97
        0
 72
     4
 94
        3
 73
     0
 74
     0
 95
        8
 96
        4
 40
3.0
 40
3.0
 40
3.0
 40
3.0
 40
4.0
 40
4.0
 40
4.0
 40
4.0
 10
248.5061968234257
 20
22.32357292978132
 10
248.5061968234257
 20
21.53895129500892
 10
248.0492314714974
 20
20.31231316184737
 10
246.9215291900898
 20
20.31231316184737
 97
        0
 97
        1
330
283DD
 75
     1
 76
     1
 47
0.0269459378258844
 98
        2
 10
245.3487519412343
 20
20.66908413451475
 10
245.3487519412343
 20
20.66908413451475
450
        0
451
        0
460
0.0
461
0.0
452
        0
462
1.0
453
        2
463
0.0
 63
     5
421
      255
463
1.0
 63
     2
421
 16776960
470
LINEAR
1001
GRADIENTCOLOR1ACI
1070
     5
1001
GRADIENTCOLOR2ACI
1070
     2
1001
ACAD
1010
0.0
1020
0.0
1030
0.0
  0
HATCH
  5
29296
330
2
100
AcDbEntity
  8
0
  6
Continuous
 62
     0
100
AcDbHatch
 10
0.0
 20
0.0
 30
0.0
210
0.0
220
0.0
230
0.9999999999999998
  2
SOLID
 70
     1
 71
     1
 91
        2
 92
        5
 93
        4
 72
     4
 94
        3
 73
     0
 74
     0
 95
        8
 96
        4
 40
0.0
 40
0.0
 40
0.0
 40
0.0
 40
1.0
 40
1.0
 40
1.0
 40
1.0
 10
250.3452327220549
 20
21.49309427510605
 10
250.3452327220549
 20
20.09143864991123
 10
251.3052879203311
 20
19.01714211365301
 10
252.9658291582113
 20
19.01714211365301
 97
        0
 72
     4
 94
        3
 73
     0
 74
     0
 95
        8
 96
        4
 40
3.0
 40
3.0
 40
3.0
 40
3.0
 40
4.0
 40
4.0
 40
4.0
 40
4.0
 10
252.9658291582113
 20
19.01714211365301
 10
255.1676496595326
 20
19.01714211365301
 10
256.3027520692327
 20
20.70077531813356
 10
256.3027520692327
 20
22.22445876168296
 97
        0
 72
     4
 94
        3
 73
     0
 74
     0
 95
        8
 96
        4
 40
2.0
 40
2.0
 40
2.0
 40
2.0
 40
3.0
 40
3.0
 40
3.0
 40
3.0
 10
256.3027520692327
 20
22.22445876168296
 10
256.3027520692327
 20
23.58825518539628
 10
255.3428157485197
 20
24.7157758481455
 10
253.6136227180437
 20
24.7157758481455
 97
        0
 72
     4
 94
        3
 73
     0
 74
     0
 95
        8
 96
        4
 40
1.0
 40
1.0
 40
1.0
 40
1.0
 40
2.0
 40
2.0
 40
2.0
 40
2.0
 10
253.6136227180437
 20
24.7157758481455
 10
251.487854137611
 20
24.7157758481455
 10
250.3452327220549
 20
23.02432644390192
 10
250.3452327220549
 20
21.49309427510605
 97
        0
 97
        1
330
283E1
 92
       20
 93
        4
 72
     4
 94
        3
 73
     0
 74
     0
 95
        8
 96
        4
 40
2.0
 40
2.0
 40
2.0
 40
2.0
 40
3.0
 40
3.0
 40
3.0
 40
3.0
 10
253.0647947293561
 20
20.31231316184737
 10
252.5010476065198
 20
20.31231316184737
 10
252.0137402566331
 20
20.68567786764069
 10
252.0137402566331
 20
21.47799682461318
 97
        0
 72
     4
 94
        3
 73
     0
 74
     0
 95
        8
 96
        4
 40
1.0
 40
1.0
 40
1.0
 40
1.0
 40
2.0
 40
2.0
 40
2.0
 40
2.0
 10
252.0137402566331
 20
21.47799682461318
 10
252.0137402566331
 20
22.30081114626944
 10
252.5850643241252
 20
23.48158898973764
 10
253.6284229746292
 20
23.48158898973764
 97
        0
 72
     4
 94
        3
 73
     0
 74
     0
 95
        8
 96
        4
 40
0.0
 40
0.0
 40
0.0
 40
0.0
 40
1.0
 40
1.0
 40
1.0
 40
1.0
 10
253.6284229746292
 20
23.48158898973764
 10
254.1772509633169
 20
23.48158898973764
 10
254.6496109596456
 20
23.10837288089808
 10
254.6496109596456
 20
22.32357292978132
 97
        0
 72
     4
 94
        3
 73
     0
 74
     0
 95
        8
 96
        4
 40
3.0
 40
3.0
 40
3.0
 40
3.0
 40
4.0
 40
4.0
 40
4.0
 40
4.0
 10
254.6496109596456
 20
22.32357292978132
 10
254.6496109596456
 20
21.53895129500892
 10
254.1923484138098
 20
20.31231316184737
 10
253.0647947293561
 20
20.31231316184737
 97
        0
 97
        1
330
283E0
 75
     1
 76
     1
 47
0.0269459378258844
 98
        2
 10
251.9098027589528
 20
21.10258150255277
 10
251.9098027589528
 20
21.10258150255277
450
        0
451
        0
460
0.0
461
0.0
452
        0
462
1.0
453
        2
463
0.0
 63
     5
421
      255
463
1.0
 63
     2
421
 16776960
470
LINEAR
1001
GRADIENTCOLOR1ACI
1070
     5
1001
GRADIENTCOLOR2ACI
1070
     2
1001
ACAD
1010
0.0
1020
0.0
1030
0.0
  0
HATCH
  5
2929D
330
2
100
AcDbEntity
  8
0
  6
Continuous
 62
     0
100
AcDbHatch
 10
0.0
 20
0.0
 30
0.0
210
0.0
220
0.0
230
0.9999999999999998
  2
SOLID
 70
     1
 71
     0
 91
        1
 92
        5
 93
        1
 72
     4
 94
        3
 73
     0
 74
     0
 95
       41
 96
       37
 40
0.0
 40
0.0
 40
0.0
 40
0.0
 40
1.0
 40
1.0
 40
1.0
 40
2.0
 40
2.0
 40
2.0
 40
3.0
 40
3.0
 40
3.0
 40
4.0
 40
4.0
 40
4.0
 40
5.0
 40
5.0
 40
5.0
 40
6.0
 40
6.0
 40
6.0
 40
7.0
 40
7.0
 40
7.0
 40
8.0
 40
8.0
 40
8.0
 40
9.0
 40
9.0
 40
9.0
 40
10.0
 40
10.0
 40
10.0
 40
11.0
 40
11.0
 40
11.0
 40
12.0
 40
12.0
 40
12.0
 40
12.0
 10
227.5923346505039
 20
19.29998155526998
 10
227.5923346505039
 20
19.29998155526998
 10
225.8380287348576
 20
19.29998155526998
 10
225.8380287348576
 20
19.29998155526998
 10
225.8380287348576
 20
19.29998155526998
 10
229.3467603710779
 20
24.71622163900658
 10
229.3467603710779
 20
24.71622163900658
 10
229.3467603710779
 20
24.71622163900658
 10
231.1548881490208
 20
24.71622163900658
 10
231.1548881490208
 20
24.71622163900658
 10
231.1548881490208
 20
24.71622163900658
 10
231.5610620891428
 20
19.29998155526998
 10
231.5610620891428
 20
19.29998155526998
 10
231.5610620891428
 20
19.29998155526998
 10
229.9291109051489
 20
19.29998155526998
 10
229.9291109051489
 20
19.29998155526998
 10
229.9291109051489
 20
19.29998155526998
 10
229.8754079660923
 20
20.17343444894676
 10
229.8754079660923
 20
20.17343444894676
 10
229.8754079660923
 20
20.17343444894676
 10
228.6924276179193
 20
20.17343444894676
 10
228.6924276179193
 20
20.17343444894676
 10
228.6924276179193
 20
20.17343444894676
 10
229.2797124982168
 20
21.29935356691016
 10
229.2797124982168
 20
21.29935356691016
 10
229.2797124982168
 20
21.29935356691016
 10
229.8218536239894
 20
21.29935356691016
 10
229.8218536239894
 20
21.29935356691016
 10
229.8218536239894
 20
21.29935356691016
 10
229.7527857599232
 20
22.88532885343829
 10
229.7527857599232
 20
22.88532885343829
 10
229.7527857599232
 20
22.88532885343829
 10
227.6010433152532
 20
19.31216650547105
 10
227.6010433152532
 20
19.31216650547105
 10
227.6010433152532
 20
19.31216650547105
 10
227.5923346505039
 20
19.29998155526998
 10
227.5923346505039
 20
19.29998155526998
 97
        0
 97
        0
 75
     1
 76
     1
 47
0.0269459378258844
 98
        1
 10
230.8891337742314
 20
21.5360788705908
450
        0
451
        0
460
0.0
461
0.0
452
        0
462
1.0
453
        2
463
0.0
 63
     5
421
      255
463
1.0
 63
     2
421
 16776960
470
LINEAR
1001
GRADIENTCOLOR1ACI
1070
     5
1001
GRADIENTCOLOR2ACI
1070
     2
1001
ACAD
1010
0.0
1020
0.0
1030
0.0
  0
SPLINE
  5
2942D
102
{ACAD_REACTORS
330
2944B
102
}
330
2
100
AcDbEntity
  8
Layer 1
100
AcDbSpline
210
0.0
220
0.0
230
1.0
 70
    24
 71
     3
 72
     8
 73
     4
 74
     0
 42
0.000000001
 43
0.0000000001
 40
0.0
 40
0.0
 40
0.0
 40
0.0
 40
1.0
 40
1.0
 40
1.0
 40
1.0
 10
225.6696981057393
 20
19.29998155526998
 30
0.0
 10
225.6696981057393
 20
19.29998155526998
 30
0.0
 10
223.9843411765961
 20
19.29998155526998
 30
0.0
 10
223.9843411765961
 20
19.29998155526998
 30
0.0
  0
SPLINE
  5
2942E
102
{ACAD_REACTORS
330
2944B
102
}
330
2
100
AcDbEntity
  8
Layer 1
100
AcDbSpline
210
0.0
220
0.0
230
1.0
 70
    24
 71
     3
 72
     8
 73
     4
 74
     0
 42
0.000000001
 43
0.0000000001
 40
1.0
 40
1.0
 40
1.0
 40
1.0
 40
2.0
 40
2.0
 40
2.0
 40
2.0
 10
223.9843411765961
 20
19.29998155526998
 30
0.0
 10
223.9843411765961
 20
19.29998155526998
 30
0.0
 10
224.7505665085042
 20
22.80883114168853
 30
0.0
 10
224.7505665085042
 20
22.80883114168853
 30
0.0
  0
SPLINE
  5
2942F
102
{ACAD_REACTORS
330
2944B
102
}
330
2
100
AcDbEntity
  8
Layer 1
100
AcDbSpline
210
0.0
220
0.0
230
1.0
 70
    24
 71
     3
 72
     8
 73
     4
 74
     0
 42
0.000000001
 43
0.0000000001
 40
2.0
 40
2.0
 40
2.0
 40
2.0
 40
3.0
 40
3.0
 40
3.0
 40
3.0
 10
224.7505665085042
 20
22.80883114168853
 30
0.0
 10
224.7505665085042
 20
22.80883114168853
 30
0.0
 10
222.4828581179253
 20
19.29998155526998
 30
0.0
 10
222.4828581179253
 20
19.29998155526998
 30
0.0
  0
SPLINE
  5
29430
102
{ACAD_REACTORS
330
2944B
102
}
330
2
100
AcDbEntity
  8
Layer 1
100
AcDbSpline
210
0.0
220
0.0
230
1.0
 70
    24
 71
     3
 72
     8
 73
     4
 74
     0
 42
0.000000001
 43
0.0000000001
 40
3.0
 40
3.0
 40
3.0
 40
3.0
 40
4.0
 40
4.0
 40
4.0
 40
4.0
 10
222.4828581179253
 20
19.29998155526998
 30
0.0
 10
222.4828581179253
 20
19.29998155526998
 30
0.0
 10
221.9465130137648
 20
19.29998155526998
 30
0.0
 10
221.9465130137648
 20
19.29998155526998
 30
0.0
  0
SPLINE
  5
29431
102
{ACAD_REACTORS
330
2944B
102
}
330
2
100
AcDbEntity
  8
Layer 1
100
AcDbSpline
210
0.0
220
0.0
230
1.0
 70
    24
 71
     3
 72
     8
 73
     4
 74
     0
 42
0.000000001
 43
0.0000000001
 40
4.0
 40
4.0
 40
4.0
 40
4.0
 40
5.0
 40
5.0
 40
5.0
 40
5.0
 10
221.9465130137648
 20
19.29998155526998
 30
0.0
 10
221.9465130137648
 20
19.29998155526998
 30
0.0
 10
221.5404866872975
 20
22.8853288534383
 30
0.0
 10
221.5404866872975
 20
22.8853288534383
 30
0.0
  0
SPLINE
  5
29432
102
{ACAD_REACTORS
330
2944B
102
}
330
2
100
AcDbEntity
  8
Layer 1
100
AcDbSpline
210
0.0
220
0.0
230
1.0
 70
    24
 71
     3
 72
     8
 73
     4
 74
     0
 42
0.000000001
 43
0.0000000001
 40
5.0
 40
5.0
 40
5.0
 40
5.0
 40
6.0
 40
6.0
 40
6.0
 40
6.0
 10
221.5404866872975
 20
22.8853288534383
 30
0.0
 10
221.5404866872975
 20
22.8853288534383
 30
0.0
 10
220.4294866754165
 20
19.29998155526998
 30
0.0
 10
220.4294866754165
 20
19.29998155526998
 30
0.0
  0
SPLINE
  5
29433
102
{ACAD_REACTORS
330
2944B
102
}
330
2
100
AcDbEntity
  8
Layer 1
100
AcDbSpline
210
0.0
220
0.0
230
1.0
 70
    24
 71
     3
 72
     8
 73
     4
 74
     0
 42
0.000000001
 43
0.0000000001
 40
6.0
 40
6.0
 40
6.0
 40
6.0
 40
7.0
 40
7.0
 40
7.0
 40
7.0
 10
220.4294866754165
 20
19.29998155526998
 30
0.0
 10
220.4294866754165
 20
19.29998155526998
 30
0.0
 10
218.7824379993219
 20
19.29998155526998
 30
0.0
 10
218.7824379993219
 20
19.29998155526998
 30
0.0
  0
SPLINE
  5
29434
102
{ACAD_REACTORS
330
2944B
102
}
330
2
100
AcDbEntity
  8
Layer 1
100
AcDbSpline
210
0.0
220
0.0
230
1.0
 70
    24
 71
     3
 72
     8
 73
     4
 74
     0
 42
0.000000001
 43
0.0000000001
 40
7.0
 40
7.0
 40
7.0
 40
7.0
 40
8.0
 40
8.0
 40
8.0
 40
8.0
 10
218.7824379993219
 20
19.29998155526998
 30
0.0
 10
218.7824379993219
 20
19.29998155526998
 30
0.0
 10
220.7511990882409
 20
24.70867624437805
 30
0.0
 10
220.7511990882409
 20
24.70867624437805
 30
0.0
  0
SPLINE
  5
29435
102
{ACAD_REACTORS
330
2944B
102
}
330
2
100
AcDbEntity
  8
Layer 1
100
AcDbSpline
210
0.0
220
0.0
230
1.0
 70
    24
 71
     3
 72
     8
 73
     4
 74
     0
 42
0.000000001
 43
0.0000000001
 40
8.0
 40
8.0
 40
8.0
 40
8.0
 40
9.0
 40
9.0
 40
9.0
 40
9.0
 10
220.7511990882409
 20
24.70867624437805
 30
0.0
 10
220.7511990882409
 20
24.70867624437805
 30
0.0
 10
222.5365618123065
 20
24.70867624437805
 30
0.0
 10
222.5365618123065
 20
24.70867624437805
 30
0.0
  0
SPLINE
  5
29436
102
{ACAD_REACTORS
330
2944B
102
}
330
2
100
AcDbEntity
  8
Layer 1
100
AcDbSpline
210
0.0
220
0.0
230
1.0
 70
    24
 71
     3
 72
     8
 73
     4
 74
     0
 42
0.000000001
 43
0.0000000001
 40
9.0
 40
9.0
 40
9.0
 40
9.0
 40
10.0
 40
10.0
 40
10.0
 40
10.0
 10
222.5365618123065
 20
24.70867624437805
 30
0.0
 10
222.5365618123065
 20
24.70867624437805
 30
0.0
 10
222.8656735899718
 20
21.73631776887439
 30
0.0
 10
222.8656735899718
 20
21.73631776887439
 30
0.0
  0
SPLINE
  5
29437
102
{ACAD_REACTORS
330
2944B
102
}
330
2
100
AcDbEntity
  8
Layer 1
100
AcDbSpline
210
0.0
220
0.0
230
1.0
 70
    24
 71
     3
 72
     8
 73
     4
 74
     0
 42
0.000000001
 43
0.0000000001
 40
10.0
 40
10.0
 40
10.0
 40
10.0
 40
11.0
 40
11.0
 40
11.0
 40
11.0
 10
222.8656735899718
 20
21.73631776887439
 30
0.0
 10
222.8656735899718
 20
21.73631776887439
 30
0.0
 10
224.7350232671501
 20
24.70867624437805
 30
0.0
 10
224.7350232671501
 20
24.70867624437805
 30
0.0
  0
SPLINE
  5
29438
102
{ACAD_REACTORS
330
2944B
102
}
330
2
100
AcDbEntity
  8
Layer 1
100
AcDbSpline
210
0.0
220
0.0
230
1.0
 70
    24
 71
     3
 72
     8
 73
     4
 74
     0
 42
0.000000001
 43
0.0000000001
 40
11.0
 40
11.0
 40
11.0
 40
11.0
 40
12.0
 40
12.0
 40
12.0
 40
12.0
 10
224.7350232671501
 20
24.70867624437805
 30
0.0
 10
224.7350232671501
 20
24.70867624437805
 30
0.0
 10
226.55099691857
 20
24.70867624437805
 30
0.0
 10
226.55099691857
 20
24.70867624437805
 30
0.0
  0
SPLINE
  5
29439
102
{ACAD_REACTORS
330
2944B
102
}
330
2
100
AcDbEntity
  8
Layer 1
100
AcDbSpline
210
0.0
220
0.0
230
1.0
 70
    24
 71
     3
 72
     8
 73
     4
 74
     0
 42
0.000000001
 43
0.0000000001
 40
12.0
 40
12.0
 40
12.0
 40
12.0
 40
13.0
 40
13.0
 40
13.0
 40
13.0
 10
226.55099691857
 20
24.70867624437805
 30
0.0
 10
226.55099691857
 20
24.70867624437805
 30
0.0
 10
225.6696981057393
 20
19.29998155526998
 30
0.0
 10
225.6696981057393
 20
19.29998155526998
 30
0.0
  0
HATCH
  5
2944B
330
2
100
AcDbEntity
  8
0
  6
Continuous
 62
     0
100
AcDbHatch
 10
0.0
 20
0.0
 30
0.0
210
0.0
220
0.0
230
0.9999999999999998
  2
SOLID
 70
     1
 71
     1
 91
        1
 92
        5
 93
       13
 72
     4
 94
        3
 73
     0
 74
     0
 95
        8
 96
        4
 40
1.0
 40
1.0
 40
1.0
 40
1.0
 40
2.0
 40
2.0
 40
2.0
 40
2.0
 10
224.7505665085042
 20
22.80883114168853
 10
224.7505665085042
 20
22.80883114168853
 10
223.9843411765961
 20
19.29998155526998
 10
223.9843411765961
 20
19.29998155526998
 97
        0
 72
     4
 94
        3
 73
     0
 74
     0
 95
        8
 96
        4
 40
0.0
 40
0.0
 40
0.0
 40
0.0
 40
1.0
 40
1.0
 40
1.0
 40
1.0
 10
223.9843411765961
 20
19.29998155526998
 10
223.9843411765961
 20
19.29998155526998
 10
225.6696981057393
 20
19.29998155526998
 10
225.6696981057393
 20
19.29998155526998
 97
        0
 72
     4
 94
        3
 73
     0
 74
     0
 95
        8
 96
        4
 40
12.0
 40
12.0
 40
12.0
 40
12.0
 40
13.0
 40
13.0
 40
13.0
 40
13.0
 10
225.6696981057393
 20
19.29998155526998
 10
225.6696981057393
 20
19.29998155526998
 10
226.55099691857
 20
24.70867624437805
 10
226.55099691857
 20
24.70867624437805
 97
        0
 72
     4
 94
        3
 73
     0
 74
     0
 95
        8
 96
        4
 40
11.0
 40
11.0
 40
11.0
 40
11.0
 40
12.0
 40
12.0
 40
12.0
 40
12.0
 10
226.55099691857
 20
24.70867624437805
 10
226.55099691857
 20
24.70867624437805
 10
224.7350232671501
 20
24.70867624437805
 10
224.7350232671501
 20
24.70867624437805
 97
        0
 72
     4
 94
        3
 73
     0
 74
     0
 95
        8
 96
        4
 40
10.0
 40
10.0
 40
10.0
 40
10.0
 40
11.0
 40
11.0
 40
11.0
 40
11.0
 10
224.7350232671501
 20
24.70867624437805
 10
224.7350232671501
 20
24.70867624437805
 10
222.8656735899718
 20
21.73631776887439
 10
222.8656735899718
 20
21.73631776887439
 97
        0
 72
     4
 94
        3
 73
     0
 74
     0
 95
        8
 96
        4
 40
9.0
 40
9.0
 40
9.0
 40
9.0
 40
10.0
 40
10.0
 40
10.0
 40
10.0
 10
222.8656735899718
 20
21.73631776887439
 10
222.8656735899718
 20
21.73631776887439
 10
222.5365618123065
 20
24.70867624437805
 10
222.5365618123065
 20
24.70867624437805
 97
        0
 72
     4
 94
        3
 73
     0
 74
     0
 95
        8
 96
        4
 40
8.0
 40
8.0
 40
8.0
 40
8.0
 40
9.0
 40
9.0
 40
9.0
 40
9.0
 10
222.5365618123065
 20
24.70867624437805
 10
222.5365618123065
 20
24.70867624437805
 10
220.7511990882409
 20
24.70867624437805
 10
220.7511990882409
 20
24.70867624437805
 97
        0
 72
     4
 94
        3
 73
     0
 74
     0
 95
        8
 96
        4
 40
7.0
 40
7.0
 40
7.0
 40
7.0
 40
8.0
 40
8.0
 40
8.0
 40
8.0
 10
220.7511990882409
 20
24.70867624437805
 10
220.7511990882409
 20
24.70867624437805
 10
218.7824379993219
 20
19.29998155526998
 10
218.7824379993219
 20
19.29998155526998
 97
        0
 72
     4
 94
        3
 73
     0
 74
     0
 95
        8
 96
        4
 40
6.0
 40
6.0
 40
6.0
 40
6.0
 40
7.0
 40
7.0
 40
7.0
 40
7.0
 10
218.7824379993219
 20
19.29998155526998
 10
218.7824379993219
 20
19.29998155526998
 10
220.4294866754165
 20
19.29998155526998
 10
220.4294866754165
 20
19.29998155526998
 97
        0
 72
     4
 94
        3
 73
     0
 74
     0
 95
        8
 96
        4
 40
5.0
 40
5.0
 40
5.0
 40
5.0
 40
6.0
 40
6.0
 40
6.0
 40
6.0
 10
220.4294866754165
 20
19.29998155526998
 10
220.4294866754165
 20
19.29998155526998
 10
221.5404866872975
 20
22.8853288534383
 10
221.5404866872975
 20
22.8853288534383
 97
        0
 72
     4
 94
        3
 73
     0
 74
     0
 95
        8
 96
        4
 40
4.0
 40
4.0
 40
4.0
 40
4.0
 40
5.0
 40
5.0
 40
5.0
 40
5.0
 10
221.5404866872975
 20
22.8853288534383
 10
221.5404866872975
 20
22.8853288534383
 10
221.9465130137648
 20
19.29998155526998
 10
221.9465130137648
 20
19.29998155526998
 97
        0
 72
     4
 94
        3
 73
     0
 74
     0
 95
        8
 96
        4
 40
3.0
 40
3.0
 40
3.0
 40
3.0
 40
4.0
 40
4.0
 40
4.0
 40
4.0
 10
221.9465130137648
 20
19.29998155526998
 10
221.9465130137648
 20
19.29998155526998
 10
222.4828581179253
 20
19.29998155526998
 10
222.4828581179253
 20
19.29998155526998
 97
        0
 72
     4
 94
        3
 73
     0
 74
     0
 95
        8
 96
        4
 40
2.0
 40
2.0
 40
2.0
 40
2.0
 40
3.0
 40
3.0
 40
3.0
 40
3.0
 10
222.4828581179253
 20
19.29998155526998
 10
222.4828581179253
 20
19.29998155526998
 10
224.7505665085042
 20
22.80883114168853
 10
224.7505665085042
 20
22.80883114168853
 97
        0
 97
       13
330
29439
330
29438
330
29437
330
29436
330
29435
330
29434
330
29433
330
29432
330
29431
330
29430
330
2942F
330
2942E
330
2942D
 75
     1
 76
     1
 47
0.0269459378258844
 98
        1
 10
224.8483211240657
 20
21.13885995462337
450
        0
451
        0
460
0.0
461
0.0
452
        0
462
1.0
453
        2
463
0.0
 63
     5
421
      255
463
1.0
 63
     2
421
 16776960
470
LINEAR
1001
GRADIENTCOLOR1ACI
1070
     5
1001
GRADIENTCOLOR2ACI
1070
     2
1001
ACAD
1010
0.0
1020
0.0
1030
0.0
  0
MULTILEADER
  5
36FBF
330
2
100
AcDbEntity
  8
0
  6
Continuous
 62
     7
160
               700
310
BC020000180000000C00000016000000020000C30C00000033000000000000000C00000013000000993A00000C00000016000000020000C3E00000002600000096FDC40A5B826A404A9C7D4388114F40000000000000000000000000000000000000000000000000000000000000F03F000000000000F03F00000000000000
310
00000000000000000055004E00460031002F0034002D0032003800000009000000010000000000000000000840000000000000F03F0000000000000000000000000000F03F00000000000000000000000000000000000000000000000000000000010000000000000000000000690073006F00630070002E00730068007800
310
00007700680067007400780074002E00730068007800000000000C00000033000000000000000C00000010000000000000000C00000016000000030000C30C00000012000000000000000C00000013000000010000000C00000014000000010000005400000007000000030000005E87C3BE21166B40E5044EE1E81C574000
310
00000000000000301432FEBB3C6B404056BA9890AB57400000000000000000254973095A2F6B404692E9CF940B574000000000000000000C000000130000008913000054000000060000000300000041681BE4BD226B4096CB9BD83E14574000000000000000007C5DDB8775E76940001D71F091D14F400000000000000000
310
FC632B71C1706A40E01C71F091D14F4000000000000000000C00000013000000112700003C0000000600000002000000FC632B71C1706A40E01C71F091D14F400000000000000000FC632B71C1806A40E01C71F091D14F4000000000000000000C00000016000000030000C30C00000012000000000000000C000000170000
310
00000000000C000000130000009A3A00000C00000016000000070000C30C00000012000000000000000C00000017000000FFFFFFFF0C0000003300000000000000
100
AcDbMLeader
270
     2
300
CONTEXT_DATA{
 40
1.0
 10
212.0236135337326
 20
63.63726621172986
 30
0.0
 41
3.0
140
2.5
145
0.5
174
     2
175
     2
176
     0
177
     1
290
     1
304
UNF1/4-28
 11
0.0
 21
0.0
 31
1.0
340
25
 12
212.5236135337326
 22
65.13756148732046
 32
0.0
 13
1.0
 23
0.0
 33
0.0
 42
0.0
 43
0.0
 44
0.0
 45
1.0
170
     1
 90
-1023410174
171
     1
172
     5
 91
-1073741824
141
0.0
 92
     2047
291
     0
292
     0
173
     0
293
     0
142
0.0
143
0.0
294
     0
295
     0
296
     0
110
257.8979483583548
120
94.6807004756638
130
0.0
111
1.0
121
0.0
131
0.0
112
0.0
122
1.0
132
0.0
297
     0
302
LEADER{
290
     1
291
     1
 10
211.5236135337326
 20
63.63726621172986
 30
0.0
 11
1.0
 21
0.0
 31
0.0
 90
        0
 40
0.5
304
LEADER_LINE{
 10
217.8979483583548
 20
94.6807004756638
 30
0.0
 10
207.2330970081783
 20
63.63726621173009
 30
0.0
 91
        0
305
}
271
     0
303
}
272
     9
273
     9
301
}
340
BD9
 90
   347136
170
     1
 91
-1023410173
341
28
171
    -1
290
     1
291
     1
 41
0.5
 42
2.5
172
     2
343
25
173
     2
 95
        2
174
     1
175
     0
 92
-1023410174
292
     0
 93
-1023410174
 10
1.0
 20
1.0
 30
1.0
 43
0.0
176
     1
293
     0
294
     0
178
     0
179
     1
 45
1.0
271
     0
272
     9
273
     9
295
     0
  0
DIMENSION
  5
36FC0
330
2
100
AcDbEntity
  8
0
  6
Continuous
 62
     7
100
AcDbDimension
280
     0
  2
*D0
 10
180.1309530699372
 20
91.32391584663036
 30
0.0
 11
178.0059530699372
 21
97.67391584663075
 31
0.0
 70
    32
  1
%%C.500
 71
     5
 42
12.70000000000073
 73
     0
 74
     0
 75
     0
  3
Standard$0
100
AcDbAlignedDimension
 13
150.2254703204967
 23
104.0239158466311
 33
0.0
 14
149.9674703205088
 24
91.32391584663038
 34
0.0
 50
90.0
100
AcDbRotatedDimension
1001
ACAD
1000
DSTYLE
1002
{
1070
    76
1070
     1
1070
   282
1070
     1
1070
    42
1040
0.625
1070
    43
1040
3.75
1070
    44
1040
1.25
1070
    48
1040
0.000000001
1070
    74
1070
     0
1070
    77
1070
     1
1070
    90
1070
     1
1070
   140
1040
3.0
1070
   141
1040
-0.5
1070
   143
1040
0.03937007874016
1070
   146
1040
0.7
1070
   147
1040
0.625
1070
   171
1070
     3
1070
   172
1070
     1
1070
   175
1070
     0
1070
   274
1070
     3
1070
   283
1070
     0
1070
   284
1070
     8
1070
   340
1005
25
1070
   371
1070
    -1
1070
   372
1070
    -1
1002
}
  0
DIMENSION
  5
36FC1
330
2
100
AcDbEntity
  8
0
  6
Continuous
 62
     7
100
AcDbDimension
280
     0
  2
*D1
 10
188.1309530699373
 20
81.92591584662521
 30
0.0
 11
188.1309530699373
 21
97.67391584663165
 31
0.0
 70
   160
  1
%%C1.24
 71
     5
 42
31.47809373612745
 73
     0
 74
     0
 75
     0
  3
Standard$0
100
AcDbAlignedDimension
 13
141.2840924204848
 23
113.4040095827526
 33
0.0
 14
141.335470320497
 24
81.92591584662523
 34
0.0
 50
90.0
100
AcDbRotatedDimension
1001
ACAD
1000
DSTYLE
1002
{
1070
    76
1070
     1
1070
   282
1070
     1
1070
    42
1040
0.625
1070
    43
1040
3.75
1070
    44
1040
1.25
1070
    48
1040
0.000000001
1070
    74
1070
     0
1070
    77
1070
     1
1070
    90
1070
     1
1070
   140
1040
3.0
1070
   141
1040
-0.5
1070
   143
1040
0.03937007874016
1070
   146
1040
0.7
1070
   147
1040
0.625
1070
   171
1070
     3
1070
   172
1070
     1
1070
   175
1070
     0
1070
   274
1070
     3
1070
   283
1070
     0
1070
   284
1070
     8
1070
   340
1005
25
1070
   371
1070
    -1
1070
   372
1070
    -1
1002
}
  0
MULTILEADER
  5
36FC2
330
2
100
AcDbEntity
  8
0
  6
Continuous
 62
     7
160
               692
310
B4020000180000000C00000016000000020000C30C00000033000000000000000C00000013000000993A00000C00000016000000020000C3D80000002600000040441DEB31616240403E5D11DF075240000000000000000000000000000000000000000000000000000000000000F03F000000000000F03F00000000000000
310
00000000000000000043002E00300031000000490004000000010000000000000000000840000000000000F03F0000000000000000000000000000F03F00000000000000000000000000000000000000000000000000000000010000000000000000000000690073006F00630070002E007300680078000000770068006700
310
7400780074002E00730068007800000000000C00000033000000000000000C00000010000000000000000C00000016000000030000C30C00000012000000000000000C00000013000000010000000C00000014000000010000005400000007000000030000002DBFE63CA5C66140A124B4CC42E85340000000000000000008
310
EA402CBCAE6140A0068A34428354400000000000000000A70F23DE7CDE6140E2228C0D2600544000000000000000000C00000013000000891300005400000006000000030000006AE7840D91D26140C123206D34F453400000000000000000F83F6EB2D6356240403E5D11DF6752400000000000000000F847CB191F4B6240
310
403E5D11DF67524000000000000000000C00000013000000112700003C0000000600000002000000F847CB191F4B6240403E5D11DF6752400000000000000000F847CB191F5B6240403E5D11DF67524000000000000000000C00000016000000030000C30C00000012000000000000000C00000017000000000000000C0000
310
00130000009A3A00000C00000016000000070000C30C00000012000000000000000C00000017000000FFFFFFFF0C0000003300000000000000
100
AcDbMLeader
270
     2
300
CONTEXT_DATA{
 40
1.0
 10
146.847546479257
 20
73.62298997979905
 30
0.0
 41
3.0
140
2.5
145
0.5
174
     2
175
     2
176
     0
177
     1
290
     1
304
C.01
 11
0.0
 21
0.0
 31
1.0
340
25
 12
147.3475464792571
 22
75.12298997979906
 32
0.0
 13
1.0
 23
0.0
 33
0.0
 42
0.0
 43
0.0
 44
0.0
 45
1.0
170
     1
 90
-1023410174
171
     1
172
     5
 91
-939524096
141
1.5
 92
        0
291
     0
292
     0
173
     0
293
     0
142
0.0
143
0.0
294
     0
295
     0
296
     0
110
130.6604703204971
120
75.70091584662304
130
0.0
111
1.0
121
0.0
131
0.0
112
0.0
122
1.0
132
0.0
297
     0
302
LEADER{
290
     1
291
     1
 10
146.347546479257
 20
73.62298997979905
 30
0.0
 11
1.0
 21
0.0
 31
0.0
 90
        0
 40
0.5
304
LEADER_LINE{
 10
141.460470320497
 20
82.05091584662524
 30
0.0
 10
145.6824581292455
 20
73.62298997979905
 30
0.0
 91
        0
305
}
271
     0
303
}
272
     9
273
     9
301
}
340
BD9
 90
   379904
170
     1
 91
-1023410173
341
28
171
    -1
290
     1
291
     1
 41
0.5
 42
2.5
172
     2
343
25
173
     2
 95
        2
174
     1
175
     0
 92
-1023410174
292
     0
 93
-1023410174
 10
1.0
 20
1.0
 30
1.0
 43
0.0
176
     1
293
     0
294
     0
178
     0
179
     1
 45
1.0
271
     0
272
     9
273
     9
295
     0
  0
MULTILEADER
  5
36FC3
330
2
100
AcDbEntity
  8
0
  6
Continuous
 62
     7
160
               692
310
B4020000180000000C00000016000000020000C30C00000033000000000000000C00000013000000993A00000C00000016000000020000C3D800000026000000E1AC23E7C6145740C0FD65E89BEA5D40000000000000000000000000000000000000000000000000000000000000F03F000000000000F03F00000000000000
310
00000000000000000043002E00300035000000490004000000010000000000000000000840000000000000F03F0000000000000000000000000000F03F00000000000000000000000000000000000000000000000000000000010000000000000000000000690073006F00630070002E007300680078000000770068006700
310
7400780074002E00730068007800000000000C00000033000000000000000C00000010000000000000000C00000016000000030000C30C00000012000000000000000C00000013000000010000000C000000140000000100000054000000070000000300000053F5CD119D8F5540877CFCBB50E55C40000000000000000010
310
128C2F1C0E5540E0015D82A4835C40000000000000000020221A8BEF6855406A7AF470090A5D4000000000000000000C0000001300000089130000540000000600000003000000B90B744E467C5540787B7816ADF75C40000000000000000050A4C57510BE5640C0FD65E89B4A5E40000000000000000050B47F44A1E85640
310
C0FD65E89B4A5E4000000000000000000C00000013000000112700003C000000060000000200000050B47F44A1E85640C0FD65E89B4A5E40000000000000000050B47F44A1085740C0FD65E89B4A5E4000000000000000000C00000016000000030000C30C00000012000000000000000C00000017000000000000000C0000
310
00130000009A3A00000C00000016000000070000C30C00000012000000000000000C00000017000000FFFFFFFF0C0000003300000000000000
100
AcDbMLeader
270
     2
300
CONTEXT_DATA{
 40
1.0
 10
92.13484299155357
 20
121.1657658573158
 30
0.0
 41
3.0
140
2.5
145
0.5
174
     2
175
     2
176
     0
177
     1
290
     1
304
C.05
 11
0.0
 21
0.0
 31
1.0
340
25
 12
92.63484299155356
 22
122.6657658573158
 32
0.0
 13
1.0
 23
0.0
 33
0.0
 42
0.0
 43
0.0
 44
0.0
 45
1.0
170
     1
 90
-1023410174
171
     1
172
     5
 91
-939524096
141
1.5
 92
        0
291
     0
292
     0
173
     0
293
     0
142
0.0
143
0.0
294
     0
295
     0
296
     0
110
131.2054703205001
120
117.3609158466615
130
0.0
111
1.0
121
0.0
131
0.0
112
0.0
122
1.0
132
0.0
297
     0
302
LEADER{
290
     1
291
     1
 10
91.63484299155356
 20
121.1657658573158
 30
0.0
 11
1.0
 21
0.0
 31
0.0
 90
        0
 40
0.5
304
LEADER_LINE{
 10
84.22047032049908
 20
114.0569158466601
 30
0.0
 10
90.96975464154207
 20
121.1657658573158
 30
0.0
 91
        0
305
}
271
     0
303
}
272
     9
273
     9
301
}
340
BD9
 90
   379904
170
     1
 91
-1023410173
341
28
171
    -1
290
     1
291
     1
 41
0.5
 42
2.5
172
     2
343
25
173
     2
 95
        2
174
     1
175
     0
 92
-1023410174
292
     0
 93
-1023410174
 10
1.0
 20
1.0
 30
1.0
 43
0.0
176
     1
293
     0
294
     0
178
     0
179
     1
 45
1.0
271
     0
272
     9
273
     9
295
     0
  0
DIMENSION
  5
37031
330
2
100
AcDbEntity
  8
0
  6
Continuous
 62
     7
100
AcDbDimension
280
     0
  2
*D2
 10
222.1468566371999
 20
120.9627200173654
 30
0.0
 11
232.7718566371999
 21
123.0880152929559
 31
0.0
 70
    32
  1
.253~.251
 71
     5
 42
6.379999999999881
 73
     0
 74
     0
 75
     0
  3
사본 ISO-25
100
AcDbAlignedDimension
 13
215.7668566372
 23
113.080252982601
 33
0.0
 14
222.1468566371999
 24
113.080252982601
 34
0.0
100
AcDbRotatedDimension
1001
ACAD
1000
DSTYLE
1002
{
1070
    90
1070
     1
1002
}
  0
DIMENSION
  5
37032
330
2
100
AcDbEntity
  8
0
  6
Continuous
 62
     7
100
AcDbDimension
280
     0
  2
*D3
 10
243.7782462456681
 20
108.083915846631
 30
0.0
 11
241.6532462456681
 21
102.8789158466309
 31
0.0
 70
    32
  1
.41
 71
     5
 42
10.41000000000029
 73
     0
 74
     0
 75
     0
  3
사본 ISO-25
100
AcDbAlignedDimension
 13
235.186950373322
 23
97.67391584663073
 33
0.0
 14
222.1468566372
 24
108.083915846631
 34
0.0
 50
90.0
100
AcDbRotatedDimension
1001
ACAD
1000
DSTYLE
1002
{
1070
    90
1070
     1
1002
}
  0
DIMENSION
  5
37036
330
2
100
AcDbEntity
  8
0
  6
Continuous
 62
     7
100
AcDbDimension
280
     0
  2
*D4
 10
141.5854703204976
 20
128.9358396773209
 30
0.0
 11
136.3804703204978
 21
131.0608396773209
 31
0.0
 70
    32
  1
.410
 71
     5
 42
10.40999999999951
 73
     0
 74
     0
 75
     0
  3
사본 ISO-25
100
AcDbAlignedDimension
 13
131.1754703204981
 23
113.1719158466721
 33
0.0
 14
141.5854703204976
 24
113.1719158466712
 34
0.0
100
AcDbRotatedDimension
1001
ACAD
1000
DSTYLE
1002
{
1070
    90
1070
     1
1002
}
  0
DIMENSION
  5
37038
330
2
100
AcDbEntity
  8
0
  6
Continuous
 62
     7
100
AcDbDimension
280
     0
  2
*D5
 10
172.1309530699373
 20
93.86391584662804
 30
0.0
 11
172.1309530699373
 21
95.45010424980546
 31
0.0
 70
   160
  1
%%c.30
 71
     5
 42
7.619999999998526
 73
     0
 74
     0
 75
     0
  3
Standard$0
100
AcDbAlignedDimension
 13
150.4754703204969
 23
101.4839158466266
 33
0.0
 14
150.4754703204971
 24
93.86391584662806
 34
0.0
 50
90.0
100
AcDbRotatedDimension
1001
ACAD
1000
DSTYLE
1002
{
1070
    76
1070
     1
1070
   282
1070
     1
1070
   171
1070
     3
1070
   143
1040
0.03937007874016
1070
   274
1070
     3
1070
   141
1040
-0.5
1070
    43
1040
3.75
1070
    44
1040
1.25
1070
    42
1040
0.625
1070
   147
1040
0.625
1070
   371
1070
    -1
1070
   372
1070
    -1
1070
   175
1070
     0
1070
    77
1070
     1
1070
   146
1040
0.7
1070
    48
1040
0.000000001
1070
   172
1070
     1
1070
    74
1070
     0
1070
   283
1070
     0
1070
   340
1005
25
1070
   140
1040
3.0
1070
   284
1070
     8
1070
    90
1070
     1
1002
}
  0
MULTILEADER
  5
3704D
330
2
100
AcDbEntity
  8
0
  6
Continuous
 62
     7
160
               680
310
A8020000180000000C00000016000000020000C30C00000033000000000000000C00000013000000993A00000C00000016000000020000C3CC000000260000002AE9A49829BC5B40A0CD7E3FAF1C5E40000000000000000000000000000000000000000000000000000000000000F03F000000000000F03F00000000000000
310
0000000000000000004D003300780030002E0035000000000006000000010000000000000000000440000000000000F03F0000000000000000000000000000F03F0000000000000000000000000000000000000000000000000000000001000000000000000000000072006F006D0061006E0073002E007300680078000000
310
7400000074000C00000033000000000000000C00000010000000000000000C00000016000000030000C30C00000012000000000000000C00000013000000010000000C0000001400000001000000540000000700000003000000C35606FD20A960404641E00196985B400000000000000000B0AE61DC2ECB6040403992E05E
310
055B400000000000000000909158CC18936040976F69078A7A5B4000000000000000000C00000013000000891300005400000006000000030000002A74AFE41C9E60406ED8A40490895B4000000000000000005867E5D039445F40A0CD7E3FAF6C5E40000000000000000098C45B0605335F40A0CD7E3FAF6C5E4000000000
310
000000000C00000013000000112700003C000000060000000200000098C45B0605335F40A0CD7E3FAF6C5E40000000000000000098C45B0605135F40A0CD7E3FAF6C5E4000000000000000000C00000016000000030000C30C00000012000000000000000C00000017000000000000000C000000130000009A3A00000C0000
310
0016000000070000C30C00000012000000000000000C00000017000000FFFFFFFF0C0000003300000000000000
100
AcDbMLeader
270
     2
300
CONTEXT_DATA{
 40
1.0
 10
110.9162293108059
 20
121.6981962908089
 30
0.0
 41
2.5
140
2.5
145
0.5
174
     2
175
     2
176
     2
177
     1
290
     1
304
M3x0.5
 11
0.0
 21
0.0
 31
1.0
340
35
 12
123.7971816917583
 22
122.9481962908089
 32
0.0
 13
1.0
 23
0.0
 33
0.0
 42
0.0
 43
16.19047619047619
 44
0.0
 45
1.0
170
     1
 90
-1023410174
171
     3
172
     5
 91
-939524096
141
1.5
 92
        0
291
     0
292
     0
173
     0
293
     0
142
0.0
143
0.0
294
     0
295
     0
296
     0
110
75.18798469006412
120
100.0181879335055
130
0.0
111
1.0
121
0.0
131
0.0
112
0.0
122
1.0
132
0.0
297
     0
302
LEADER{
290
     1
291
     1
 10
124.7971816917583
 20
121.6981962908089
 30
0.0
 11
-1.0
 21
0.0
 31
0.0
 90
        0
 40
0.5
304
LEADER_LINE{
 10
134.3494703204974
 20
108.0839158466306
 30
0.0
 10
125.0660288086195
 20
121.6981962908089
 30
0.0
 91
        0
305
}
271
     0
303
}
272
     9
273
     9
301
}
340
BD9
 90
   314368
170
     1
 91
-1023410173
341
28
171
    -1
290
     1
291
     1
 41
0.5
 42
2.5
172
     2
343
35
173
     2
 95
        2
174
     1
175
     0
 92
-1023410174
292
     0
 93
-1023410174
 10
1.0
 20
1.0
 30
1.0
 43
0.0
176
     1
293
     0
294
     0
178
     0
179
     1
 45
1.0
271
     0
272
     9
273
     9
295
     0
  0
MULTILEADER
  5
3704E
330
2
100
AcDbEntity
  8
0
  6
Continuous
 62
     7
160
               692
310
B4020000180000000C00000016000000020000C30C00000033000000000000000C00000013000000993A00000C00000016000000020000C3D800000026000000684CC9078C79634005FB9EC28F695440000000000000000000000000000000000000000000000000000000000000F03F000000000000F03F00000000000000
310
00000000000000000043002E00300032000000350004000000010000000000000000000840000000000000F03F0000000000000000000000000000F03F00000000000000000000000000000000000000000000000000000000010000000000000000000000690073006F00630070002E007300680078000000770068006700
310
7400780074002E00730068007800000000000C00000033000000000000000C00000010000000000000000C00000016000000030000C30C00000012000000000000000C00000013000000010000000C000000140000000100000054000000070000000300000055C79259FFDE62400162E92AFD495640000000000000000030
310
F2EC4816C762400044BF92FCE456400000000000000000CF17CFFAD6F662404260C16BE061564000000000000000000C000000130000008913000054000000060000000300000092EF302AEBEA6240216155CBEE555640000000000000000020481ACF304E6340A07B926F99C9544000000000000000002050773679636340
310
50BB189994C9544000000000000000000C00000013000000112700003C0000000600000002000000205077367963634050BB189994C954400000000000000000205077367973634050BB189994C9544000000000000000000C00000016000000030000C30C00000012000000000000000C00000017000000000000000C0000
310
00130000009A3A00000C00000016000000070000C30C00000012000000000000000C00000017000000FFFFFFFF0C0000003300000000000000
100
AcDbMLeader
270
     2
300
CONTEXT_DATA{
 40
1.0
 10
155.6085464792568
 20
83.14969470420079
 30
0.0
 41
3.0
140
2.5
145
0.5
174
     2
175
     2
176
     0
177
     1
290
     1
304
C.02
 11
0.0
 21
0.0
 31
1.0
340
25
 12
156.1085464792568
 22
84.64998997979137
 32
0.0
 13
1.0
 23
0.0
 33
0.0
 42
0.0
 43
7.724999999999999
 44
0.0
 45
1.0
170
     1
 90
-1023410174
171
     1
172
     5
 91
-939524096
141
1.5
 92
        0
291
     0
292
     0
173
     0
293
     0
142
0.0
143
0.0
294
     0
295
     0
296
     0
110
139.4214703204968
120
85.22791584661536
130
0.0
111
1.0
121
0.0
131
0.0
112
0.0
122
1.0
132
0.0
297
     0
302
LEADER{
290
     1
291
     1
 10
155.1085464792568
 20
83.14969470420079
 30
0.0
 11
1.0
 21
0.0
 31
0.0
 90
        0
 40
0.5
304
LEADER_LINE{
 10
150.2214703204968
 20
91.57791584661755
 30
0.0
 10
154.4434581292453
 20
83.14998997979136
 30
0.0
 91
        0
305
}
271
     0
303
}
272
     9
273
     9
301
}
340
BD9
 90
   379904
170
     1
 91
-1023410173
341
28
171
    -1
290
     1
291
     1
 41
0.5
 42
2.5
172
     2
343
25
173
     2
 95
        2
174
     1
175
     0
 92
-1023410174
292
     0
 93
-1023410174
 10
1.0
 20
1.0
 30
1.0
 43
0.0
176
     1
293
     0
294
     0
178
     0
179
     1
 45
1.0
271
     0
272
     9
273
     9
295
     0
  0
MULTILEADER
  5
3731F
330
2
100
AcDbEntity
  8
0
  6
Continuous
 62
     7
160
               688
310
B0020000180000000C00000016000000020000C30C00000033000000000000000C00000013000000993A00000C00000016000000020000C3D400000026000000D7DA11C244E441405E6794B79DBF6040000000000000000000000000000000000000000000000000000000000000F03F000000000000F03F00000000000000
310
0000000000000000004400530046003100360020005400610070006500720000000B000000010000000000000000000440000000000000F03F0000000000000000000000000000F03F0000000000000000000000000000000000000000000000000000000001000000000000000000000072006F006D0061006E0073002E00
310
73006800780000007300000078000C00000033000000000000000C00000010000000000000000C00000016000000030000C30C00000012000000000000000C00000013000000010000000C000000140000000100000054000000070000000300000000913568FDEB4E4076C36D119B6E5C400000000000000000E0FB3B4A89
310
684E4060D924D04FDA5B40000000000000000044E3448FB1844E4081F8AD19E87B5C4000000000000000000C0000001300000089130000540000000600000003000000223ABD7B57B84E40FBDD8D9541755C400000000000000000A065E8C01CB6504008123F6248DA60400000000000000000206D360BD7884E4008123F62
310
48DA604000000000000000000C00000013000000122700003C0000000600000002000000206D360BD7884E4008123F6248DA60400000000000000000206D360BD7484E4008123F6248DA604000000000000000000C00000016000000030000C30C00000012000000000000000C00000017000000000000000C000000130000
310
009A3A00000C00000016000000070000C30C00000012000000000000000C00000017000000FFFFFFFF0C0000003300000000000000
100
AcDbMLeader
270
     2
300
CONTEXT_DATA{
 40
1.0
 10
35.75953880641947
 20
134.8213359100193
 30
0.0
 41
2.5
140
2.5
145
0.5
174
     2
175
     2
176
     2
177
     1
290
     1
304
DSF16 Taper
 11
0.0
 21
0.0
 31
1.0
340
35
 12
60.06906261594327
 22
136.488002576686
 32
0.0
 13
1.0
 23
0.0
 33
0.0
 42
0.0
 43
24.31071428571428
 44
0.0
 45
1.0
170
     1
 90
-1023410174
171
     3
172
     5
 91
-1073741824
141
0.0
 92
 14025060
291
     0
292
     0
173
     0
293
     0
142
0.0
143
0.0
294
     0
295
     0
296
     0
110
22.97323100028757
120
170.5849352625889
130
0.0
111
1.0
121
0.0
131
0.0
112
0.0
122
1.0
132
0.0
297
     0
302
LEADER{
290
     1
291
     1
 10
61.06906261594327
 20
134.8213359100193
 30
0.0
 11
-1.0
 21
0.0
 31
0.0
 90
        1
 40
0.5
304
LEADER_LINE{
 10
60.81668975762273
 20
111.4111214027266
 30
0.0
 10
66.84550497717873
 20
134.8213359100193
 30
0.0
 91
        0
305
}
271
     0
303
}
272
     9
273
     9
301
}
340
BD9
 90
   279552
170
     1
 91
-1023410173
341
28
171
    -1
290
     1
291
     1
 41
0.5
 42
2.5
172
     2
343
35
173
     2
 95
        2
174
     1
175
     0
 92
-1023410174
292
     0
 93
-1023410174
 10
1.0
 20
1.0
 30
1.0
 43
0.0
176
     1
293
     0
294
     0
178
     0
179
     1
 45
1.0
271
     0
272
     9
273
     9
295
     0
  0
DIMENSION
  5
37320
330
2
100
AcDbEntity
  8
0
  6
Continuous
 62
     7
100
AcDbDimension
280
     0
  2
*D6
 10
67.02890393620079
 20
77.92391584665802
 30
0.0
 11
67.02890393620077
 21
91.49862057106657
 31
0.0
 70
   160
  1
%%c1.551
 71
     5
 42
39.5
 73
     0
 74
     0
 75
     0
  3
Standard$0
100
AcDbAlignedDimension
 13
78.58547032049796
 23
117.423915846658
 33
0.0
 14
78.58547032049796
 24
77.92391584665802
 34
0.0
 50
90.0
100
AcDbRotatedDimension
1001
ACAD
1000
DSTYLE
1002
{
1070
    42
1040
0.625
1070
    43
1040
3.75
1070
    44
1040
1.25
1070
    48
1040
0.000000001
1070
    74
1070
     0
1070
    75
1070
     1
1070
    77
1070
     1
1070
    90
1070
     1
1070
   140
1040
3.0
1070
   141
1040
-0.5
1070
   143
1040
0.03937007874016
1070
   146
1040
0.7
1070
   147
1040
0.625
1070
   171
1070
     3
1070
   172
1070
     1
1070
   175
1070
     0
1070
   274
1070
     3
1070
   281
1070
     1
1070
   283
1070
     0
1070
   284
1070
     8
1070
   340
1005
25
1070
   371
1070
    -1
1070
   372
1070
    -1
1002
}
  0
MULTILEADER
  5
37321
330
2
100
AcDbEntity
  8
0
  6
Continuous
 62
     7
160
               680
310
A8020000180000000C00000016000000020000C30C00000033000000000000000C00000013000000993A00000C00000016000000020000C3CC00000026000000A251B007EA943140A04D9E2842595E40000000000000000000000000000000000000000000000000000000000000F03F000000000000F03F00000000000000
310
0000000000000000004D0031003000780031002E003500000007000000010000000000000000000440000000000000F03F0000000000000000000000000000F03F0000000000000000000000000000000000000000000000000000000001000000000000000000000072006F006D0061006E0073002E007300680078000000
310
7300000078000C00000033000000000000000C00000010000000000000000C00000016000000030000C30C00000012000000000000000C00000013000000010000000C0000001400000001000000540000000700000003000000450C58996DA34540F51B1C3046465A40000000000000000040ABB9721E0246408069EE6F21
310
AB594000000000000000000EFBD0B2E9434540B1EA5563882E5A4000000000000000000C0000001300000089130000540000000600000003000000A98314A6AB7345405303B949673A5A40000000000000000060E88980580B4140A04D9E2842A95E400000000000000000C0A276EBEEE84040A04D9E2842A95E4000000000
310
000000000C00000013000000112700003C0000000600000002000000C0A276EBEEE84040A04D9E2842A95E400000000000000000C0A276EBEEA84040A04D9E2842A95E4000000000000000000C00000016000000030000C30C00000012000000000000000C00000017000000000000000C000000130000009A3A00000C0000
310
0016000000070000C30C00000012000000000000000C00000017000000FFFFFFFF0C0000003300000000000000
100
AcDbMLeader
270
     2
300
CONTEXT_DATA{
 40
1.0
 10
17.55788649111611
 20
122.644663004487
 30
0.0
 41
2.5
140
2.5
145
0.5
174
     2
175
     2
176
     0
177
     1
290
     1
304
M10x1.5
 11
0.0
 21
0.0
 31
1.0
340
35
 12
18.05788649111605
 22
123.894663004487
 32
0.0
 13
1.0
 23
0.0
 33
0.0
 42
0.0
 43
16.19047619047619
 44
0.0
 45
1.0
170
     1
 90
-1023410174
171
     1
172
     5
 91
-939524096
141
1.5
 92
        0
291
     0
292
     0
173
     0
293
     0
142
0.0
143
0.0
294
     0
295
     0
296
     0
110
5.941663501046207
120
99.13396922884068
130
0.0
111
1.0
121
0.0
131
0.0
112
0.0
122
1.0
132
0.0
297
     0
302
LEADER{
290
     1
291
     1
 10
33.81979125302087
 20
122.644663004487
 30
0.0
 11
-1.0
 21
0.0
 31
0.0
 90
        0
 40
0.5
304
LEADER_LINE{
 10
44.0165542036616
 20
102.6739158466571
 30
0.0
 10
34.08863836988235
 20
122.644663004487
 30
0.0
 91
        0
305
}
271
     0
303
}
272
     9
273
     9
301
}
340
BD9
 90
   314368
170
     1
 91
-1023410173
341
28
171
    -1
290
     1
291
     1
 41
0.5
 42
2.5
172
     2
343
35
173
     2
 95
        2
174
     1
175
     0
 92
-1023410174
292
     0
 93
-1023410174
 10
1.0
 20
1.0
 30
1.0
 43
0.0
176
     1
293
     0
294
     0
178
     0
179
     1
 45
1.0
271
     0
272
     9
273
     9
295
     0
  0
LINE
  5
37322
330
2
100
AcDbEntity
  8
0
  6
Continuous
 62
     3
100
AcDbLine
 10
78.08547032049728
 20
77.79891584665756
 30
0.0
 11
78.08547032049728
 21
58.30677735289566
 31
0.0
  0
MTEXT
  5
37323
330
2
100
AcDbEntity
  8
0
  6
Continuous
 62
     2
100
AcDbMText
 10
78.08600448964489
 20
55.85796224909961
 30
0.0
 40
3.0
 41
0.0
 46
0.0
 71
     5
 72
     1
  1
0.00
 73
     1
 44
1.0
  0
LINE
  5
37324
330
2
100
AcDbEntity
  8
0
  6
Continuous
 62
     3
100
AcDbLine
 10
31.08547032049796
 20
85.22272944583107
 30
0.0
 11
31.08547032049796
 21
58.30677735289566
 31
0.0
  0
MTEXT
  5
37327
330
2
100
AcDbEntity
  8
0
  6
Continuous
 62
     2
100
AcDbMText
 10
30.9972369979846
 20
55.79358504613492
 30
0.0
 40
3.0
 41
0.0
 46
0.0
 71
     5
 72
     1
  1
1.85
 73
     1
 44
1.0
  0
LINE
  5
37328
330
2
100
AcDbEntity
  8
0
  6
Continuous
 62
     3
100
AcDbLine
 10
83.5854703204983
 20
77.79891584665756
 30
0.0
 11
83.5854703204983
 21
63.61059548217326
 31
0.0
  0
MTEXT
  5
37329
330
2
100
AcDbEntity
  8
0
  6
Continuous
 62
     2
100
AcDbMText
 10
83.58600448964592
 20
61.35018363519293
 30
0.0
 40
3.0
 41
0.0
 46
0.0
 71
     5
 72
     1
  1
0.216
 73
     1
 44
1.0
  0
HATCH
  5
37425
330
2
100
AcDbEntity
  8
0
  6
Continuous
 62
     4
100
AcDbHatch
 10
0.0
 20
0.0
 30
0.0
210
0.0
220
0.0
230
1.0
  2
ANSI31
 70
     0
 71
     0
 91
       13
 92
        7
 72
     0
 73
     1
 93
        4
 10
55.08547032034744
 20
101.9739158466518
 10
55.08547032034744
 20
102.6739158466785
 10
36.58547032034585
 20
102.6739158466785
 10
37.28547032035033
 20
101.9739158466518
 97
        0
 92
        7
 72
     0
 73
     1
 93
        3
 10
56.29790588565516
 20
101.9739158466723
 10
55.08547032034744
 20
102.6739158466785
 10
55.08547032034744
 20
101.9739158466518
 97
        0
 92
        7
 72
     1
 73
     1
 93
       34
 10
31.08547032049796
 20
109.173915846658
 42
0.0
 10
31.08547032049796
 20
104.4625909811871
 42
0.0
 10
31.58547032034721
 20
104.1739158466794
 42
0.0
 10
35.08547032034744
 20
104.1739158466784
 42
0.0
 10
36.58547032034585
 20
102.6739158466785
 42
0.0
 10
55.08547032034744
 20
102.6739158466785
 42
0.0
 10
56.29790588569097
 20
101.9739158466518
 42
0.0
 10
130.2854703204982
 20
101.9739158466509
 42
0.0
 10
130.961438638693
 20
100.84891584663
 42
0.0
 10
132.8494696342281
 20
100.84891584663
 42
0.0
 10
132.8494696342281
 20
107.8839158466307
 42
0.0
 10
132.6494696342282
 20
108.0839158466306
 42
0.0
 10
131.1754703204974
 20
108.0839158466306
 42
0.0
 10
131.175470320498
 20
113.1679158466258
 42
0.0
 10
131.1734703204976
 20
113.1699158466263
 42
0.0
 10
130.9214703204972
 20
113.4219158466267
 42
0.0
 10
84.85547032049897
 20
113.4219158466599
 42
0.0
 10
83.58547032049898
 20
114.6919158466598
 42
0.0
 10
83.58547032049898
 20
116.8239158466312
 42
0.0
 10
83.58547032049887
 20
116.9239158466316
 42
0.4142135623730951
 10
83.08547032049887
 20
117.4239158466289
 42
0.0
 10
78.58547032049796
 20
117.423915846658
 42
0.4142135623730951
 10
78.08547032049796
 20
116.923915846658
 42
0.0
 10
78.08547032049796
 20
114.6935310889275
 42
0.0
 10
78.38547032049814
 20
114.173915846658
 42
0.0
 10
78.38547032049814
 20
112.423915846658
 42
0.0
 10
78.08547032049796
 20
112.423915846658
 42
0.0
 10
76.54289222410284
 20
112.423915846658
 42
0.0
 10
76.08547032049705
 20
112.8813377502629
 42
0.0
 10
45.54790919474839
 20
109.9409050551903
 42
0.0
 10
45.08547032049705
 20
109.673915846658
 42
0.0
 10
42.58547032049796
 20
109.673915846658
 42
0.0
 10
41.21173161077081
 20
110.173915846658
 42
0.0
 10
32.08547032049796
 20
110.173915846658
 42
0.4142135623730951
 97
        0
 92
        7
 72
     0
 73
     1
 93
        4
 10
132.8494696342281
 20
100.84891584663
 10
130.961438638693
 20
100.84891584663
 10
131.2168044477866
 20
100.4239158466257
 10
132.8494696342281
 20
100.4239158466266
 97
        0
 92
        7
 72
     0
 73
     1
 93
        4
 10
132.8494696342281
 20
100.4239158466257
 10
133.1494696342281
 20
100.4239158466266
 10
133.1494696342281
 20
100.84891584663
 10
132.8494696342281
 20
100.84891584663
 97
        0
 92
        7
 72
     0
 73
     1
 93
        4
 10
133.1494696342281
 20
107.583915846631
 10
132.8494696342281
 20
107.8839158466307
 10
132.8494696342281
 20
100.84891584663
 10
133.1494696342281
 20
100.84891584663
 97
        0
 92
        7
 72
     0
 73
     1
 93
        4
 10
135.5494696342281
 20
100.4239158466262
 10
135.8494696342281
 20
100.4239158466266
 10
135.8494696342281
 20
100.8489158466304
 10
135.5494696342281
 20
100.84891584663
 97
        0
 92
        7
 72
     0
 73
     1
 93
        4
 10
135.8494696342281
 20
107.8839158466312
 10
135.549469634228
 20
107.5839158466306
 10
135.5494696342281
 20
100.84891584663
 10
135.8494696342281
 20
100.8489158466304
 97
        0
 92
        7
 72
     1
 73
     1
 93
       17
 10
141.5854703204977
 20
108.083915846631
 42
0.0
 10
136.049469634228
 20
108.083915846631
 42
0.0
 10
135.8494696342281
 20
107.8839158466307
 42
0.0
 10
135.8494696342281
 20
100.8489158466304
 42
0.0
 10
149.3756180576972
 20
100.8489158466309
 42
0.0
 10
150.475470320497
 20
101.4839158466266
 42
0.0
 10
150.4754703204964
 20
103.5159158466185
 42
0.0
 10
149.9674703204841
 20
104.0239158466311
 42
0.0
 10
142.7854703204972
 20
104.0239158466306
 42
0.0
 10
142.2256626993622
 20
103.8739158466305
 42
0.0
 10
141.6854703204968
 20
103.873915846631
 42
-0.0613213552368306
 10
141.5884560704825
 20
103.8858588465727
 42
0.0
 10
141.5854703204969
 20
103.8739158466305
 42
0.0
 10
141.5854703204969
 20
103.8866175120101
 42
-0.3419987131197458
 10
141.285470320497
 20
104.2739158466311
 42
0.0
 10
141.2854703204971
 20
104.3996726207947
 42
0.0
 10
141.585470320497
 20
105.2239158466309
 42
0.0
 97
        0
 92
        7
 72
     0
 73
     1
 93
        4
 10
148.6394964644732
 20
100.4239158466271
 10
149.3756180576976
 20
100.8489158466309
 10
135.8494696342281
 20
100.8489158466304
 10
135.8494696342281
 20
100.4239158466262
 97
        0
 92
        9
 93
        4
 72
     1
 10
62.65390393620077
 20
85.79862057106675
 11
62.65390393620077
 21
97.19862057106684
 72
     1
 10
62.65390393620077
 20
97.19862057106684
 11
67.15390393620078
 21
97.19862057106684
 72
     1
 10
67.15390393620078
 20
97.19862057106684
 11
67.15390393620078
 21
85.79862057106675
 72
     1
 10
67.15390393620078
 20
85.79862057106675
 11
62.65390393620077
 21
85.79862057106675
 97
        0
 92
        9
 93
        4
 72
     1
 10
31.58547032042293
 20
123.9361136443122
 11
34.58547032042293
 21
123.9361136443122
 72
     1
 10
34.58547032042293
 20
123.9361136443122
 11
34.58547032042293
 21
119.4361136443121
 72
     1
 10
34.58547032042293
 20
119.4361136443121
 11
31.58547032042293
 21
119.4361136443121
 72
     1
 10
31.58547032042293
 20
119.4361136443121
 11
31.58547032042293
 21
123.9361136443122
 97
        0
 92
        9
 93
        4
 72
     1
 10
15.58581702999186
 20
94.1617838123002
 11
15.58581702999186
 21
101.1860478810122
 72
     1
 10
15.58581702999186
 20
101.1860478810122
 11
20.08581702999186
 21
101.1860478810122
 72
     1
 10
20.08581702999186
 20
101.1860478810122
 11
20.08581702999186
 21
94.1617838123002
 72
     1
 10
20.08581702999186
 20
94.1617838123002
 11
15.58581702999186
 21
94.1617838123002
 97
        0
 75
     1
 76
     1
 52
0.0
 41
1.0
 77
     0
 78
     1
 53
45.0
 43
-644.7291314630201
 44
2755.552437347512
 45
-2.245064030267288
 46
2.245064030267288
 79
     0
 47
0.0
 98
       10
 10
53.51429364339129
 20
102.3177749599717
 10
55.23549739819396
 20
102.1800786595872
 10
111.3554146716843
 20
105.6743976744378
 10
132.4259026464129
 20
100.608225906094
 10
132.9906726284575
 20
100.5813320974253
 10
132.8696504894479
 20
101.1729958881387
 10
135.6531596866679
 20
100.6889073321008
 10
135.7472880170086
 20
101.1998896968075
 10
136.4330801380628
 20
101.3612525488202
 10
137.448859291483
 20
100.7123049456436
1001
ACAD
1010
0.0
1020
0.0
1030
0.0
1001
HATCHBACKGROUNDCOLOR
1071
-939524096
1000
없음
1000

  0
LINE
  5
37428
330
2
100
AcDbEntity
  8
30-D10-105
  6
CENTER2
 62
     3
100
AcDbLine
 10
28.08547032049796
 20
97.67391584665801
 30
0.0
 11
152.4754703204971
 21
97.67391584662664
 31
0.0
  0
ARC
  5
37429
330
2
100
AcDbEntity
  8
36-D16-105
  6
Continuous
 62
     7
100
AcDbCircle
 10
78.58547032049796
 20
116.923915846658
 30
0.0
 40
0.5
100
AcDbArc
 50
90.0
 51
180.0
  0
ARC
  5
3742A
330
2
100
AcDbEntity
  8
06-D06-75
  6
Continuous
 62
     7
100
AcDbCircle
 10
32.08547032049796
 20
109.173915846658
 30
0.0
 40
1.0
100
AcDbArc
 50
90.0
 51
180.0
  0
LINE
  5
3742B
330
2
100
AcDbEntity
  8
06-D06-75
  6
Continuous
 62
     7
100
AcDbLine
 10
31.08547032049796
 20
97.67391584665801
 30
0.0
 11
31.08547032049796
 21
109.173915846658
 31
0.0
  0
LINE
  5
3742C
330
2
100
AcDbEntity
  8
32-D12-105
  6
Continuous
 62
     7
100
AcDbLine
 10
32.08547032049796
 20
110.173915846658
 30
0.0
 11
41.21173161077081
 21
110.173915846658
 31
0.0
  0
LINE
  5
3742D
330
2
100
AcDbEntity
  8
32-D12-105
  6
Continuous
 62
     7
100
AcDbLine
 10
42.58547032049796
 20
109.673915846658
 30
0.0
 11
45.08547032049705
 21
109.673915846658
 31
0.0
  0
LINE
  5
3742E
330
2
100
AcDbEntity
  8
32-D12-105
  6
Continuous
 62
     7
100
AcDbLine
 10
41.2117316107699
 20
110.173915846658
 30
0.0
 11
42.58547032049796
 21
109.673915846658
 31
0.0
  0
LINE
  5
3742F
330
2
100
AcDbEntity
  8
32-D12-105
  6
Continuous
 62
     7
100
AcDbLine
 10
45.54790919474839
 20
109.9409050551903
 30
0.0
 11
45.08547032049796
 21
109.673915846658
 31
0.0
  0
LINE
  5
37430
330
2
100
AcDbEntity
  8
36-D16-105
  6
Continuous
 62
     7
100
AcDbLine
 10
78.08547032049796
 20
112.423915846658
 30
0.0
 11
78.08547032049796
 21
116.923915846658
 31
0.0
  0
LINE
  5
37431
330
2
100
AcDbEntity
  8
28-D08-105
  6
Continuous
 62
     7
100
AcDbLine
 10
76.54289222410284
 20
112.423915846658
 30
0.0
 11
76.08547032049796
 21
112.8813377502629
 31
0.0
  0
LINE
  5
37432
330
2
100
AcDbEntity
  8
30-D10-105
  6
Continuous
 62
     7
100
AcDbLine
 10
76.54289222410284
 20
112.423915846658
 30
0.0
 11
78.38547032049814
 21
112.423915846658
 31
0.0
  0
LINE
  5
37433
330
2
100
AcDbEntity
  8
30-D10-105
  6
Continuous
 62
     7
100
AcDbLine
 10
78.38547032049814
 20
112.423915846658
 30
0.0
 11
78.38547032049814
 21
114.173915846658
 31
0.0
  0
LINE
  5
37434
330
2
100
AcDbEntity
  8
30-D10-105
  6
Continuous
 62
     7
100
AcDbLine
 10
78.08547032049796
 20
114.6935310889275
 30
0.0
 11
78.38547032049814
 21
114.173915846658
 31
0.0
  0
LINE
  5
37435
330
2
100
AcDbEntity
  8
06-D06-75
  6
Continuous
 62
     7
100
AcDbLine
 10
45.54790919474839
 20
109.9409050551903
 30
0.0
 11
76.08547032049705
 21
112.8813377502629
 31
0.0
  0
LINE
  5
37436
330
2
100
AcDbEntity
  8
36-D16-105
  6
Continuous
 62
     7
100
AcDbLine
 10
78.58547032049796
 20
77.92391584665802
 30
0.0
 11
83.08547032049887
 21
77.92391584665802
 31
0.0
  0
ARC
  5
37437
330
2
100
AcDbEntity
  8
36-D16-105
  6
Continuous
 62
     7
100
AcDbCircle
 10
78.58547032049796
 20
78.42391584665802
 30
0.0
 40
0.5
100
AcDbArc
 50
180.0
 51
270.0
  0
ARC
  5
37438
330
2
100
AcDbEntity
  8
06-D06-75
  6
Continuous
 62
     7
100
AcDbCircle
 10
32.08547032049796
 20
86.17391584665801
 30
0.0
 40
1.0
100
AcDbArc
 50
180.0
 51
270.0
  0
LINE
  5
37439
330
2
100
AcDbEntity
  8
06-D06-75
  6
Continuous
 62
     7
100
AcDbLine
 10
31.08547032049796
 20
97.67391584665801
 30
0.0
 11
31.08547032049796
 21
86.17391584665801
 31
0.0
  0
LINE
  5
3743A
330
2
100
AcDbEntity
  8
32-D12-105
  6
Continuous
 62
     7
100
AcDbLine
 10
32.08547032049796
 20
85.17391584665801
 30
0.0
 11
41.21173161077081
 21
85.17391584665801
 31
0.0
  0
LINE
  5
3743B
330
2
100
AcDbEntity
  8
32-D12-105
  6
Continuous
 62
     7
100
AcDbLine
 10
42.58547032049796
 20
85.67391584665802
 30
0.0
 11
45.08547032049705
 21
85.67391584665802
 31
0.0
  0
LINE
  5
3743C
330
2
100
AcDbEntity
  8
32-D12-105
  6
Continuous
 62
     7
100
AcDbLine
 10
41.2117316107699
 20
85.17391584665801
 30
0.0
 11
42.58547032049796
 21
85.67391584665802
 31
0.0
  0
LINE
  5
3743D
330
2
100
AcDbEntity
  8
32-D12-105
  6
Continuous
 62
     7
100
AcDbLine
 10
45.54790919474839
 20
85.40692663812569
 30
0.0
 11
45.08547032049796
 21
85.67391584665802
 31
0.0
  0
LINE
  5
3743E
330
2
100
AcDbEntity
  8
28-D08-105
  6
Continuous
 62
     7
100
AcDbLine
 10
76.54289222410284
 20
82.92391584665802
 30
0.0
 11
76.08547032049796
 21
82.46649394305313
 31
0.0
  0
LINE
  5
3743F
330
2
100
AcDbEntity
  8
30-D10-105
  6
Continuous
 62
     7
100
AcDbLine
 10
76.54289222410284
 20
82.92391584665802
 30
0.0
 11
78.08547032049841
 21
82.92391584665802
 31
0.0
  0
LINE
  5
37440
330
2
100
AcDbEntity
  8
06-D06-75
  6
Continuous
 62
     7
100
AcDbLine
 10
45.54790919474839
 20
85.40692663812569
 30
0.0
 11
76.08547032049705
 21
82.46649394305313
 31
0.0
  0
LINE
  5
37441
330
2
100
AcDbEntity
  8
36-D16-105
  6
Continuous
 62
     7
100
AcDbLine
 10
78.08547032049796
 20
97.67391584665801
 30
0.0
 11
78.08547032049796
 21
78.42391584665802
 31
0.0
  0
LINE
  5
37442
330
2
100
AcDbEntity
  8
0
  6
Continuous
 62
     7
100
AcDbLine
 10
76.08547032049796
 20
82.46649394305313
 30
0.0
 11
76.08547032049796
 21
97.67391584665801
 31
0.0
  0
LINE
  5
37443
330
2
100
AcDbEntity
  8
0
  6
Continuous
 62
     7
100
AcDbLine
 10
76.54289222410193
 20
82.92391584665802
 30
0.0
 11
76.54289222410193
 21
97.67391584665801
 31
0.0
  0
LINE
  5
37444
330
2
100
AcDbEntity
  8
0
  6
Continuous
 62
     7
100
AcDbLine
 10
41.2117316107699
 20
85.17391584665801
 30
0.0
 11
41.2117316107699
 21
97.67391584665801
 31
0.0
  0
LINE
  5
37445
330
2
100
AcDbEntity
  8
0
  6
Continuous
 62
     7
100
AcDbLine
 10
42.58547032049796
 20
85.67391584665802
 30
0.0
 11
42.58547032049796
 21
97.67391584665801
 31
0.0
  0
LINE
  5
37446
330
2
100
AcDbEntity
  8
0
  6
Continuous
 62
     7
100
AcDbLine
 10
45.08547032049796
 20
85.67391584665802
 30
0.0
 11
45.08547032049796
 21
97.67391584665801
 31
0.0
  0
LINE
  5
37447
330
2
100
AcDbEntity
  8
0
  6
Continuous
 62
     7
100
AcDbLine
 10
45.54790919474839
 20
85.40692663812569
 30
0.0
 11
45.54790919474839
 21
97.67391584665801
 31
0.0
  0
LINE
  5
37448
330
2
100
AcDbEntity
  8
0
  6
Continuous
 62
     7
100
AcDbLine
 10
83.58547032049898
 20
78.42391584665802
 30
0.0
 11
83.58547032049887
 21
97.67391584664437
 31
0.0
  0
ARC
  5
37449
330
2
100
AcDbEntity
  8
0
  6
Continuous
 62
     7
100
AcDbCircle
 10
83.08547032049887
 20
78.42391584665802
 30
0.0
 40
0.5000000000000004
100
AcDbArc
 50
270.0
 51
0.0
  0
LINE
  5
3744A
330
2
100
AcDbEntity
  8
36-D16-105
  6
Continuous
 62
     7
100
AcDbLine
 10
78.58547032049796
 20
117.4239158466289
 30
0.0
 11
83.08547032049887
 21
117.4239158466289
 31
0.0
  0
LINE
  5
3744B
330
2
100
AcDbEntity
  8
28-D08-105
  6
Continuous
 62
     7
100
AcDbLine
 10
130.2854703204982
 20
101.9739158466509
 30
0.0
 11
131.2168044477869
 21
100.4239158466253
 31
0.0
  0
LINE
  5
3744C
330
2
100
AcDbEntity
  8
0
  6
Continuous
 62
     7
100
AcDbLine
 10
130.2854703204982
 20
101.9739158466509
 30
0.0
 11
37.28547032035033
 21
101.9739158466518
 31
0.0
  0
LINE
  5
3744D
330
2
100
AcDbEntity
  8
0
  6
Continuous
 62
     7
100
AcDbLine
 10
130.2854703204982
 20
101.9739158466509
 30
0.0
 11
130.2854703204972
 21
97.67391584664801
 31
0.0
  0
LINE
  5
3744E
330
2
100
AcDbEntity
  8
0
  6
Continuous
 62
     7
100
AcDbLine
 10
141.3354703204969
 20
113.4219158466267
 30
0.0
 11
84.85547032053228
 21
113.4219158466267
 31
0.0
  0
LINE
  5
3744F
330
2
100
AcDbEntity
  8
0
  6
Continuous
 62
     7
100
AcDbLine
 10
141.5854703204977
 20
108.083915846631
 30
0.0
 11
131.1754703204973
 21
108.0839158466306
 31
0.0
  0
LINE
  5
37450
330
2
100
AcDbEntity
  8
0
  6
Continuous
100
AcDbLine
 10
141.5854703204976
 20
113.1719158466258
 30
0.0
 11
141.5854703204969
 21
103.8739158466305
 31
0.0
  0
LINE
  5
37451
330
2
100
AcDbEntity
  8
0
  6
Continuous
100
AcDbLine
 10
131.175470320498
 20
113.1719158466267
 30
0.0
 11
131.1754703204974
 21
108.0839158466306
 31
0.0
  0
LINE
  5
37452
330
2
100
AcDbEntity
  8
0
  6
CENTER
 62
     3
100
AcDbLine
 10
134.3494703204974
 20
108.4537858142198
 30
0.0
 11
134.3494703204975
 21
99.85193382643775
 31
0.0
  0
LINE
  5
37453
330
2
100
AcDbEntity
  8
0
  6
Continuous
 62
     7
100
AcDbLine
 10
130.9214703204981
 20
113.4219158466257
 30
0.0
 11
131.175470320498
 21
113.1679158466258
 31
0.0
  0
LINE
  5
37454
330
2
100
AcDbEntity
  8
0
  6
Continuous
100
AcDbLine
 10
150.4754703204967
 20
103.5159158466185
 30
0.0
 11
150.4754703204977
 21
97.67391584663165
 31
0.0
  0
LINE
  5
37455
330
2
100
AcDbEntity
  8
0
  6
Continuous
100
AcDbLine
 10
148.639496464474
 20
100.4239158466275
 30
0.0
 11
148.6394964644739
 21
97.6739158466321
 31
0.0
  0
LINE
  5
37456
330
2
100
AcDbEntity
  8
0
  6
Continuous
 62
     7
100
AcDbLine
 10
142.7854703204972
 20
104.0239158466306
 30
0.0
 11
149.9674703204841
 21
104.0239158466311
 31
0.0
  0
LINE
  5
37457
330
2
100
AcDbEntity
  8
0
  6
Continuous
 62
     7
100
AcDbLine
 10
141.6854703204968
 20
103.8739158466305
 30
0.0
 11
142.2256626993622
 21
103.8739158466305
 31
0.0
  0
LINE
  5
37458
330
2
100
AcDbEntity
  8
0
  6
Continuous
 62
     7
100
AcDbLine
 10
142.7854703204972
 20
104.0239158466306
 30
0.0
 11
142.2256626993622
 21
103.8739158466305
 31
0.0
  0
LINE
  5
37459
330
2
100
AcDbEntity
  8
0
  6
Continuous
 62
     7
100
AcDbLine
 10
141.285470320497
 20
104.2739158466311
 30
0.0
 11
141.2854703204971
 21
104.3996726207947
 31
0.0
  0
ARC
  5
3745A
330
2
100
AcDbEntity
  8
0
  6
Continuous
 62
     7
100
AcDbCircle
 10
141.6854703204968
 20
104.2739158466311
 30
0.0
 40
0.4
100
AcDbArc
 50
180.0
 51
270.0
  0
LINE
  5
3745B
330
2
100
AcDbEntity
  8
0
  6
Continuous
 62
     7
100
AcDbLine
 10
141.2854703204971
 20
104.3996726207947
 30
0.0
 11
141.585470320497
 21
105.2239158466309
 31
0.0
  0
LINE
  5
3745C
330
2
100
AcDbEntity
  8
0
  6
Continuous
 62
     7
100
AcDbLine
 10
141.3354703204961
 20
81.92591584662613
 30
0.0
 11
84.85547032049897
 21
81.9259158466275
 31
0.0
  0
LINE
  5
3745D
330
2
100
AcDbEntity
  8
0
  6
Continuous
 62
     7
100
AcDbLine
 10
83.58547032049898
 20
80.65591584662753
 30
0.0
 11
84.85547032049897
 21
81.9259158466275
 31
0.0
  0
LINE
  5
3745E
330
2
100
AcDbEntity
  8
0
  6
Continuous
100
AcDbLine
 10
141.585470320497
 20
82.17591584662523
 30
0.0
 11
141.5854703204979
 21
97.67391584663073
 31
0.0
  0
LINE
  5
3745F
330
2
100
AcDbEntity
  8
0
  6
Continuous
 62
     7
100
AcDbLine
 10
141.335470320497
 20
81.92591584662523
 30
0.0
 11
141.585470320497
 21
82.17591584662523
 31
0.0
  0
LINE
  5
37460
330
2
100
AcDbEntity
  8
0
  6
Continuous
100
AcDbLine
 10
142.7854703204975
 20
91.32391584663038
 30
0.0
 11
142.785470320498
 21
97.67391584663073
 31
0.0
  0
LINE
  5
37461
330
2
100
AcDbEntity
  8
0
  6
Continuous
100
AcDbLine
 10
150.475470320497
 20
91.83191584661789
 30
0.0
 11
150.4754703204972
 21
97.67391584663073
 31
0.0
  0
LINE
  5
37462
330
2
100
AcDbEntity
  8
0
  6
Continuous
 62
     7
100
AcDbLine
 10
142.7854703204975
 20
91.32391584663038
 30
0.0
 11
149.967470320509
 21
91.32391584663038
 31
0.0
  0
LINE
  5
37463
330
2
100
AcDbEntity
  8
0
  6
Continuous
 62
     7
100
AcDbLine
 10
141.5854703204977
 20
91.47391584663045
 30
0.0
 11
142.2256626993626
 21
91.47391584663045
 31
0.0
  0
LINE
  5
37464
330
2
100
AcDbEntity
  8
0
  6
Continuous
 62
     7
100
AcDbLine
 10
142.7854703204975
 20
91.32391584663038
 30
0.0
 11
142.2256626993626
 21
91.47391584663045
 31
0.0
  0
LINE
  5
37465
330
2
100
AcDbEntity
  8
0
  6
Continuous
 62
     7
100
AcDbLine
 10
142.2256626993626
 20
91.47391584663045
 30
0.0
 11
142.225662699363
 21
97.67391584663073
 31
0.0
  0
LINE
  5
37466
330
2
100
AcDbEntity
  8
0
  6
Continuous
 62
     4
100
AcDbLine
 10
141.335470320497
 20
81.92591584662523
 30
0.0
 11
141.335470320497
 21
97.67391584663165
 31
0.0
  0
LINE
  5
37467
330
2
100
AcDbEntity
  8
0
  6
Continuous
 62
     3
100
AcDbLine
 10
149.3756180576976
 20
100.8489158466309
 30
0.0
 11
130.961438638693
 21
100.84891584663
 31
0.0
  0
LINE
  5
37468
330
2
100
AcDbEntity
  8
0
  6
Continuous
 62
     7
100
AcDbLine
 10
148.6394964644739
 20
100.4239158466275
 30
0.0
 11
131.2168044477866
 21
100.4239158466257
 31
0.0
  0
LINE
  5
37469
330
2
100
AcDbEntity
  8
0
  6
Continuous
 62
     7
100
AcDbLine
 10
148.6394964644732
 20
100.4239158466271
 30
0.0
 11
150.4754703204969
 21
101.4839158466266
 31
0.0
  0
LINE
  5
3746A
330
2
100
AcDbEntity
  8
0
  6
Continuous
 62
     7
100
AcDbLine
 10
141.3354703204969
 20
113.4219158466267
 30
0.0
 11
141.5854703204969
 21
113.1719158466267
 31
0.0
  0
LINE
  5
3746B
330
2
100
AcDbEntity
  8
0
  6
Continuous
 62
     7
100
AcDbLine
 10
149.9674703204964
 20
104.0239158466188
 30
0.0
 11
150.4754703204964
 21
103.5159158466185
 31
0.0
  0
LINE
  5
3746C
330
2
100
AcDbEntity
  8
0
  6
Continuous
 62
     7
100
AcDbLine
 10
149.9674703204967
 20
91.32391584661764
 30
0.0
 11
150.4754703204968
 21
91.83191584661789
 31
0.0
  0
LINE
  5
3746D
330
2
100
AcDbEntity
  8
0
  6
Continuous
 62
     4
100
AcDbLine
 10
149.9674703204967
 20
91.32391584661764
 30
0.0
 11
149.9674703204967
 21
97.67391584661936
 31
0.0
  0
LINE
  5
3746E
330
2
100
AcDbEntity
  8
0
  6
HIDDEN
 62
     2
 48
0.05
100
AcDbLine
 10
130.9214703204956
 20
81.92591584662659
 30
0.0
 11
131.1754703204955
 21
82.1799158466265
 31
0.0
  0
LINE
  5
3746F
330
2
100
AcDbEntity
  8
0
  6
Continuous
 62
     4
100
AcDbLine
 10
131.1754703204979
 20
113.1679158466258
 30
0.0
 11
141.5854703204976
 21
113.1679158466258
 31
0.0
  0
LINE
  5
37470
330
2
100
AcDbEntity
  8
0
  6
Continuous
 62
     7
100
AcDbLine
 10
83.58547032049898
 20
78.4239158466562
 30
0.0
 11
83.58547032049898
 21
78.5239158466561
 31
0.0
  0
ARC
  5
37471
330
2
100
AcDbEntity
  8
0
  6
Continuous
 62
     7
100
AcDbCircle
 10
83.08547032049887
 20
78.4239158466562
 30
0.0
 40
0.5000000000000004
100
AcDbArc
 50
270.0
 51
0.0
  0
LINE
  5
37473
330
2
100
AcDbEntity
  8
0
  6
Continuous
 62
     7
100
AcDbLine
 10
131.2168044477869
 20
100.4239158466253
 30
0.0
 11
131.2168044477862
 21
97.67391584664892
 31
0.0
  0
LINE
  5
37474
330
2
100
AcDbEntity
  8
0
  6
Continuous
 62
     7
100
AcDbLine
 10
84.85547032049897
 20
81.9259158466275
 30
0.0
 11
84.85547032050295
 21
97.67391584664393
 31
0.0
  0
LINE
  5
37475
330
2
100
AcDbEntity
  8
0
  6
Continuous
 62
     7
100
AcDbLine
 10
83.58547032049898
 20
116.9239158466298
 30
0.0
 11
83.58547032049898
 21
114.6919158466598
 31
0.0
  0
ARC
  5
37476
330
2
100
AcDbEntity
  8
0
  6
Continuous
 62
     7
100
AcDbCircle
 10
83.08547032049887
 20
116.9239158466298
 30
0.0
 40
0.5000000000000004
100
AcDbArc
 50
0.0
 51
90.0
  0
LINE
  5
37477
330
2
100
AcDbEntity
  8
0
  6
Continuous
 62
     7
100
AcDbLine
 10
83.58547032049898
 20
114.6919158466598
 30
0.0
 11
84.85547032049897
 21
113.4219158466599
 31
0.0
  0
LINE
  5
37478
330
2
100
AcDbEntity
  8
0
  6
Continuous
 62
     7
100
AcDbLine
 10
83.58547032049898
 20
116.9239158466316
 30
0.0
 11
83.58547032049898
 21
116.8239158466312
 31
0.0
  0
ARC
  5
37479
330
2
100
AcDbEntity
  8
0
  6
Continuous
 62
     7
100
AcDbCircle
 10
83.08547032049887
 20
116.9239158466316
 30
0.0
 40
0.5000000000000004
100
AcDbArc
 50
0.0
 51
90.0
  0
CIRCLE
  5
3747A
330
2
100
AcDbEntity
  8
0
  6
Continuous
 62
     7
100
AcDbCircle
 10
218.9568566372001
 20
97.67391584663073
 30
0.0
 40
2.75
  0
ARC
  5
3747B
330
2
100
AcDbEntity
  8
0
  6
Continuous
 62
     3
100
AcDbCircle
 10
218.9568566372001
 20
97.67391584663073
 30
0.0
 40
3.174999999999999
100
AcDbArc
 50
250.5177741994184
 51
169.5204102107384
  0
CIRCLE
  5
3747C
330
2
100
AcDbEntity
  8
0
  6
Continuous
 62
     7
100
AcDbCircle
 10
218.9568566372001
 20
97.67391584663073
 30
0.0
 40
6.350000000000477
  0
CIRCLE
  5
3747D
330
2
100
AcDbEntity
  8
0
  6
Continuous
 62
     7
100
AcDbCircle
 10
218.9568566372001
 20
97.67391584663073
 30
0.0
 40
15.730093736122
  0
LINE
  5
3747E
330
2
100
AcDbEntity
  8
0
  6
Continuous
 62
     3
100
AcDbLine
 10
218.4568566372001
 20
97.67391584663073
 30
0.0
 11
219.4568566372001
 21
97.67391584663073
 31
0.0
  0
LINE
  5
3747F
330
2
100
AcDbEntity
  8
0
  6
Continuous
 62
     3
100
AcDbLine
 10
218.9568566372001
 20
97.17391584663074
 30
0.0
 11
218.9568566372001
 21
98.17391584663074
 31
0.0
  0
LINE
  5
37480
330
2
100
AcDbEntity
  8
0
  6
Continuous
 62
     3
100
AcDbLine
 10
217.9568566372001
 20
97.67391584663073
 30
0.0
 11
202.7267629010781
 21
97.67391584663073
 31
0.0
  0
LINE
  5
37481
330
2
100
AcDbEntity
  8
0
  6
Continuous
 62
     3
100
AcDbLine
 10
219.9568566372001
 20
97.67391584663073
 30
0.0
 11
235.186950373322
 21
97.67391584663073
 31
0.0
  0
LINE
  5
37482
330
2
100
AcDbEntity
  8
0
  6
Continuous
 62
     3
100
AcDbLine
 10
218.9568566372001
 20
96.67391584663073
 30
0.0
 11
218.9568566372001
 21
81.44382211050833
 31
0.0
  0
LINE
  5
37483
330
2
100
AcDbEntity
  8
0
  6
Continuous
 62
     3
100
AcDbLine
 10
218.9568566372001
 20
98.67391584663074
 30
0.0
 11
218.9568566372001
 21
113.9040095827527
 31
0.0
  0
LINE
  5
37484
330
2
100
AcDbEntity
  8
0
  6
Continuous
 62
     0
100
AcDbLine
 10
215.7668566372001
 20
108.083915846631
 30
0.0
 11
215.7668566371999
 21
113.0771541083463
 31
0.0
  0
LINE
  5
37485
330
2
100
AcDbEntity
  8
0
  6
Continuous
 62
     0
100
AcDbLine
 10
222.1468566372
 20
108.083915846631
 30
0.0
 11
222.1468566371998
 21
113.0771541083463
 31
0.0
  0
LINE
  5
37486
330
2
100
AcDbEntity
  8
0
  6
Continuous
 62
     7
100
AcDbLine
 10
215.7668566372
 20
108.083915846631
 30
0.0
 11
222.1468566371999
 21
108.083915846631
 31
0.0
  0
LINE
  5
37487
330
2
100
AcDbEntity
  8
0
  6
ByBlock
 62
     0
100
AcDbLine
 10
135.549469634228
 20
107.5839158466306
 30
0.0
 11
135.5494696342281
 21
100.4239158466266
 31
0.0
  0
LINE
  5
37488
330
2
100
AcDbEntity
  8
0
  6
ByBlock
 62
     3
100
AcDbLine
 10
135.8494696342281
 20
107.8839158466307
 30
0.0
 11
135.8494696342281
 21
100.4239158466266
 31
0.0
  0
LINE
  5
37489
330
2
100
AcDbEntity
  8
0
  6
Continuous
 62
     7
100
AcDbLine
 10
135.549469634228
 20
107.583915846631
 30
0.0
 11
134.3494696342282
 21
107.5839158466306
 31
0.0
  0
LINE
  5
3748A
330
2
100
AcDbEntity
  8
0
  6
Continuous
 62
     7
100
AcDbLine
 10
135.549469634228
 20
107.583915846631
 30
0.0
 11
136.049469634228
 21
108.083915846631
 31
0.0
  0
LINE
  5
3748B
330
2
100
AcDbEntity
  8
0
  6
ByBlock
 62
     0
100
AcDbLine
 10
133.1494696342281
 20
107.5839158466306
 30
0.0
 11
133.1494696342281
 21
100.4239158466266
 31
0.0
  0
LINE
  5
3748C
330
2
100
AcDbEntity
  8
0
  6
ByBlock
 62
     3
100
AcDbLine
 10
132.8494696342281
 20
107.8839158466307
 30
0.0
 11
132.8494696342281
 21
100.4239158466266
 31
0.0
  0
LINE
  5
3748D
330
2
100
AcDbEntity
  8
0
  6
Continuous
 62
     7
100
AcDbLine
 10
133.1494696342281
 20
107.583915846631
 30
0.0
 11
134.3494696342282
 21
107.5839158466306
 31
0.0
  0
LINE
  5
3748E
330
2
100
AcDbEntity
  8
0
  6
Continuous
 62
     7
100
AcDbLine
 10
133.1494696342281
 20
107.583915846631
 30
0.0
 11
132.6494696342279
 21
108.083915846631
 31
0.0
  0
CIRCLE
  5
3748F
330
2
100
AcDbEntity
  8
0
  6
Continuous
 62
     7
100
AcDbCircle
 10
218.9568566372001
 20
97.67391584663073
 30
0.0
 40
3.749999999997839
  0
LINE
  5
37490
330
2
100
AcDbEntity
  8
0
  6
HIDDEN
 62
     2
 48
0.02
100
AcDbLine
 10
141.5854703204977
 20
87.26391584663042
 30
0.0
 11
131.1754703204948
 21
87.26391584663042
 31
0.0
  0
LINE
  5
37491
330
2
100
AcDbEntity
  8
0
  6
HIDDEN
 62
     2
 48
0.02
100
AcDbLine
 10
131.1754703204955
 20
82.17591584663386
 30
0.0
 11
131.1754703204949
 21
87.26391584663042
 31
0.0
  0
LINE
  5
37492
330
2
100
AcDbEntity
  8
0
  6
CENTER
 62
     3
100
AcDbLine
 10
134.3494703204975
 20
86.10404587904168
 30
0.0
 11
134.3494703204976
 21
95.49589786682281
 31
0.0
  0
LINE
  5
37494
330
2
100
AcDbEntity
  8
36-D16-105
  6
Continuous
 62
     7
100
AcDbLine
 10
35.08547032034767
 20
104.1739158466775
 30
0.0
 11
31.58547032034721
 21
104.1739158466794
 31
0.0
  0
LINE
  5
37495
330
2
100
AcDbEntity
  8
26-D06-105
  6
Continuous
 62
     7
100
AcDbLine
 10
31.58547032034744
 20
104.1739158466784
 30
0.0
 11
31.08547032049796
 21
104.4625909811871
 31
0.0
  0
LINE
  5
37496
330
2
100
AcDbEntity
  8
0
  6
Continuous
 62
     7
100
AcDbLine
 10
37.28547032035033
 20
101.9739158466732
 30
0.0
 11
37.28547032035033
 21
97.67391584667848
 31
0.0
  0
LINE
  5
37497
330
2
100
AcDbEntity
  8
0
  6
Continuous
 62
     7
100
AcDbLine
 10
35.08547032034744
 20
104.1739158466784
 30
0.0
 11
35.08547032034744
 21
97.67391584666667
 31
0.0
  0
LINE
  5
37498
330
2
100
AcDbEntity
  8
0
  6
Continuous
 62
     7
100
AcDbLine
 10
35.08547032034744
 20
104.1739158466784
 30
0.0
 11
37.28547032035033
 21
101.9739158466732
 31
0.0
  0
LINE
  5
37499
330
2
100
AcDbEntity
  8
36-D16-105
  6
Continuous
 62
     3
100
AcDbLine
 10
36.58547032034585
 20
102.6739158466785
 30
0.0
 11
55.08547032034744
 21
102.6739158466785
 31
0.0
  0
LINE
  5
3749A
330
2
100
AcDbEntity
  8
0
  6
Continuous
 62
     2
100
AcDbLine
 10
55.08547032034744
 20
102.6739158466785
 30
0.0
 11
55.08547032034744
 21
97.67391584667848
 31
0.0
  0
LINE
  5
3749B
330
2
100
AcDbEntity
  8
0
  6
Continuous
 62
     7
100
AcDbLine
 10
31.58547032034744
 20
104.1739158466784
 30
0.0
 11
31.58547032034744
 21
97.67391584666848
 31
0.0
  0
LINE
  5
3749C
330
2
100
AcDbEntity
  8
0
  6
Continuous
 62
     3
100
AcDbLine
 10
55.08547032034744
 20
102.6739158466785
 30
0.0
 11
56.29790588565516
 21
101.9739158466723
 31
0.0
  0
LINE
  5
374A1
330
2
100
AcDbEntity
  8
0
  6
Continuous
 62
     0
100
AcDbLine
 10
215.7668566372001
 20
87.26391584663042
 30
0.0
 11
215.7668566371999
 21
82.27067758491513
 31
0.0
  0
LINE
  5
374A2
330
2
100
AcDbEntity
  8
0
  6
Continuous
 62
     0
100
AcDbLine
 10
222.1468566372
 20
87.26391584663042
 30
0.0
 11
222.1468566371998
 21
82.27067758491513
 31
0.0
  0
LINE
  5
374A3
330
2
100
AcDbEntity
  8
0
  6
Continuous
 62
     7
100
AcDbLine
 10
215.7668566372
 20
87.26391584663042
 30
0.0
 11
222.1468566371999
 21
87.26391584663042
 31
0.0
  0
LINE
  5
374FF
330
2
100
AcDbEntity
  8
0
  6
Continuous
 62
     3
100
AcDbLine
 10
141.585470320497
 20
81.92992111733337
 30
0.0
 11
141.585470320497
 21
58.30677735289566
 31
0.0
  0
MTEXT
  5
37500
330
2
100
AcDbEntity
  8
0
  6
Continuous
 62
     2
100
AcDbMText
 10
141.5860044896446
 20
55.85796224909961
 30
0.0
 40
3.0
 41
0.0
 46
0.0
 71
     5
 72
     1
  1
2.50
 73
     1
 44
1.0
  0
LINE
  5
37501
330
2
100
AcDbEntity
  8
0
  6
Continuous
 62
     3
100
AcDbLine
 10
150.475470320497
 20
91.31501525538453
 30
0.0
 11
150.475470320497
 21
58.30677735289566
 31
0.0
  0
MTEXT
  5
37502
330
2
100
AcDbEntity
  8
0
  6
Continuous
 62
     2
100
AcDbMText
 10
150.4760044896446
 20
55.85796224909961
 30
0.0
 40
3.0
 41
0.0
 46
0.0
 71
     5
 72
     1
  1
2.85
 73
     1
 44
1.0
  0
VIEWPORT
  5
2C7EC
102
{ACAD_XDICTIONARY
360
2C7ED
102
}
330
1B
100
AcDbEntity
 67
     1
  8
0
  6
Continuous
 62
     7
100
AcDbViewport
 10
212.4908200734394
 20
97.5
 30
0.0
 40
464.9816401468789
 41
210.0
 68
     1
 69
     1
 12
212.4908200734394
 22
97.5
 13
0.0
 23
0.0
 14
2.0
 24
2.0
 15
2.0
 25
2.0
 16
0.0
 26
0.0
 36
1.0
 17
0.0
 27
0.0
 37
0.0
 42
50.0
 43
0.0
 44
0.0
 45
210.0
 50
0.0
 51
0.0
 72
  1000
 90
   823328
  1

281
     0
 71
     1
 74
     0
110
0.0
120
0.0
130
0.0
111
1.0
121
0.0
131
0.0
112
0.0
122
1.0
132
0.0
 79
     0
146
0.0
170
     0
 61
     5
348
2E
292
     1
282
     1
141
0.0
142
0.0
 63
   250
421
  3355443
  0
ENDSEC
  0
SECTION
  2
OBJECTS
  0
DICTIONARY
  5
B
330
0
100
AcDbDictionary
281
     1
  3
ACAD_CIP_PREVIOUS_PRODUCT_INFO
350
BE4
  3
ACAD_COLOR
350
3F
  3
ACAD_DETAILVIEWSTYLE
350
BDC
  3
ACAD_GROUP
350
3A
  3
ACAD_LAYOUT
350
17
  3
ACAD_MATERIAL
350
D
  3
ACAD_MLEADERSTYLE
350
42
  3
ACAD_MLINESTYLE
350
3B
  3
ACAD_PLOTSETTINGS
350
3C
  3
ACAD_PLOTSTYLENAME
350
A
  3
ACAD_SCALELIST
350
40
  3
ACAD_SECTIONVIEWSTYLE
350
BDA
  3
ACAD_TABLESTYLE
350
41
  3
ACAD_VISUALSTYLE
350
2F
  3
ACDB_RECOMPOSE_DATA
350
37661
  3
AcDbVariableDictionary
350
BB8
  3
AEC_PROPERTY_SET_DEFS
350
24C9
  0
DICTIONARY
  5
31
330
2C
100
AcDbDictionary
280
     1
281
     1
  0
DICTIONARY
  5
22
330
21
100
AcDbDictionary
280
     1
281
     1
  3
ACAD_LAYERSTATES
360
23
  0
DICTIONARY
  5
7
330
6
100
AcDbDictionary
280
     1
281
     1
  3
ADSK_XREC_LAYER_RECONCILED
360
8
  0
DICTIONARY
  5
3
330
2
100
AcDbDictionary
280
     1
281
     1
  3
ACAD_SORTENTS
360
BB0
  0
DICTIONARY
  5
2C7ED
330
2C7EC
100
AcDbDictionary
280
     1
281
     1
  3
ASDK_XREC_ANNOTATION_SCALE_INFO
360
2C7EE
  0
XRECORD
  5
BE4
102
{ACAD_REACTORS
330
B
102
}
330
B
100
AcDbXrecord
280
     1
300
ACD
300
2014
300
ACD_F_S
  0
DICTIONARY
  5
3F
102
{ACAD_REACTORS
330
B
102
}
330
B
100
AcDbDictionary
281
     1
  0
DICTIONARY
  5
BDC
102
{ACAD_REACTORS
330
B
102
}
330
B
100
AcDbDictionary
281
     1
  3
Imperial24
350
283CD
  3
Metric50
350
BDD
  0
DICTIONARY
  5
3A
102
{ACAD_REACTORS
330
B
102
}
330
B
100
AcDbDictionary
281
     1
  0
DICTIONARY
  5
17
102
{ACAD_REACTORS
330
B
102
}
330
B
100
AcDbDictionary
281
     1
  3
Model
350
16
  3
배치1
350
1E
  0
DICTIONARY
  5
D
102
{ACAD_REACTORS
330
B
102
}
330
B
100
AcDbDictionary
281
     1
  3
ByBlock
350
3E
  3
ByLayer
350
3D
  3
Global
350
C
  0
DICTIONARY
  5
42
102
{ACAD_REACTORS
330
B
102
}
330
B
100
AcDbDictionary
281
     1
  3
Standard
350
BD9
  0
DICTIONARY
  5
3B
102
{ACAD_REACTORS
330
B
102
}
330
B
100
AcDbDictionary
281
     1
  3
Standard
350
43
  0
DICTIONARY
  5
3C
102
{ACAD_REACTORS
330
B
102
}
330
B
100
AcDbDictionary
281
     1
  0
ACDBDICTIONARYWDFLT
  5
A
102
{ACAD_REACTORS
330
B
102
}
330
B
100
AcDbDictionary
281
     1
  3
Normal
350
9
100
AcDbDictionaryWithDefault
340
9
  0
DICTIONARY
  5
40
102
{ACAD_REACTORS
330
B
102
}
330
B
100
AcDbDictionary
281
     1
  3
A0
350
48
  3
A1
350
49
  3
A2
350
4A
  3
A3
350
4B
  3
A4
350
4C
  3
A5
350
4D
  3
A6
350
4E
  3
A7
350
4F
  3
A8
350
50
  3
A9
350
51
  3
B0
350
52
  3
B1
350
53
  3
B2
350
54
  3
B3
350
55
  3
B4
350
56
  3
B5
350
57
  3
B6
350
58
  0
DICTIONARY
  5
BDA
102
{ACAD_REACTORS
330
B
102
}
330
B
100
AcDbDictionary
281
     1
  3
Imperial24
350
283CC
  3
Metric50
350
BDB
  0
DICTIONARY
  5
41
102
{ACAD_REACTORS
330
B
102
}
330
B
100
AcDbDictionary
281
     1
  3
Standard
350
44
  0
DICTIONARY
  5
2F
102
{ACAD_REACTORS
330
B
102
}
330
B
100
AcDbDictionary
281
     1
  3
2dWireframe
350
2E
  3
3D Hidden
350
1A64
  3
3dWireframe
350
47
  3
Basic
350
BC7
  3
Brighten
350
BCC
  3
ColorChange
350
BD0
  3
Conceptual
350
BCA
  3
Dim
350
BCB
  3
EdgeColorOff
350
BD8
  3
Facepattern
350
BCF
  3
Flat
350
BC3
  3
FlatWithEdges
350
BC4
  3
Gouraud
350
BC5
  3
GouraudWithEdges
350
BC6
  3
Hidden
350
BC9
  3
JitterOff
350
BD6
  3
Linepattern
350
BCE
  3
OverhangOff
350
BD7
  3
Realistic
350
46
  3
Shaded
350
BD5
  3
Shaded with edges
350
BD4
  3
Shades of Gray
350
BD1
  3
Sketchy
350
BD2
  3
Thicken
350
BCD
  3
Wireframe
350
BC8
  3
X-Ray
350
BD3
  0
XRECORD
  5
37661
102
{ACAD_REACTORS
330
B
102
}
330
B
100
AcDbXrecord
280
     1
 90
        1
330
44
330
BDB
330
BDD
330
283CC
330
283CD
  0
DICTIONARY
  5
BB8
102
{ACAD_REACTORS
330
B
102
}
330
B
100
AcDbDictionary
281
     1
  3
CANNOSCALE
350
BBE
  3
CMLEADERSTYLE
350
BBA
  3
CTABLESTYLE
350
BB9
  3
CVIEWDETAILSTYLE
350
BBB
  3
CVIEWSECTIONSTYLE
350
BBC
  3
DIMASSOC
350
C3B
  3
HIDETEXT
350
C39
  3
HPCOLOR
350
FF3
  3
INDEXCTL
350
C38
  3
LAYEREVAL
350
BC0
  3
LAYERNOTIFY
350
BC1
  3
LIGHTINGUNITS
350
BBF
  3
MSLTSCALE
350
BBD
  3
SOLIDHIST
350
C3C
  3
SORTENTS
350
C37
  0
DICTIONARY
  5
24C9
102
{ACAD_REACTORS
330
B
102
}
330
B
100
AcDbDictionary
281
     1
  0
DICTIONARY
  5
23
102
{ACAD_REACTORS
330
22
102
}
330
22
100
AcDbDictionary
281
     1
  0
XRECORD
  5
8
102
{ACAD_REACTORS
330
7
102
}
330
7
100
AcDbXrecord
280
     1
290
     1
  0
SORTENTSTABLE
  5
BB0
102
{ACAD_REACTORS
330
3
102
}
330
3
100
AcDbSortentsTable
330
2
331
2942E
  5
2921D
331
29217
  5
292A0
331
28375
  5
283AE
331
28371
  5
283AA
331
28369
  5
28394
331
29296
  5
2948D
331
2910F
  5
2A377
331
28365
  5
28380
331
28361
  5
28378
331
2835D
  5
2837E
331
283AC
  5
29216
331
28355
  5
28379
331
2923A
  5
29251
331
28394
  5
2910F
331
1DEB1
  5
28376
331
2944B
  5
2921B
331
28380
  5
28498
331
2837C
  5
2845E
331
2921E
  5
29436
331
29435
  5
2943B
331
29431
  5
29221
331
2921A
  5
29432
331
28378
  5
283D7
331
2942D
  5
2921C
331
29216
  5
2929F
331
28374
  5
283AD
331
283DB
  5
2910D
331
28370
  5
283A9
331
283D7
  5
29253
331
2929D
  5
2923E
331
2836C
  5
28396
331
29112
  5
31D64
331
28368
  5
28393
331
2910E
  5
295E3
331
2835C
  5
2837D
331
283AB
  5
29215
331
283A7
  5
29112
331
28393
  5
2910E
331
2844E
  5
31D66
331
2837F
  5
2848D
331
29221
  5
29438
331
29434
  5
29225
331
2921D
  5
29435
331
2837B
  5
2845A
331
29219
  5
29431
331
29430
  5
29220
331
28377
  5
283D6
331
283DE
  5
2943C
331
28373
  5
283AC
331
29215
  5
2929A
331
2836F
  5
283A7
331
283D6
  5
2924F
331
2836B
  5
28395
331
29111
  5
2A92C
331
2910D
  5
2951C
331
283AE
  5
29218
331
2835B
  5
2837C
331
283AA
  5
29116
331
28357
  5
2837B
331
28455
  5
31D8B
331
28396
  5
29111
331
29234
  5
29298
331
28392
  5
29004
331
29439
  5
2923D
331
29220
  5
29238
331
29437
  5
29237
331
2837E
  5
28482
331
2921C
  5
29434
331
29433
  5
29224
331
2837A
  5
283DB
331
283E1
  5
29513
331
29218
  5
29430
331
28376
  5
283D4
331
283DD
  5
2943D
331
2942F
  5
2921F
331
29214
  5
2951B
331
28372
  5
283AB
331
29110
  5
2A8F1
331
28366
  5
28392
331
2835E
  5
2837F
331
283AD
  5
29217
331
2924F
  5
29299
331
283A9
  5
29115
331
28498
  5
29114
331
28356
  5
2837A
331
28352
  5
28377
331
28454
  5
31D68
331
28395
  5
29110
331
29438
  5
2923C
331
29436
  5
29236
331
2921F
  5
29437
331
2837D
  5
28481
331
28379
  5
283D9
331
283E0
  5
29511
331
29432
  5
29223
331
2921B
  5
29433
  0
XRECORD
  5
2C7EE
102
{ACAD_REACTORS
330
2C7ED
102
}
330
2C7ED
100
AcDbXrecord
280
     1
 90
        1
340
48
  0
ACDBDETAILVIEWSTYLE
  5
283CD
102
{ACAD_XDICTIONARY
360
3765F
102
}
102
{ACAD_REACTORS
330
BDC
102
}
330
BDC
100
AcDbModelDocViewStyle
 70
     0
  3
Imperial24
290
     0
100
AcDbDetailViewStyle
 70
     0
 71
     0
 90
        3
 71
     1
340
25
 62
   256
 40
0.24
340
0
 62
   256
 40
0.24
300

 40
0.36
280
     3
 71
     2
340
14
 90
       25
 62
   256
 71
     3
340
25
 62
   256
 40
0.24
 90
        1
 40
0.75
 90
        1
300
%<\AcVar ViewType \f "%tc1">% %<\AcVar ViewDetailId>%\PSCALE %<\AcVar ViewScale \f "%sn">%
 71
     4
340
14
 90
       25
 62
   256
340
14
 90
       25
 62
   256
280
     0
  0
ACDBDETAILVIEWSTYLE
  5
BDD
102
{ACAD_XDICTIONARY
360
3765B
102
}
102
{ACAD_REACTORS
330
BDC
102
}
330
BDC
100
AcDbModelDocViewStyle
 70
     0
  3
Metric50
290
     0
100
AcDbDetailViewStyle
 70
     0
 71
     0
 90
        3
 71
     1
340
25
 62
   256
 40
5.0
340
0
 62
   256
 40
5.0
300

 40
0.0
280
     1
 71
     2
340
14
 90
       25
 62
   256
 71
     3
340
25
 62
   256
 40
5.0
 90
        0
 40
15.0
 90
        1
300
%<\AcVar ViewDetailId>% (%<\AcVar ViewScale \f "%sn">%)
 71
     4
340
14
 90
       25
 62
   256
340
14
 90
       25
 62
   256
280
     0
  0
LAYOUT
  5
16
102
{ACAD_XDICTIONARY
360
18
102
}
102
{ACAD_REACTORS
330
17
102
}
330
17
100
AcDbPlotSettings
  1

  2
DWG To PDF.pc3
  4
ISO_expand_A4_(297.00_x_210.00_MM)
  6

 40
5.793749809265136
 41
10.79374980926513
 42
5.79376220703125
 43
10.79374694824219
 44
297.0
 45
210.0
 46
10.74179700476176
 47
0.0
 48
214.2303289092835
 49
-5.650030662565313
140
426.8811481846322
141
146.1562857013982
142
1.0
143
0.8057125389846563
 70
 11956
 72
     1
 73
     0
 74
     4
  7
ksm0910.ctb
 75
     0
147
1.241137442468229
 76
     0
 77
     2
 78
   300
148
-214.2303289092835
149
5.650030662565313
100
AcDbLayout
  1
Model
 70
     1
 71
     0
 10
0.0
 20
0.0
 11
12.0
 21
9.0
 12
0.0
 22
0.0
 32
0.0
 14
0.0
 24
0.0
 34
0.0
 15
0.0
 25
0.0
 35
0.0
146
0.0
 13
0.0
 23
0.0
 33
0.0
 16
1.0
 26
0.0
 36
0.0
 17
0.0
 27
1.0
 37
0.0
 76
     0
330
2
331
2D
1001
ACAD_PSEXT
1000
DWG To PDF.pc3
1000
DWG To PDF
1000
파일
1000

1070
     0
  0
LAYOUT
  5
1E
102
{ACAD_XDICTIONARY
360
1F
102
}
102
{ACAD_REACTORS
330
17
102
}
330
17
100
AcDbPlotSettings
  1

  2
none_device
  4
ISO_A4_(210.00_x_297.00_MM)
  6

 40
7.5
 41
20.0
 42
7.5
 43
20.0
 44
210.0
 45
297.0
 46
0.0
 47
0.0
 48
0.0
 49
0.0
140
0.0
141
0.0
142
1.0
143
1.0
 70
   688
 72
     1
 73
     1
 74
     5
  7
ksm0910.ctb
 75
    16
147
1.0
 76
     0
 77
     2
 78
   300
148
0.0
149
0.0
100
AcDbLayout
  1
배치1
 70
     1
 71
     1
 10
-20.0
 20
-7.5
 11
277.0
 21
202.5
 12
0.0
 22
0.0
 32
0.0
 14
1.000000000000000E+20
 24
1.000000000000000E+20
 34
1.000000000000000E+20
 15
-1.000000000000000E+20
 25
-1.000000000000000E+20
 35
-1.000000000000000E+20
146
0.0
 13
0.0
 23
0.0
 33
0.0
 16
1.0
 26
0.0
 36
0.0
 17
0.0
 27
1.0
 37
0.0
 76
     0
330
1B
331
2C7EC
1001
ACAD_PSEXT
1000
없음
1000
없음
1000
해당 없음
1000
배치가 새로운 플로터 구성을 선택할 때까지 플롯되지 않습니다.
1070
     0
  0
MATERIAL
  5
3E
102
{ACAD_REACTORS
330
D
102
}
330
D
100
AcDbMaterial
  1
ByBlock
 94
       63
  0
MATERIAL
  5
3D
102
{ACAD_REACTORS
330
D
102
}
330
D
100
AcDbMaterial
  1
ByLayer
 94
       63
  0
MATERIAL
  5
C
102
{ACAD_XDICTIONARY
360
E
102
}
102
{ACAD_REACTORS
330
D
102
}
330
D
100
AcDbMaterial
  1
Global
 43
0.0007999999797903
 43
0.0
 43
0.0
 43
0.0
 43
0.0
 43
0.0007999999797903
 43
0.0
 43
0.0
 43
0.0
 43
0.0
 43
1.0
 43
0.0
 43
0.0
 43
0.0
 43
0.0
 43
1.0
 49
0.0007999999797903
 49
0.0
 49
0.0
 49
0.0
 49
0.0
 49
0.0007999999797903
 49
0.0
 49
0.0
 49
0.0
 49
0.0
 49
1.0
 49
0.0
 49
0.0
 49
0.0
 49
0.0
 49
1.0
142
0.0007999999797903
142
0.0
142
0.0
142
0.0
142
0.0
142
0.0007999999797903
142
0.0
142
0.0
142
0.0
142
0.0
142
1.0
142
0.0
142
0.0
142
0.0
142
0.0
142
1.0
144
0.0007999999797903
144
0.0
144
0.0
144
0.0
144
0.0
144
0.0007999999797903
144
0.0
144
0.0
144
0.0
144
0.0
144
1.0
144
0.0
144
0.0
144
0.0
144
0.0
144
1.0
 94
       63
1001
ACAD
1070
    -1
1070
     3
1070
     0
1000

1071
        0
1070
     0
  0
MLEADERSTYLE
  5
BD9
102
{ACAD_REACTORS
330
42
330
36FBF
330
36FC2
330
36FC3
330
3704D
330
3704E
330
3731F
330
37321
102
}
330
42
100
AcDbMLeaderStyle
179
     2
170
     2
171
     1
172
     0
 90
        2
 40
0.0
 41
0.0
173
     1
 91
-1023410173
340
28
 92
       -2
290
     1
 42
2.0
291
     1
 43
0.36
  3
Standard
 44
4.0
300

342
25
174
     1
178
     6
175
     1
176
     0
 93
-1023410174
 45
3.0
292
     0
297
     0
 46
4.0
 94
-1056964608
 47
1.0
 49
1.0
140
1.0
293
     1
141
0.0
294
     1
177
     0
142
1.0
295
     0
296
     0
143
0.125
271
     0
272
     9
273
     9
298
     1
  0
MLINESTYLE
  5
43
102
{ACAD_REACTORS
330
3B
102
}
330
3B
100
AcDbMlineStyle
  2
STANDARD
 70
     0
  3

 62
   256
 51
90.0
 52
90.0
 71
     2
 49
0.5
 62
   256
  6
BYLAYER
 49
-0.5
 62
   256
  6
BYLAYER
  0
ACDBPLACEHOLDER
  5
9
102
{ACAD_REACTORS
330
A
102
}
330
A
  0
SCALE
  5
48
102
{ACAD_REACTORS
330
40
102
}
330
40
100
AcDbScale
 70
     0
300
1:1
140
1.0
141
1.0
290
     1
  0
SCALE
  5
49
102
{ACAD_REACTORS
330
40
102
}
330
40
100
AcDbScale
 70
     0
300
1:2
140
1.0
141
2.0
290
     0
  0
SCALE
  5
4A
102
{ACAD_REACTORS
330
40
102
}
330
40
100
AcDbScale
 70
     0
300
1:4
140
1.0
141
4.0
290
     0
  0
SCALE
  5
4B
102
{ACAD_REACTORS
330
40
102
}
330
40
100
AcDbScale
 70
     0
300
1:5
140
1.0
141
5.0
290
     0
  0
SCALE
  5
4C
102
{ACAD_REACTORS
330
40
102
}
330
40
100
AcDbScale
 70
     0
300
1:8
140
1.0
141
8.0
290
     0
  0
SCALE
  5
4D
102
{ACAD_REACTORS
330
40
102
}
330
40
100
AcDbScale
 70
     0
300
1:10
140
1.0
141
10.0
290
     0
  0
SCALE
  5
4E
102
{ACAD_REACTORS
330
40
102
}
330
40
100
AcDbScale
 70
     0
300
1:16
140
1.0
141
16.0
290
     0
  0
SCALE
  5
4F
102
{ACAD_REACTORS
330
40
102
}
330
40
100
AcDbScale
 70
     0
300
1:20
140
1.0
141
20.0
290
     0
  0
SCALE
  5
50
102
{ACAD_REACTORS
330
40
102
}
330
40
100
AcDbScale
 70
     0
300
1:30
140
1.0
141
30.0
290
     0
  0
SCALE
  5
51
102
{ACAD_REACTORS
330
40
102
}
330
40
100
AcDbScale
 70
     0
300
1:40
140
1.0
141
40.0
290
     0
  0
SCALE
  5
52
102
{ACAD_REACTORS
330
40
102
}
330
40
100
AcDbScale
 70
     0
300
1:50
140
1.0
141
50.0
290
     0
  0
SCALE
  5
53
102
{ACAD_REACTORS
330
40
102
}
330
40
100
AcDbScale
 70
     0
300
1:100
140
1.0
141
100.0
290
     0
  0
SCALE
  5
54
102
{ACAD_REACTORS
330
40
102
}
330
40
100
AcDbScale
 70
     0
300
2:1
140
2.0
141
1.0
290
     0
  0
SCALE
  5
55
102
{ACAD_REACTORS
330
40
102
}
330
40
100
AcDbScale
 70
     0
300
4:1
140
4.0
141
1.0
290
     0
  0
SCALE
  5
56
102
{ACAD_REACTORS
330
40
102
}
330
40
100
AcDbScale
 70
     0
300
8:1
140
8.0
141
1.0
290
     0
  0
SCALE
  5
57
102
{ACAD_REACTORS
330
40
102
}
330
40
100
AcDbScale
 70
     0
300
10:1
140
10.0
141
1.0
290
     0
  0
SCALE
  5
58
102
{ACAD_REACTORS
330
40
102
}
330
40
100
AcDbScale
 70
     0
300
100:1
140
100.0
141
1.0
290
     0
  0
ACDBSECTIONVIEWSTYLE
  5
283CC
102
{ACAD_XDICTIONARY
360
3765D
102
}
102
{ACAD_REACTORS
330
BDA
102
}
330
BDA
100
AcDbModelDocViewStyle
 70
     0
  3
Imperial24
290
     0
100
AcDbSectionViewStyle
 70
     0
 71
     0
 90
       78
 71
     1
340
25
 62
   256
 40
0.24
340
0
340
0
 62
   256
 40
0.24
300
I, O, Q, S, X, Z
 40
0.48
 90
        3
 40
0.18
 90
        1
 71
     2
340
14
 90
       25
 62
   256
340
14
 90
       50
 62
   256
 40
0.24
 40
0.0
 40
0.24
 71
     3
340
25
 62
   256
 40
0.24
 90
        1
 40
0.75
 90
        1
300
%<\AcVar ViewType \f "%tc1">% %<\AcVar ViewSectionStartId>%-%<\AcVar ViewSectionEndId>%\PSCALE %<\AcVar ViewScale \f "%sn">%
 71
     4
 62
   256
 62
   257
300
ANSI31
 40
1.0
 90
        0
290
     0
290
     0
 90
        6
 40
0.0
 40
1.570796326794896
 40
0.2617993877991494
 40
1.308996938995747
 40
-0.2617993877991494
 40
1.832595714594046
  0
ACDBSECTIONVIEWSTYLE
  5
BDB
102
{ACAD_XDICTIONARY
360
37659
102
}
102
{ACAD_REACTORS
330
BDA
102
}
330
BDA
100
AcDbModelDocViewStyle
 70
     0
  3
Metric50
290
     0
100
AcDbSectionViewStyle
 70
     0
 71
     0
 90
      102
 71
     1
340
25
 62
   256
 40
5.0
340
0
340
0
 62
   256
 40
5.0
300
I, O, Q, S, X, Z
 40
10.0
 90
        0
 40
2.5
 90
        0
 71
     2
340
14
 90
       25
 62
   256
340
14
 90
       50
 62
   256
 40
5.0
 40
2.5
 40
5.0
 71
     3
340
25
 62
   256
 40
5.0
 90
        0
 40
15.0
 90
        1
300
%<\AcVar ViewSectionStartId>%-%<\AcVar ViewSectionEndId>% (%<\AcVar ViewScale \f "%sn">%)
 71
     4
 62
   256
 62
   257
300
ANSI31
 40
1.0
 90
        0
290
     0
290
     0
 90
        6
 40
0.0
 40
1.570796326794896
 40
0.2617993877991494
 40
1.308996938995747
 40
-0.2617993877991494
 40
1.832595714594046
  0
TABLESTYLE
  5
44
102
{ACAD_XDICTIONARY
360
45
102
}
102
{ACAD_REACTORS
330
41
102
}
330
41
100
AcDbTableStyle
280
     0
  3
Standard
 70
     0
 71
     0
 40
1.5
 41
1.5
280
     0
281
     0
  7
Standard
140
4.5
170
     2
 62
     0
 63
     7
283
     0
 90
      512
 91
        0
  1

274
    -2
284
     1
 64
     0
275
    -2
285
     1
 65
     0
276
    -2
286
     1
 66
     0
277
    -2
287
     1
 67
     0
278
    -2
288
     1
 68
     0
279
    -2
289
     1
 69
     0
  7
Standard
140
6.0
170
     5
 62
     0
 63
     7
283
     0
 90
      512
 91
        0
  1

274
    -2
284
     1
 64
     0
275
    -2
285
     1
 65
     0
276
    -2
286
     1
 66
     0
277
    -2
287
     1
 67
     0
278
    -2
288
     1
 68
     0
279
    -2
289
     1
 69
     0
  7
Standard
140
4.5
170
     5
 62
     0
 63
     7
283
     0
 90
      512
 91
        0
  1

274
    -2
284
     1
 64
     0
275
    -2
285
     1
 65
     0
276
    -2
286
     1
 66
     0
277
    -2
287
     1
 67
     0
278
    -2
288
     1
 68
     0
279
    -2
289
     1
 69
     0
  0
VISUALSTYLE
  5
2E
102
{ACAD_REACTORS
330
2F
102
}
330
2F
100
AcDbVisualStyle
  2
2dWireframe
 70
     4
177
     3
291
     0
 70
    58
 90
        0
176
     1
 90
        2
176
     1
 90
        1
176
     1
 90
        0
176
     1
 40
0.6
176
     1
 40
30.0
176
     1
 62
     7
176
     1
 90
        1
176
     1
 90
        4
176
     1
 62
     7
176
     1
 62
   257
176
     1
 90
        1
176
     1
 90
        1
176
     1
 40
1.0
176
     1
 90
        0
176
     1
 62
   257
176
     1
 40
1.0
176
     1
 90
        1
176
     1
 90
        6
176
     1
 90
        2
176
     1
 62
     7
176
     1
 90
        5
176
     1
 90
        0
176
     1
 90
        0
176
     1
290
     0
176
     1
 90
        1
176
     1
 40
0.0
176
     1
 90
        0
176
     1
290
     1
176
     1
290
     1
176
     1
290
     0
176
     1
290
     0
176
     1
290
     0
176
     1
290
     0
176
     1
290
     0
176
     1
290
     0
176
     1
290
     0
176
     1
 90
       50
176
     1
 40
0.0
176
     1
 40
1.0
176
     1
 90
        0
176
     1
 62
    18
420
        0
176
     1
 90
       50
176
     1
 90
        3
176
     1
 62
     5
420
      255
176
     1
290
     0
176
     1
 90
       50
176
     1
 90
       50
176
     1
 90
       50
176
     1
290
     0
176
     1
 90
       50
176
     1
 62
   256
176
     0
 40
1.0
176
     0
 90
        2
176
     1
  1
strokes_ogs.tif
176
     1
290
     0
176
     1
 40
1.0
176
     1
 40
1.0
176
     1
  0
VISUALSTYLE
  5
1A64
102
{ACAD_REACTORS
330
2F
102
}
330
2F
100
AcDbVisualStyle
  2
3D Hidden
 70
     6
177
     3
291
     0
 70
    58
 90
        1
176
     1
 90
        2
176
     1
 90
        2
176
     1
 90
        0
176
     1
 40
0.6
176
     1
 40
30.0
176
     1
 62
     7
176
     1
 90
        2
176
     1
 90
        2
176
     1
 62
     7
176
     1
 62
   257
176
     1
 90
        2
176
     1
 90
        1
176
     1
 40
40.0
176
     1
 90
        0
176
     1
 62
   257
176
     1
 40
1.0
176
     1
 90
        1
176
     1
 90
        6
176
     1
 90
        2
176
     1
 62
     7
176
     1
 90
        3
176
     1
 90
        0
176
     1
 90
        0
176
     1
290
     0
176
     1
 90
        1
176
     1
 40
0.0
176
     1
 90
        0
176
     1
290
     0
176
     1
290
     1
176
     1
290
     1
176
     1
290
     0
176
     1
290
     0
176
     1
290
     0
176
     1
290
     0
176
     1
290
     0
176
     1
290
     0
176
     1
 90
       50
176
     1
 40
0.0
176
     1
 40
1.0
176
     1
 90
        0
176
     1
 62
    18
420
        0
176
     1
 90
       50
176
     1
 90
        3
176
     1
 62
     5
420
      255
176
     1
290
     0
176
     1
 90
       50
176
     1
 90
       50
176
     1
 90
       50
176
     1
290
     0
176
     1
 90
       50
176
     1
 62
   256
176
     0
 40
1.0
176
     0
 90
        2
176
     1
  1
strokes_ogs.tif
176
     1
290
     0
176
     1
 40
1.0
176
     1
 40
1.0
176
     1
  0
VISUALSTYLE
  5
47
102
{ACAD_REACTORS
330
2F
102
}
330
2F
100
AcDbVisualStyle
  2
3dWireframe
 70
     5
177
     3
291
     0
 70
    58
 90
        0
176
     1
 90
        2
176
     1
 90
        1
176
     1
 90
        0
176
     1
 40
0.6
176
     1
 40
30.0
176
     1
 62
     7
176
     1
 90
        1
176
     1
 90
        4
176
     1
 62
     7
176
     1
 62
   257
176
     1
 90
        1
176
     1
 90
        1
176
     1
 40
1.0
176
     1
 90
        0
176
     1
 62
   257
176
     1
 40
1.0
176
     1
 90
        1
176
     1
 90
        6
176
     1
 90
        2
176
     1
 62
     7
176
     1
 90
        5
176
     1
 90
        0
176
     1
 90
        0
176
     1
290
     0
176
     1
 90
        1
176
     1
 40
0.0
176
     1
 90
        0
176
     1
290
     0
176
     1
290
     1
176
     1
290
     1
176
     1
290
     0
176
     1
290
     0
176
     1
290
     0
176
     1
290
     0
176
     1
290
     0
176
     1
290
     0
176
     1
 90
       50
176
     1
 40
0.0
176
     1
 40
1.0
176
     1
 90
        0
176
     1
 62
    18
420
        0
176
     1
 90
       50
176
     1
 90
        3
176
     1
 62
     5
420
      255
176
     1
290
     0
176
     1
 90
       50
176
     1
 90
       50
176
     1
 90
       50
176
     1
290
     0
176
     1
 90
       50
176
     1
 62
   256
176
     0
 40
1.0
176
     0
 90
        2
176
     1
  1
strokes_ogs.tif
176
     1
290
     0
176
     1
 40
1.0
176
     1
 40
1.0
176
     1
  0
VISUALSTYLE
  5
BC7
102
{ACAD_REACTORS
330
2F
102
}
330
2F
100
AcDbVisualStyle
  2
Basic
 70
     7
177
     3
291
     1
 70
    58
 90
        1
176
     1
 90
        0
176
     1
 90
        1
176
     1
 90
        0
176
     1
 40
0.6
176
     1
 40
30.0
176
     1
 62
     7
176
     1
 90
        0
176
     1
 90
        4
176
     1
 62
     7
176
     1
 62
   257
176
     1
 90
        1
176
     1
 90
        1
176
     1
 40
1.0
176
     1
 90
        8
176
     1
 62
     7
176
     1
 40
1.0
176
     1
 90
        1
176
     1
 90
        6
176
     1
 90
        2
176
     1
 62
     7
176
     1
 90
        5
176
     1
 90
        0
176
     1
 90
        0
176
     1
290
     0
176
     1
 90
        1
176
     1
 40
0.0
176
     1
 90
        0
176
     1
290
     0
176
     1
290
     1
176
     1
290
     1
176
     1
290
     0
176
     1
290
     0
176
     1
290
     0
176
     1
290
     0
176
     1
290
     0
176
     1
290
     0
176
     1
 90
       50
176
     1
 40
0.0
176
     1
 40
1.0
176
     1
 90
        0
176
     1
 62
    18
420
        0
176
     1
 90
       50
176
     1
 90
        3
176
     1
 62
     5
420
      255
176
     1
290
     0
176
     1
 90
       50
176
     1
 90
       50
176
     1
 90
       50
176
     1
290
     0
176
     1
 90
       50
176
     1
 62
   256
176
     0
 40
1.0
176
     0
 90
        2
176
     1
  1
strokes_ogs.tif
176
     1
290
     0
176
     1
 40
1.0
176
     1
 40
1.0
176
     1
  0
VISUALSTYLE
  5
BCC
102
{ACAD_REACTORS
330
2F
102
}
330
2F
100
AcDbVisualStyle
  2
Brighten
 70
    12
177
     3
291
     1
 70
    58
 90
        2
176
     1
 90
        2
176
     1
 90
        0
176
     1
 90
        0
176
     1
 40
0.6
176
     1
 40
30.0
176
     1
 62
     7
176
     1
 90
        1
176
     1
 90
        4
176
     1
 62
     7
176
     1
 62
   257
176
     1
 90
        1
176
     1
 90
        1
176
     1
 40
1.0
176
     1
 90
        8
176
     1
 62
     7
176
     1
 40
1.0
176
     1
 90
        1
176
     1
 90
        6
176
     1
 90
        2
176
     1
 62
     7
176
     1
 90
        5
176
     1
 90
        0
176
     1
 90
        0
176
     1
290
     0
176
     1
 90
        1
176
     1
 40
50.0
176
     1
 90
        0
176
     1
290
     0
176
     1
290
     1
176
     1
290
     1
176
     1
290
     0
176
     1
290
     0
176
     1
290
     0
176
     1
290
     0
176
     1
290
     0
176
     1
290
     0
176
     1
 90
       50
176
     1
 40
0.0
176
     1
 40
1.0
176
     1
 90
        0
176
     1
 62
    18
420
        0
176
     1
 90
       50
176
     1
 90
        3
176
     1
 62
     5
420
      255
176
     1
290
     0
176
     1
 90
       50
176
     1
 90
       50
176
     1
 90
       50
176
     1
290
     0
176
     1
 90
       50
176
     1
 62
   256
176
     0
 40
1.0
176
     0
 90
        2
176
     1
  1
strokes_ogs.tif
176
     1
290
     0
176
     1
 40
1.0
176
     1
 40
1.0
176
     1
  0
VISUALSTYLE
  5
BD0
102
{ACAD_REACTORS
330
2F
102
}
330
2F
100
AcDbVisualStyle
  2
ColorChange
 70
    16
177
     3
291
     1
 70
    58
 90
        2
176
     1
 90
        2
176
     1
 90
        3
176
     1
 90
        0
176
     1
 40
0.6
176
     1
 40
30.0
176
     1
 62
     8
176
     1
 90
        1
176
     1
 90
        4
176
     1
 62
     7
176
     1
 62
   257
176
     1
 90
        1
176
     1
 90
        1
176
     1
 40
1.0
176
     1
 90
        8
176
     1
 62
     8
176
     1
 40
1.0
176
     1
 90
        1
176
     1
 90
        6
176
     1
 90
        2
176
     1
 62
     7
176
     1
 90
        5
176
     1
 90
        0
176
     1
 90
        0
176
     1
290
     0
176
     1
 90
        1
176
     1
 40
0.0
176
     1
 90
        0
176
     1
290
     0
176
     1
290
     1
176
     1
290
     1
176
     1
290
     0
176
     1
290
     0
176
     1
290
     0
176
     1
290
     0
176
     1
290
     0
176
     1
290
     0
176
     1
 90
       50
176
     1
 40
0.0
176
     1
 40
1.0
176
     1
 90
        0
176
     1
 62
    18
420
        0
176
     1
 90
       50
176
     1
 90
        3
176
     1
 62
     5
420
      255
176
     1
290
     0
176
     1
 90
       50
176
     1
 90
       50
176
     1
 90
       50
176
     1
290
     0
176
     1
 90
       50
176
     1
 62
   256
176
     0
 40
1.0
176
     0
 90
        2
176
     1
  1
strokes_ogs.tif
176
     1
290
     0
176
     1
 40
1.0
176
     1
 40
1.0
176
     1
  0
VISUALSTYLE
  5
BCA
102
{ACAD_REACTORS
330
2F
102
}
330
2F
100
AcDbVisualStyle
  2
Conceptual
 70
     9
177
     3
291
     0
 70
    58
 90
        3
176
     1
 90
        2
176
     1
 90
        0
176
     1
 90
        0
176
     1
 40
0.6
176
     1
 40
30.0
176
     1
 62
     7
176
     1
 90
        2
176
     1
 90
        2
176
     1
 62
     7
176
     1
 62
   257
176
     1
 90
        1
176
     1
 90
        1
176
     1
 40
179.0
176
     1
 90
        8
176
     1
 62
     7
176
     1
 40
1.0
176
     1
 90
        1
176
     1
 90
        6
176
     1
 90
        2
176
     1
 62
     7
176
     1
 90
        3
176
     1
 90
        0
176
     1
 90
        0
176
     1
290
     0
176
     1
 90
        1
176
     1
 40
0.0
176
     1
 90
        0
176
     1
290
     0
176
     1
290
     1
176
     1
290
     1
176
     1
290
     0
176
     1
290
     0
176
     1
290
     0
176
     1
290
     0
176
     1
290
     0
176
     1
290
     0
176
     1
 90
       50
176
     1
 40
0.0
176
     1
 40
1.0
176
     1
 90
        0
176
     1
 62
    18
420
        0
176
     1
 90
       50
176
     1
 90
        3
176
     1
 62
     5
420
      255
176
     1
290
     0
176
     1
 90
       50
176
     1
 90
       50
176
     1
 90
       50
176
     1
290
     0
176
     1
 90
       50
176
     1
 62
   256
176
     0
 40
1.0
176
     0
 90
        2
176
     1
  1
strokes_ogs.tif
176
     1
290
     0
176
     1
 40
1.0
176
     1
 40
1.0
176
     1
  0
VISUALSTYLE
  5
BCB
102
{ACAD_REACTORS
330
2F
102
}
330
2F
100
AcDbVisualStyle
  2
Dim
 70
    11
177
     3
291
     1
 70
    58
 90
        2
176
     1
 90
        2
176
     1
 90
        0
176
     1
 90
        0
176
     1
 40
0.6
176
     1
 40
30.0
176
     1
 62
     7
176
     1
 90
        1
176
     1
 90
        4
176
     1
 62
     7
176
     1
 62
   257
176
     1
 90
        1
176
     1
 90
        1
176
     1
 40
1.0
176
     1
 90
        8
176
     1
 62
     7
176
     1
 40
1.0
176
     1
 90
        1
176
     1
 90
        6
176
     1
 90
        2
176
     1
 62
     7
176
     1
 90
        5
176
     1
 90
        0
176
     1
 90
        0
176
     1
290
     0
176
     1
 90
        1
176
     1
 40
-50.0
176
     1
 90
        0
176
     1
290
     0
176
     1
290
     1
176
     1
290
     1
176
     1
290
     0
176
     1
290
     0
176
     1
290
     0
176
     1
290
     0
176
     1
290
     0
176
     1
290
     0
176
     1
 90
       50
176
     1
 40
0.0
176
     1
 40
1.0
176
     1
 90
        0
176
     1
 62
    18
420
        0
176
     1
 90
       50
176
     1
 90
        3
176
     1
 62
     5
420
      255
176
     1
290
     0
176
     1
 90
       50
176
     1
 90
       50
176
     1
 90
       50
176
     1
290
     0
176
     1
 90
       50
176
     1
 62
   256
176
     0
 40
1.0
176
     0
 90
        2
176
     1
  1
strokes_ogs.tif
176
     1
290
     0
176
     1
 40
1.0
176
     1
 40
1.0
176
     1
  0
VISUALSTYLE
  5
BD8
102
{ACAD_REACTORS
330
2F
102
}
330
2F
100
AcDbVisualStyle
  2
EdgeColorOff
 70
    22
177
     3
291
     1
 70
    58
 90
        2
176
     0
 90
        2
176
     0
 90
        0
176
     0
 90
        0
176
     0
 40
0.6
176
     0
 40
30.0
176
     0
 62
     7
176
     0
 90
        1
176
     0
 90
        4
176
     0
 62
     7
176
     0
 62
   257
176
     0
 90
        1
176
     0
 90
        1
176
     0
 40
1.0
176
     0
 90
        8
176
     2
 62
     7
176
     0
 40
1.0
176
     0
 90
        1
176
     0
 90
        6
176
     0
 90
        2
176
     0
 62
     7
176
     0
 90
        5
176
     0
 90
        0
176
     0
 90
        0
176
     0
290
     0
176
     0
 90
        1
176
     0
 40
0.0
176
     0
 90
        0
176
     0
290
     0
176
     0
290
     1
176
     0
290
     1
176
     0
290
     0
176
     0
290
     0
176
     0
290
     0
176
     0
290
     0
176
     0
290
     0
176
     0
290
     0
176
     0
 90
       50
176
     0
 40
0.0
176
     0
 40
1.0
176
     0
 90
        0
176
     0
 62
    18
420
        0
176
     0
 90
       50
176
     0
 90
        3
176
     0
 62
     5
420
      255
176
     0
290
     0
176
     0
 90
       50
176
     0
 90
       50
176
     0
 90
       50
176
     0
290
     0
176
     0
 90
       50
176
     0
 62
   256
176
     0
 40
1.0
176
     0
 90
        2
176
     0
  1
strokes_ogs.tif
176
     0
290
     0
176
     0
 40
1.0
176
     0
 40
1.0
176
     0
  0
VISUALSTYLE
  5
BCF
102
{ACAD_REACTORS
330
2F
102
}
330
2F
100
AcDbVisualStyle
  2
Facepattern
 70
    15
177
     3
291
     1
 70
    58
 90
        2
176
     1
 90
        2
176
     1
 90
        0
176
     1
 90
        0
176
     1
 40
0.6
176
     1
 40
30.0
176
     1
 62
     7
176
     1
 90
        1
176
     1
 90
        4
176
     1
 62
     7
176
     1
 62
   257
176
     1
 90
        1
176
     1
 90
        1
176
     1
 40
1.0
176
     1
 90
        8
176
     1
 62
     7
176
     1
 40
1.0
176
     1
 90
        1
176
     1
 90
        6
176
     1
 90
        2
176
     1
 62
     7
176
     1
 90
        5
176
     1
 90
        0
176
     1
 90
        0
176
     1
290
     0
176
     1
 90
        1
176
     1
 40
0.0
176
     1
 90
        0
176
     1
290
     0
176
     1
290
     1
176
     1
290
     1
176
     1
290
     0
176
     1
290
     0
176
     1
290
     0
176
     1
290
     0
176
     1
290
     0
176
     1
290
     0
176
     1
 90
       50
176
     1
 40
0.0
176
     1
 40
1.0
176
     1
 90
        0
176
     1
 62
    18
420
        0
176
     1
 90
       50
176
     1
 90
        3
176
     1
 62
     5
420
      255
176
     1
290
     0
176
     1
 90
       50
176
     1
 90
       50
176
     1
 90
       50
176
     1
290
     0
176
     1
 90
       50
176
     1
 62
   256
176
     0
 40
1.0
176
     0
 90
        2
176
     1
  1
strokes_ogs.tif
176
     1
290
     0
176
     1
 40
1.0
176
     1
 40
1.0
176
     1
  0
VISUALSTYLE
  5
BC3
102
{ACAD_REACTORS
330
2F
102
}
330
2F
100
AcDbVisualStyle
  2
Flat
 70
     0
177
     3
291
     1
 70
    58
 90
        2
176
     1
 90
        1
176
     1
 90
        1
176
     1
 90
        2
176
     1
 40
0.6
176
     1
 40
30.0
176
     1
 62
     7
176
     1
 90
        0
176
     1
 90
        0
176
     1
 62
     7
176
     1
 62
   257
176
     1
 90
        1
176
     1
 90
        1
176
     1
 40
1.0
176
     1
 90
        8
176
     1
 62
     7
176
     1
 40
1.0
176
     1
 90
        1
176
     1
 90
        6
176
     1
 90
        2
176
     1
 62
     7
176
     1
 90
        5
176
     1
 90
        0
176
     1
 90
        0
176
     1
290
     0
176
     1
 90
       13
176
     1
 40
0.0
176
     1
 90
        0
176
     1
290
     0
176
     1
290
     1
176
     1
290
     1
176
     1
290
     0
176
     1
290
     0
176
     1
290
     0
176
     1
290
     0
176
     1
290
     0
176
     1
290
     0
176
     1
 90
       50
176
     1
 40
0.0
176
     1
 40
1.0
176
     1
 90
        0
176
     1
 62
    18
420
        0
176
     1
 90
       50
176
     1
 90
        3
176
     1
 62
     5
420
      255
176
     1
290
     0
176
     1
 90
       50
176
     1
 90
       50
176
     1
 90
       50
176
     1
290
     0
176
     1
 90
       50
176
     1
 62
   256
176
     0
 40
1.0
176
     0
 90
        2
176
     1
  1
strokes_ogs.tif
176
     1
290
     0
176
     1
 40
1.0
176
     1
 40
1.0
176
     1
  0
VISUALSTYLE
  5
BC4
102
{ACAD_REACTORS
330
2F
102
}
330
2F
100
AcDbVisualStyle
  2
FlatWithEdges
 70
     1
177
     3
291
     1
 70
    58
 90
        2
176
     1
 90
        1
176
     1
 90
        1
176
     1
 90
        2
176
     1
 40
0.6
176
     1
 40
30.0
176
     1
 62
     7
176
     1
 90
        1
176
     1
 90
        0
176
     1
 62
     7
176
     1
 62
   257
176
     1
 90
        1
176
     1
 90
        1
176
     1
 40
1.0
176
     1
 90
        0
176
     1
 62
   257
176
     1
 40
1.0
176
     1
 90
        1
176
     1
 90
        6
176
     1
 90
        2
176
     1
 62
     7
176
     1
 90
        5
176
     1
 90
        0
176
     1
 90
        0
176
     1
290
     0
176
     1
 90
       13
176
     1
 40
0.0
176
     1
 90
        0
176
     1
290
     0
176
     1
290
     1
176
     1
290
     1
176
     1
290
     0
176
     1
290
     0
176
     1
290
     0
176
     1
290
     0
176
     1
290
     0
176
     1
290
     0
176
     1
 90
       50
176
     1
 40
0.0
176
     1
 40
1.0
176
     1
 90
        0
176
     1
 62
    18
420
        0
176
     1
 90
       50
176
     1
 90
        3
176
     1
 62
     5
420
      255
176
     1
290
     0
176
     1
 90
       50
176
     1
 90
       50
176
     1
 90
       50
176
     1
290
     0
176
     1
 90
       50
176
     1
 62
   256
176
     0
 40
1.0
176
     0
 90
        2
176
     1
  1
strokes_ogs.tif
176
     1
290
     0
176
     1
 40
1.0
176
     1
 40
1.0
176
     1
  0
VISUALSTYLE
  5
BC5
102
{ACAD_REACTORS
330
2F
102
}
330
2F
100
AcDbVisualStyle
  2
Gouraud
 70
     2
177
     3
291
     1
 70
    58
 90
        2
176
     1
 90
        2
176
     1
 90
        1
176
     1
 90
        2
176
     1
 40
0.6
176
     1
 40
30.0
176
     1
 62
     7
176
     1
 90
        0
176
     1
 90
        0
176
     1
 62
     7
176
     1
 62
   257
176
     1
 90
        1
176
     1
 90
        1
176
     1
 40
1.0
176
     1
 90
        0
176
     1
 62
     7
176
     1
 40
1.0
176
     1
 90
        1
176
     1
 90
        6
176
     1
 90
        2
176
     1
 62
     7
176
     1
 90
        5
176
     1
 90
        0
176
     1
 90
        0
176
     1
290
     0
176
     1
 90
       13
176
     1
 40
0.0
176
     1
 90
        0
176
     1
290
     0
176
     1
290
     1
176
     1
290
     1
176
     1
290
     0
176
     1
290
     0
176
     1
290
     0
176
     1
290
     0
176
     1
290
     0
176
     1
290
     0
176
     1
 90
       50
176
     1
 40
0.0
176
     1
 40
1.0
176
     1
 90
        0
176
     1
 62
    18
420
        0
176
     1
 90
       50
176
     1
 90
        3
176
     1
 62
     5
420
      255
176
     1
290
     0
176
     1
 90
       50
176
     1
 90
       50
176
     1
 90
       50
176
     1
290
     0
176
     1
 90
       50
176
     1
 62
   256
176
     0
 40
1.0
176
     0
 90
        2
176
     1
  1
strokes_ogs.tif
176
     1
290
     0
176
     1
 40
1.0
176
     1
 40
1.0
176
     1
  0
VISUALSTYLE
  5
BC6
102
{ACAD_REACTORS
330
2F
102
}
330
2F
100
AcDbVisualStyle
  2
GouraudWithEdges
 70
     3
177
     3
291
     1
 70
    58
 90
        2
176
     1
 90
        2
176
     1
 90
        1
176
     1
 90
        2
176
     1
 40
0.6
176
     1
 40
30.0
176
     1
 62
     7
176
     1
 90
        1
176
     1
 90
        0
176
     1
 62
     7
176
     1
 62
   257
176
     1
 90
        1
176
     1
 90
        1
176
     1
 40
1.0
176
     1
 90
        0
176
     1
 62
   257
176
     1
 40
1.0
176
     1
 90
        1
176
     1
 90
        6
176
     1
 90
        2
176
     1
 62
     7
176
     1
 90
        5
176
     1
 90
        0
176
     1
 90
        0
176
     1
290
     0
176
     1
 90
       13
176
     1
 40
0.0
176
     1
 90
        0
176
     1
290
     0
176
     1
290
     1
176
     1
290
     1
176
     1
290
     0
176
     1
290
     0
176
     1
290
     0
176
     1
290
     0
176
     1
290
     0
176
     1
290
     0
176
     1
 90
       50
176
     1
 40
0.0
176
     1
 40
1.0
176
     1
 90
        0
176
     1
 62
    18
420
        0
176
     1
 90
       50
176
     1
 90
        3
176
     1
 62
     5
420
      255
176
     1
290
     0
176
     1
 90
       50
176
     1
 90
       50
176
     1
 90
       50
176
     1
290
     0
176
     1
 90
       50
176
     1
 62
   256
176
     0
 40
1.0
176
     0
 90
        2
176
     1
  1
strokes_ogs.tif
176
     1
290
     0
176
     1
 40
1.0
176
     1
 40
1.0
176
     1
  0
VISUALSTYLE
  5
BC9
102
{ACAD_REACTORS
330
2F
102
}
330
2F
100
AcDbVisualStyle
  2
Hidden
 70
     6
177
     3
291
     0
 70
    58
 90
        1
176
     1
 90
        2
176
     1
 90
        2
176
     1
 90
        0
176
     1
 40
0.6
176
     1
 40
30.0
176
     1
 62
     7
176
     1
 90
        2
176
     1
 90
        2
176
     1
 62
     7
176
     1
 62
   257
176
     1
 90
        2
176
     1
 90
        1
176
     1
 40
40.0
176
     1
 90
        0
176
     1
 62
   257
176
     1
 40
1.0
176
     1
 90
        1
176
     1
 90
        6
176
     1
 90
        2
176
     1
 62
     7
176
     1
 90
        3
176
     1
 90
        0
176
     1
 90
        0
176
     1
290
     0
176
     1
 90
        1
176
     1
 40
0.0
176
     1
 90
        0
176
     1
290
     0
176
     1
290
     1
176
     1
290
     1
176
     1
290
     0
176
     1
290
     0
176
     1
290
     0
176
     1
290
     0
176
     1
290
     0
176
     1
290
     0
176
     1
 90
       50
176
     1
 40
0.0
176
     1
 40
1.0
176
     1
 90
        0
176
     1
 62
    18
420
        0
176
     1
 90
       50
176
     1
 90
        3
176
     1
 62
     5
420
      255
176
     1
290
     0
176
     1
 90
       50
176
     1
 90
       50
176
     1
 90
       50
176
     1
290
     0
176
     1
 90
       50
176
     1
 62
   256
176
     0
 40
1.0
176
     0
 90
        2
176
     1
  1
strokes_ogs.tif
176
     1
290
     0
176
     1
 40
1.0
176
     1
 40
1.0
176
     1
  0
VISUALSTYLE
  5
BD6
102
{ACAD_REACTORS
330
2F
102
}
330
2F
100
AcDbVisualStyle
  2
JitterOff
 70
    20
177
     3
291
     1
 70
    58
 90
        2
176
     0
 90
        2
176
     0
 90
        0
176
     0
 90
        0
176
     0
 40
0.6
176
     0
 40
30.0
176
     0
 62
     7
176
     0
 90
        1
176
     0
 90
        4
176
     0
 62
     7
176
     0
 62
   257
176
     0
 90
        1
176
     0
 90
        1
176
     0
 40
1.0
176
     0
 90
       10
176
     2
 62
     7
176
     0
 40
1.0
176
     0
 90
        1
176
     0
 90
        6
176
     0
 90
        2
176
     0
 62
     7
176
     0
 90
        5
176
     0
 90
        0
176
     0
 90
        0
176
     0
290
     0
176
     0
 90
        1
176
     0
 40
0.0
176
     0
 90
        0
176
     0
290
     0
176
     0
290
     1
176
     0
290
     1
176
     0
290
     0
176
     0
290
     0
176
     0
290
     0
176
     0
290
     0
176
     0
290
     0
176
     0
290
     0
176
     0
 90
       50
176
     0
 40
0.0
176
     0
 40
1.0
176
     0
 90
        0
176
     0
 62
    18
420
        0
176
     0
 90
       50
176
     0
 90
        3
176
     0
 62
     5
420
      255
176
     0
290
     0
176
     0
 90
       50
176
     0
 90
       50
176
     0
 90
       50
176
     0
290
     0
176
     0
 90
       50
176
     0
 62
   256
176
     0
 40
1.0
176
     0
 90
        2
176
     0
  1
strokes_ogs.tif
176
     0
290
     0
176
     0
 40
1.0
176
     0
 40
1.0
176
     0
  0
VISUALSTYLE
  5
BCE
102
{ACAD_REACTORS
330
2F
102
}
330
2F
100
AcDbVisualStyle
  2
Linepattern
 70
    14
177
     3
291
     1
 70
    58
 90
        2
176
     1
 90
        2
176
     1
 90
        0
176
     1
 90
        0
176
     1
 40
0.6
176
     1
 40
30.0
176
     1
 62
     7
176
     1
 90
        1
176
     1
 90
        4
176
     1
 62
     7
176
     1
 62
   257
176
     1
 90
        7
176
     1
 90
        7
176
     1
 40
1.0
176
     1
 90
        8
176
     1
 62
     7
176
     1
 40
1.0
176
     1
 90
        1
176
     1
 90
        6
176
     1
 90
        2
176
     1
 62
     7
176
     1
 90
        5
176
     1
 90
        0
176
     1
 90
        0
176
     1
290
     0
176
     1
 90
        1
176
     1
 40
0.0
176
     1
 90
        0
176
     1
290
     0
176
     1
290
     1
176
     1
290
     1
176
     1
290
     0
176
     1
290
     0
176
     1
290
     0
176
     1
290
     0
176
     1
290
     0
176
     1
290
     0
176
     1
 90
       50
176
     1
 40
0.0
176
     1
 40
1.0
176
     1
 90
        0
176
     1
 62
    18
420
        0
176
     1
 90
       50
176
     1
 90
        3
176
     1
 62
     5
420
      255
176
     1
290
     0
176
     1
 90
       50
176
     1
 90
       50
176
     1
 90
       50
176
     1
290
     0
176
     1
 90
       50
176
     1
 62
   256
176
     0
 40
1.0
176
     0
 90
        2
176
     1
  1
strokes_ogs.tif
176
     1
290
     0
176
     1
 40
1.0
176
     1
 40
1.0
176
     1
  0
VISUALSTYLE
  5
BD7
102
{ACAD_REACTORS
330
2F
102
}
330
2F
100
AcDbVisualStyle
  2
OverhangOff
 70
    21
177
     3
291
     1
 70
    58
 90
        2
176
     0
 90
        2
176
     0
 90
        0
176
     0
 90
        0
176
     0
 40
0.6
176
     0
 40
30.0
176
     0
 62
     7
176
     0
 90
        1
176
     0
 90
        4
176
     0
 62
     7
176
     0
 62
   257
176
     0
 90
        1
176
     0
 90
        1
176
     0
 40
1.0
176
     0
 90
        9
176
     2
 62
     7
176
     0
 40
1.0
176
     0
 90
        1
176
     0
 90
        6
176
     0
 90
        2
176
     0
 62
     7
176
     0
 90
        5
176
     0
 90
        0
176
     0
 90
        0
176
     0
290
     0
176
     0
 90
        1
176
     0
 40
0.0
176
     0
 90
        0
176
     0
290
     0
176
     0
290
     1
176
     0
290
     1
176
     0
290
     0
176
     0
290
     0
176
     0
290
     0
176
     0
290
     0
176
     0
290
     0
176
     0
290
     0
176
     0
 90
       50
176
     0
 40
0.0
176
     0
 40
1.0
176
     0
 90
        0
176
     0
 62
    18
420
        0
176
     0
 90
       50
176
     0
 90
        3
176
     0
 62
     5
420
      255
176
     0
290
     0
176
     0
 90
       50
176
     0
 90
       50
176
     0
 90
       50
176
     0
290
     0
176
     0
 90
       50
176
     0
 62
   256
176
     0
 40
1.0
176
     0
 90
        2
176
     0
  1
strokes_ogs.tif
176
     0
290
     0
176
     0
 40
1.0
176
     0
 40
1.0
176
     0
  0
VISUALSTYLE
  5
46
102
{ACAD_REACTORS
330
2F
102
}
330
2F
100
AcDbVisualStyle
  2
Realistic
 70
     8
177
     3
291
     0
 70
    58
 90
        2
176
     1
 90
        2
176
     1
 90
        1
176
     1
 90
        0
176
     1
 40
0.6
176
     1
 40
30.0
176
     1
 62
     7
176
     1
 90
        1
176
     1
 90
        0
176
     1
 62
     7
176
     1
 62
   257
176
     1
 90
        1
176
     1
 90
        1
176
     1
 40
1.0
176
     1
 90
        8
176
     1
 62
     8
176
     1
 40
1.0
176
     1
 90
        1
176
     1
 90
        6
176
     1
 90
        2
176
     1
 62
     7
176
     1
 90
        5
176
     1
 90
        0
176
     1
 90
        0
176
     1
290
     0
176
     1
 90
       13
176
     1
 40
0.0
176
     1
 90
        0
176
     1
290
     0
176
     1
290
     1
176
     1
290
     1
176
     1
290
     0
176
     1
290
     0
176
     1
290
     0
176
     1
290
     0
176
     1
290
     0
176
     1
290
     0
176
     1
 90
       50
176
     1
 40
0.0
176
     1
 40
1.0
176
     1
 90
        0
176
     1
 62
    18
420
        0
176
     1
 90
       50
176
     1
 90
        3
176
     1
 62
     5
420
      255
176
     1
290
     0
176
     1
 90
       50
176
     1
 90
       50
176
     1
 90
       50
176
     1
290
     0
176
     1
 90
       50
176
     1
 62
   256
176
     0
 40
1.0
176
     0
 90
        2
176
     1
  1
strokes_ogs.tif
176
     1
290
     0
176
     1
 40
1.0
176
     1
 40
1.0
176
     1
  0
VISUALSTYLE
  5
BD5
102
{ACAD_REACTORS
330
2F
102
}
330
2F
100
AcDbVisualStyle
  2
Shaded
 70
    27
177
     3
291
     0
 70
    58
 90
        2
176
     1
 90
        2
176
     1
 90
        1
176
     1
 90
        2
176
     1
 40
0.6
176
     1
 40
30.0
176
     1
 62
     7
176
     1
 90
        0
176
     1
 90
        4
176
     1
 62
     7
176
     1
 62
   257
176
     1
 90
        1
176
     1
 90
        1
176
     1
 40
1.0
176
     1
 90
        8
176
     1
 62
   257
176
     1
 40
1.0
176
     1
 90
        1
176
     1
 90
        6
176
     1
 90
        2
176
     1
 62
     8
176
     1
 90
        3
176
     1
 90
        0
176
     1
 90
        0
176
     1
290
     0
176
     1
 90
        5
176
     1
 40
0.0
176
     1
 90
        0
176
     1
290
     0
176
     1
290
     1
176
     1
290
     1
176
     1
290
     0
176
     1
290
     0
176
     1
290
     0
176
     1
290
     0
176
     1
290
     0
176
     1
290
     0
176
     1
 90
       50
176
     1
 40
0.0
176
     1
 40
1.0
176
     1
 90
        0
176
     1
 62
    18
420
        0
176
     1
 90
       50
176
     1
 90
        3
176
     1
 62
     5
420
      255
176
     1
290
     0
176
     1
 90
       50
176
     1
 90
       50
176
     1
 90
       50
176
     1
290
     0
176
     1
 90
       50
176
     1
 62
   256
176
     0
 40
1.0
176
     0
 90
        2
176
     1
  1
strokes_ogs.tif
176
     1
290
     0
176
     1
 40
1.0
176
     1
 40
1.0
176
     1
  0
VISUALSTYLE
  5
BD4
102
{ACAD_REACTORS
330
2F
102
}
330
2F
100
AcDbVisualStyle
  2
Shaded with edges
 70
    26
177
     3
291
     0
 70
    58
 90
        2
176
     1
 90
        2
176
     1
 90
        1
176
     1
 90
        2
176
     1
 40
0.6
176
     1
 40
30.0
176
     1
 62
     7
176
     1
 90
        1
176
     1
 90
       10
176
     1
 62
     7
176
     1
 62
   257
176
     1
 90
        2
176
     1
 90
        1
176
     1
 40
1.0
176
     1
 90
        8
176
     1
 62
   257
176
     1
 40
1.0
176
     1
 90
        1
176
     1
 90
        6
176
     1
 90
        2
176
     1
 62
     7
176
     1
 90
        3
176
     1
 90
        0
176
     1
 90
        0
176
     1
290
     0
176
     1
 90
        5
176
     1
 40
0.0
176
     1
 90
        0
176
     1
290
     0
176
     1
290
     1
176
     1
290
     1
176
     1
290
     0
176
     1
290
     0
176
     1
290
     0
176
     1
290
     0
176
     1
290
     0
176
     1
290
     0
176
     1
 90
       50
176
     1
 40
0.0
176
     1
 40
1.0
176
     1
 90
        0
176
     1
 62
    18
420
        0
176
     1
 90
       50
176
     1
 90
        3
176
     1
 62
     5
420
      255
176
     1
290
     0
176
     1
 90
       50
176
     1
 90
       50
176
     1
 90
       50
176
     1
290
     0
176
     1
 90
       50
176
     1
 62
   256
176
     0
 40
1.0
176
     0
 90
        2
176
     1
  1
strokes_ogs.tif
176
     1
290
     0
176
     1
 40
1.0
176
     1
 40
1.0
176
     1
  0
VISUALSTYLE
  5
BD1
102
{ACAD_REACTORS
330
2F
102
}
330
2F
100
AcDbVisualStyle
  2
Shades of Gray
 70
    23
177
     3
291
     0
 70
    58
 90
        2
176
     1
 90
        2
176
     1
 90
        3
176
     1
 90
        0
176
     1
 40
0.6
176
     1
 40
30.0
176
     1
 62
     7
176
     1
 90
        2
176
     1
 90
        2
176
     1
 62
     7
176
     1
 62
     7
176
     1
 90
        1
176
     1
 90
        1
176
     1
 40
40.0
176
     1
 90
        8
176
     1
 62
     7
176
     1
 40
1.0
176
     1
 90
        1
176
     1
 90
        6
176
     1
 90
        2
176
     1
 62
     7
176
     1
 90
        3
176
     1
 90
        0
176
     1
 90
        0
176
     1
290
     0
176
     1
 90
        1
176
     1
 40
0.0
176
     1
 90
        0
176
     1
290
     0
176
     1
290
     1
176
     1
290
     1
176
     1
290
     0
176
     1
290
     0
176
     1
290
     0
176
     1
290
     0
176
     1
290
     0
176
     1
290
     0
176
     1
 90
       50
176
     1
 40
0.0
176
     1
 40
1.0
176
     1
 90
        0
176
     1
 62
    18
420
        0
176
     1
 90
       50
176
     1
 90
        3
176
     1
 62
     5
420
      255
176
     1
290
     0
176
     1
 90
       50
176
     1
 90
       50
176
     1
 90
       50
176
     1
290
     0
176
     1
 90
       50
176
     1
 62
   256
176
     0
 40
1.0
176
     0
 90
        2
176
     1
  1
strokes_ogs.tif
176
     1
290
     0
176
     1
 40
1.0
176
     1
 40
1.0
176
     1
  0
VISUALSTYLE
  5
BD2
102
{ACAD_REACTORS
330
2F
102
}
330
2F
100
AcDbVisualStyle
  2
Sketchy
 70
    24
177
     3
291
     0
 70
    58
 90
        1
176
     1
 90
        2
176
     1
 90
        2
176
     1
 90
        0
176
     1
 40
0.6
176
     1
 40
30.0
176
     1
 62
     7
176
     1
 90
        2
176
     1
 90
        2
176
     1
 62
     7
176
     1
 62
     7
176
     1
 90
        1
176
     1
 90
        1
176
     1
 40
40.0
176
     1
 90
       11
176
     1
 62
     7
176
     1
 40
1.0
176
     1
 90
        1
176
     1
 90
        6
176
     1
 90
        2
176
     1
 62
     7
176
     1
 90
        6
176
     1
 90
        0
176
     1
 90
        0
176
     1
290
     0
176
     1
 90
        1
176
     1
 40
0.0
176
     1
 90
        0
176
     1
290
     0
176
     1
290
     1
176
     1
290
     1
176
     1
290
     0
176
     1
290
     0
176
     1
290
     0
176
     1
290
     0
176
     1
290
     0
176
     1
290
     0
176
     1
 90
       50
176
     1
 40
0.0
176
     1
 40
1.0
176
     1
 90
        0
176
     1
 62
    18
420
        0
176
     1
 90
       50
176
     1
 90
        3
176
     1
 62
     5
420
      255
176
     1
290
     0
176
     1
 90
       50
176
     1
 90
       50
176
     1
 90
       50
176
     1
290
     0
176
     1
 90
       50
176
     1
 62
   256
176
     0
 40
1.0
176
     0
 90
        2
176
     1
  1
strokes_ogs.tif
176
     1
290
     0
176
     1
 40
1.0
176
     1
 40
1.0
176
     1
  0
VISUALSTYLE
  5
BCD
102
{ACAD_REACTORS
330
2F
102
}
330
2F
100
AcDbVisualStyle
  2
Thicken
 70
    13
177
     3
291
     1
 70
    58
 90
        2
176
     1
 90
        2
176
     1
 90
        0
176
     1
 90
        0
176
     1
 40
0.6
176
     1
 40
30.0
176
     1
 62
     7
176
     1
 90
        1
176
     1
 90
        4
176
     1
 62
     7
176
     1
 62
   257
176
     1
 90
        1
176
     1
 90
        1
176
     1
 40
1.0
176
     1
 90
       12
176
     1
 62
     7
176
     1
 40
1.0
176
     1
 90
        1
176
     1
 90
        6
176
     1
 90
        2
176
     1
 62
     7
176
     1
 90
        5
176
     1
 90
        0
176
     1
 90
        0
176
     1
290
     0
176
     1
 90
        1
176
     1
 40
0.0
176
     1
 90
        0
176
     1
290
     0
176
     1
290
     1
176
     1
290
     1
176
     1
290
     0
176
     1
290
     0
176
     1
290
     0
176
     1
290
     0
176
     1
290
     0
176
     1
290
     0
176
     1
 90
       50
176
     1
 40
0.0
176
     1
 40
1.0
176
     1
 90
        0
176
     1
 62
    18
420
        0
176
     1
 90
       50
176
     1
 90
        3
176
     1
 62
     5
420
      255
176
     1
290
     0
176
     1
 90
       50
176
     1
 90
       50
176
     1
 90
       50
176
     1
290
     0
176
     1
 90
       50
176
     1
 62
   256
176
     0
 40
1.0
176
     0
 90
        2
176
     1
  1
strokes_ogs.tif
176
     1
290
     0
176
     1
 40
1.0
176
     1
 40
1.0
176
     1
  0
VISUALSTYLE
  5
BC8
102
{ACAD_REACTORS
330
2F
102
}
330
2F
100
AcDbVisualStyle
  2
Wireframe
 70
     5
177
     3
291
     0
 70
    58
 90
        0
176
     1
 90
        2
176
     1
 90
        0
176
     1
 90
        0
176
     1
 40
0.6
176
     1
 40
30.0
176
     1
 62
     7
176
     1
 90
        1
176
     1
 90
        4
176
     1
 62
     7
176
     1
 62
   257
176
     1
 90
        1
176
     1
 90
        1
176
     1
 40
1.0
176
     1
 90
        0
176
     1
 62
   257
176
     1
 40
1.0
176
     1
 90
        1
176
     1
 90
        6
176
     1
 90
        2
176
     1
 62
     7
176
     1
 90
        3
176
     1
 90
        0
176
     1
 90
        0
176
     1
290
     0
176
     1
 90
        1
176
     1
 40
0.0
176
     1
 90
        0
176
     1
290
     0
176
     1
290
     1
176
     1
290
     1
176
     1
290
     0
176
     1
290
     0
176
     1
290
     0
176
     1
290
     0
176
     1
290
     0
176
     1
290
     0
176
     1
 90
       50
176
     1
 40
0.0
176
     1
 40
1.0
176
     1
 90
        0
176
     1
 62
    18
420
        0
176
     1
 90
       50
176
     1
 90
        3
176
     1
 62
     5
420
      255
176
     1
290
     0
176
     1
 90
       50
176
     1
 90
       50
176
     1
 90
       50
176
     1
290
     0
176
     1
 90
       50
176
     1
 62
   256
176
     0
 40
1.0
176
     0
 90
        2
176
     1
  1
strokes_ogs.tif
176
     1
290
     0
176
     1
 40
1.0
176
     1
 40
1.0
176
     1
  0
VISUALSTYLE
  5
BD3
102
{ACAD_REACTORS
330
2F
102
}
330
2F
100
AcDbVisualStyle
  2
X-Ray
 70
    25
177
     3
291
     0
 70
    58
 90
        2
176
     1
 90
        2
176
     1
 90
        1
176
     1
 90
        1
176
     1
 40
0.5
176
     1
 40
30.0
176
     1
 62
     7
176
     1
 90
        1
176
     1
 90
        0
176
     1
 62
     7
176
     1
 62
   257
176
     1
 90
        1
176
     1
 90
        1
176
     1
 40
1.0
176
     1
 90
        8
176
     1
 62
     7
176
     1
 40
1.0
176
     1
 90
        1
176
     1
 90
        6
176
     1
 90
        2
176
     1
 62
     7
176
     1
 90
        3
176
     1
 90
        0
176
     1
 90
        0
176
     1
290
     0
176
     1
 90
       13
176
     1
 40
0.0
176
     1
 90
        0
176
     1
290
     0
176
     1
290
     1
176
     1
290
     1
176
     1
290
     0
176
     1
290
     0
176
     1
290
     0
176
     1
290
     0
176
     1
290
     0
176
     1
290
     0
176
     1
 90
       50
176
     1
 40
0.0
176
     1
 40
1.0
176
     1
 90
        0
176
     1
 62
    18
420
        0
176
     1
 90
       50
176
     1
 90
        3
176
     1
 62
     5
420
      255
176
     1
290
     0
176
     1
 90
       50
176
     1
 90
       50
176
     1
 90
       50
176
     1
290
     0
176
     1
 90
       50
176
     1
 62
   256
176
     0
 40
1.0
176
     0
 90
        2
176
     1
  1
strokes_ogs.tif
176
     1
290
     0
176
     1
 40
1.0
176
     1
 40
1.0
176
     1
  0
DICTIONARYVAR
  5
BBE
102
{ACAD_REACTORS
330
BB8
102
}
330
BB8
100
DictionaryVariables
280
     0
  1
1:1
  0
DICTIONARYVAR
  5
BBA
102
{ACAD_REACTORS
330
BB8
102
}
330
BB8
100
DictionaryVariables
280
     0
  1
STANDARD
  0
DICTIONARYVAR
  5
BB9
102
{ACAD_REACTORS
330
BB8
102
}
330
BB8
100
DictionaryVariables
280
     0
  1
STANDARD
  0
DICTIONARYVAR
  5
BBB
102
{ACAD_REACTORS
330
BB8
102
}
330
BB8
100
DictionaryVariables
280
     0
  1
Metric50
  0
DICTIONARYVAR
  5
BBC
102
{ACAD_REACTORS
330
BB8
102
}
330
BB8
100
DictionaryVariables
280
     0
  1
Metric50
  0
DICTIONARYVAR
  5
C3B
102
{ACAD_REACTORS
330
BB8
102
}
330
BB8
100
DictionaryVariables
280
     0
  1
1
  0
DICTIONARYVAR
  5
C39
102
{ACAD_REACTORS
330
BB8
102
}
330
BB8
100
DictionaryVariables
280
     0
  1
1
  0
DICTIONARYVAR
  5
FF3
102
{ACAD_REACTORS
330
BB8
102
}
330
BB8
100
DictionaryVariables
280
     0
  1
4
  0
DICTIONARYVAR
  5
C38
102
{ACAD_REACTORS
330
BB8
102
}
330
BB8
100
DictionaryVariables
280
     0
  1
0
  0
DICTIONARYVAR
  5
BC0
102
{ACAD_REACTORS
330
BB8
102
}
330
BB8
100
DictionaryVariables
280
     0
  1
1
  0
DICTIONARYVAR
  5
BC1
102
{ACAD_REACTORS
330
BB8
102
}
330
BB8
100
DictionaryVariables
280
     0
  1
15
  0
DICTIONARYVAR
  5
BBF
102
{ACAD_REACTORS
330
BB8
102
}
330
BB8
100
DictionaryVariables
280
     0
  1
0
  0
DICTIONARYVAR
  5
BBD
102
{ACAD_REACTORS
330
BB8
102
}
330
BB8
100
DictionaryVariables
280
     0
  1
0
  0
DICTIONARYVAR
  5
C3C
102
{ACAD_REACTORS
330
BB8
102
}
330
BB8
100
DictionaryVariables
280
     0
  1
1
  0
DICTIONARYVAR
  5
C37
102
{ACAD_REACTORS
330
BB8
102
}
330
BB8
100
DictionaryVariables
280
     0
  1
127
  0
DICTIONARY
  5
3765F
330
283CD
100
AcDbDictionary
280
     1
281
     1
  3
ACAD_XREC_ROUNDTRIP
360
37660
  0
DICTIONARY
  5
3765B
330
BDD
100
AcDbDictionary
280
     1
281
     1
  3
ACAD_XREC_ROUNDTRIP
360
3765C
  0
DICTIONARY
  5
18
330
16
100
AcDbDictionary
280
     1
281
     1
  0
DICTIONARY
  5
1F
330
1E
100
AcDbDictionary
280
     1
281
     1
  0
DICTIONARY
  5
E
330
C
100
AcDbDictionary
280
     1
281
     1
  3
BUMPTILE
360
F
  3
DIFFUSETILE
360
10
  3
OPACITYTILE
360
11
  3
REFLECTIONTILE
360
12
  0
DICTIONARY
  5
3765D
330
283CC
100
AcDbDictionary
280
     1
281
     1
  3
ACAD_XREC_ROUNDTRIP
360
3765E
  0
DICTIONARY
  5
37659
330
BDB
100
AcDbDictionary
280
     1
281
     1
  3
ACAD_XREC_ROUNDTRIP
360
3765A
  0
DICTIONARY
  5
45
330
44
100
AcDbDictionary
280
     1
281
     1
  3
ACAD_ROUNDTRIP_2008_TABLESTYLE_CELLSTYLEMAP
360
37658
  0
XRECORD
  5
37660
102
{ACAD_REACTORS
330
3765F
102
}
330
3765F
100
AcDbXrecord
280
     1
102
DISPLAYNAME
  1
Imperial24
102
FLAGS
 90
        0
  0
XRECORD
  5
3765C
102
{ACAD_REACTORS
330
3765B
102
}
330
3765B
100
AcDbXrecord
280
     1
102
DISPLAYNAME
  1
Metric50
102
FLAGS
 90
        0
  0
XRECORD
  5
F
102
{ACAD_REACTORS
330
E
102
}
330
E
100
AcDbXrecord
280
     1
270
     1
271
     1
  0
XRECORD
  5
10
102
{ACAD_REACTORS
330
E
102
}
330
E
100
AcDbXrecord
280
     1
270
     1
271
     1
  0
XRECORD
  5
11
102
{ACAD_REACTORS
330
E
102
}
330
E
100
AcDbXrecord
280
     1
270
     1
271
     1
  0
XRECORD
  5
12
102
{ACAD_REACTORS
330
E
102
}
330
E
100
AcDbXrecord
280
     1
270
     1
271
     1
  0
XRECORD
  5
3765E
102
{ACAD_REACTORS
330
3765D
102
}
330
3765D
100
AcDbXrecord
280
     1
102
DISPLAYNAME
  1
Imperial24
102
FLAGS
 90
        0
  0
XRECORD
  5
3765A
102
{ACAD_REACTORS
330
37659
102
}
330
37659
100
AcDbXrecord
280
     1
102
DISPLAYNAME
  1
Metric50
102
FLAGS
 90
        0
  0
CELLSTYLEMAP
  5
37658
102
{ACAD_REACTORS
330
45
102
}
330
45
100
AcDbCellStyleMap
 90
        3
300
CELLSTYLE
  1
TABLEFORMAT_BEGIN
 90
        5
170
     1
 91
        0
 92
    32768
 62
   257
 93
        1
300
CONTENTFORMAT
  1
CONTENTFORMAT_BEGIN
 90
        0
 91
        0
 92
      512
 93
        0
300

 40
0.0
140
1.0
 94
        5
 62
     0
340
25
144
6.0
309
CONTENTFORMAT_END
171
     1
301
MARGIN
  1
CELLMARGIN_BEGIN
 40
1.5
 40
1.5
 40
1.5
 40
1.5
 40
0.18
 40
0.18
309
CELLMARGIN_END
 94
        6
 95
        1
302
GRIDFORMAT
  1
GRIDFORMAT_BEGIN
 90
        0
 91
        1
 62
     0
 92
       -2
340
28
 93
        0
 40
1.125
309
GRIDFORMAT_END
 95
        2
302
GRIDFORMAT
  1
GRIDFORMAT_BEGIN
 90
        0
 91
        1
 62
     0
 92
       -2
340
28
 93
        0
 40
1.125
309
GRIDFORMAT_END
 95
        4
302
GRIDFORMAT
  1
GRIDFORMAT_BEGIN
 90
        0
 91
        1
 62
     0
 92
       -2
340
28
 93
        0
 40
1.125
309
GRIDFORMAT_END
 95
        8
302
GRIDFORMAT
  1
GRIDFORMAT_BEGIN
 90
        0
 91
        1
 62
     0
 92
       -2
340
28
 93
        0
 40
1.125
309
GRIDFORMAT_END
 95
       16
302
GRIDFORMAT
  1
GRIDFORMAT_BEGIN
 90
        0
 91
        1
 62
     0
 92
       -2
340
28
 93
        0
 40
1.125
309
GRIDFORMAT_END
 95
       32
302
GRIDFORMAT
  1
GRIDFORMAT_BEGIN
 90
        0
 91
        1
 62
     0
 92
       -2
340
28
 93
        0
 40
1.125
309
GRIDFORMAT_END
309
TABLEFORMAT_END
  1
CELLSTYLE_BEGIN
 90
        1
 91
        1
300
_TITLE
309
CELLSTYLE_END
300
CELLSTYLE
  1
TABLEFORMAT_BEGIN
 90
        5
170
     1
 91
        0
 92
        0
 62
   257
 93
        1
300
CONTENTFORMAT
  1
CONTENTFORMAT_BEGIN
 90
        0
 91
        0
 92
      512
 93
        0
300

 40
0.0
140
1.0
 94
        5
 62
     0
340
25
144
4.5
309
CONTENTFORMAT_END
171
     1
301
MARGIN
  1
CELLMARGIN_BEGIN
 40
1.5
 40
1.5
 40
1.5
 40
1.5
 40
0.18
 40
0.18
309
CELLMARGIN_END
 94
        6
 95
        1
302
GRIDFORMAT
  1
GRIDFORMAT_BEGIN
 90
        0
 91
        1
 62
     0
 92
       -2
340
28
 93
        0
 40
1.125
309
GRIDFORMAT_END
 95
        2
302
GRIDFORMAT
  1
GRIDFORMAT_BEGIN
 90
        0
 91
        1
 62
     0
 92
       -2
340
28
 93
        0
 40
1.125
309
GRIDFORMAT_END
 95
        4
302
GRIDFORMAT
  1
GRIDFORMAT_BEGIN
 90
        0
 91
        1
 62
     0
 92
       -2
340
28
 93
        0
 40
1.125
309
GRIDFORMAT_END
 95
        8
302
GRIDFORMAT
  1
GRIDFORMAT_BEGIN
 90
        0
 91
        1
 62
     0
 92
       -2
340
28
 93
        0
 40
1.125
309
GRIDFORMAT_END
 95
       16
302
GRIDFORMAT
  1
GRIDFORMAT_BEGIN
 90
        0
 91
        1
 62
     0
 92
       -2
340
28
 93
        0
 40
1.125
309
GRIDFORMAT_END
 95
       32
302
GRIDFORMAT
  1
GRIDFORMAT_BEGIN
 90
        0
 91
        1
 62
     0
 92
       -2
340
28
 93
        0
 40
1.125
309
GRIDFORMAT_END
309
TABLEFORMAT_END
  1
CELLSTYLE_BEGIN
 90
        2
 91
        1
300
_HEADER
309
CELLSTYLE_END
300
CELLSTYLE
  1
TABLEFORMAT_BEGIN
 90
        5
170
     1
 91
        0
 92
        0
 62
   257
 93
        1
300
CONTENTFORMAT
  1
CONTENTFORMAT_BEGIN
 90
        0
 91
        0
 92
      512
 93
        0
300

 40
0.0
140
1.0
 94
        2
 62
     0
340
25
144
4.5
309
CONTENTFORMAT_END
171
     1
301
MARGIN
  1
CELLMARGIN_BEGIN
 40
1.5
 40
1.5
 40
1.5
 40
1.5
 40
0.18
 40
0.18
309
CELLMARGIN_END
 94
        6
 95
        1
302
GRIDFORMAT
  1
GRIDFORMAT_BEGIN
 90
        0
 91
        1
 62
     0
 92
       -2
340
28
 93
        0
 40
1.125
309
GRIDFORMAT_END
 95
        2
302
GRIDFORMAT
  1
GRIDFORMAT_BEGIN
 90
        0
 91
        1
 62
     0
 92
       -2
340
28
 93
        0
 40
1.125
309
GRIDFORMAT_END
 95
        4
302
GRIDFORMAT
  1
GRIDFORMAT_BEGIN
 90
        0
 91
        1
 62
     0
 92
       -2
340
28
 93
        0
 40
1.125
309
GRIDFORMAT_END
 95
        8
302
GRIDFORMAT
  1
GRIDFORMAT_BEGIN
 90
        0
 91
        1
 62
     0
 92
       -2
340
28
 93
        0
 40
1.125
309
GRIDFORMAT_END
 95
       16
302
GRIDFORMAT
  1
GRIDFORMAT_BEGIN
 90
        0
 91
        1
 62
     0
 92
       -2
340
28
 93
        0
 40
1.125
309
GRIDFORMAT_END
 95
       32
302
GRIDFORMAT
  1
GRIDFORMAT_BEGIN
 90
        0
 91
        1
 62
     0
 92
       -2
340
28
 93
        0
 40
1.125
309
GRIDFORMAT_END
309
TABLEFORMAT_END
  1
CELLSTYLE_BEGIN
 90
        3
 91
        2
300
_DATA
309
CELLSTYLE_END
  0
ENDSEC
  0
SECTION
  2
ACDSDATA
 70
     2
 71
     6
  0
ACDSSCHEMA
 90
        0
  1
AcDb_Thumbnail_Schema
  2
AcDbDs::ID
280
    10
 91
        8
  2
Thumbnail_Data
280
    15
 91
        0
101
ACDSRECORD
 95
        0
 90
        1
  2
AcDbDs::TreatedAsObjectData
280
     1
291
     1
101
ACDSRECORD
 95
        0
 90
        2
  2
AcDbDs::Legacy
280
     1
291
     1
101
ACDSRECORD
  1
AcDbDs::ID
 90
        3
  2
AcDs:Indexable
280
     1
291
     1
101
ACDSRECORD
  1
AcDbDs::ID
 90
        4
  2
AcDbDs::HandleAttribute
280
     7
282
     1
  0
ACDSSCHEMA
 90
        1
  1
AcDbDs::TreatedAsObjectDataSchema
  2
AcDbDs::TreatedAsObjectData
280
     1
 91
        0
  0
ACDSSCHEMA
 90
        2
  1
AcDbDs::LegacySchema
  2
AcDbDs::Legacy
280
     1
 91
        0
  0
ACDSSCHEMA
 90
        3
  1
AcDbDs::IndexedPropertySchema
  2
AcDs:Indexable
280
     1
 91
        0
  0
ACDSSCHEMA
 90
        4
  1
AcDbDs::HandleAttributeSchema
  2
AcDbDs::HandleAttribute
280
     7
 91
        1
284
     1
  0
ACDSRECORD
 90
        0
  2
AcDbDs::ID
280
    10
320
16
  2
Thumbnail_Data
280
    15
 94
     1776
310
89504E470D0A1A0A0000000D494844520000010000000076080300000010A0BD3C00000300504C5445000000000000C8C8C80000000000000000000000000000000000000000000000000000330000660000990000CC0000FF0033000033330033660033990033CC0033FF0066000066330066660066990066CC0066FF0099
310
000099330099660099990099CC0099FF00CC0000CC3300CC6600CC9900CCCC00CCFF00FF0000FF3300FF6600FF9900FFCC00FFFF3300003300333300663300993300CC3300FF3333003333333333663333993333CC3333FF3366003366333366663366993366CC3366FF3399003399333399663399993399CC3399FF33CC00
310
33CC3333CC6633CC9933CCCC33CCFF33FF0033FF3333FF6633FF9933FFCC33FFFF6600006600336600666600996600CC6600FF6633006633336633666633996633CC6633FF6666006666336666666666996666CC6666FF6699006699336699666699996699CC6699FF66CC0066CC3366CC6666CC9966CCCC66CCFF66FF0066
310
FF3366FF6666FF9966FFCC66FFFF9900009900339900669900999900CC9900FF9933009933339933669933999933CC9933FF9966009966339966669966999966CC9966FF9999009999339999669999999999CC9999FF99CC0099CC3399CC6699CC9999CCCC99CCFF99FF0099FF3399FF6699FF9999FFCC99FFFFCC0000CC00
310
33CC0066CC0099CC00CCCC00FFCC3300CC3333CC3366CC3399CC33CCCC33FFCC6600CC6633CC6666CC6699CC66CCCC66FFCC9900CC9933CC9966CC9999CC99CCCC99FFCCCC00CCCC33CCCC66CCCC99CCCCCCCCCCFFCCFF00CCFF33CCFF66CCFF99CCFFCCCCFFFFFF0000FF0033FF0066FF0099FF00CCFF00FFFF3300FF3333
310
FF3366FF3399FF33CCFF33FFFF6600FF6633FF6666FF6699FF66CCFF66FFFF9900FF9933FF9966FF9999FF99CCFF99FFFFCC00FFCC33FFCC66FFCC99FFCCCCFFCCFFFFFF00FFFF33FFFF66FFFF99FFFFCCFFFFFF0000000D0D0D1A1A1A2828283535354343435050505D5D5D6B6B6B787878868686939393A1A1A1AEAEAEBB
310
BBBBC9C9C9D6D6D6E4E4E4F1F1F1FFFFFF00000000000000000000000000000000000000000000000000000000000008F1915C000003AB4944415478DAED9D5BBAAB200C46194E5E9CD91932D3C8FB918B228A986D918BFEF9BA756B91260B12036AABD433C285CBC90B762262003C16004E88D62C1369C11F2BACDEB05A0B
310
0F9616FCAD42EEA2670FE07C00000000000000000000000000000000000062118FD31ACAA33A7E1E006200000000000000000000000000007C13C0D317DE0650122E000000000007D15EFA982F690BC00819F9AA0B2C5D400A4097EF345DC4007107F83800B21EC31F0640A628BD0F80D424FA9BBF7406C0C6FD39EAE9FA00
310
D6534E7300EEB4770D60A3EC7ACEBC0380DCDF7AD2ED14C071C746DBE520BA056016265741931E90FE48BADCD6096DE97E0FB8A1631B00EECE5D3AB5663C0027FD8B4EB6D8BC287B162C0FA0C569905276D9D213932A0A80BA04102B35DB35F9FBEAA7F40DF68BD0648532127FFA7CC8E50DF1D501ACA6AAD56EB73D29BB50
310
D1BFD1DA750F166654B3E1C6A1F8E2298BDA0066658C3129BBAFECF73E2004C04A2D00B204AA03B0C6D0DEB869B39EF66BB76102C4C5231EB4FB64E738261960E7218910531D80B79B62FB732DEF37ACF71B0C1200BCDBC3A749777D17304D78C37EEF038BF324E3DF0180E933614732176C100322E5F90F32F78005051F06
310
0F14E534EC9714FEED08001FE7C4446775DEF08A1BDF8D3435EDED0FCF85B9E5D80036C74555E81580DE01F0C4C2AECA312011B1C9E626F665DB4E47DE10C2754AFC7B26119ABD210B6039820E354A942C49E004B84D5222137CE9BC36E4D2A765B1393AED0216E9260808757C380F280F804F5D80630FE82311FA19808D81
310
FBA3399507B8B1C0EB00C443C8EC07135DDAF95600BC9D43C99939120037B1A725005C45210BE86934987A745D0A20EA013A7BA18C79331AEC68384C691C32002A00504BFE974F4348F1855BB505B0C98F1C06C1F71F90AF263175CCA9AC8BFB9A12A3CC6C1F8BD421F1C420DD53B105005E478602B348681BA9610084F708
310
00047691BDD255C6FE31015806230048685902801B01170250FBDA6011009272A43A00F0900B140530620C0000413952EBCD15F994B92B005A6B6174BF0660261C838C044097710135A20B7C0040CE4049FF57F61E7391AB0C07406695C4AD01A0E718D09D0000003C58371E9C840B000000000000000000000000000000D4
310
4EF077F26F270D7F60A16EB33A1B03857961D775546CF615119CEE0BA9767FE7778AF602A0BD0BF01900FE5A107421A08B5F99E9ECDC0600AF07A08F02001FCC04CF053100005E0920F8BA4E0B00C005AA001840AAB78EF8670F938F3A73E10A1BC86F00546300FF0186DE5AAE914EF4960000000049454E44AE426082
  0
ACDSRECORD
 90
        0
  2
AcDbDs::ID
280
    10
320
1E
  2
Thumbnail_Data
280
    15
 94
      882
310
89504E470D0A1A0A0000000D49484452000000B80000007F08030000006B00F8F900000300504C5445FFFFFF000000C8C8C80000000000000000000000000000000000000000000000000000330000660000990000CC0000FF0033000033330033660033990033CC0033FF0066000066330066660066990066CC0066FF0099
310
000099330099660099990099CC0099FF00CC0000CC3300CC6600CC9900CCCC00CCFF00FF0000FF3300FF6600FF9900FFCC00FFFF3300003300333300663300993300CC3300FF3333003333333333663333993333CC3333FF3366003366333366663366993366CC3366FF3399003399333399663399993399CC3399FF33CC00
310
33CC3333CC6633CC9933CCCC33CCFF33FF0033FF3333FF6633FF9933FFCC33FFFF6600006600336600666600996600CC6600FF6633006633336633666633996633CC6633FF6666006666336666666666996666CC6666FF6699006699336699666699996699CC6699FF66CC0066CC3366CC6666CC9966CCCC66CCFF66FF0066
310
FF3366FF6666FF9966FFCC66FFFF9900009900339900669900999900CC9900FF9933009933339933669933999933CC9933FF9966009966339966669966999966CC9966FF9999009999339999669999999999CC9999FF99CC0099CC3399CC6699CC9999CCCC99CCFF99FF0099FF3399FF6699FF9999FFCC99FFFFCC0000CC00
310
33CC0066CC0099CC00CCCC00FFCC3300CC3333CC3366CC3399CC33CCCC33FFCC6600CC6633CC6666CC6699CC66CCCC66FFCC9900CC9933CC9966CC9999CC99CCCC99FFCCCC00CCCC33CCCC66CCCC99CCCCCCCCCCFFCCFF00CCFF33CCFF66CCFF99CCFFCCCCFFFFFF0000FF0033FF0066FF0099FF00CCFF00FFFF3300FF3333
310
FF3366FF3399FF33CCFF33FFFF6600FF6633FF6666FF6699FF66CCFF66FFFF9900FF9933FF9966FF9999FF99CCFF99FFFFCC00FFCC33FFCC66FFCC99FFCCCCFFCCFFFFFF00FFFF33FFFF66FFFF99FFFFCCFFFFFF0000000D0D0D1A1A1A2828283535354343435050505D5D5D6B6B6B787878868686939393A1A1A1AEAEAEBB
310
BBBBC9C9C9D6D6D6E4E4E4F1F1F1FFFFFF000000000000000000000000000000000000000000000000000000000000B0E2D2350000002D4944415478DAEDC13101000000C2A0F54FED6F06A00000000000000000000000000000000000000000000080335BC70001E79522D80000000049454E44AE426082
  0
ENDSEC
  0
EOF
