  0
SECTION
  2
HEADER
  9
$ACADVER
  1
AC1027
  9
$ACADMAINTVER
 70
    55
  9
$DWGCODEPAGE
  3
ANSI_949
  9
$LASTSAVEDBY
  1
DESKTOP
  9
$REQUIREDVERSIONS
160
                 0
  9
$INSBASE
 10
0.0
 20
0.0
 30
0.0
  9
$EXTMIN
 10
-2.302791752320445
 20
-2.284877094698572
 30
-0.0000000000000053
  9
$EXTMAX
 10
231.2644905070454
 20
162.3656514444873
 30
0.0000000000000099
  9
$LIMMIN
 10
0.0
 20
0.0
  9
$LIMMAX
 10
420.0
 20
297.0
  9
$ORTHOMODE
 70
     1
  9
$REGENMODE
 70
     1
  9
$FILLMODE
 70
     1
  9
$QTEXTMODE
 70
     0
  9
$MIRRTEXT
 70
     0
  9
$LTSCALE
 40
5.0
  9
$ATTMODE
 70
     1
  9
$TEXTSIZE
 40
3.0
  9
$TRACEWID
 40
1.0
  9
$TEXTSTYLE
  7
Standard
  9
$CLAYER
  8
0
  9
$CELTYPE
  6
Continuous
  9
$CECOLOR
 62
     7
  9
$CELTSCALE
 40
1.0
  9
$DISPSILH
 70
     0
  9
$DIMSCALE
 40
1.0
  9
$DIMASZ
 40
2.5
  9
$DIMEXO
 40
0.625
  9
$DIMDLI
 40
3.75
  9
$DIMRND
 40
0.0
  9
$DIMDLE
 40
0.0
  9
$DIMEXE
 40
1.25
  9
$DIMTP
 40
0.0
  9
$DIMTM
 40
0.000000001
  9
$DIMTXT
 40
3.0
  9
$DIMCEN
 40
-0.5
  9
$DIMTSZ
 40
0.0
  9
$DIMTOL
 70
     0
  9
$DIMLIM
 70
     0
  9
$DIMTIH
 70
     0
  9
$DIMTOH
 70
     0
  9
$DIMSE1
 70
     0
  9
$DIMSE2
 70
     0
  9
$DIMTAD
 70
     1
  9
$DIMZIN
 70
     8
  9
$DIMBLK
  1

  9
$DIMASO
 70
     1
  9
$DIMSHO
 70
     1
  9
$DIMPOST
  1

  9
$DIMAPOST
  1

  9
$DIMALT
 70
     0
  9
$DIMALTD
 70
     3
  9
$DIMALTF
 40
0.03937007874016
  9
$DIMLFAC
 40
1.0
  9
$DIMTOFL
 70
     1
  9
$DIMTVP
 40
0.0
  9
$DIMTIX
 70
     0
  9
$DIMSOXD
 70
     0
  9
$DIMSAH
 70
     0
  9
$DIMBLK1
  1

  9
$DIMBLK2
  1

  9
$DIMSTYLE
  2
Standard
  9
$DIMCLRD
 70
     3
  9
$DIMCLRE
 70
     3
  9
$DIMCLRT
 70
     2
  9
$DIMTFAC
 40
0.7
  9
$DIMGAP
 40
0.625
  9
$DIMJUST
 70
     0
  9
$DIMSD1
 70
     0
  9
$DIMSD2
 70
     0
  9
$DIMTOLJ
 70
     0
  9
$DIMTZIN
 70
     8
  9
$DIMALTZ
 70
     0
  9
$DIMALTTZ
 70
     0
  9
$DIMUPT
 70
     0
  9
$DIMDEC
 70
     8
  9
$DIMTDEC
 70
     8
  9
$DIMALTU
 70
     2
  9
$DIMALTTD
 70
     3
  9
$DIMTXSTY
  7
Standard
  9
$DIMAUNIT
 70
     1
  9
$DIMADEC
 70
     0
  9
$DIMALTRND
 40
0.0
  9
$DIMAZIN
 70
     0
  9
$DIMDSEP
 70
    46
  9
$DIMATFIT
 70
     3
  9
$DIMFRAC
 70
     0
  9
$DIMLDRBLK
  1

  9
$DIMLUNIT
 70
     2
  9
$DIMLWD
 70
    -1
  9
$DIMLWE
 70
    -1
  9
$DIMTMOVE
 70
     0
  9
$DIMFXL
 40
1.0
  9
$DIMFXLON
 70
     0
  9
$DIMJOGANG
 40
0.7853981633974483
  9
$DIMTFILL
 70
     0
  9
$DIMTFILLCLR
 70
     0
  9
$DIMARCSYM
 70
     1
  9
$DIMLTYPE
  6

  9
$DIMLTEX1
  6

  9
$DIMLTEX2
  6

  9
$DIMTXTDIRECTION
 70
     0
  9
$LUNITS
 70
     2
  9
$LUPREC
 70
     4
  9
$SKETCHINC
 40
0.0
  9
$FILLETRAD
 40
0.0
  9
$AUNITS
 70
     0
  9
$AUPREC
 70
     0
  9
$MENU
  1
.
  9
$ELEVATION
 40
0.0
  9
$PELEVATION
 40
0.0
  9
$THICKNESS
 40
0.0
  9
$LIMCHECK
 70
     0
  9
$CHAMFERA
 40
1.5
  9
$CHAMFERB
 40
1.5
  9
$CHAMFERC
 40
0.0
  9
$CHAMFERD
 40
0.0087266462599716
  9
$SKPOLY
 70
     0
  9
$TDCREATE
 40
2455072.745932974
  9
$TDUCREATE
 40
2455072.370932974
  9
$TDUPDATE
 40
2461054.616451528
  9
$TDUUPDATE
 40
2461054.241451528
  9
$TDINDWG
 40
132.1588775810
  9
$TDUSRTIMER
 40
132.1588773958
  9
$USRTIMER
 70
     1
  9
$ANGBASE
 50
0.0
  9
$ANGDIR
 70
     0
  9
$PDMODE
 70
     0
  9
$PDSIZE
 40
0.0
  9
$PLINEWID
 40
0.0
  9
$SPLFRAME
 70
     0
  9
$SPLINETYPE
 70
     6
  9
$SPLINESEGS
 70
     8
  9
$HANDSEED
  5
48BD2
  9
$SURFTAB1
 70
     6
  9
$SURFTAB2
 70
     6
  9
$SURFTYPE
 70
     6
  9
$SURFU
 70
     6
  9
$SURFV
 70
     6
  9
$UCSBASE
  2

  9
$UCSNAME
  2

  9
$UCSORG
 10
0.0
 20
0.0
 30
0.0
  9
$UCSXDIR
 10
1.0
 20
0.0
 30
0.0
  9
$UCSYDIR
 10
0.0
 20
1.0
 30
0.0
  9
$UCSORTHOREF
  2

  9
$UCSORTHOVIEW
 70
     0
  9
$UCSORGTOP
 10
0.0
 20
0.0
 30
0.0
  9
$UCSORGBOTTOM
 10
0.0
 20
0.0
 30
0.0
  9
$UCSORGLEFT
 10
0.0
 20
0.0
 30
0.0
  9
$UCSORGRIGHT
 10
0.0
 20
0.0
 30
0.0
  9
$UCSORGFRONT
 10
0.0
 20
0.0
 30
0.0
  9
$UCSORGBACK
 10
0.0
 20
0.0
 30
0.0
  9
$PUCSBASE
  2

  9
$PUCSNAME
  2

  9
$PUCSORG
 10
0.0
 20
0.0
 30
0.0
  9
$PUCSXDIR
 10
1.0
 20
0.0
 30
0.0
  9
$PUCSYDIR
 10
0.0
 20
1.0
 30
0.0
  9
$PUCSORTHOREF
  2

  9
$PUCSORTHOVIEW
 70
     0
  9
$PUCSORGTOP
 10
0.0
 20
0.0
 30
0.0
  9
$PUCSORGBOTTOM
 10
0.0
 20
0.0
 30
0.0
  9
$PUCSORGLEFT
 10
0.0
 20
0.0
 30
0.0
  9
$PUCSORGRIGHT
 10
0.0
 20
0.0
 30
0.0
  9
$PUCSORGFRONT
 10
0.0
 20
0.0
 30
0.0
  9
$PUCSORGBACK
 10
0.0
 20
0.0
 30
0.0
  9
$USERI1
 70
     0
  9
$USERI2
 70
     0
  9
$USERI3
 70
     0
  9
$USERI4
 70
     0
  9
$USERI5
 70
     0
  9
$USERR1
 40
0.0
  9
$USERR2
 40
0.0
  9
$USERR3
 40
0.0
  9
$USERR4
 40
0.0
  9
$USERR5
 40
0.0
  9
$WORLDVIEW
 70
     1
  9
$SHADEDGE
 70
     3
  9
$SHADEDIF
 70
    70
  9
$TILEMODE
 70
     1
  9
$MAXACTVP
 70
    64
  9
$PINSBASE
 10
0.0
 20
0.0
 30
0.0
  9
$PLIMCHECK
 70
     0
  9
$PEXTMIN
 10
1.000000000000000E+20
 20
1.000000000000000E+20
 30
1.000000000000000E+20
  9
$PEXTMAX
 10
-1.000000000000000E+20
 20
-1.000000000000000E+20
 30
-1.000000000000000E+20
  9
$PLIMMIN
 10
-20.0
 20
-7.5
  9
$PLIMMAX
 10
277.0
 20
202.5
  9
$UNITMODE
 70
     0
  9
$VISRETAIN
 70
     1
  9
$PLINEGEN
 70
     0
  9
$PSLTSCALE
 70
     1
  9
$TREEDEPTH
 70
  3020
  9
$CMLSTYLE
  2
Standard
  9
$CMLJUST
 70
     0
  9
$CMLSCALE
 40
20.0
  9
$PROXYGRAPHICS
 70
     1
  9
$MEASUREMENT
 70
     1
  9
$CELWEIGHT
370
    -1
  9
$ENDCAPS
280
     0
  9
$JOINSTYLE
280
     0
  9
$LWDISPLAY
290
     0
  9
$INSUNITS
 70
     4
  9
$HYPERLINKBASE
  1

  9
$STYLESHEET
  1
ksm0910.ctb
  9
$XEDIT
290
     1
  9
$CEPSNTYPE
380
     0
  9
$PSTYLEMODE
290
     1
  9
$FINGERPRINTGUID
  2
{D2C70C36-9B4F-4E20-9CCB-531AA1EE4AC8}
  9
$VERSIONGUID
  2
{DD8B47C7-F810-40E8-A37F-770E9FC7827B}
  9
$EXTNAMES
290
     1
  9
$PSVPSCALE
 40
0.0
  9
$OLESTARTUP
290
     0
  9
$SORTENTS
280
   127
  9
$INDEXCTL
280
     0
  9
$HIDETEXT
280
     1
  9
$XCLIPFRAME
280
     2
  9
$HALOGAP
280
     0
  9
$OBSCOLOR
 70
   257
  9
$OBSLTYPE
280
     0
  9
$INTERSECTIONDISPLAY
280
     0
  9
$INTERSECTIONCOLOR
 70
   257
  9
$DIMASSOC
280
     1
  9
$PROJECTNAME
  1

  9
$CAMERADISPLAY
290
     0
  9
$LENSLENGTH
 40
50.0
  9
$CAMERAHEIGHT
 40
0.0
  9
$STEPSPERSEC
 40
2.0
  9
$STEPSIZE
 40
6.0
  9
$3DDWFPREC
 40
2.0
  9
$PSOLWIDTH
 40
5.0
  9
$PSOLHEIGHT
 40
80.0
  9
$LOFTANG1
 40
1.570796326794896
  9
$LOFTANG2
 40
1.570796326794896
  9
$LOFTMAG1
 40
0.0
  9
$LOFTMAG2
 40
0.0
  9
$LOFTPARAM
 70
     7
  9
$LOFTNORMALS
280
     1
  9
$LATITUDE
 40
37.795
  9
$LONGITUDE
 40
-122.394
  9
$NORTHDIRECTION
 40
0.0
  9
$TIMEZONE
 70
 -8000
  9
$LIGHTGLYPHDISPLAY
280
     1
  9
$TILEMODELIGHTSYNCH
280
     1
  9
$CMATERIAL
347
3D
  9
$SOLIDHIST
280
     1
  9
$SHOWHIST
280
     1
  9
$DWFFRAME
280
     2
  9
$DGNFRAME
280
     0
  9
$REALWORLDSCALE
290
     1
  9
$INTERFERECOLOR
 62
     1
  9
$INTERFEREOBJVS
345
46
  9
$INTERFEREVPVS
346
47
  9
$CSHADOW
280
     0
  9
$SHADOWPLANELOCATION
 40
0.0
  0
ENDSEC
  0
SECTION
  2
CLASSES
  0
CLASS
  1
ACDBDICTIONARYWDFLT
  2
AcDbDictionaryWithDefault
  3
ObjectDBX Classes
 90
        0
 91
        1
280
     0
281
     0
  0
CLASS
  1
DICTIONARYVAR
  2
AcDbDictionaryVar
  3
ObjectDBX Classes
 90
        0
 91
       18
280
     0
281
     0
  0
CLASS
  1
TABLESTYLE
  2
AcDbTableStyle
  3
ObjectDBX Classes
 90
     4095
 91
        1
280
     0
281
     0
  0
CLASS
  1
MATERIAL
  2
AcDbMaterial
  3
ObjectDBX Classes
 90
     1153
 91
        3
280
     0
281
     0
  0
CLASS
  1
VISUALSTYLE
  2
AcDbVisualStyle
  3
ObjectDBX Classes
 90
     4095
 91
       26
280
     0
281
     0
  0
CLASS
  1
SCALE
  2
AcDbScale
  3
ObjectDBX Classes
 90
     1153
 91
       17
280
     0
281
     0
  0
CLASS
  1
MLEADERSTYLE
  2
AcDbMLeaderStyle
  3
ACDB_MLEADERSTYLE_CLASS
 90
     4095
 91
        1
280
     0
281
     0
  0
CLASS
  1
CELLSTYLEMAP
  2
AcDbCellStyleMap
  3
ObjectDBX Classes
 90
     1152
 91
        2
280
     0
281
     0
  0
CLASS
  1
SORTENTSTABLE
  2
AcDbSortentsTable
  3
ObjectDBX Classes
 90
        0
 91
        1
280
     0
281
     0
  0
CLASS
  1
DIMASSOC
  2
AcDbDimAssoc
  3
"AcDbDimAssoc|Product Desc:     AcDim ARX App For Dimension|Company:          Autodesk, Inc.|WEB Address:      www.autodesk.com"
 90
        0
 91
        0
280
     0
281
     0
  0
CLASS
  1
SOLID_BACKGROUND
  2
AcDbSolidBackground
  3
SCENEOE
 90
     4095
 91
        0
280
     0
281
     0
  0
CLASS
  1
NPOCOLLECTION
  2
AcDbImpNonPersistentObjectsCollection
  3
ObjectDBX Classes
 90
     1153
 91
        0
280
     0
281
     0
  0
CLASS
  1
ACAD_EVALUATION_GRAPH
  2
AcDbEvalGraph
  3
ObjectDBX Classes
 90
     1153
 91
        0
280
     0
281
     0
  0
CLASS
  1
ACAECUSTOBJ
  2
AcAeEditorObj
  3
AcAeEditorObj
 90
     1024
 91
        0
280
     1
281
     0
  0
CLASS
  1
ACDB_DYNAMICBLOCKPURGEPREVENTER_VERSION
  2
AcDbDynamicBlockPurgePreventer
  3
ObjectDBX Classes
 90
     1153
 91
        0
280
     0
281
     0
  0
CLASS
  1
HELIX
  2
AcDbHelix
  3
ObjectDBX Classes
 90
     4095
 91
        0
280
     0
281
     1
  0
CLASS
  1
MULTILEADER
  2
AcDbMLeader
  3
ACDB_MLEADER_CLASS
 90
     1025
 91
        1
280
     0
281
     1
  0
CLASS
  1
ACMDIMBREAKPERSREACTOR
  2
AcmDimBreakPersReactor
  3
amgDimApp().moduleName()
 90
     1023
 91
        0
280
     1
281
     0
  0
CLASS
  1
ACDB_MTEXTOBJECTCONTEXTDATA_CLASS
  2
AcDbMTextObjectContextData
  3
ObjectDBX Classes
 90
     1153
 91
        0
280
     0
281
     0
  0
CLASS
  1
BREAKDATA
  2
AcDbBreakData
  3
ObjectDBX Classes
 90
     1024
 91
        0
280
     0
281
     0
  0
CLASS
  1
EXACXREFPANELOBJECT
  2
ExAcXREFPanelObject
  3
EXAC_ESW
 90
     1025
 91
        0
280
     1
281
     0
  0
CLASS
  1
ACDBSECTIONVIEWSTYLE
  2
AcDbSectionViewStyle
  3
ObjectDBX Classes
 90
     1025
 91
        2
280
     0
281
     0
  0
CLASS
  1
ACDBDETAILVIEWSTYLE
  2
AcDbDetailViewStyle
  3
ObjectDBX Classes
 90
     1025
 91
        2
280
     0
281
     0
  0
CLASS
  1
ACDBASSOCACTION
  2
AcDbAssocAction
  3
ObjectDBX Classes
 90
     1025
 91
        0
280
     0
281
     0
  0
CLASS
  1
ACDBASSOCARRAYACTIONBODY
  2
AcDbAssocArrayActionBody
  3
ObjectDBX Classes
 90
     1025
 91
        0
280
     0
281
     0
  0
CLASS
  1
ACDBASSOCDEPENDENCY
  2
AcDbAssocDependency
  3
ObjectDBX Classes
 90
     1025
 91
        0
280
     0
281
     0
  0
CLASS
  1
ACDBASSOCVERTEXACTIONPARAM
  2
AcDbAssocVertexActionParam
  3
ObjectDBX Classes
 90
     1025
 91
        0
280
     0
281
     0
  0
CLASS
  1
ACDBASSOCARRAYPOLARPARAMETERS
  2
AcDbAssocArrayPolarParameters
  3
ObjectDBX Classes
 90
     1025
 91
        0
280
     0
281
     0
  0
CLASS
  1
ACDBASSOCNETWORK
  2
AcDbAssocNetwork
  3
ObjectDBX Classes
 90
     1025
 91
        0
280
     0
281
     0
  0
CLASS
  1
ACARRAYJIGENTITY
  2
AcArrayJigEntity
  3
ACAD_ARRAY
 90
      129
 91
        0
280
     0
281
     1
  0
ENDSEC
  0
SECTION
  2
TABLES
  0
TABLE
  2
VPORT
  5
2C
102
{ACAD_XDICTIONARY
360
31
102
}
330
0
100
AcDbSymbolTable
 70
     1
  0
VPORT
  5
2D
330
2C
100
AcDbSymbolTableRecord
100
AcDbViewportTableRecord
  2
*Active
 70
     0
 10
0.0
 20
0.0
 11
1.0
 21
1.0
 12
114.4931827986952
 22
80.02439140162847
 13
0.0
 23
0.0
 14
2.0
 24
2.0
 15
2.0
 25
2.0
 16
0.0
 26
0.0
 36
1.0
 17
0.0
 27
0.0
 37
0.0
 40
165.8940785825974
 41
2.176540284360189
 42
50.0
 43
0.0
 44
0.0
 50
0.0
 51
0.0
 71
     0
 72
  1000
 73
     1
 74
     3
 75
     0
 76
     0
 77
     0
 78
     1
281
     0
 65
     1
110
0.0
120
0.0
130
0.0
111
1.0
121
0.0
131
0.0
112
0.0
122
1.0
132
0.0
 79
     0
146
0.0
348
2E
 60
     3
 61
     5
292
     1
282
     1
141
0.0
142
0.0
 63
   250
421
  3355443
1001
ACAD_NAV_VCDISPLAY
1070
     3
  0
ENDTAB
  0
TABLE
  2
LTYPE
  5
27
330
0
100
AcDbSymbolTable
 70
     2
  0
LTYPE
  5
28
330
27
100
AcDbSymbolTableRecord
100
AcDbLinetypeTableRecord
  2
ByBlock
 70
     0
  3

 72
    65
 73
     0
 40
0.0
  0
LTYPE
  5
29
330
27
100
AcDbSymbolTableRecord
100
AcDbLinetypeTableRecord
  2
ByLayer
 70
     0
  3

 72
    65
 73
     0
 40
0.0
  0
LTYPE
  5
14
330
27
100
AcDbSymbolTableRecord
100
AcDbLinetypeTableRecord
  2
Continuous
 70
     0
  3
Solid line
 72
    65
 73
     0
 40
0.0
  0
LTYPE
  5
39E15
330
27
100
AcDbSymbolTableRecord
100
AcDbLinetypeTableRecord
  2
CENTER
 70
     0
  3
____ _ ____ _ ____ _ ____ _ ____ _ ____ _ ____ 
 72
    65
 73
     4
 40
2.0
 49
1.25
 74
     0
 49
-0.25
 74
     0
 49
0.25
 74
     0
 49
-0.25
 74
     0
  0
ENDTAB
  0
TABLE
  2
LAYER
  5
21
102
{ACAD_XDICTIONARY
360
22
102
}
330
0
100
AcDbSymbolTable
 70
     3
  0
LAYER
  5
6
102
{ACAD_XDICTIONARY
360
7
102
}
330
21
100
AcDbSymbolTableRecord
100
AcDbLayerTableRecord
  2
0
 70
     0
 62
     7
  6
Continuous
370
    -3
390
9
347
C
348
0
  0
LAYER
  5
1A4
330
21
100
AcDbSymbolTableRecord
100
AcDbLayerTableRecord
  2
DEFPOINTS
 70
     0
 62
     7
  6
Continuous
290
     0
370
    -3
390
9
347
C
348
0
  0
LAYER
  5
283CB
330
21
100
AcDbSymbolTableRecord
100
AcDbLayerTableRecord
  2
Layer 1
 70
     0
 62
     7
  6
Continuous
370
     0
390
9
347
C
348
0
  0
ENDTAB
  0
TABLE
  2
STYLE
  5
24
330
0
100
AcDbSymbolTable
 70
     4
  0
STYLE
  5
25
330
24
100
AcDbSymbolTableRecord
100
AcDbTextStyleTableRecord
  2
Standard
 70
     0
 40
3.0
 41
1.0
 50
0.0
 71
     0
 42
3.0
  3
isocp.shx
  4
whgtxt.shx
  0
STYLE
  5
35
330
24
100
AcDbSymbolTableRecord
100
AcDbTextStyleTableRecord
  2
ROMANS
 70
     0
 40
2.5
 41
1.0
 50
0.0
 71
     0
 42
2.5
  3
romans.shx
  4

  0
STYLE
  5
5C
330
24
100
AcDbSymbolTableRecord
100
AcDbTextStyleTableRecord
  2
굴림
 70
     0
 40
3.0
 41
1.0
 50
0.0
 71
     0
 42
3.0
  3

  4

1001
ACAD
1000
Gulim
1071
    33074
  0
ENDTAB
  0
TABLE
  2
VIEW
  5
2A
330
0
100
AcDbSymbolTable
 70
     0
  0
ENDTAB
  0
TABLE
  2
UCS
  5
2B
330
0
100
AcDbSymbolTable
 70
     0
  0
ENDTAB
  0
TABLE
  2
APPID
  5
32
330
0
100
AcDbSymbolTable
 70
    45
  0
APPID
  5
13
330
32
100
AcDbSymbolTableRecord
100
AcDbRegAppTableRecord
  2
ACAD
 70
     0
  0
APPID
  5
1A
330
32
100
AcDbSymbolTableRecord
100
AcDbRegAppTableRecord
  2
ACAD_PSEXT
 70
     0
  0
APPID
  5
37
330
32
100
AcDbSymbolTableRecord
100
AcDbRegAppTableRecord
  2
ACAD_DSTYLE_DIMJAG
 70
     0
  0
APPID
  5
38
330
32
100
AcDbSymbolTableRecord
100
AcDbRegAppTableRecord
  2
ACAD_DSTYLE_DIMTALN
 70
     0
  0
APPID
  5
36
330
32
100
AcDbSymbolTableRecord
100
AcDbRegAppTableRecord
  2
ACAD_DSTYLE_DIMJOGGED_JOGANGLE_SYMBOL
 70
     0
  0
APPID
  5
183
330
32
100
AcDbSymbolTableRecord
100
AcDbRegAppTableRecord
  2
AcAecLayerStandard
 70
     0
  0
APPID
  5
3DE
330
32
100
AcDbSymbolTableRecord
100
AcDbRegAppTableRecord
  2
ACAD_DSTYLE_DIMRADIAL_EXTENSION
 70
     0
  0
APPID
  5
530
330
32
100
AcDbSymbolTableRecord
100
AcDbRegAppTableRecord
  2
GRADIENTCOLOR1ACI
 70
     0
  0
APPID
  5
531
330
32
100
AcDbSymbolTableRecord
100
AcDbRegAppTableRecord
  2
GRADIENTCOLOR2ACI
 70
     0
  0
APPID
  5
30
330
32
100
AcDbSymbolTableRecord
100
AcDbRegAppTableRecord
  2
ACAD_NAV_VCDISPLAY
 70
     0
  0
APPID
  5
C34
330
32
100
AcDbSymbolTableRecord
100
AcDbRegAppTableRecord
  2
ACAD_MLEADERVER
 70
     0
  0
APPID
  5
C97
330
32
100
AcDbSymbolTableRecord
100
AcDbRegAppTableRecord
  2
ACAD_EXEMPT_FROM_CAD_STANDARDS
 70
     0
  0
APPID
  5
D79
330
32
100
AcDbSymbolTableRecord
100
AcDbRegAppTableRecord
  2
AcadAnnoMonitorAlertIconDisabled
 70
     0
  0
APPID
  5
1A45
330
32
100
AcDbSymbolTableRecord
100
AcDbRegAppTableRecord
  2
GENIUS_GENODEF_13
 70
     0
  0
APPID
  5
1A46
330
32
100
AcDbSymbolTableRecord
100
AcDbRegAppTableRecord
  2
GENIUS_GENOBJ-N-FIL_13
 70
     0
  0
APPID
  5
1A47
330
32
100
AcDbSymbolTableRecord
100
AcDbRegAppTableRecord
  2
ACAD_DSTYLE_DIMBREAK
 70
     0
  0
APPID
  5
1A48
330
32
100
AcDbSymbolTableRecord
100
AcDbRegAppTableRecord
  2
GENIUS_GENOBJ-N-HTC_13
 70
     0
  0
APPID
  5
1A49
330
32
100
AcDbSymbolTableRecord
100
AcDbRegAppTableRecord
  2
GENIUS_GENHATCH_13
 70
     0
  0
APPID
  5
1A4A
330
32
100
AcDbSymbolTableRecord
100
AcDbRegAppTableRecord
  2
GENIUS_GENREC_14
 70
     0
  0
APPID
  5
1A4B
330
32
100
AcDbSymbolTableRecord
100
AcDbRegAppTableRecord
  2
GENIUS_GENOBJ-N-REC_13
 70
     0
  0
APPID
  5
1A4C
330
32
100
AcDbSymbolTableRecord
100
AcDbRegAppTableRecord
  2
ACAUTHENVIRON
 70
     0
  0
APPID
  5
1A4D
330
32
100
AcDbSymbolTableRecord
100
AcDbRegAppTableRecord
  2
AcDbDynamicBlockTrueName
 70
     0
  0
APPID
  5
1A4E
330
32
100
AcDbSymbolTableRecord
100
AcDbRegAppTableRecord
  2
AcDbDynamicBlockGUID
 70
     0
  0
APPID
  5
1A4F
330
32
100
AcDbSymbolTableRecord
100
AcDbRegAppTableRecord
  2
AcDbBlockRepETag
 70
     0
  0
APPID
  5
1A50
330
32
100
AcDbSymbolTableRecord
100
AcDbRegAppTableRecord
  2
DCO15
 70
     0
  0
APPID
  5
1A51
330
32
100
AcDbSymbolTableRecord
100
AcDbRegAppTableRecord
  2
ACAD_DSTYLE_DIMTEXT_FILL
 70
     0
  0
APPID
  5
1A52
330
32
100
AcDbSymbolTableRecord
100
AcDbRegAppTableRecord
  2
ACAD_DSTYLE_DIM_LINETYPE
 70
     0
  0
APPID
  5
1A53
330
32
100
AcDbSymbolTableRecord
100
AcDbRegAppTableRecord
  2
ACAD_DSTYLE_DIM_EXT1_LINETYPE
 70
     0
  0
APPID
  5
1A54
330
32
100
AcDbSymbolTableRecord
100
AcDbRegAppTableRecord
  2
ACAD_DSTYLE_DIM_EXT2_LINETYPE
 70
     0
  0
APPID
  5
1A55
330
32
100
AcDbSymbolTableRecord
100
AcDbRegAppTableRecord
  2
ACAD_DSTYLE_DIMINSPECT
 70
     0
  0
APPID
  5
1A56
330
32
100
AcDbSymbolTableRecord
100
AcDbRegAppTableRecord
  2
AcadAnnotative
 70
     0
  0
APPID
  5
1A57
330
32
100
AcDbSymbolTableRecord
100
AcDbRegAppTableRecord
  2
GENIUS_GENDTOL_13
 70
     0
  0
APPID
  5
1A58
330
32
100
AcDbSymbolTableRecord
100
AcDbRegAppTableRecord
  2
GENIUS_GENFIL_13
 70
     0
  0
APPID
  5
1A59
330
32
100
AcDbSymbolTableRecord
100
AcDbRegAppTableRecord
  2
GENIUS_GENOBJ-N-CHA_13
 70
     0
  0
APPID
  5
1A5A
330
32
100
AcDbSymbolTableRecord
100
AcDbRegAppTableRecord
  2
AcadAnnotativeDecomposition
 70
     0
  0
APPID
  5
1A5B
330
32
100
AcDbSymbolTableRecord
100
AcDbRegAppTableRecord
  2
MCAD_NO_VIS
 70
     0
  0
APPID
  5
1A5C
330
32
100
AcDbSymbolTableRecord
100
AcDbRegAppTableRecord
  2
ACAD_TEMP_GRAPHIC
 70
     0
  0
APPID
  5
1A5D
330
32
100
AcDbSymbolTableRecord
100
AcDbRegAppTableRecord
  2
ACATTRIBSERVICES
 70
     0
  0
APPID
  5
1A5E
330
32
100
AcDbSymbolTableRecord
100
AcDbRegAppTableRecord
  2
DESIGNERASSEMBLIES
 70
     0
  0
APPID
  5
1A5F
330
32
100
AcDbSymbolTableRecord
100
AcDbRegAppTableRecord
  2
GENIUS_GENDIMSH_14
 70
     0
  0
APPID
  5
1A60
330
32
100
AcDbSymbolTableRecord
100
AcDbRegAppTableRecord
  2
ACAD_DSTYLE_DIMARC_LENGTH_SYMBOL
 70
     0
  0
APPID
  5
1A61
330
32
100
AcDbSymbolTableRecord
100
AcDbRegAppTableRecord
  2
ACAD_SPLINE_DATA
 70
     0
  0
APPID
  5
1A62
330
32
100
AcDbSymbolTableRecord
100
AcDbRegAppTableRecord
  2
GENIUS_GENOREF_13
 70
     0
  0
APPID
  5
1A63
330
32
100
AcDbSymbolTableRecord
100
AcDbRegAppTableRecord
  2
ACAD_DSTYLE_DIMANGULAR_EXTENSION
 70
     0
  0
APPID
  5
318CC
330
32
100
AcDbSymbolTableRecord
100
AcDbRegAppTableRecord
  2
HATCHBACKGROUNDCOLOR
 70
     0
  0
ENDTAB
  0
TABLE
  2
DIMSTYLE
  5
33
330
0
100
AcDbSymbolTable
 70
     4
100
AcDbDimStyleTable
 71
     1
340
34
  0
DIMSTYLE
105
34
330
33
100
AcDbSymbolTableRecord
100
AcDbDimStyleTableRecord
  2
Standard
 70
     0
 41
2.5
 73
     0
 77
     3
 78
     8
140
2.5
141
-1.0
147
1.0
175
     1
176
     3
177
     3
178
     2
179
     8
271
     8
272
     8
275
     1
340
35
1001
ACAD_DSTYLE_DIMJOGGED_JOGANGLE_SYMBOL
1070
   384
1040
0.7853981633974483
1001
ACAD_DSTYLE_DIMJAG
1070
   388
1040
1.5
1001
ACAD_DSTYLE_DIMTALN
1070
   392
1070
     0
  0
DIMSTYLE
105
1A8
102
{ACAD_REACTORS
330
4527A
330
4527C
330
45589
102
}
330
33
100
AcDbSymbolTableRecord
100
AcDbDimStyleTableRecord
  2
Standard$0
 70
     0
 41
2.5
 73
     0
 77
     3
 78
     8
140
2.5
141
-1.0
147
1.0
175
     1
176
     3
177
     3
178
     2
179
     8
271
     8
272
     8
275
     1
340
35
  0
DIMSTYLE
105
44B03
102
{ACAD_REACTORS
330
45221
102
}
330
33
100
AcDbSymbolTableRecord
100
AcDbDimStyleTableRecord
  2
사본 ISO-25
 70
     0
 41
2.5
 42
0.625
 43
3.75
 44
1.25
 48
0.000000001
 73
     0
 74
     0
 77
     1
 78
     8
140
3.0
141
-0.5
143
0.03937007874016
146
0.7
147
0.625
171
     3
172
     1
176
     3
177
     3
178
     2
179
     8
271
     8
272
     8
274
     3
275
     1
283
     0
284
     8
340
25
371
    -1
372
    -1
1001
ACAD_DSTYLE_DIMBREAK
1070
   391
1040
3.75
1001
ACAD_DSTYLE_DIMJAG
1070
   388
1040
1.5
1001
ACAD_DSTYLE_DIMTALN
1070
   392
1070
     0
  0
ENDTAB
  0
TABLE
  2
BLOCK_RECORD
  5
1
330
0
100
AcDbSymbolTable
 70
     5
  0
BLOCK_RECORD
  5
2
102
{ACAD_XDICTIONARY
360
3
102
}
330
1
100
AcDbSymbolTableRecord
100
AcDbBlockTableRecord
  2
*Model_Space
340
16
 70
     0
280
     1
281
     0
  0
BLOCK_RECORD
  5
1B
330
1
100
AcDbSymbolTableRecord
100
AcDbBlockTableRecord
  2
*Paper_Space
340
1E
 70
     0
280
     1
281
     0
  0
BLOCK_RECORD
  5
4529A
330
1
100
AcDbSymbolTableRecord
100
AcDbBlockTableRecord
  2
*D0
340
0
 70
     0
280
     1
281
     0
  0
BLOCK_RECORD
  5
45302
330
1
100
AcDbSymbolTableRecord
100
AcDbBlockTableRecord
  2
*D1
340
0
 70
     0
280
     1
281
     0
  0
BLOCK_RECORD
  5
4531F
330
1
100
AcDbSymbolTableRecord
100
AcDbBlockTableRecord
  2
*D2
340
0
 70
     0
280
     1
281
     0
  0
BLOCK_RECORD
  5
4558A
330
1
100
AcDbSymbolTableRecord
100
AcDbBlockTableRecord
  2
*D3
340
0
 70
     0
280
     1
281
     0
  0
ENDTAB
  0
ENDSEC
  0
SECTION
  2
BLOCKS
  0
BLOCK
  5
5
330
2
100
AcDbEntity
  8
0
100
AcDbBlockBegin
  2
*Model_Space
 70
     0
 10
0.0
 20
0.0
 30
0.0
  3
*Model_Space
  1

  0
ENDBLK
  5
15
330
2
100
AcDbEntity
  8
0
100
AcDbBlockEnd
  0
BLOCK
  5
1C
330
1B
100
AcDbEntity
 67
     1
  8
0
100
AcDbBlockBegin
  2
*Paper_Space
 70
     0
 10
0.0
 20
0.0
 30
0.0
  3
*Paper_Space
  1

  0
ENDBLK
  5
1D
330
1B
100
AcDbEntity
 67
     1
  8
0
100
AcDbBlockEnd
  0
BLOCK
  5
4529B
330
4529A
100
AcDbEntity
  8
0
 62
     7
100
AcDbBlockBegin
  2
*D0
 70
     1
 10
0.0
 20
0.0
 30
0.0
  3
*D0
  1

  0
LINE
  5
48B1C
330
4529A
100
AcDbEntity
  8
0
  6
Continuous
 62
     3
440
 16777216
100
AcDbLine
 10
174.8798372916344
 20
102.0584542191391
 30
0.0
 11
174.8798372916344
 21
109.2402891127553
 31
0.0
  0
LINE
  5
48B1D
330
4529A
100
AcDbEntity
  8
0
  6
Continuous
 62
     3
440
 16777216
100
AcDbLine
 10
175.8798372916349
 20
102.0584542191391
 30
0.0
 11
175.8798372916349
 21
109.2402891127553
 31
0.0
  0
LINE
  5
48B1E
330
4529A
100
AcDbEntity
  8
0
  6
Continuous
 62
     3
440
 16777216
100
AcDbLine
 10
172.3798372916344
 20
107.9902891127553
 30
0.0
 11
169.8798372916344
 21
107.9902891127553
 31
0.0
  0
LINE
  5
48B1F
330
4529A
100
AcDbEntity
  8
0
  6
Continuous
 62
     3
440
 16777216
100
AcDbLine
 10
178.3798372916349
 20
107.9902891127553
 30
0.0
 11
190.8298372916348
 21
107.9902891127553
 31
0.0
  0
LINE
  5
48B20
330
4529A
100
AcDbEntity
  8
0
  6
Continuous
 62
     3
440
 16777216
100
AcDbLine
 10
174.8798372916344
 20
107.9902891127553
 30
0.0
 11
175.8798372916349
 21
107.9902891127553
 31
0.0
  0
SOLID
  5
48B21
330
4529A
100
AcDbEntity
  8
0
  6
Continuous
 62
     3
440
 16777216
100
AcDbTrace
 10
172.3798372916344
 20
108.406955779422
 30
0.0
 11
172.3798372916344
 21
107.5736224460887
 31
0.0
 12
174.8798372916344
 22
107.9902891127553
 32
0.0
 13
174.8798372916344
 23
107.9902891127553
 33
0.0
  0
SOLID
  5
48B22
330
4529A
100
AcDbEntity
  8
0
  6
Continuous
 62
     3
440
 16777216
100
AcDbTrace
 10
178.3798372916349
 20
108.406955779422
 30
0.0
 11
178.3798372916349
 21
107.5736224460887
 31
0.0
 12
175.8798372916349
 22
107.9902891127553
 32
0.0
 13
175.8798372916349
 23
107.9902891127553
 33
0.0
  0
MTEXT
  5
48B23
330
4529A
100
AcDbEntity
  8
0
  6
Continuous
 62
     2
440
 16777216
100
AcDbMText
 10
185.8548372916349
 20
110.1152891127553
 30
0.0
 40
3.0
 41
0.0
 46
0.0
 71
     5
 72
     1
  1
3-.04
 73
     1
 44
1.0
  0
POINT
  5
48B24
330
4529A
100
AcDbEntity
  8
DEFPOINTS
  6
Continuous
 62
     0
440
 16777216
100
AcDbPoint
 10
174.8798372916344
 20
101.4334542191391
 30
0.0
  0
POINT
  5
48B25
330
4529A
100
AcDbEntity
  8
DEFPOINTS
  6
Continuous
 62
     0
440
 16777216
100
AcDbPoint
 10
175.8798372916349
 20
101.4334542191391
 30
0.0
  0
POINT
  5
48B26
330
4529A
100
AcDbEntity
  8
DEFPOINTS
  6
Continuous
 62
     0
440
 16777216
100
AcDbPoint
 10
175.8798372916349
 20
107.9902891127553
 30
0.0
  0
ENDBLK
  5
4529C
330
4529A
100
AcDbEntity
  8
0
 62
     7
100
AcDbBlockEnd
  0
BLOCK
  5
45303
330
45302
100
AcDbEntity
  8
0
 62
     7
100
AcDbBlockBegin
  2
*D1
 70
     1
 10
0.0
 20
0.0
 30
0.0
  3
*D1
  1

  0
LINE
  5
48B27
330
45302
100
AcDbEntity
  8
0
  6
Continuous
 62
     3
440
 16777216
100
AcDbLine
 10
111.019087155466
 20
101.4410317166684
 30
0.0
 11
134.2927391007492
 21
101.4410317166684
 31
0.0
  0
LINE
  5
48B28
330
45302
100
AcDbEntity
  8
0
  6
Continuous
 62
     3
440
 16777216
100
AcDbLine
 10
111.019087155466
 20
68.44103171666756
 30
0.0
 11
134.2927391007492
 21
68.44103171666756
 31
0.0
  0
LINE
  5
48B29
330
45302
100
AcDbEntity
  8
0
  6
Continuous
 62
     3
440
 16777216
100
AcDbLine
 10
133.0427391007492
 20
98.94103171666849
 30
0.0
 11
133.0427391007492
 21
70.94103171666756
 31
0.0
  0
SOLID
  5
48B2A
330
45302
100
AcDbEntity
  8
0
  6
Continuous
 62
     3
440
 16777216
100
AcDbTrace
 10
132.6260724340826
 20
98.94103171666849
 30
0.0
 11
133.4594057674159
 21
98.94103171666849
 31
0.0
 12
133.0427391007492
 22
101.4410317166684
 32
0.0
 13
133.0427391007492
 23
101.4410317166684
 33
0.0
  0
SOLID
  5
48B2B
330
45302
100
AcDbEntity
  8
0
  6
Continuous
 62
     3
440
 16777216
100
AcDbTrace
 10
132.6260724340826
 20
70.94103171666756
 30
0.0
 11
133.4594057674159
 21
70.94103171666756
 31
0.0
 12
133.0427391007492
 22
68.44103171666756
 32
0.0
 13
133.0427391007492
 23
68.44103171666756
 33
0.0
  0
MTEXT
  5
48B2C
330
45302
100
AcDbEntity
  8
0
  6
Continuous
 62
     2
440
 16777216
100
AcDbMText
 10
130.9174438251586
 20
84.94103171666804
 30
0.0
 40
3.0
 41
0.0
 46
0.0
 71
     5
 72
     1
  1
%%c1.299
 11
0.0000000000000001
 21
1.0
 31
0.0
 73
     1
 44
1.0
  0
POINT
  5
48B2D
330
45302
100
AcDbEntity
  8
DEFPOINTS
  6
Continuous
 62
     0
440
 16777216
100
AcDbPoint
 10
110.3940871554659
 20
101.4410317166684
 30
0.0
  0
POINT
  5
48B2E
330
45302
100
AcDbEntity
  8
DEFPOINTS
  6
Continuous
 62
     0
440
 16777216
100
AcDbPoint
 10
110.3940871554659
 20
68.44103171666756
 30
0.0
  0
POINT
  5
48B2F
330
45302
100
AcDbEntity
  8
DEFPOINTS
  6
Continuous
 62
     0
440
 16777216
100
AcDbPoint
 10
133.0427391007492
 20
68.44103171666756
 30
0.0
  0
ENDBLK
  5
45304
330
45302
100
AcDbEntity
  8
0
 62
     7
100
AcDbBlockEnd
  0
BLOCK
  5
45320
330
4531F
100
AcDbEntity
  8
0
 62
     7
100
AcDbBlockBegin
  2
*D2
 70
     1
 10
0.0
 20
0.0
 30
0.0
  3
*D2
  1

  0
LINE
  5
48B30
330
4531F
100
AcDbEntity
  8
0
  6
Continuous
 62
     3
440
 16777216
100
AcDbLine
 10
111.9757114824922
 20
88.11603171666821
 30
0.0
 11
126.2927391007492
 21
88.11603171666821
 31
0.0
  0
LINE
  5
48B31
330
4531F
100
AcDbEntity
  8
0
  6
Continuous
 62
     3
440
 16777216
100
AcDbLine
 10
125.0427391007493
 20
85.61603171666821
 30
0.0
 11
125.0427391007493
 21
76.75860061430616
 31
0.0
  0
SOLID
  5
48B32
330
4531F
100
AcDbEntity
  8
0
  6
Continuous
 62
     3
440
 16777216
100
AcDbTrace
 10
124.6260724340826
 20
85.61603171666821
 30
0.0
 11
125.4594057674159
 21
85.61603171666821
 31
0.0
 12
125.0427391007493
 22
88.11603171666821
 32
0.0
 13
125.0427391007493
 23
88.11603171666821
 33
0.0
  0
MTEXT
  5
48B33
330
4531F
100
AcDbEntity
  8
0
  6
Continuous
 62
     2
440
 16777216
100
AcDbMText
 10
122.9174438251587
 20
81.88478171666838
 30
0.0
 40
3.0
 41
0.0
 46
0.0
 71
     5
 72
     1
  1
%%C.250
 11
0.0000000000000001
 21
1.0
 31
0.0
 73
     1
 44
1.0
  0
POINT
  5
48B34
330
4531F
100
AcDbEntity
  8
DEFPOINTS
  6
Continuous
 62
     0
440
 16777216
100
AcDbPoint
 10
111.3507114824922
 20
88.11603171666821
 30
0.0
  0
POINT
  5
48B35
330
4531F
100
AcDbEntity
  8
DEFPOINTS
  6
Continuous
 62
     0
440
 16777216
100
AcDbPoint
 10
111.3310962402215
 20
79.38478171666838
 30
0.0
  0
POINT
  5
48B36
330
4531F
100
AcDbEntity
  8
DEFPOINTS
  6
Continuous
 62
     0
440
 16777216
100
AcDbPoint
 10
125.0427391007493
 20
79.38478171666838
 30
0.0
  0
ENDBLK
  5
45321
330
4531F
100
AcDbEntity
  8
0
 62
     7
100
AcDbBlockEnd
  0
BLOCK
  5
4558B
330
4558A
100
AcDbEntity
  8
0
 62
     7
100
AcDbBlockBegin
  2
*D3
 70
     1
 10
0.0
 20
0.0
 30
0.0
  3
*D3
  1

  0
LINE
  5
48B37
330
4558A
100
AcDbEntity
  8
0
  6
Continuous
 62
     3
440
 16777216
100
AcDbLine
 10
51.02571148249353
 20
72.99103171666843
 30
0.0
 11
38.10135239926284
 21
72.99103171666843
 31
0.0
  0
LINE
  5
48B38
330
4558A
100
AcDbEntity
  8
0
  6
Continuous
 62
     3
440
 16777216
100
AcDbLine
 10
51.02571148249353
 20
96.89103171666852
 30
0.0
 11
38.10135239926285
 21
96.89103171666852
 31
0.0
  0
LINE
  5
48B39
330
4558A
100
AcDbEntity
  8
0
  6
Continuous
 62
     3
440
 16777216
100
AcDbLine
 10
39.35135239926284
 20
75.49103171666843
 30
0.0
 11
39.35135239926285
 21
94.39103171666852
 31
0.0
  0
SOLID
  5
48B3A
330
4558A
100
AcDbEntity
  8
0
  6
Continuous
 62
     3
440
 16777216
100
AcDbTrace
 10
38.93468573259618
 20
75.49103171666843
 30
0.0
 11
39.76801906592951
 21
75.49103171666843
 31
0.0
 12
39.35135239926284
 22
72.99103171666843
 32
0.0
 13
39.35135239926284
 23
72.99103171666843
 33
0.0
  0
SOLID
  5
48B3B
330
4558A
100
AcDbEntity
  8
0
  6
Continuous
 62
     3
440
 16777216
100
AcDbTrace
 10
38.93468573259619
 20
94.39103171666852
 30
0.0
 11
39.76801906592952
 21
94.39103171666852
 31
0.0
 12
39.35135239926285
 22
96.89103171666852
 32
0.0
 13
39.35135239926285
 23
96.89103171666852
 33
0.0
  0
MTEXT
  5
48B3C
330
4558A
100
AcDbEntity
  8
0
  6
Continuous
 62
     2
440
 16777216
100
AcDbMText
 10
37.22635239926284
 20
84.94103171666848
 30
0.0
 40
3.0
 41
0.0
 46
0.0
 71
     5
 72
     1
  1
%%C.941
 11
0.0000000000000001
 21
1.0
 31
0.0
 73
     1
 44
1.0
  0
POINT
  5
48B3D
330
4558A
100
AcDbEntity
  8
DEFPOINTS
  6
Continuous
 62
     0
440
 16777216
100
AcDbPoint
 10
51.65071148249353
 20
72.99103171666843
 30
0.0
  0
POINT
  5
48B3E
330
4558A
100
AcDbEntity
  8
DEFPOINTS
  6
Continuous
 62
     0
440
 16777216
100
AcDbPoint
 10
51.65071148249353
 20
96.89103171666852
 30
0.0
  0
POINT
  5
48B3F
330
4558A
100
AcDbEntity
  8
DEFPOINTS
  6
Continuous
 62
     0
440
 16777216
100
AcDbPoint
 10
39.35135239926285
 20
96.89103171666852
 30
0.0
  0
ENDBLK
  5
4558C
330
4558A
100
AcDbEntity
  8
0
 62
     7
100
AcDbBlockEnd
  0
ENDSEC
  0
SECTION
  2
ENTITIES
  0
LWPOLYLINE
  5
3C9CD
330
2
100
AcDbEntity
  8
0
 62
     0
100
AcDbPolyline
 90
        4
 70
     1
 43
0.0
 10
0.5
 20
0.5
 10
0.5
 20
159.5801362131918
 10
228.4622345
 20
159.5801362131918
 10
228.4622345
 20
0.5
  0
LINE
  5
3C9CE
330
2
100
AcDbEntity
  8
0
  6
Continuous
 62
     7
100
AcDbLine
 10
171.471675875
 20
-2.28002724999998
 30
0.0
 11
171.471675875
 21
0.5
 31
0.0
  0
LINE
  5
3C9CF
330
2
100
AcDbEntity
  8
0
  6
Continuous
 62
     7
100
AcDbLine
 10
168.6916486249998
 20
0.5
 30
0.0
 11
168.6916486249998
 21
22.87064415498009
 31
0.0
  0
LINE
  5
3C9D0
330
2
100
AcDbEntity
  8
0
  6
Continuous
 62
     7
100
AcDbLine
 10
57.49055862500004
 20
-2.28002724999998
 30
0.0
 11
57.49055862500004
 21
0.5
 31
0.0
  0
LINE
  5
3C9D1
330
2
100
AcDbEntity
  8
0
  6
Continuous
 62
     7
100
AcDbLine
 10
171.471675875
 20
162.3601634631918
 30
0.0
 11
171.471675875
 21
159.5801362131918
 31
0.0
  0
LINE
  5
3C9D2
330
2
100
AcDbEntity
  8
0
  6
Continuous
 62
     7
100
AcDbLine
 10
57.49055862500004
 20
162.3601634631918
 30
0.0
 11
57.49055862500004
 21
159.5801362131918
 31
0.0
  0
LINE
  5
3C9D3
330
2
100
AcDbEntity
  8
0
  6
Continuous
 62
     7
100
AcDbLine
 10
-2.28002724999998
 20
40.27003405329798
 30
0.0
 11
0.5
 21
40.27003405329798
 31
0.0
  0
LINE
  5
3C9D4
330
2
100
AcDbEntity
  8
0
  6
Continuous
 62
     7
100
AcDbLine
 10
-2.28002724999998
 20
119.8101021598939
 30
0.0
 11
0.5
 21
119.8101021598939
 31
0.0
  0
LINE
  5
3C9D5
330
2
100
AcDbEntity
  8
0
  6
Continuous
 62
     7
100
AcDbLine
 10
231.24226175
 20
40.27003405329798
 30
0.0
 11
228.4622345
 21
40.27003405329798
 31
0.0
  0
LINE
  5
3C9D6
330
2
100
AcDbEntity
  8
0
  6
Continuous
 62
     7
100
AcDbLine
 10
231.24226175
 20
119.8101021598939
 30
0.0
 11
228.4622345
 21
119.8101021598939
 31
0.0
  0
LINE
  5
3C9D7
330
2
100
AcDbEntity
  8
0
  6
Continuous
 62
     7
100
AcDbLine
 10
168.6916486249998
 20
15.41376276998672
 30
0.0
 11
228.4622345
 21
15.41376276998672
 31
0.0
  0
LINE
  5
3C9D8
330
2
100
AcDbEntity
  8
0
  6
Continuous
 62
     7
100
AcDbLine
 10
168.6916486249998
 20
22.87064415498009
 30
0.0
 11
228.4622345
 21
22.87064415498009
 31
0.0
  0
LINE
  5
3C9D9
330
2
100
AcDbEntity
  8
0
  6
Continuous
 62
     7
100
AcDbLine
 10
168.6916486249998
 20
7.956881384993362
 30
0.0
 11
228.4622345
 21
7.956881384993362
 31
0.0
  0
LINE
  5
3C9DA
330
2
100
AcDbEntity
  8
0
  6
Continuous
 62
     7
100
AcDbLine
 10
228.4622345
 20
80.04006810659589
 30
0.0
 11
231.24226175
 21
80.04006810659589
 31
0.0
  0
LINE
  5
3C9DB
330
2
100
AcDbEntity
  8
0
  6
Continuous
 62
     7
100
AcDbLine
 10
229.852248125
 20
79.09485884159588
 30
0.0
 11
229.852248125
 21
80.98527737159592
 31
0.0
  0
LINE
  5
3C9DC
330
2
100
AcDbEntity
  8
0
  6
Continuous
 62
     7
100
AcDbLine
 10
229.852248125
 20
79.09485884159588
 30
0.0
 11
228.4622345
 21
80.04006810659589
 31
0.0
  0
LINE
  5
3C9DD
330
2
100
AcDbEntity
  8
0
  6
Continuous
 62
     7
100
AcDbLine
 10
228.4622345
 20
80.04006810659589
 30
0.0
 11
229.852248125
 21
80.98527737159592
 31
0.0
  0
LINE
  5
3C9DE
330
2
100
AcDbEntity
  8
0
  6
Continuous
 62
     7
100
AcDbLine
 10
0.5
 20
80.04006810659589
 30
0.0
 11
-2.28002724999998
 21
80.04006810659589
 31
0.0
  0
LINE
  5
3C9DF
330
2
100
AcDbEntity
  8
0
  6
Continuous
 62
     7
100
AcDbLine
 10
-0.890013625000015
 20
79.09485884159588
 30
0.0
 11
-0.890013625000015
 21
80.98527737159592
 31
0.0
  0
LINE
  5
3C9E0
330
2
100
AcDbEntity
  8
0
  6
Continuous
 62
     7
100
AcDbLine
 10
-0.890013625000015
 20
79.09485884159588
 30
0.0
 11
0.5
 21
80.04006810659589
 31
0.0
  0
LINE
  5
3C9E1
330
2
100
AcDbEntity
  8
0
  6
Continuous
 62
     7
100
AcDbLine
 10
0.5
 20
80.04006810659589
 30
0.0
 11
-0.890013625000015
 21
80.98527737159592
 31
0.0
  0
LINE
  5
3C9E2
330
2
100
AcDbEntity
  8
0
  6
Continuous
 62
     7
100
AcDbLine
 10
114.48111725
 20
159.5801362131918
 30
0.0
 11
114.48111725
 21
162.3601634631918
 31
0.0
  0
LINE
  5
3C9E3
330
2
100
AcDbEntity
  8
0
  6
Continuous
 62
     7
100
AcDbLine
 10
113.5359079849999
 20
160.9701498381918
 30
0.0
 11
115.4263265149999
 21
160.9701498381918
 31
0.0
  0
LINE
  5
3C9E4
330
2
100
AcDbEntity
  8
0
  6
Continuous
 62
     7
100
AcDbLine
 10
113.5359079849999
 20
160.9701498381918
 30
0.0
 11
114.48111725
 21
159.5801362131918
 31
0.0
  0
LINE
  5
3C9E5
330
2
100
AcDbEntity
  8
0
  6
Continuous
 62
     7
100
AcDbLine
 10
114.48111725
 20
159.5801362131918
 30
0.0
 11
115.4263265149999
 21
160.9701498381918
 31
0.0
  0
LINE
  5
3C9E6
330
2
100
AcDbEntity
  8
0
  6
Continuous
 62
     7
100
AcDbLine
 10
114.48111725
 20
0.5
 30
0.0
 11
114.48111725
 21
-2.28002724999998
 31
0.0
  0
LINE
  5
3C9E7
330
2
100
AcDbEntity
  8
0
  6
Continuous
 62
     7
100
AcDbLine
 10
113.5359079849999
 20
-0.890013625000015
 30
0.0
 11
115.4263265149999
 21
-0.890013625000015
 31
0.0
  0
LINE
  5
3C9E8
330
2
100
AcDbEntity
  8
0
  6
Continuous
 62
     7
100
AcDbLine
 10
113.5359079849999
 20
-0.890013625000015
 30
0.0
 11
114.48111725
 21
0.5
 31
0.0
  0
LINE
  5
3C9E9
330
2
100
AcDbEntity
  8
0
  6
Continuous
 62
     7
100
AcDbLine
 10
114.48111725
 20
0.5
 30
0.0
 11
115.4263265149999
 21
-0.890013625000015
 31
0.0
  0
TEXT
  5
3C9EA
330
2
100
AcDbEntity
  8
0
 62
     2
100
AcDbText
 10
28.41311731059692
 20
-1.752484322891404
 30
0.0
 40
1.556815259999999
  1
4
  7
굴림
100
AcDbText
  0
TEXT
  5
3C9EB
330
2
100
AcDbEntity
  8
0
 62
     2
100
AcDbText
 10
85.45651373783945
 20
-1.752484322891404
 30
0.0
 40
1.556815259999999
  1
3
  7
굴림
100
AcDbText
  0
TEXT
  5
3C9EC
330
2
100
AcDbEntity
  8
0
 62
     2
100
AcDbText
 10
142.3733528614959
 20
-1.752484322891404
 30
0.0
 40
1.556815259999999
  1
2
  7
굴림
100
AcDbText
  0
TEXT
  5
3C9ED
330
2
100
AcDbEntity
  8
0
 62
     2
100
AcDbText
 10
199.5377263891383
 20
-1.752484322891404
 30
0.0
 40
1.556815259999999
  1
1
  7
굴림
100
AcDbText
  0
TEXT
  5
3C9EE
330
2
100
AcDbEntity
  8
0
 62
     2
100
AcDbText
 10
28.41311731059692
 20
160.4665108981042
 30
0.0
 40
1.556815259999999
  1
4
  7
굴림
100
AcDbText
  0
TEXT
  5
3C9EF
330
2
100
AcDbEntity
  8
0
 62
     2
100
AcDbText
 10
85.45651373783945
 20
160.4665108981042
 30
0.0
 40
1.556815259999999
  1
3
  7
굴림
100
AcDbText
  0
TEXT
  5
3C9F0
330
2
100
AcDbEntity
  8
0
 62
     2
100
AcDbText
 10
142.3733528614959
 20
160.4665108981042
 30
0.0
 40
1.556815259999999
  1
2
  7
굴림
100
AcDbText
  0
TEXT
  5
3C9F1
330
2
100
AcDbEntity
  8
0
 62
     2
100
AcDbText
 10
199.5377263891383
 20
160.4665108981042
 30
0.0
 40
1.556815259999999
  1
1
  7
굴림
100
AcDbText
  0
TEXT
  5
3C9F2
330
2
100
AcDbEntity
  8
0
 62
     2
100
AcDbText
 10
-1.747477303099856
 20
19.86663775446954
 30
0.0
 40
1.556815259999999
  1
A
  7
굴림
100
AcDbText
  0
TEXT
  5
3C9F3
330
2
100
AcDbEntity
  8
0
 62
     2
100
AcDbText
 10
-1.747477303099856
 20
59.30673861467433
 30
0.0
 40
1.556815259999999
  1
B
  7
굴림
100
AcDbText
  0
TEXT
  5
3C9F4
330
2
100
AcDbEntity
  8
0
 62
     2
100
AcDbText
 10
-1.747477303099856
 20
99.12318927488799
 30
0.0
 40
1.556815259999999
  1
C
  7
굴림
100
AcDbText
  0
TEXT
  5
3C9F5
330
2
100
AcDbEntity
  8
0
 62
     2
100
AcDbText
 10
-1.747477303099856
 20
139.1848214194692
 30
0.0
 40
1.556815259999999
  1
D
  7
굴림
100
AcDbText
  0
TEXT
  5
3C9F6
330
2
100
AcDbEntity
  8
0
 62
     2
100
AcDbText
 10
229.2950322483239
 20
19.86663775446954
 30
0.0
 40
1.556815259999999
  1
A
  7
굴림
100
AcDbText
  0
TEXT
  5
3C9F7
330
2
100
AcDbEntity
  8
0
 62
     2
100
AcDbText
 10
229.2950322483239
 20
59.30673861467433
 30
0.0
 40
1.556815259999999
  1
B
  7
굴림
100
AcDbText
  0
TEXT
  5
3C9F8
330
2
100
AcDbEntity
  8
0
 62
     2
100
AcDbText
 10
229.2950322483239
 20
99.12318927488799
 30
0.0
 40
1.556815259999999
  1
C
  7
굴림
100
AcDbText
  0
TEXT
  5
3C9F9
330
2
100
AcDbEntity
  8
0
 62
     2
100
AcDbText
 10
229.2950322483239
 20
139.1848214194692
 30
0.0
 40
1.556815259999999
  1
D
  7
굴림
100
AcDbText
  0
HATCH
  5
3C9FA
330
2
100
AcDbEntity
  8
0
  6
Continuous
 62
     0
100
AcDbHatch
 10
0.0
 20
0.0
 30
0.0
210
0.0
220
0.0
230
0.9999999999999998
  2
SOLID
 70
     1
 71
     1
 91
        1
 92
        5
 93
       13
 72
     4
 94
        3
 73
     0
 74
     0
 95
        8
 96
        4
 40
1.0
 40
1.0
 40
1.0
 40
1.0
 40
2.0
 40
2.0
 40
2.0
 40
2.0
 10
186.5074847003158
 20
19.00434374315034
 10
186.5074847003158
 20
19.00434374315034
 10
185.8719293529163
 20
16.09388382359109
 10
185.8719293529163
 20
16.09388382359109
 97
        0
 72
     4
 94
        3
 73
     0
 74
     0
 95
        8
 96
        4
 40
0.0
 40
0.0
 40
0.0
 40
0.0
 40
1.0
 40
1.0
 40
1.0
 40
1.0
 10
185.8719293529163
 20
16.09388382359109
 10
185.8719293529163
 20
16.09388382359109
 10
187.2698700943516
 20
16.09388382359109
 10
187.2698700943516
 20
16.09388382359109
 97
        0
 72
     4
 94
        3
 73
     0
 74
     0
 95
        8
 96
        4
 40
12.0
 40
12.0
 40
12.0
 40
12.0
 40
13.0
 40
13.0
 40
13.0
 40
13.0
 10
187.2698700943516
 20
16.09388382359109
 10
187.2698700943516
 20
16.09388382359109
 10
188.0008746041562
 20
20.58019442827264
 10
188.0008746041562
 20
20.58019442827264
 97
        0
 72
     4
 94
        3
 73
     0
 74
     0
 95
        8
 96
        4
 40
11.0
 40
11.0
 40
11.0
 40
11.0
 40
12.0
 40
12.0
 40
12.0
 40
12.0
 10
188.0008746041562
 20
20.58019442827264
 10
188.0008746041562
 20
20.58019442827264
 10
186.4945921610756
 20
20.58019442827264
 10
186.4945921610756
 20
20.58019442827264
 97
        0
 72
     4
 94
        3
 73
     0
 74
     0
 95
        8
 96
        4
 40
10.0
 40
10.0
 40
10.0
 40
10.0
 40
11.0
 40
11.0
 40
11.0
 40
11.0
 10
186.4945921610756
 20
20.58019442827264
 10
186.4945921610756
 20
20.58019442827264
 10
184.944036294524
 20
18.11473388445217
 10
184.944036294524
 20
18.11473388445217
 97
        0
 72
     4
 94
        3
 73
     0
 74
     0
 95
        8
 96
        4
 40
9.0
 40
9.0
 40
9.0
 40
9.0
 40
10.0
 40
10.0
 40
10.0
 40
10.0
 10
184.944036294524
 20
18.11473388445217
 10
184.944036294524
 20
18.11473388445217
 10
184.6710503444688
 20
20.58019442827264
 10
184.6710503444688
 20
20.58019442827264
 97
        0
 72
     4
 94
        3
 73
     0
 74
     0
 95
        8
 96
        4
 40
8.0
 40
8.0
 40
8.0
 40
8.0
 40
9.0
 40
9.0
 40
9.0
 40
9.0
 10
184.6710503444688
 20
20.58019442827264
 10
184.6710503444688
 20
20.58019442827264
 10
183.1901585244317
 20
20.58019442827264
 10
183.1901585244317
 20
20.58019442827264
 97
        0
 72
     4
 94
        3
 73
     0
 74
     0
 95
        8
 96
        4
 40
7.0
 40
7.0
 40
7.0
 40
7.0
 40
8.0
 40
8.0
 40
8.0
 40
8.0
 10
183.1901585244317
 20
20.58019442827264
 10
183.1901585244317
 20
20.58019442827264
 10
181.5571445979683
 20
16.09388382359109
 10
181.5571445979683
 20
16.09388382359109
 97
        0
 72
     4
 94
        3
 73
     0
 74
     0
 95
        8
 96
        4
 40
6.0
 40
6.0
 40
6.0
 40
6.0
 40
7.0
 40
7.0
 40
7.0
 40
7.0
 10
181.5571445979683
 20
16.09388382359109
 10
181.5571445979683
 20
16.09388382359109
 10
182.9233100716582
 20
16.09388382359109
 10
182.9233100716582
 20
16.09388382359109
 97
        0
 72
     4
 94
        3
 73
     0
 74
     0
 95
        8
 96
        4
 40
5.0
 40
5.0
 40
5.0
 40
5.0
 40
6.0
 40
6.0
 40
6.0
 40
6.0
 10
182.9233100716582
 20
16.09388382359109
 10
182.9233100716582
 20
16.09388382359109
 10
183.8448431626535
 20
19.06779574315842
 10
183.8448431626535
 20
19.06779574315842
 97
        0
 72
     4
 94
        3
 73
     0
 74
     0
 95
        8
 96
        4
 40
4.0
 40
4.0
 40
4.0
 40
4.0
 40
5.0
 40
5.0
 40
5.0
 40
5.0
 10
183.8448431626535
 20
19.06779574315842
 10
183.8448431626535
 20
19.06779574315842
 10
184.1816268635117
 20
16.09388382359109
 10
184.1816268635117
 20
16.09388382359109
 97
        0
 72
     4
 94
        3
 73
     0
 74
     0
 95
        8
 96
        4
 40
3.0
 40
3.0
 40
3.0
 40
3.0
 40
4.0
 40
4.0
 40
4.0
 40
4.0
 10
184.1816268635117
 20
16.09388382359109
 10
184.1816268635117
 20
16.09388382359109
 10
184.626505132091
 20
16.09388382359109
 10
184.626505132091
 20
16.09388382359109
 97
        0
 72
     4
 94
        3
 73
     0
 74
     0
 95
        8
 96
        4
 40
2.0
 40
2.0
 40
2.0
 40
2.0
 40
3.0
 40
3.0
 40
3.0
 40
3.0
 10
184.626505132091
 20
16.09388382359109
 10
184.626505132091
 20
16.09388382359109
 10
186.5074847003158
 20
19.00434374315034
 10
186.5074847003158
 20
19.00434374315034
 97
        0
 97
       13
330
3CA07
330
3CA06
330
3CA05
330
3CA04
330
3CA03
330
3CA02
330
3CA01
330
3CA00
330
3C9FF
330
3C9FE
330
3C9FD
330
3C9FC
330
3C9FB
 75
     1
 76
     1
 47
0.0269459378258844
 98
        1
 10
186.5885685095635
 20
17.61916490117755
450
        0
451
        0
460
0.0
461
0.0
452
        0
462
1.0
453
        2
463
0.0
 63
     5
421
      255
463
1.0
 63
     2
421
 16776960
470
LINEAR
1001
GRADIENTCOLOR1ACI
1070
     5
1001
GRADIENTCOLOR2ACI
1070
     2
1001
ACAD
1010
0.0
1020
0.0
1030
0.0
  0
SPLINE
  5
3C9FB
102
{ACAD_REACTORS
330
3C9FA
102
}
330
2
100
AcDbEntity
  8
Layer 1
100
AcDbSpline
210
0.0
220
0.0
230
1.0
 70
    24
 71
     3
 72
     8
 73
     4
 74
     0
 42
0.000000001
 43
0.0000000001
 40
0.0
 40
0.0
 40
0.0
 40
0.0
 40
1.0
 40
1.0
 40
1.0
 40
1.0
 10
187.2698700943516
 20
16.09388382359109
 30
0.0
 10
187.2698700943516
 20
16.09388382359109
 30
0.0
 10
185.8719293529163
 20
16.09388382359109
 30
0.0
 10
185.8719293529163
 20
16.09388382359109
 30
0.0
  0
SPLINE
  5
3C9FC
102
{ACAD_REACTORS
330
3C9FA
102
}
330
2
100
AcDbEntity
  8
Layer 1
100
AcDbSpline
210
0.0
220
0.0
230
1.0
 70
    24
 71
     3
 72
     8
 73
     4
 74
     0
 42
0.000000001
 43
0.0000000001
 40
1.0
 40
1.0
 40
1.0
 40
1.0
 40
2.0
 40
2.0
 40
2.0
 40
2.0
 10
185.8719293529163
 20
16.09388382359109
 30
0.0
 10
185.8719293529163
 20
16.09388382359109
 30
0.0
 10
186.5074847003158
 20
19.00434374315034
 30
0.0
 10
186.5074847003158
 20
19.00434374315034
 30
0.0
  0
SPLINE
  5
3C9FD
102
{ACAD_REACTORS
330
3C9FA
102
}
330
2
100
AcDbEntity
  8
Layer 1
100
AcDbSpline
210
0.0
220
0.0
230
1.0
 70
    24
 71
     3
 72
     8
 73
     4
 74
     0
 42
0.000000001
 43
0.0000000001
 40
2.0
 40
2.0
 40
2.0
 40
2.0
 40
3.0
 40
3.0
 40
3.0
 40
3.0
 10
186.5074847003158
 20
19.00434374315034
 30
0.0
 10
186.5074847003158
 20
19.00434374315034
 30
0.0
 10
184.626505132091
 20
16.09388382359109
 30
0.0
 10
184.626505132091
 20
16.09388382359109
 30
0.0
  0
SPLINE
  5
3C9FE
102
{ACAD_REACTORS
330
3C9FA
102
}
330
2
100
AcDbEntity
  8
Layer 1
100
AcDbSpline
210
0.0
220
0.0
230
1.0
 70
    24
 71
     3
 72
     8
 73
     4
 74
     0
 42
0.000000001
 43
0.0000000001
 40
3.0
 40
3.0
 40
3.0
 40
3.0
 40
4.0
 40
4.0
 40
4.0
 40
4.0
 10
184.626505132091
 20
16.09388382359109
 30
0.0
 10
184.626505132091
 20
16.09388382359109
 30
0.0
 10
184.1816268635117
 20
16.09388382359109
 30
0.0
 10
184.1816268635117
 20
16.09388382359109
 30
0.0
  0
SPLINE
  5
3C9FF
102
{ACAD_REACTORS
330
3C9FA
102
}
330
2
100
AcDbEntity
  8
Layer 1
100
AcDbSpline
210
0.0
220
0.0
230
1.0
 70
    24
 71
     3
 72
     8
 73
     4
 74
     0
 42
0.000000001
 43
0.0000000001
 40
4.0
 40
4.0
 40
4.0
 40
4.0
 40
5.0
 40
5.0
 40
5.0
 40
5.0
 10
184.1816268635117
 20
16.09388382359109
 30
0.0
 10
184.1816268635117
 20
16.09388382359109
 30
0.0
 10
183.8448431626535
 20
19.06779574315842
 30
0.0
 10
183.8448431626535
 20
19.06779574315842
 30
0.0
  0
SPLINE
  5
3CA00
102
{ACAD_REACTORS
330
3C9FA
102
}
330
2
100
AcDbEntity
  8
Layer 1
100
AcDbSpline
210
0.0
220
0.0
230
1.0
 70
    24
 71
     3
 72
     8
 73
     4
 74
     0
 42
0.000000001
 43
0.0000000001
 40
5.0
 40
5.0
 40
5.0
 40
5.0
 40
6.0
 40
6.0
 40
6.0
 40
6.0
 10
183.8448431626535
 20
19.06779574315842
 30
0.0
 10
183.8448431626535
 20
19.06779574315842
 30
0.0
 10
182.9233100716582
 20
16.09388382359109
 30
0.0
 10
182.9233100716582
 20
16.09388382359109
 30
0.0
  0
SPLINE
  5
3CA01
102
{ACAD_REACTORS
330
3C9FA
102
}
330
2
100
AcDbEntity
  8
Layer 1
100
AcDbSpline
210
0.0
220
0.0
230
1.0
 70
    24
 71
     3
 72
     8
 73
     4
 74
     0
 42
0.000000001
 43
0.0000000001
 40
6.0
 40
6.0
 40
6.0
 40
6.0
 40
7.0
 40
7.0
 40
7.0
 40
7.0
 10
182.9233100716582
 20
16.09388382359109
 30
0.0
 10
182.9233100716582
 20
16.09388382359109
 30
0.0
 10
181.5571445979683
 20
16.09388382359109
 30
0.0
 10
181.5571445979683
 20
16.09388382359109
 30
0.0
  0
SPLINE
  5
3CA02
102
{ACAD_REACTORS
330
3C9FA
102
}
330
2
100
AcDbEntity
  8
Layer 1
100
AcDbSpline
210
0.0
220
0.0
230
1.0
 70
    24
 71
     3
 72
     8
 73
     4
 74
     0
 42
0.000000001
 43
0.0000000001
 40
7.0
 40
7.0
 40
7.0
 40
7.0
 40
8.0
 40
8.0
 40
8.0
 40
8.0
 10
181.5571445979683
 20
16.09388382359109
 30
0.0
 10
181.5571445979683
 20
16.09388382359109
 30
0.0
 10
183.1901585244317
 20
20.58019442827264
 30
0.0
 10
183.1901585244317
 20
20.58019442827264
 30
0.0
  0
SPLINE
  5
3CA03
102
{ACAD_REACTORS
330
3C9FA
102
}
330
2
100
AcDbEntity
  8
Layer 1
100
AcDbSpline
210
0.0
220
0.0
230
1.0
 70
    24
 71
     3
 72
     8
 73
     4
 74
     0
 42
0.000000001
 43
0.0000000001
 40
8.0
 40
8.0
 40
8.0
 40
8.0
 40
9.0
 40
9.0
 40
9.0
 40
9.0
 10
183.1901585244317
 20
20.58019442827264
 30
0.0
 10
183.1901585244317
 20
20.58019442827264
 30
0.0
 10
184.6710503444688
 20
20.58019442827264
 30
0.0
 10
184.6710503444688
 20
20.58019442827264
 30
0.0
  0
SPLINE
  5
3CA04
102
{ACAD_REACTORS
330
3C9FA
102
}
330
2
100
AcDbEntity
  8
Layer 1
100
AcDbSpline
210
0.0
220
0.0
230
1.0
 70
    24
 71
     3
 72
     8
 73
     4
 74
     0
 42
0.000000001
 43
0.0000000001
 40
9.0
 40
9.0
 40
9.0
 40
9.0
 40
10.0
 40
10.0
 40
10.0
 40
10.0
 10
184.6710503444688
 20
20.58019442827264
 30
0.0
 10
184.6710503444688
 20
20.58019442827264
 30
0.0
 10
184.944036294524
 20
18.11473388445217
 30
0.0
 10
184.944036294524
 20
18.11473388445217
 30
0.0
  0
SPLINE
  5
3CA05
102
{ACAD_REACTORS
330
3C9FA
102
}
330
2
100
AcDbEntity
  8
Layer 1
100
AcDbSpline
210
0.0
220
0.0
230
1.0
 70
    24
 71
     3
 72
     8
 73
     4
 74
     0
 42
0.000000001
 43
0.0000000001
 40
10.0
 40
10.0
 40
10.0
 40
10.0
 40
11.0
 40
11.0
 40
11.0
 40
11.0
 10
184.944036294524
 20
18.11473388445217
 30
0.0
 10
184.944036294524
 20
18.11473388445217
 30
0.0
 10
186.4945921610756
 20
20.58019442827264
 30
0.0
 10
186.4945921610756
 20
20.58019442827264
 30
0.0
  0
SPLINE
  5
3CA06
102
{ACAD_REACTORS
330
3C9FA
102
}
330
2
100
AcDbEntity
  8
Layer 1
100
AcDbSpline
210
0.0
220
0.0
230
1.0
 70
    24
 71
     3
 72
     8
 73
     4
 74
     0
 42
0.000000001
 43
0.0000000001
 40
11.0
 40
11.0
 40
11.0
 40
11.0
 40
12.0
 40
12.0
 40
12.0
 40
12.0
 10
186.4945921610756
 20
20.58019442827264
 30
0.0
 10
186.4945921610756
 20
20.58019442827264
 30
0.0
 10
188.0008746041562
 20
20.58019442827264
 30
0.0
 10
188.0008746041562
 20
20.58019442827264
 30
0.0
  0
SPLINE
  5
3CA07
102
{ACAD_REACTORS
330
3C9FA
102
}
330
2
100
AcDbEntity
  8
Layer 1
100
AcDbSpline
210
0.0
220
0.0
230
1.0
 70
    24
 71
     3
 72
     8
 73
     4
 74
     0
 42
0.000000001
 43
0.0000000001
 40
12.0
 40
12.0
 40
12.0
 40
12.0
 40
13.0
 40
13.0
 40
13.0
 40
13.0
 10
188.0008746041562
 20
20.58019442827264
 30
0.0
 10
188.0008746041562
 20
20.58019442827264
 30
0.0
 10
187.2698700943516
 20
16.09388382359109
 30
0.0
 10
187.2698700943516
 20
16.09388382359109
 30
0.0
  0
HATCH
  5
3CA08
330
2
100
AcDbEntity
  8
0
  6
Continuous
 62
     0
100
AcDbHatch
 10
0.0
 20
0.0
 30
0.0
210
0.0
220
0.0
230
0.9999999999999998
  2
SOLID
 70
     1
 71
     0
 91
        1
 92
        5
 93
        1
 72
     4
 94
        3
 73
     0
 74
     0
 95
       41
 96
       37
 40
0.0
 40
0.0
 40
0.0
 40
0.0
 40
1.0
 40
1.0
 40
1.0
 40
2.0
 40
2.0
 40
2.0
 40
3.0
 40
3.0
 40
3.0
 40
4.0
 40
4.0
 40
4.0
 40
5.0
 40
5.0
 40
5.0
 40
6.0
 40
6.0
 40
6.0
 40
7.0
 40
7.0
 40
7.0
 40
8.0
 40
8.0
 40
8.0
 40
9.0
 40
9.0
 40
9.0
 40
10.0
 40
10.0
 40
10.0
 40
11.0
 40
11.0
 40
11.0
 40
12.0
 40
12.0
 40
12.0
 40
12.0
 10
188.8646254309942
 20
16.09388382359109
 10
188.8646254309942
 20
16.09388382359109
 10
187.4094940757213
 20
16.09388382359109
 10
187.4094940757213
 20
16.09388382359109
 10
187.4094940757213
 20
16.09388382359109
 10
190.3198561599883
 20
20.58645305181942
 10
190.3198561599883
 20
20.58645305181942
 10
190.3198561599883
 20
20.58645305181942
 10
191.8196307435195
 20
20.58645305181942
 10
191.8196307435195
 20
20.58645305181942
 10
191.8196307435195
 20
20.58645305181942
 10
192.156536884401
 20
16.09388382359109
 10
192.156536884401
 20
16.09388382359109
 10
192.156536884401
 20
16.09388382359109
 10
190.8028942175635
 20
16.09388382359109
 10
190.8028942175635
 20
16.09388382359109
 10
190.8028942175635
 20
16.09388382359109
 10
190.7583496316994
 20
16.81838043595916
 10
190.7583496316994
 20
16.81838043595916
 10
190.7583496316994
 20
16.81838043595916
 10
189.7771115352273
 20
16.81838043595916
 10
189.7771115352273
 20
16.81838043595916
 10
189.7771115352273
 20
16.81838043595916
 10
190.2642424490418
 20
17.75228836925493
 10
190.2642424490418
 20
17.75228836925493
 10
190.2642424490418
 20
17.75228836925493
 10
190.7139283014685
 20
17.75228836925493
 10
190.7139283014685
 20
17.75228836925493
 10
190.7139283014685
 20
17.75228836925493
 10
190.6566390831239
 20
19.06779574315842
 10
190.6566390831239
 20
19.06779574315842
 10
190.6566390831239
 20
19.06779574315842
 10
188.8718489437386
 20
16.1039907855194
 10
188.8718489437386
 20
16.1039907855194
 10
188.8718489437386
 20
16.1039907855194
 10
188.8646254309942
 20
16.09388382359109
 10
188.8646254309942
 20
16.09388382359109
 97
        0
 97
        0
 75
     1
 76
     1
 47
0.0269459378258844
 98
        1
 10
191.5991973971412
 20
17.94864318337259
450
        0
451
        0
460
0.0
461
0.0
452
        0
462
1.0
453
        2
463
0.0
 63
     5
421
      255
463
1.0
 63
     2
421
 16776960
470
LINEAR
1001
GRADIENTCOLOR1ACI
1070
     5
1001
GRADIENTCOLOR2ACI
1070
     2
1001
ACAD
1010
0.0
1020
0.0
1030
0.0
  0
SPLINE
  5
3CA09
330
2
100
AcDbEntity
  8
Layer 1
100
AcDbSpline
210
0.0
220
0.0
230
1.0
 70
    11
 71
     3
 72
    41
 73
    37
 74
     0
 42
0.000000001
 43
0.0000000001
 40
0.0
 40
0.0
 40
0.0
 40
0.0
 40
1.0
 40
1.0
 40
1.0
 40
2.0
 40
2.0
 40
2.0
 40
3.0
 40
3.0
 40
3.0
 40
4.0
 40
4.0
 40
4.0
 40
5.0
 40
5.0
 40
5.0
 40
6.0
 40
6.0
 40
6.0
 40
7.0
 40
7.0
 40
7.0
 40
8.0
 40
8.0
 40
8.0
 40
9.0
 40
9.0
 40
9.0
 40
10.0
 40
10.0
 40
10.0
 40
11.0
 40
11.0
 40
11.0
 40
12.0
 40
12.0
 40
12.0
 40
12.0
 10
188.8646254309942
 20
16.09388382359109
 30
0.0
 10
188.8646254309942
 20
16.09388382359109
 30
0.0
 10
187.4094940757213
 20
16.09388382359109
 30
0.0
 10
187.4094940757213
 20
16.09388382359109
 30
0.0
 10
187.4094940757213
 20
16.09388382359109
 30
0.0
 10
190.3198561599882
 20
20.58645305181943
 30
0.0
 10
190.3198561599882
 20
20.58645305181943
 30
0.0
 10
190.3198561599882
 20
20.58645305181943
 30
0.0
 10
191.8196307435195
 20
20.58645305181943
 30
0.0
 10
191.8196307435195
 20
20.58645305181943
 30
0.0
 10
191.8196307435195
 20
20.58645305181943
 30
0.0
 10
192.156536884401
 20
16.09388382359109
 30
0.0
 10
192.156536884401
 20
16.09388382359109
 30
0.0
 10
192.156536884401
 20
16.09388382359109
 30
0.0
 10
190.8028942175635
 20
16.09388382359109
 30
0.0
 10
190.8028942175635
 20
16.09388382359109
 30
0.0
 10
190.8028942175635
 20
16.09388382359109
 30
0.0
 10
190.7583496316994
 20
16.81838043595916
 30
0.0
 10
190.7583496316994
 20
16.81838043595916
 30
0.0
 10
190.7583496316994
 20
16.81838043595916
 30
0.0
 10
189.7771115352273
 20
16.81838043595916
 30
0.0
 10
189.7771115352273
 20
16.81838043595916
 30
0.0
 10
189.7771115352273
 20
16.81838043595916
 30
0.0
 10
190.2642424490418
 20
17.75228836925493
 30
0.0
 10
190.2642424490418
 20
17.75228836925493
 30
0.0
 10
190.2642424490418
 20
17.75228836925493
 30
0.0
 10
190.7139283014685
 20
17.75228836925493
 30
0.0
 10
190.7139283014685
 20
17.75228836925493
 30
0.0
 10
190.7139283014685
 20
17.75228836925493
 30
0.0
 10
190.6566390831239
 20
19.06779574315842
 30
0.0
 10
190.6566390831239
 20
19.06779574315842
 30
0.0
 10
190.6566390831239
 20
19.06779574315842
 30
0.0
 10
188.8718489437386
 20
16.10399078551935
 30
0.0
 10
188.8718489437386
 20
16.10399078551935
 30
0.0
 10
188.8718489437386
 20
16.10399078551935
 30
0.0
 10
188.8646254309942
 20
16.09388382359109
 30
0.0
 10
188.8646254309942
 20
16.09388382359109
 30
0.0
  0
HATCH
  5
3CA0A
330
2
100
AcDbEntity
  8
0
  6
Continuous
 62
     0
100
AcDbHatch
 10
0.0
 20
0.0
 30
0.0
210
0.0
220
0.0
230
0.9999999999999998
  2
SOLID
 70
     1
 71
     1
 91
        1
 92
        5
 93
        1
 72
     4
 94
        3
 73
     0
 74
     0
 95
       17
 96
       13
 40
0.0
 40
0.0
 40
0.0
 40
0.0
 40
1.0
 40
1.0
 40
1.0
 40
2.0
 40
2.0
 40
2.0
 40
3.0
 40
3.0
 40
3.0
 40
4.0
 40
4.0
 40
4.0
 40
4.0
 10
198.351932960646
 20
16.09388382359109
 10
198.351932960646
 20
16.09388382359109
 10
196.9666372750626
 20
16.09388382359109
 10
196.9666372750626
 20
16.09388382359109
 10
196.9666372750626
 20
16.09388382359109
 10
198.1677634212904
 20
20.58019442827264
 10
198.1677634212904
 20
20.58019442827264
 10
198.1677634212904
 20
20.58019442827264
 10
199.5529595302451
 20
20.58019442827264
 10
199.5529595302451
 20
20.58019442827264
 10
199.5529595302451
 20
20.58019442827264
 10
198.351932960646
 20
16.09388382359109
 10
198.351932960646
 20
16.09388382359109
 97
        0
 97
        1
330
3CA0B
 75
     1
 76
     1
 47
0.0269459378258844
 98
        1
 10
197.7759609019998
 20
17.31939519916909
450
        0
451
        0
460
0.0
461
0.0
452
        0
462
1.0
453
        2
463
0.0
 63
     5
421
      255
463
1.0
 63
     2
421
 16776960
470
LINEAR
1001
GRADIENTCOLOR1ACI
1070
     5
1001
GRADIENTCOLOR2ACI
1070
     2
1001
ACAD
1010
0.0
1020
0.0
1030
0.0
  0
SPLINE
  5
3CA0B
102
{ACAD_REACTORS
330
3CA0A
102
}
330
2
100
AcDbEntity
  8
Layer 1
100
AcDbSpline
210
0.0
220
0.0
230
1.0
 70
    11
 71
     3
 72
    17
 73
    13
 74
     0
 42
0.000000001
 43
0.0000000001
 40
0.0
 40
0.0
 40
0.0
 40
0.0
 40
1.0
 40
1.0
 40
1.0
 40
2.0
 40
2.0
 40
2.0
 40
3.0
 40
3.0
 40
3.0
 40
4.0
 40
4.0
 40
4.0
 40
4.0
 10
198.351932960646
 20
16.09388382359109
 30
0.0
 10
198.351932960646
 20
16.09388382359109
 30
0.0
 10
196.9666372750626
 20
16.09388382359109
 30
0.0
 10
196.9666372750626
 20
16.09388382359109
 30
0.0
 10
196.9666372750626
 20
16.09388382359109
 30
0.0
 10
198.1677634212904
 20
20.58019442827264
 30
0.0
 10
198.1677634212904
 20
20.58019442827264
 30
0.0
 10
198.1677634212904
 20
20.58019442827264
 30
0.0
 10
199.5529595302451
 20
20.58019442827264
 30
0.0
 10
199.5529595302451
 20
20.58019442827264
 30
0.0
 10
199.5529595302451
 20
20.58019442827264
 30
0.0
 10
198.351932960646
 20
16.09388382359109
 30
0.0
 10
198.351932960646
 20
16.09388382359109
 30
0.0
  0
HATCH
  5
3CA0C
330
2
100
AcDbEntity
  8
0
  6
Continuous
 62
     0
100
AcDbHatch
 10
0.0
 20
0.0
 30
0.0
210
0.0
220
0.0
230
0.9999999999999998
  2
SOLID
 70
     1
 71
     1
 91
        1
 92
        5
 93
       14
 72
     4
 94
        3
 73
     0
 74
     0
 95
        8
 96
        4
 40
12.0
 40
12.0
 40
12.0
 40
12.0
 40
13.0
 40
13.0
 40
13.0
 40
13.0
 10
195.9159569548057
 20
17.94091879041316
 10
196.1158775919715
 20
18.00170846874258
 10
196.3142452081583
 20
18.09101950061086
 10
196.4897365788098
 20
18.22509697848326
 97
        0
 72
     4
 94
        3
 73
     0
 74
     0
 95
        8
 96
        4
 40
13.0
 40
13.0
 40
13.0
 40
13.0
 40
14.0
 40
14.0
 40
14.0
 40
14.0
 10
196.4897365788098
 20
18.22509697848326
 10
196.8774494988276
 20
18.52384398240596
 10
197.0808705959783
 20
18.94971684648461
 10
197.0808705959783
 20
19.36893390636656
 97
        0
 72
     4
 94
        3
 73
     0
 74
     0
 95
        8
 96
        4
 40
0.0
 40
0.0
 40
0.0
 40
0.0
 40
1.0
 40
1.0
 40
1.0
 40
1.0
 10
197.0808705959783
 20
19.36893390636656
 10
197.0808705959783
 20
20.271214444165
 10
196.2865619929254
 20
20.58899211786476
 10
195.5939648408977
 20
20.58899211786476
 97
        0
 72
     4
 94
        3
 73
     0
 74
     0
 95
        8
 96
        4
 40
1.0
 40
1.0
 40
1.0
 40
1.0
 40
2.0
 40
2.0
 40
2.0
 40
2.0
 10
195.5939648408977
 20
20.58899211786476
 10
195.5939648408977
 20
20.58899211786476
 10
193.6112746740101
 20
20.58899211786476
 10
193.6112746740101
 20
20.58899211786476
 97
        0
 72
     4
 94
        3
 73
     0
 74
     0
 95
        8
 96
        4
 40
2.0
 40
2.0
 40
2.0
 40
2.0
 40
3.0
 40
3.0
 40
3.0
 40
3.0
 10
193.6112746740101
 20
20.58899211786476
 10
193.6112746740101
 20
20.58899211786476
 10
192.4038862892497
 20
16.10256366968219
 10
192.4038862892497
 20
16.10256366968219
 97
        0
 72
     4
 94
        3
 73
     0
 74
     0
 95
        8
 96
        4
 40
3.0
 40
3.0
 40
3.0
 40
3.0
 40
4.0
 40
4.0
 40
4.0
 40
4.0
 10
192.4038862892497
 20
16.10256366968219
 10
192.4038862892497
 20
16.10256366968219
 10
193.8275874580386
 20
16.10256366968219
 10
193.8275874580386
 20
16.10256366968219
 97
        0
 72
     4
 94
        3
 73
     0
 74
     0
 95
        8
 96
        4
 40
4.0
 40
4.0
 40
4.0
 40
4.0
 40
5.0
 40
5.0
 40
5.0
 40
5.0
 10
193.8275874580386
 20
16.10256366968219
 10
193.8275874580386
 20
16.10256366968219
 10
194.7613967868278
 20
19.58487777585772
 10
194.7613967868278
 20
19.58487777585772
 97
        0
 72
     4
 94
        3
 73
     0
 74
     0
 95
        8
 96
        4
 40
5.0
 40
5.0
 40
5.0
 40
5.0
 40
6.0
 40
6.0
 40
6.0
 40
6.0
 10
194.7613967868278
 20
19.58487777585772
 10
194.7613967868278
 20
19.58487777585772
 10
195.1808603579762
 20
19.58487777585772
 10
195.1808603579762
 20
19.58487777585772
 97
        0
 72
     4
 94
        3
 73
     0
 74
     0
 95
        8
 96
        4
 40
6.0
 40
6.0
 40
6.0
 40
6.0
 40
7.0
 40
7.0
 40
7.0
 40
7.0
 10
195.6829298545432
 20
19.22282667868689
 10
195.6829298545432
 20
19.52771181314651
 10
195.4285795297248
 20
19.58487777585772
 10
195.1808603579762
 20
19.58487777585772
 97
        0
 72
     4
 94
        3
 73
     0
 74
     0
 95
        8
 96
        4
 40
7.0
 40
7.0
 40
7.0
 40
7.0
 40
8.0
 40
8.0
 40
8.0
 40
8.0
 10
195.6829298545432
 20
19.22282667868689
 10
195.6829298545432
 20
19.05768878123016
 10
195.5559272500205
 20
18.79059382393147
 10
195.1364636788722
 20
18.80346171204493
 97
        0
 72
     4
 94
        3
 73
     0
 74
     0
 95
        8
 96
        4
 40
8.0
 40
8.0
 40
8.0
 40
8.0
 40
9.0
 40
9.0
 40
9.0
 40
9.0
 10
195.1364636788722
 20
18.80346171204493
 10
195.1364636788722
 20
18.80346171204493
 10
194.8677910494675
 20
17.81995571192087
 10
194.8677910494675
 20
17.81995571192087
 97
        0
 72
     4
 94
        3
 73
     0
 74
     0
 95
        8
 96
        4
 40
9.0
 40
9.0
 40
9.0
 40
9.0
 40
10.0
 40
10.0
 40
10.0
 40
10.0
 10
194.8677910494675
 20
17.81995571192087
 10
194.8677910494675
 20
17.81995571192087
 10
195.380928901902
 20
16.03346391216148
 10
195.380928901902
 20
16.03346391216148
 97
        0
 72
     4
 94
        3
 73
     0
 74
     0
 95
        8
 96
        4
 40
10.0
 40
10.0
 40
10.0
 40
10.0
 40
11.0
 40
11.0
 40
11.0
 40
11.0
 10
195.380928901902
 20
16.03346391216148
 10
195.380928901902
 20
16.03346391216148
 10
196.5548657821546
 20
16.03346391216148
 10
196.5548657821546
 20
16.03346391216148
 97
        0
 72
     4
 94
        3
 73
     0
 74
     0
 95
        8
 96
        4
 40
11.0
 40
11.0
 40
11.0
 40
11.0
 40
12.0
 40
12.0
 40
12.0
 40
12.0
 10
196.5548657821546
 20
16.03346391216148
 10
196.5548657821546
 20
16.03346391216148
 10
195.9159569548057
 20
17.94091879041316
 10
195.9159569548057
 20
17.94091879041316
 97
        0
 97
       13
330
3CA17
330
3CA18
330
3CA19
330
3CA0D
330
3CA0E
330
3CA0F
330
3CA10
330
3CA11
330
3CA12
330
3CA13
330
3CA14
330
3CA15
330
3CA16
 75
     1
 76
     1
 47
0.0269459378258844
 98
        1
 10
195.6021007507461
 20
17.70892948008784
450
        0
451
        0
460
0.0
461
0.0
452
        0
462
1.0
453
        2
463
0.0
 63
     5
421
      255
463
1.0
 63
     2
421
 16776960
470
LINEAR
1001
GRADIENTCOLOR1ACI
1070
     5
1001
GRADIENTCOLOR2ACI
1070
     2
1001
ACAD
1010
0.0
1020
0.0
1030
0.0
  0
SPLINE
  5
3CA0D
102
{ACAD_REACTORS
330
3CA0C
102
}
330
2
100
AcDbEntity
  8
Layer 1
100
AcDbSpline
210
0.0
220
0.0
230
1.0
 70
     8
 71
     3
 72
     8
 73
     4
 74
     0
 42
0.000000001
 43
0.0000000001
 40
0.0
 40
0.0
 40
0.0
 40
0.0
 40
1.0
 40
1.0
 40
1.0
 40
1.0
 10
197.0808705959783
 20
19.36893390636656
 30
0.0
 10
197.0808705959783
 20
20.271214444165
 30
0.0
 10
196.2865619929254
 20
20.58899211786476
 30
0.0
 10
195.5939648408977
 20
20.58899211786476
 30
0.0
  0
SPLINE
  5
3CA0E
102
{ACAD_REACTORS
330
3CA0C
102
}
330
2
100
AcDbEntity
  8
Layer 1
100
AcDbSpline
210
0.0
220
0.0
230
1.0
 70
    24
 71
     3
 72
     8
 73
     4
 74
     0
 42
0.000000001
 43
0.0000000001
 40
1.0
 40
1.0
 40
1.0
 40
1.0
 40
2.0
 40
2.0
 40
2.0
 40
2.0
 10
195.5939648408977
 20
20.58899211786476
 30
0.0
 10
195.5939648408977
 20
20.58899211786476
 30
0.0
 10
193.6112746740101
 20
20.58899211786476
 30
0.0
 10
193.6112746740101
 20
20.58899211786476
 30
0.0
  0
SPLINE
  5
3CA0F
102
{ACAD_REACTORS
330
3CA0C
102
}
330
2
100
AcDbEntity
  8
Layer 1
100
AcDbSpline
210
0.0
220
0.0
230
1.0
 70
    24
 71
     3
 72
     8
 73
     4
 74
     0
 42
0.000000001
 43
0.0000000001
 40
2.0
 40
2.0
 40
2.0
 40
2.0
 40
3.0
 40
3.0
 40
3.0
 40
3.0
 10
193.6112746740101
 20
20.58899211786476
 30
0.0
 10
193.6112746740101
 20
20.58899211786476
 30
0.0
 10
192.4038862892497
 20
16.10256366968219
 30
0.0
 10
192.4038862892497
 20
16.10256366968219
 30
0.0
  0
SPLINE
  5
3CA10
102
{ACAD_REACTORS
330
3CA0C
102
}
330
2
100
AcDbEntity
  8
Layer 1
100
AcDbSpline
210
0.0
220
0.0
230
1.0
 70
    24
 71
     3
 72
     8
 73
     4
 74
     0
 42
0.000000001
 43
0.0000000001
 40
3.0
 40
3.0
 40
3.0
 40
3.0
 40
4.0
 40
4.0
 40
4.0
 40
4.0
 10
192.4038862892497
 20
16.10256366968219
 30
0.0
 10
192.4038862892497
 20
16.10256366968219
 30
0.0
 10
193.8275874580386
 20
16.10256366968219
 30
0.0
 10
193.8275874580386
 20
16.10256366968219
 30
0.0
  0
SPLINE
  5
3CA11
102
{ACAD_REACTORS
330
3CA0C
102
}
330
2
100
AcDbEntity
  8
Layer 1
100
AcDbSpline
210
0.0
220
0.0
230
1.0
 70
    24
 71
     3
 72
     8
 73
     4
 74
     0
 42
0.000000001
 43
0.0000000001
 40
4.0
 40
4.0
 40
4.0
 40
4.0
 40
5.0
 40
5.0
 40
5.0
 40
5.0
 10
193.8275874580386
 20
16.10256366968219
 30
0.0
 10
193.8275874580386
 20
16.10256366968219
 30
0.0
 10
194.7613967868278
 20
19.58487777585772
 30
0.0
 10
194.7613967868278
 20
19.58487777585772
 30
0.0
  0
SPLINE
  5
3CA12
102
{ACAD_REACTORS
330
3CA0C
102
}
330
2
100
AcDbEntity
  8
Layer 1
100
AcDbSpline
210
0.0
220
0.0
230
1.0
 70
    24
 71
     3
 72
     8
 73
     4
 74
     0
 42
0.000000001
 43
0.0000000001
 40
5.0
 40
5.0
 40
5.0
 40
5.0
 40
6.0
 40
6.0
 40
6.0
 40
6.0
 10
194.7613967868278
 20
19.58487777585772
 30
0.0
 10
194.7613967868278
 20
19.58487777585772
 30
0.0
 10
195.1808603579762
 20
19.58487777585772
 30
0.0
 10
195.1808603579762
 20
19.58487777585772
 30
0.0
  0
SPLINE
  5
3CA13
102
{ACAD_REACTORS
330
3CA0C
102
}
330
2
100
AcDbEntity
  8
Layer 1
100
AcDbSpline
210
0.0
220
0.0
230
1.0
 70
     8
 71
     3
 72
    11
 73
     7
 74
     0
 42
0.000000001
 43
0.0000000001
 40
6.0
 40
6.0
 40
6.0
 40
6.0
 40
7.0
 40
7.0
 40
7.0
 40
8.0
 40
8.0
 40
8.0
 40
8.0
 10
195.1808603579762
 20
19.58487777585772
 30
0.0
 10
195.4285795297248
 20
19.58487777585772
 30
0.0
 10
195.6829298545432
 20
19.52771181314651
 30
0.0
 10
195.6829298545432
 20
19.22282667868689
 30
0.0
 10
195.6829298545432
 20
19.05768878123016
 30
0.0
 10
195.5559272500205
 20
18.79059382393147
 30
0.0
 10
195.1364636788722
 20
18.80346171204493
 30
0.0
  0
SPLINE
  5
3CA14
102
{ACAD_REACTORS
330
3CA0C
102
}
330
2
100
AcDbEntity
  8
Layer 1
100
AcDbSpline
210
0.0
220
0.0
230
1.0
 70
    24
 71
     3
 72
     8
 73
     4
 74
     0
 42
0.000000001
 43
0.0000000001
 40
8.0
 40
8.0
 40
8.0
 40
8.0
 40
9.0
 40
9.0
 40
9.0
 40
9.0
 10
195.1364636788722
 20
18.80346171204493
 30
0.0
 10
195.1364636788722
 20
18.80346171204493
 30
0.0
 10
194.8677910494675
 20
17.81995571192087
 30
0.0
 10
194.8677910494675
 20
17.81995571192087
 30
0.0
  0
SPLINE
  5
3CA15
102
{ACAD_REACTORS
330
3CA0C
102
}
330
2
100
AcDbEntity
  8
Layer 1
100
AcDbSpline
210
0.0
220
0.0
230
1.0
 70
    24
 71
     3
 72
     8
 73
     4
 74
     0
 42
0.000000001
 43
0.0000000001
 40
9.0
 40
9.0
 40
9.0
 40
9.0
 40
10.0
 40
10.0
 40
10.0
 40
10.0
 10
194.8677910494675
 20
17.81995571192087
 30
0.0
 10
194.8677910494675
 20
17.81995571192087
 30
0.0
 10
195.380928901902
 20
16.03346391216148
 30
0.0
 10
195.380928901902
 20
16.03346391216148
 30
0.0
  0
SPLINE
  5
3CA16
102
{ACAD_REACTORS
330
3CA0C
102
}
330
2
100
AcDbEntity
  8
Layer 1
100
AcDbSpline
210
0.0
220
0.0
230
1.0
 70
    24
 71
     3
 72
     8
 73
     4
 74
     0
 42
0.000000001
 43
0.0000000001
 40
10.0
 40
10.0
 40
10.0
 40
10.0
 40
11.0
 40
11.0
 40
11.0
 40
11.0
 10
195.380928901902
 20
16.03346391216148
 30
0.0
 10
195.380928901902
 20
16.03346391216148
 30
0.0
 10
196.5548657821546
 20
16.03346391216148
 30
0.0
 10
196.5548657821546
 20
16.03346391216148
 30
0.0
  0
SPLINE
  5
3CA17
102
{ACAD_REACTORS
330
3CA0C
102
}
330
2
100
AcDbEntity
  8
Layer 1
100
AcDbSpline
210
0.0
220
0.0
230
1.0
 70
    24
 71
     3
 72
     8
 73
     4
 74
     0
 42
0.000000001
 43
0.0000000001
 40
11.0
 40
11.0
 40
11.0
 40
11.0
 40
12.0
 40
12.0
 40
12.0
 40
12.0
 10
196.5548657821546
 20
16.03346391216148
 30
0.0
 10
196.5548657821546
 20
16.03346391216148
 30
0.0
 10
195.9159569548057
 20
17.94091879041316
 30
0.0
 10
195.9159569548057
 20
17.94091879041316
 30
0.0
  0
SPLINE
  5
3CA18
102
{ACAD_REACTORS
330
3CA0C
102
}
330
2
100
AcDbEntity
  8
Layer 1
100
AcDbSpline
210
0.0
220
0.0
230
1.0
 70
     8
 71
     3
 72
     8
 73
     4
 74
     0
 42
0.000000001
 43
0.0000000001
 40
12.0
 40
12.0
 40
12.0
 40
12.0
 40
13.0
 40
13.0
 40
13.0
 40
13.0
 10
195.9159569548057
 20
17.94091879041316
 30
0.0
 10
196.1158775919715
 20
18.00170846874258
 30
0.0
 10
196.3142452081583
 20
18.09101950061086
 30
0.0
 10
196.4897365788098
 20
18.22509697848326
 30
0.0
  0
SPLINE
  5
3CA19
102
{ACAD_REACTORS
330
3CA0C
102
}
330
2
100
AcDbEntity
  8
Layer 1
100
AcDbSpline
210
0.0
220
0.0
230
1.0
 70
     8
 71
     3
 72
     8
 73
     4
 74
     0
 42
0.000000001
 43
0.0000000001
 40
13.0
 40
13.0
 40
13.0
 40
13.0
 40
14.0
 40
14.0
 40
14.0
 40
14.0
 10
196.4897365788098
 20
18.22509697848326
 30
0.0
 10
196.8774494988276
 20
18.52384398240596
 30
0.0
 10
197.0808705959783
 20
18.94971684648461
 30
0.0
 10
197.0808705959783
 20
19.36893390636656
 30
0.0
  0
LWPOLYLINE
  5
3CA1A
102
{ACAD_REACTORS
330
3CA1B
102
}
330
2
100
AcDbEntity
  8
Layer 1
 62
   103
100
AcDbPolyline
 90
        8
 70
     1
 43
0.0
 10
215.4187451095593
 20
22.04205277849885
 10
194.1006972902409
 20
22.04289091680514
 10
193.7826977564014
 20
20.99691896173913
 10
201.1704432056631
 20
20.99655196798084
 10
199.7566024875359
 20
16.09388382359109
 10
201.1420451077575
 20
16.09388382359109
 10
202.5556146634914
 20
20.99655196798084
 10
215.0991692988067
 20
20.99593291667294
  0
HATCH
  5
3CA1B
330
2
100
AcDbEntity
  8
0
  6
Continuous
 62
    93
100
AcDbHatch
 10
0.0
 20
0.0
 30
0.0
210
0.0
220
0.0
230
0.9999999999999998
  2
SOLID
 70
     1
 71
     1
 91
        1
 92
        7
 72
     0
 73
     1
 93
        8
 10
194.1006972902409
 20
22.04289091680514
 10
193.7826977564014
 20
20.99691896173913
 10
201.1704432056631
 20
20.99655196798084
 10
199.7566024875359
 20
16.09388382359109
 10
201.1420451077575
 20
16.09388382359109
 10
202.5556146634914
 20
20.99655196798084
 10
215.0991692988067
 20
20.99593291667294
 10
215.4187451095593
 20
22.04205277849885
 97
        1
330
3CA1A
 75
     1
 76
     1
 47
0.0428322549537331
 98
        1
 10
203.4815983305233
 20
21.52605484338792
450
        0
451
        0
460
0.0
461
0.0
452
        0
462
1.0
453
        2
463
0.0
 63
     5
421
      255
463
1.0
 63
     2
421
 16776960
470
LINEAR
1001
GRADIENTCOLOR1ACI
1070
     5
1001
GRADIENTCOLOR2ACI
1070
     2
1001
ACAD
1010
0.0
1020
0.0
1030
0.0
  0
HATCH
  5
3CA1C
330
2
100
AcDbEntity
  8
0
  6
Continuous
 62
     0
100
AcDbHatch
 10
0.0
 20
0.0
 30
0.0
210
0.0
220
0.0
230
0.9999999999999998
  2
SOLID
 70
     1
 71
     1
 91
        2
 92
        5
 93
        4
 72
     4
 94
        3
 73
     0
 74
     0
 95
        8
 96
        4
 40
0.0
 40
0.0
 40
0.0
 40
0.0
 40
1.0
 40
1.0
 40
1.0
 40
1.0
 10
202.6414498865011
 20
17.91298906391389
 10
202.6414498865011
 20
16.75036797752009
 10
203.4376812774331
 20
15.85927905122269
 10
204.8151615837455
 20
15.85927905122269
 97
        0
 72
     4
 94
        3
 73
     0
 74
     0
 95
        8
 96
        4
 40
3.0
 40
3.0
 40
3.0
 40
3.0
 40
4.0
 40
4.0
 40
4.0
 40
4.0
 10
204.8151615837455
 20
15.85927905122269
 10
206.6414649530514
 20
15.85927905122269
 10
207.5829900844833
 20
17.25579002731198
 10
207.5829900844833
 20
18.51962863974812
 97
        0
 72
     4
 94
        3
 73
     0
 74
     0
 95
        8
 96
        4
 40
2.0
 40
2.0
 40
2.0
 40
2.0
 40
3.0
 40
3.0
 40
3.0
 40
3.0
 10
207.5829900844833
 20
18.51962863974812
 10
207.5829900844833
 20
19.65084692993063
 10
206.7868819491846
 20
20.58608328491956
 10
205.3524575403011
 20
20.58608328491956
 97
        0
 72
     4
 94
        3
 73
     0
 74
     0
 95
        8
 96
        4
 40
1.0
 40
1.0
 40
1.0
 40
1.0
 40
2.0
 40
2.0
 40
2.0
 40
2.0
 10
205.3524575403011
 20
20.58608328491956
 10
203.5893350086101
 20
20.58608328491956
 10
202.6414498865011
 20
19.18308906252026
 10
202.6414498865011
 20
17.91298906391389
 97
        0
 97
        1
330
3CA1D
 92
       20
 93
        4
 72
     4
 94
        3
 73
     0
 74
     0
 95
        8
 96
        4
 40
1.0
 40
1.0
 40
1.0
 40
1.0
 40
2.0
 40
2.0
 40
2.0
 40
2.0
 10
204.025314834617
 20
17.90046629157357
 10
204.025314834617
 20
18.58296009629214
 10
204.4994310809788
 20
19.56237129722237
 10
205.3651035682749
 20
19.56237129722237
 97
        0
 72
     4
 94
        3
 73
     0
 74
     0
 95
        8
 96
        4
 40
0.0
 40
0.0
 40
0.0
 40
0.0
 40
1.0
 40
1.0
 40
1.0
 40
1.0
 10
205.3651035682749
 20
19.56237129722237
 10
205.8200894129321
 20
19.56237129722237
 10
206.2118944199746
 20
19.25280244869843
 10
206.2118944199746
 20
18.60184014713997
 97
        0
 72
     4
 94
        3
 73
     0
 74
     0
 95
        8
 96
        4
 40
3.0
 40
3.0
 40
3.0
 40
3.0
 40
4.0
 40
4.0
 40
4.0
 40
4.0
 10
206.2118944199746
 20
18.60184014713997
 10
206.2118944199746
 20
17.95102575234142
 10
205.8328586965391
 20
16.93357515081436
 10
204.8974716956439
 20
16.93357515081436
 97
        0
 72
     4
 94
        3
 73
     0
 74
     0
 95
        8
 96
        4
 40
2.0
 40
2.0
 40
2.0
 40
2.0
 40
3.0
 40
3.0
 40
3.0
 40
3.0
 10
204.8974716956439
 20
16.93357515081436
 10
204.4298644741397
 20
16.93357515081436
 10
204.025314834617
 20
17.24326725497166
 10
204.025314834617
 20
17.90046629157357
 97
        0
 97
        1
330
3CA1E
 75
     1
 76
     1
 47
0.0269459378258844
 98
        2
 10
203.5929116019579
 20
17.22950337196972
 10
203.5929116019579
 20
17.22950337196972
450
        0
451
        0
460
0.0
461
0.0
452
        0
462
1.0
453
        2
463
0.0
 63
     5
421
      255
463
1.0
 63
     2
421
 16776960
470
LINEAR
1001
GRADIENTCOLOR1ACI
1070
     5
1001
GRADIENTCOLOR2ACI
1070
     2
1001
ACAD
1010
0.0
1020
0.0
1030
0.0
  0
SPLINE
  5
3CA1D
102
{ACAD_REACTORS
330
3CA1C
102
}
330
2
100
AcDbEntity
  8
Layer 1
100
AcDbSpline
210
0.0
220
0.0
230
1.0
 70
     9
 71
     3
 72
    17
 73
    13
 74
     0
 42
0.000000001
 43
0.0000000001
 40
0.0
 40
0.0
 40
0.0
 40
0.0
 40
1.0
 40
1.0
 40
1.0
 40
2.0
 40
2.0
 40
2.0
 40
3.0
 40
3.0
 40
3.0
 40
4.0
 40
4.0
 40
4.0
 40
4.0
 10
204.8151615837455
 20
15.85927905122269
 30
0.0
 10
203.4376812774331
 20
15.85927905122269
 30
0.0
 10
202.6414498865011
 20
16.75036797752009
 30
0.0
 10
202.6414498865011
 20
17.91298906391389
 30
0.0
 10
202.6414498865011
 20
19.18308906252026
 30
0.0
 10
203.5893350086101
 20
20.58608328491956
 30
0.0
 10
205.3524575403011
 20
20.58608328491956
 30
0.0
 10
206.7868819491846
 20
20.58608328491956
 30
0.0
 10
207.5829900844833
 20
19.65084692993063
 30
0.0
 10
207.5829900844833
 20
18.51962863974812
 30
0.0
 10
207.5829900844833
 20
17.25579002731198
 30
0.0
 10
206.6414649530514
 20
15.85927905122269
 30
0.0
 10
204.8151615837455
 20
15.85927905122269
 30
0.0
  0
SPLINE
  5
3CA1E
102
{ACAD_REACTORS
330
3CA1C
102
}
330
2
100
AcDbEntity
  8
Layer 1
100
AcDbSpline
210
0.0
220
0.0
230
1.0
 70
     9
 71
     3
 72
    17
 73
    13
 74
     0
 42
0.000000001
 43
0.0000000001
 40
0.0
 40
0.0
 40
0.0
 40
0.0
 40
1.0
 40
1.0
 40
1.0
 40
2.0
 40
2.0
 40
2.0
 40
3.0
 40
3.0
 40
3.0
 40
4.0
 40
4.0
 40
4.0
 40
4.0
 10
206.2118944199746
 20
18.60184014713997
 30
0.0
 10
206.2118944199746
 20
19.25280244869843
 30
0.0
 10
205.8200894129321
 20
19.56237129722237
 30
0.0
 10
205.3651035682749
 20
19.56237129722237
 30
0.0
 10
204.4994310809788
 20
19.56237129722237
 30
0.0
 10
204.025314834617
 20
18.58296009629214
 30
0.0
 10
204.025314834617
 20
17.90046629157357
 30
0.0
 10
204.025314834617
 20
17.24326725497166
 30
0.0
 10
204.4298644741397
 20
16.93357515081436
 30
0.0
 10
204.8974716956439
 20
16.93357515081436
 30
0.0
 10
205.8328586965391
 20
16.93357515081436
 30
0.0
 10
206.2118944199746
 20
17.95102575234142
 30
0.0
 10
206.2118944199746
 20
18.60184014713997
 30
0.0
  0
HATCH
  5
3CA1F
330
2
100
AcDbEntity
  8
0
  6
Continuous
 62
     0
100
AcDbHatch
 10
0.0
 20
0.0
 30
0.0
210
0.0
220
0.0
230
0.9999999999999998
  2
SOLID
 70
     1
 71
     1
 91
        2
 92
        5
 93
        4
 72
     4
 94
        3
 73
     0
 74
     0
 95
        8
 96
        4
 40
0.0
 40
0.0
 40
0.0
 40
0.0
 40
1.0
 40
1.0
 40
1.0
 40
1.0
 10
207.7373061373386
 20
17.91298906391389
 10
207.7373061373386
 20
16.75036797752009
 10
208.5336361327772
 20
15.85927905122269
 10
209.9109931834562
 20
15.85927905122269
 97
        0
 72
     4
 94
        3
 73
     0
 74
     0
 95
        8
 96
        4
 40
3.0
 40
3.0
 40
3.0
 40
3.0
 40
4.0
 40
4.0
 40
4.0
 40
4.0
 10
209.9109931834562
 20
15.85927905122269
 10
211.7373212038889
 20
15.85927905122269
 10
212.6788463353208
 20
17.25579002731198
 10
212.6788463353208
 20
18.51962863974812
 97
        0
 72
     4
 94
        3
 73
     0
 74
     0
 95
        8
 96
        4
 40
2.0
 40
2.0
 40
2.0
 40
2.0
 40
3.0
 40
3.0
 40
3.0
 40
3.0
 10
212.6788463353208
 20
18.51962863974812
 10
212.6788463353208
 20
19.65084692993063
 10
211.8826149443888
 20
20.58608328491956
 10
210.4483137911387
 20
20.58608328491956
 97
        0
 72
     4
 94
        3
 73
     0
 74
     0
 95
        8
 96
        4
 40
1.0
 40
1.0
 40
1.0
 40
1.0
 40
2.0
 40
2.0
 40
2.0
 40
2.0
 10
210.4483137911387
 20
20.58608328491956
 10
208.6850680038143
 20
20.58608328491956
 10
207.7373061373386
 20
19.18308906252026
 10
207.7373061373386
 20
17.91298906391389
 97
        0
 97
        1
330
3CA21
 92
       20
 93
        4
 72
     4
 94
        3
 73
     0
 74
     0
 95
        8
 96
        4
 40
1.0
 40
1.0
 40
1.0
 40
1.0
 40
2.0
 40
2.0
 40
2.0
 40
2.0
 10
209.1212709341395
 20
17.90046629157357
 10
209.1212709341395
 20
18.58296009629214
 10
209.5951629487621
 20
19.56237129722237
 10
210.4605900522124
 20
19.56237129722237
 97
        0
 72
     4
 94
        3
 73
     0
 74
     0
 95
        8
 96
        4
 40
0.0
 40
0.0
 40
0.0
 40
0.0
 40
1.0
 40
1.0
 40
1.0
 40
1.0
 10
210.4605900522124
 20
19.56237129722237
 10
210.9158224081363
 20
19.56237129722237
 10
211.3076274151789
 20
19.25280244869843
 10
211.3076274151789
 20
18.60184014713997
 97
        0
 72
     4
 94
        3
 73
     0
 74
     0
 95
        8
 96
        4
 40
3.0
 40
3.0
 40
3.0
 40
3.0
 40
4.0
 40
4.0
 40
4.0
 40
4.0
 10
211.3076274151789
 20
18.60184014713997
 10
211.3076274151789
 20
17.95102575234142
 10
210.9283451804766
 20
16.93357515081436
 10
209.9930814352149
 20
16.93357515081436
 97
        0
 72
     4
 94
        3
 73
     0
 74
     0
 95
        8
 96
        4
 40
2.0
 40
2.0
 40
2.0
 40
2.0
 40
3.0
 40
3.0
 40
3.0
 40
3.0
 10
209.9930814352149
 20
16.93357515081436
 10
209.5254742137106
 20
16.93357515081436
 10
209.1212709341395
 20
17.24326725497166
 10
209.1212709341395
 20
17.90046629157357
 97
        0
 97
        1
330
3CA20
 75
     1
 76
     1
 47
0.0269459378258844
 98
        2
 10
209.0350586546765
 20
17.58907327767113
 10
209.0350586546765
 20
17.58907327767113
450
        0
451
        0
460
0.0
461
0.0
452
        0
462
1.0
453
        2
463
0.0
 63
     5
421
      255
463
1.0
 63
     2
421
 16776960
470
LINEAR
1001
GRADIENTCOLOR1ACI
1070
     5
1001
GRADIENTCOLOR2ACI
1070
     2
1001
ACAD
1010
0.0
1020
0.0
1030
0.0
  0
SPLINE
  5
3CA20
102
{ACAD_REACTORS
330
3CA1F
102
}
330
2
100
AcDbEntity
  8
Layer 1
100
AcDbSpline
210
0.0
220
0.0
230
1.0
 70
     9
 71
     3
 72
    17
 73
    13
 74
     0
 42
0.000000001
 43
0.0000000001
 40
0.0
 40
0.0
 40
0.0
 40
0.0
 40
1.0
 40
1.0
 40
1.0
 40
2.0
 40
2.0
 40
2.0
 40
3.0
 40
3.0
 40
3.0
 40
4.0
 40
4.0
 40
4.0
 40
4.0
 10
211.3076274151789
 20
18.60184014713997
 30
0.0
 10
211.3076274151789
 20
19.25280244869843
 30
0.0
 10
210.9158224081363
 20
19.56237129722237
 30
0.0
 10
210.4605900522124
 20
19.56237129722237
 30
0.0
 10
209.5951629487621
 20
19.56237129722237
 30
0.0
 10
209.1212709341395
 20
18.58296009629214
 30
0.0
 10
209.1212709341395
 20
17.90046629157357
 30
0.0
 10
209.1212709341395
 20
17.24326725497166
 30
0.0
 10
209.5254742137106
 20
16.93357515081436
 30
0.0
 10
209.9930814352149
 20
16.93357515081436
 30
0.0
 10
210.9283451804766
 20
16.93357515081436
 30
0.0
 10
211.3076274151789
 20
17.95102575234142
 30
0.0
 10
211.3076274151789
 20
18.60184014713997
 30
0.0
  0
SPLINE
  5
3CA21
102
{ACAD_REACTORS
330
3CA1F
102
}
330
2
100
AcDbEntity
  8
Layer 1
100
AcDbSpline
210
0.0
220
0.0
230
1.0
 70
     9
 71
     3
 72
    17
 73
    13
 74
     0
 42
0.000000001
 43
0.0000000001
 40
0.0
 40
0.0
 40
0.0
 40
0.0
 40
1.0
 40
1.0
 40
1.0
 40
2.0
 40
2.0
 40
2.0
 40
3.0
 40
3.0
 40
3.0
 40
4.0
 40
4.0
 40
4.0
 40
4.0
 10
209.9109931834562
 20
15.85927905122269
 30
0.0
 10
208.5336361327772
 20
15.85927905122269
 30
0.0
 10
207.7373061373386
 20
16.75036797752009
 30
0.0
 10
207.7373061373386
 20
17.91298906391389
 30
0.0
 10
207.7373061373386
 20
19.18308906252026
 30
0.0
 10
208.6850680038143
 20
20.58608328491956
 30
0.0
 10
210.4483137911387
 20
20.58608328491956
 30
0.0
 10
211.8826149443888
 20
20.58608328491956
 30
0.0
 10
212.6788463353208
 20
19.65084692993063
 30
0.0
 10
212.6788463353208
 20
18.51962863974812
 30
0.0
 10
212.6788463353208
 20
17.25579002731198
 30
0.0
 10
211.7373212038889
 20
15.85927905122269
 30
0.0
 10
209.9109931834562
 20
15.85927905122269
 30
0.0
  0
HATCH
  5
3CA22
330
2
100
AcDbEntity
  8
0
  6
Continuous
 62
     0
100
AcDbHatch
 10
0.0
 20
0.0
 30
0.0
210
0.0
220
0.0
230
0.9999999999999998
  2
SOLID
 70
     1
 71
     1
 91
        1
 92
        5
 93
        6
 72
     4
 94
        3
 73
     0
 74
     0
 95
        8
 96
        4
 40
4.0
 40
4.0
 40
4.0
 40
4.0
 40
5.0
 40
5.0
 40
5.0
 40
5.0
 10
214.046073141534
 20
17.02828477942
 10
214.046073141534
 20
17.02828477942
 10
214.9624281040627
 20
20.45346022351977
 10
214.9624281040627
 20
20.45346022351977
 97
        0
 72
     4
 94
        3
 73
     0
 74
     0
 95
        8
 96
        4
 40
3.0
 40
3.0
 40
3.0
 40
3.0
 40
4.0
 40
4.0
 40
4.0
 40
4.0
 10
214.9624281040627
 20
20.45346022351977
 10
214.9624281040627
 20
20.45346022351977
 10
213.5593106260301
 20
20.45346022351977
 10
213.5593106260301
 20
20.45346022351977
 97
        0
 72
     4
 94
        3
 73
     0
 74
     0
 95
        8
 96
        4
 40
2.0
 40
2.0
 40
2.0
 40
2.0
 40
3.0
 40
3.0
 40
3.0
 40
3.0
 10
213.5593106260301
 20
20.45346022351977
 10
213.5593106260301
 20
20.45346022351977
 10
212.3651607486456
 20
15.99205001938239
 10
212.3651607486456
 20
15.99205001938239
 97
        0
 72
     4
 94
        3
 73
     0
 74
     0
 95
        8
 96
        4
 40
1.0
 40
1.0
 40
1.0
 40
1.0
 40
2.0
 40
2.0
 40
2.0
 40
2.0
 10
212.3651607486456
 20
15.99205001938239
 10
212.3651607486456
 20
15.99205001938239
 10
215.2532388442878
 20
15.99205001938239
 10
215.2532388442878
 20
15.99205001938239
 97
        0
 72
     4
 94
        3
 73
     0
 74
     0
 95
        8
 96
        4
 40
0.0
 40
0.0
 40
0.0
 40
0.0
 40
1.0
 40
1.0
 40
1.0
 40
1.0
 10
215.2532388442878
 20
15.99205001938239
 10
215.2532388442878
 20
15.99205001938239
 10
215.5960360124568
 20
17.02828477942
 10
215.5960360124568
 20
17.02828477942
 97
        0
 72
     4
 94
        3
 73
     0
 74
     0
 95
        8
 96
        4
 40
5.0
 40
5.0
 40
5.0
 40
5.0
 40
6.0
 40
6.0
 40
6.0
 40
6.0
 10
215.5960360124568
 20
17.02828477942
 10
215.5960360124568
 20
17.02828477942
 10
214.046073141534
 20
17.02828477942
 10
214.046073141534
 20
17.02828477942
 97
        0
 97
        6
330
3CA27
330
3CA26
330
3CA25
330
3CA24
330
3CA23
330
3CA28
 75
     1
 76
     1
 47
0.0168242271866721
 98
        1
 10
213.6164004556548
 20
17.31931209824557
450
        0
451
        0
460
0.0
461
0.0
452
        0
462
1.0
453
        2
463
0.0
 63
     5
421
      255
463
1.0
 63
     2
421
 16776960
470
LINEAR
1001
GRADIENTCOLOR1ACI
1070
     5
1001
GRADIENTCOLOR2ACI
1070
     2
1001
ACAD
1010
0.0
1020
0.0
1030
0.0
  0
SPLINE
  5
3CA23
102
{ACAD_REACTORS
330
3CA22
102
}
330
2
100
AcDbEntity
  8
Layer 1
100
AcDbSpline
210
0.0
220
0.0
230
1.0
 70
    24
 71
     3
 72
     8
 73
     4
 74
     0
 42
0.000000001
 43
0.0000000001
 40
0.0
 40
0.0
 40
0.0
 40
0.0
 40
1.0
 40
1.0
 40
1.0
 40
1.0
 10
215.5960360124568
 20
17.02828477942
 30
0.0
 10
215.5960360124568
 20
17.02828477942
 30
0.0
 10
215.2532388442878
 20
15.99205001938239
 30
0.0
 10
215.2532388442878
 20
15.99205001938239
 30
0.0
  0
SPLINE
  5
3CA24
102
{ACAD_REACTORS
330
3CA22
102
}
330
2
100
AcDbEntity
  8
Layer 1
100
AcDbSpline
210
0.0
220
0.0
230
1.0
 70
    24
 71
     3
 72
     8
 73
     4
 74
     0
 42
0.000000001
 43
0.0000000001
 40
1.0
 40
1.0
 40
1.0
 40
1.0
 40
2.0
 40
2.0
 40
2.0
 40
2.0
 10
215.2532388442878
 20
15.99205001938239
 30
0.0
 10
215.2532388442878
 20
15.99205001938239
 30
0.0
 10
212.3651607486456
 20
15.99205001938239
 30
0.0
 10
212.3651607486456
 20
15.99205001938239
 30
0.0
  0
SPLINE
  5
3CA25
102
{ACAD_REACTORS
330
3CA22
102
}
330
2
100
AcDbEntity
  8
Layer 1
100
AcDbSpline
210
0.0
220
0.0
230
1.0
 70
    24
 71
     3
 72
     8
 73
     4
 74
     0
 42
0.000000001
 43
0.0000000001
 40
2.0
 40
2.0
 40
2.0
 40
2.0
 40
3.0
 40
3.0
 40
3.0
 40
3.0
 10
212.3651607486456
 20
15.99205001938239
 30
0.0
 10
212.3651607486456
 20
15.99205001938239
 30
0.0
 10
213.5593106260301
 20
20.45346022351977
 30
0.0
 10
213.5593106260301
 20
20.45346022351977
 30
0.0
  0
SPLINE
  5
3CA26
102
{ACAD_REACTORS
330
3CA22
102
}
330
2
100
AcDbEntity
  8
Layer 1
100
AcDbSpline
210
0.0
220
0.0
230
1.0
 70
    24
 71
     3
 72
     8
 73
     4
 74
     0
 42
0.000000001
 43
0.0000000001
 40
3.0
 40
3.0
 40
3.0
 40
3.0
 40
4.0
 40
4.0
 40
4.0
 40
4.0
 10
213.5593106260301
 20
20.45346022351977
 30
0.0
 10
213.5593106260301
 20
20.45346022351977
 30
0.0
 10
214.9624281040627
 20
20.45346022351977
 30
0.0
 10
214.9624281040627
 20
20.45346022351977
 30
0.0
  0
SPLINE
  5
3CA27
102
{ACAD_REACTORS
330
3CA22
102
}
330
2
100
AcDbEntity
  8
Layer 1
100
AcDbSpline
210
0.0
220
0.0
230
1.0
 70
    24
 71
     3
 72
     8
 73
     4
 74
     0
 42
0.000000001
 43
0.0000000001
 40
4.0
 40
4.0
 40
4.0
 40
4.0
 40
5.0
 40
5.0
 40
5.0
 40
5.0
 10
214.9624281040627
 20
20.45346022351977
 30
0.0
 10
214.9624281040627
 20
20.45346022351977
 30
0.0
 10
214.046073141534
 20
17.02828477942
 30
0.0
 10
214.046073141534
 20
17.02828477942
 30
0.0
  0
SPLINE
  5
3CA28
102
{ACAD_REACTORS
330
3CA22
102
}
330
2
100
AcDbEntity
  8
Layer 1
100
AcDbSpline
210
0.0
220
0.0
230
1.0
 70
    24
 71
     3
 72
     8
 73
     4
 74
     0
 42
0.000000001
 43
0.0000000001
 40
5.0
 40
5.0
 40
5.0
 40
5.0
 40
6.0
 40
6.0
 40
6.0
 40
6.0
 10
214.046073141534
 20
17.02828477942
 30
0.0
 10
214.046073141534
 20
17.02828477942
 30
0.0
 10
215.5960360124568
 20
17.02828477942
 30
0.0
 10
215.5960360124568
 20
17.02828477942
 30
0.0
  0
TEXT
  5
3CA29
330
2
100
AcDbEntity
  8
0
 62
     2
100
AcDbText
 10
185.8372258017363
 20
10.74674747563917
 30
0.0
 40
2.179541363999999
  1
www.maritool.com
  7
굴림
100
AcDbText
  0
TEXT
  5
3CA2A
330
2
100
AcDbEntity
  8
0
 62
     2
100
AcDbText
 10
170.9359365869521
 20
3.446091305514248
 30
0.0
 40
1.743633091199999
  1
ITEM#
  7
굴림
100
AcDbText
  0
TEXT
  5
3CA2B
330
2
100
AcDbEntity
  8
0
 62
     2
100
AcDbText
 10
183.6903497557854
 20
3.031808946540651
 30
0.0
 40
2.615449636799999
  1
MG25-.250
  7
굴림
100
AcDbText
  0
DIMENSION
  5
45221
330
2
100
AcDbEntity
  8
0
  6
Continuous
 62
     7
100
AcDbDimension
280
     0
  2
*D0
 10
175.8798372916349
 20
107.9902891127553
 30
0.0
 11
185.8548372916349
 21
110.1152891127553
 31
0.0
 70
    32
  1
3-.04
 71
     5
 42
1.000000000000454
 73
     0
 74
     0
 75
     0
  3
사본 ISO-25
100
AcDbAlignedDimension
 13
174.8798372916344
 23
101.4334542191391
 33
0.0
 14
175.8798372916349
 24
101.4334542191391
 34
0.0
100
AcDbRotatedDimension
1001
ACAD
1000
DSTYLE
1002
{
1070
   140
1040
3.0
1070
    90
1070
     1
1070
   179
1070
     0
1002
}
  0
DIMENSION
  5
4527A
330
2
100
AcDbEntity
  8
0
  6
Continuous
 62
     7
100
AcDbDimension
280
     0
  2
*D1
 10
133.0427391007492
 20
68.44103171666756
 30
0.0
 11
130.9174438251586
 21
84.94103171666804
 31
0.0
 70
    32
  1
%%c1.299
 71
     5
 42
33.00000000000091
 73
     0
 74
     0
 75
     0
  3
Standard$0
100
AcDbAlignedDimension
 13
110.3940871554659
 23
101.4410317166684
 33
0.0
 14
110.3940871554659
 24
68.44103171666756
 34
0.0
 50
90.0
100
AcDbRotatedDimension
1001
ACAD
1000
DSTYLE
1002
{
1070
   171
1070
     3
1070
   143
1040
0.03937007874016
1070
   274
1070
     3
1070
   141
1040
-0.5
1070
    43
1040
3.75
1070
    44
1040
1.25
1070
    42
1040
0.625
1070
   147
1040
0.625
1070
   371
1070
    -1
1070
   372
1070
    -1
1070
   175
1070
     0
1070
    77
1070
     1
1070
   146
1040
0.7
1070
    48
1040
0.000000001
1070
   172
1070
     1
1070
    74
1070
     0
1070
   283
1070
     0
1070
   340
1005
25
1070
   140
1040
3.0
1070
   284
1070
     8
1070
    90
1070
     1
1002
}
  0
DIMENSION
  5
4527C
330
2
100
AcDbEntity
  8
0
  6
Continuous
 62
     7
100
AcDbDimension
280
     0
  2
*D2
 10
125.0427391007493
 20
79.38478171666838
 30
0.0
 11
125.0427391007492
 21
81.88478171666838
 31
0.0
 70
   160
  1
%%C.250
 71
     5
 42
8.731249999999818
 73
     0
 74
     0
 75
     0
  3
Standard$0
100
AcDbAlignedDimension
 13
111.3507114824922
 23
88.11603171666821
 33
0.0
 14
111.3310962402215
 24
79.38478171666838
 34
0.0
 50
90.0
100
AcDbRotatedDimension
1001
ACAD
1000
DSTYLE
1002
{
1070
    76
1070
     1
1070
   282
1070
     1
1070
   171
1070
     3
1070
   143
1040
0.03937007874016
1070
   274
1070
     3
1070
   141
1040
-0.5
1070
    43
1040
3.75
1070
    44
1040
1.25
1070
    42
1040
0.625
1070
   147
1040
0.625
1070
   371
1070
    -1
1070
   372
1070
    -1
1070
   175
1070
     0
1070
    77
1070
     1
1070
   146
1040
0.7
1070
    48
1040
0.000000001
1070
   172
1070
     1
1070
    74
1070
     0
1070
   283
1070
     0
1070
   340
1005
25
1070
   140
1040
3.0
1070
   284
1070
     8
1070
    90
1070
     1
1002
}
  0
LINE
  5
4552E
330
2
100
AcDbEntity
  8
0
  6
Continuous
 62
     3
100
AcDbLine
 10
105.8507114824924
 20
70.61603171666866
 30
0.0
 11
105.8507114824924
 21
44.61897018099898
 31
0.0
  0
MTEXT
  5
4552F
330
2
100
AcDbEntity
  8
0
  6
Continuous
 62
     2
100
AcDbMText
 10
105.85124565164
 20
42.17015507720316
 30
0.0
 40
3.0
 41
0.0
 46
0.0
 71
     5
 72
     1
  1
0.00
 73
     1
 44
1.0
  0
LINE
  5
45533
330
2
100
AcDbEntity
  8
0
  6
Continuous
 62
     3
100
AcDbLine
 10
111.8507114824924
 20
70.5160317166683
 30
0.0
 11
111.8507114824924
 21
62.28604235842976
 31
0.0
  0
LINE
  5
45534
330
2
100
AcDbEntity
  8
0
  6
Continuous
 62
     3
100
AcDbLine
 10
111.8507114824924
 20
62.28604235842976
 30
0.0
 11
120.28346374241
 21
57.28604235842976
 31
0.0
  0
LINE
  5
45535
330
2
100
AcDbEntity
  8
0
  6
Continuous
 62
     3
100
AcDbLine
 10
120.28346374241
 20
57.28604235842976
 30
0.0
 11
120.28346374241
 21
44.61897018099898
 31
0.0
  0
MTEXT
  5
45536
330
2
100
AcDbEntity
  8
0
  6
Continuous
 62
     2
100
AcDbMText
 10
120.2280069722835
 20
42.13752592048968
 30
0.0
 40
3.0
 41
0.0
 46
0.0
 71
     5
 72
     1
  1
0.236
 73
     1
 44
1.0
  0
LINE
  5
45538
330
2
100
AcDbEntity
  8
0
  6
Continuous
 62
     3
100
AcDbLine
 10
51.35071148249244
 20
72.25229078285565
 30
0.0
 11
51.35071148249244
 21
44.61897018099898
 31
0.0
  0
MTEXT
  5
45539
330
2
100
AcDbEntity
  8
0
  6
Continuous
 62
     2
100
AcDbMText
 10
51.35124565164005
 20
42.17015507720316
 30
0.0
 40
3.0
 41
0.0
 46
0.0
 71
     5
 72
     1
  1
2.146
 73
     1
 44
1.0
  0
DIMENSION
  5
45589
330
2
100
AcDbEntity
  8
0
  6
Continuous
 62
     7
100
AcDbDimension
280
     0
  2
*D3
 10
39.35135239926285
 20
96.89103171666852
 30
0.0
 11
37.22635239926284
 21
84.94103171666848
 31
0.0
 70
    32
  1
%%C.941
 71
     5
 42
23.90000000000009
 73
     0
 74
     0
 75
     0
  3
Standard$0
100
AcDbAlignedDimension
 13
51.65071148249353
 23
72.99103171666843
 33
0.0
 14
51.65071148249353
 24
96.89103171666852
 34
0.0
 50
90.0
100
AcDbRotatedDimension
1001
ACAD
1000
DSTYLE
1002
{
1070
    42
1040
0.625
1070
    43
1040
3.75
1070
    44
1040
1.25
1070
    48
1040
0.000000001
1070
    74
1070
     0
1070
    77
1070
     1
1070
    90
1070
     1
1070
   140
1040
3.0
1070
   141
1040
-0.5
1070
   143
1040
0.03937007874016
1070
   146
1040
0.7
1070
   147
1040
0.625
1070
   171
1070
     3
1070
   172
1070
     1
1070
   175
1070
     0
1070
   179
1070
     0
1070
   274
1070
     3
1070
   283
1070
     0
1070
   284
1070
     8
1070
   340
1005
25
1070
   371
1070
    -1
1070
   372
1070
    -1
1002
}
  0
MULTILEADER
  5
45790
330
2
100
AcDbEntity
  8
0
  6
Continuous
 62
     7
160
               688
310
B0020000180000000C00000016000000020000C30C00000033000000000000000C00000013000000993A00000C00000016000000020000C3D4000000260000000809401825D252405846FA4BD1085D40000000000000000000000000000000000000000000000000000000000000F03F000000000000F03F00000000000000
310
0000000000000000004D00470032003500200054004100500045005200000072000A000000010000000000000000000440000000000000F03F0000000000000000000000000000F03F0000000000000000000000000000000000000000000000000000000001000000000000000000000072006F006D0061006E0073002E00
310
73006800780000002900000000000C00000033000000000000000C00000010000000000000000C00000016000000030000C30C00000012000000000000000C00000013000000010000000C00000014000000010000005400000007000000030000006B935C303976544016C6131E12EE58400000000000000000601FB4F071
310
A65440B878C7843253584000000000000000001C1AC5CA994654403703084D0FD6584000000000000000000C0000001300000089130000540000000600000003000000C4D6907D695E5440A6E48DB510E258400000000000000000F062E1903E1E52405846FA4BD1585D400000000000000000F082DEFF9EB052405846FA4B
310
D1585D4000000000000000000C00000013000000112700003C0000000600000002000000F082DEFF9EB052405846FA4BD1585D400000000000000000F082DEFF9ED052405846FA4BD1585D4000000000000000000C00000016000000030000C30C00000012000000000000000C00000017000000000000000C000000130000
310
009A3A00000C00000016000000070000C30C00000012000000000000000C00000017000000FFFFFFFF0C0000003300000000000000
100
AcDbMLeader
270
     2
300
CONTEXT_DATA{
 40
1.0
 10
75.25970455865513
 20
117.3877744621362
 30
0.0
 41
2.5
140
2.5
145
0.5
174
     2
175
     2
176
     0
177
     1
290
     1
304
MG25 TAPER
 11
0.0
 21
0.0
 31
1.0
340
35
 12
75.75970455865513
 22
118.6377744621362
 32
0.0
 13
1.0
 23
0.0
 33
0.0
 42
0.0
 43
0.0
 44
0.0
 45
1.0
170
     1
 90
-1023410174
171
     1
172
     5
 91
-1073741824
141
0.0
 92
        0
291
     0
292
     0
173
     0
293
     0
142
0.0
143
0.0
294
     0
295
     0
296
     0
110
71.89226451368881
120
159.4545996455925
130
0.0
111
1.0
121
0.0
131
0.0
112
0.0
122
1.0
132
0.0
297
     0
302
LEADER{
290
     1
291
     1
 10
74.75970455865513
 20
117.3877744621362
 30
0.0
 11
1.0
 21
0.0
 31
0.0
 90
        0
 40
0.5
304
LEADER_LINE{
 10
82.60070436086744
 20
97.29995841483731
 30
0.0
 10
72.4725687218704
 20
117.3877744621362
 30
0.0
 91
        0
305
}
271
     0
303
}
272
     9
273
     9
301
}
340
BD9
 90
   279552
170
     1
 91
-1023410173
341
28
171
    -1
290
     1
291
     1
 41
0.5
 42
2.5
172
     2
343
35
173
     2
 95
        2
174
     1
175
     0
 92
-1023410174
292
     0
 93
-1023410174
 10
1.0
 20
1.0
 30
1.0
 43
0.0
176
     1
293
     0
294
     0
178
     0
179
     1
 45
1.0
271
     0
272
     9
273
     9
295
     0
  0
LINE
  5
4868D
330
2
100
AcDbEntity
  8
0
  6
CENTER
 62
     3
100
AcDbLine
 10
49.35071148249244
 20
84.94103171666848
 30
0.0
 11
113.8507114824924
 21
84.94103171666848
 31
0.0
  0
HATCH
  5
4868E
330
2
100
AcDbEntity
  8
0
  6
Continuous
 62
     4
100
AcDbHatch
 10
0.0
 20
0.0
 30
0.0
210
0.0
220
0.0
230
1.0
  2
ANSI31
 70
     0
 71
     0
 91
        4
 92
        5
 93
       13
 72
     2
 10
96.05762344267828
 20
123.1593715121394
 40
37.4999999999999
 50
130.7212504794475
 51
136.2590115644582
 73
     0
 72
     1
 10
68.96489661836949
 20
97.23189278351288
 11
61.35069723924175
 21
97.193885113006
 72
     1
 10
61.35069723924175
 20
97.193885113006
 11
61.0478438429036
 21
96.89103171666852
 72
     1
 10
61.0478438429036
 20
96.89103171666852
 11
51.65071148249353
 21
96.89103171666852
 72
     2
 10
51.65071148249353
 20
96.59103171666856
 40
0.2999999999999545
 50
90.0
 51
180.0
 73
     1
 72
     1
 10
51.35071148249358
 20
96.59103171666856
 11
51.35071148249358
 21
96.04103171666634
 72
     1
 10
51.35071148249358
 20
96.04103171666634
 11
51.45071148249144
 21
95.94103171666848
 72
     1
 10
51.45071148249144
 20
95.94103171666848
 11
56.85071148249244
 21
95.94103171666848
 72
     1
 10
56.85071148249244
 20
95.94103171666848
 11
56.85071148249244
 21
96.09103171666811
 72
     1
 10
56.85071148249244
 20
96.09103171666811
 11
58.8507114824929
 21
96.09103171666811
 72
     1
 10
58.8507114824929
 20
96.09103171666811
 11
63.75071148249185
 21
91.19103171666848
 72
     1
 10
63.75071148249185
 20
91.19103171666848
 11
69.90486253108134
 21
91.19103171666848
 72
     3
 10
59.95201941479627
 20
95.25000385755584
 11
-11.66662463010834
 21
0.0
 40
0.6668310972524685
 50
157.8133644130739
 51
177.4836660307012
 73
     1
 97
        0
 92
       23
 72
     0
 73
     1
 93
        4
 10
56.85071148249244
 20
95.94103171666848
 10
51.45071148249144
 20
95.94103171666848
 10
51.90071148249171
 20
95.49103171666866
 10
56.85071148249244
 20
95.49103171666866
 97
        0
 92
        5
 93
        7
 72
     3
 10
59.95201941479627
 20
95.25000385755584
 11
-11.66662463010834
 21
0.0
 40
0.6668310972524685
 50
182.5163339692987
 51
202.186635586926
 73
     0
 72
     1
 10
69.90486253108134
 20
91.19103171666848
 11
73.35071148249426
 21
91.19103171666848
 72
     1
 10
73.35071148249426
 20
91.19103171666848
 11
74.93842472276515
 21
88.44103171666848
 72
     1
 10
74.93842472276515
 20
88.44103171666848
 11
78.35071148249335
 21
88.44103171666848
 72
     1
 10
78.35071148249335
 20
88.44103171666848
 11
78.53835031998006
 21
88.11603171666821
 72
     1
 10
78.53835031998006
 20
88.11603171666821
 11
82.70792921475139
 21
88.11603171666821
 72
     2
 10
96.05762344267805
 20
123.1593715121394
 40
37.49999999999991
 50
110.8542445794052
 51
130.7212504794472
 73
     0
 97
        0
 92
        7
 72
     1
 73
     1
 93
        4
 10
111.8507114824924
 20
89.14719177948109
 42
-0.0176859833192203
 10
109.4073176706047
 20
88.11603171666821
 42
0.0
 10
111.3507114824931
 20
88.11603171666821
 42
0.0
 10
111.8507114824924
 20
88.40470685126296
 42
0.0
 97
        0
 75
     1
 76
     1
 52
0.0
 41
1.0
 77
     0
 78
     1
 53
45.0
 43
-1418.043514495299
 44
-1520.579758114905
 45
-2.245064030267287
 46
2.245064030267288
 79
     0
 47
0.0135871798808972
 98
        4
 10
68.05286600060208
 20
94.73237708484703
 10
55.66020979812129
 20
95.69243592280509
 10
75.4487932461343
 20
90.49288958932356
 10
111.0413679015127
 20
88.41561264567008
1001
GRADIENTCOLOR1ACI
1070
     5
1001
GRADIENTCOLOR2ACI
1070
     2
1001
ACAD
1010
0.0
1020
0.0
1030
0.0
  0
LINE
  5
4868F
330
2
100
AcDbEntity
  8
0
 62
     0
100
AcDbLine
 10
74.93842472276515
 20
88.44103171666848
 30
0.0
 11
78.35071148249335
 21
88.44103171666848
 31
0.0
  0
LINE
  5
48690
330
2
100
AcDbEntity
  8
0
  6
Continuous
 62
     7
100
AcDbLine
 10
111.8507114824924
 20
84.94103171666848
 30
0.0
 11
111.8507114824924
 21
98.94103171666849
 31
0.0
  0
LINE
  5
48691
330
2
100
AcDbEntity
  8
0
  6
Continuous
 62
     7
100
AcDbLine
 10
110.4073358095184
 20
101.4410317166684
 30
0.0
 11
109.2940871554674
 21
101.4410317166684
 31
0.0
  0
LINE
  5
48693
330
2
100
AcDbEntity
  8
0
  6
Continuous
 62
     7
100
AcDbLine
 10
105.8507114824924
 20
98.6410317166683
 30
0.0
 11
105.8507114824924
 21
97.64603171666841
 31
0.0
  0
LINE
  5
48694
330
2
100
AcDbEntity
  8
0
  6
Continuous
 62
     7
100
AcDbLine
 10
106.1507114824935
 20
98.94103171666849
 30
0.0
 11
107.6197713748179
 21
98.94103171666849
 31
0.0
  0
LINE
  5
48695
330
2
100
AcDbEntity
  8
0
  6
Continuous
 62
     7
100
AcDbLine
 10
107.9661815363315
 20
99.1410317166683
 30
0.0
 11
109.2940871554674
 21
101.4410317166684
 31
0.0
  0
LINE
  5
48696
330
2
100
AcDbEntity
  8
0
  6
Continuous
 62
     7
100
AcDbLine
 10
111.8507114824924
 20
98.94103171666849
 30
0.0
 11
110.4073358095184
 21
101.4410317166684
 31
0.0
  0
LINE
  5
48697
330
2
100
AcDbEntity
  8
0
  6
Continuous
 62
     7
100
AcDbLine
 10
105.4507114824928
 20
97.24603171666831
 30
0.0
 11
104.1278396117041
 21
97.24603171666831
 31
0.0
  0
LINE
  5
48698
330
2
100
AcDbEntity
  8
0
  6
Continuous
 62
     7
100
AcDbLine
 10
105.8507114824924
 20
98.6410317166683
 30
0.0
 11
106.1507114824926
 21
98.94103171666849
 31
0.0
  0
ARC
  5
48699
330
2
100
AcDbEntity
  8
0
  6
Continuous
 62
     7
100
AcDbCircle
 10
105.4507114824928
 20
97.64603171666841
 30
0.0
 40
0.4000000000000002
100
AcDbArc
 50
270.0
 51
0.0
  0
ARC
  5
4869A
330
2
100
AcDbEntity
  8
0
  6
Continuous
 62
     7
100
AcDbCircle
 10
107.6197713748179
 20
99.34103171666812
 30
0.0
 40
0.3999999999999998
100
AcDbArc
 50
270.0
 51
330.0000000000433
  0
LINE
  5
4869B
330
2
100
AcDbEntity
  8
0
  6
Continuous
 62
     7
100
AcDbLine
 10
51.35071148249335
 20
84.94103171666848
 30
0.0
 11
51.35071148249335
 21
96.59103171666856
 31
0.0
  0
LINE
  5
4869C
330
2
100
AcDbEntity
  8
0
  6
Continuous
 62
     7
100
AcDbLine
 10
110.4073358095184
 20
68.44103171666848
 30
0.0
 11
109.2940871554674
 21
68.44103171666848
 31
0.0
  0
LINE
  5
4869D
330
2
100
AcDbEntity
  8
0
  6
Continuous
 62
     7
100
AcDbLine
 10
105.8507114824924
 20
71.24103171666866
 30
0.0
 11
105.8507114824924
 21
84.94103171666848
 31
0.0
  0
LINE
  5
4869E
330
2
100
AcDbEntity
  8
0
  6
Continuous
 62
     7
100
AcDbLine
 10
107.8507114824924
 20
84.94103171666848
 30
0.0
 11
107.8507114824924
 21
78.38999113615546
 31
0.0
  0
LINE
  5
4869F
330
2
100
AcDbEntity
  8
0
  6
Continuous
 62
     7
100
AcDbLine
 10
106.1507114824935
 20
70.94103171666848
 30
0.0
 11
107.6197713748179
 21
70.94103171666848
 31
0.0
  0
LINE
  5
486A0
330
2
100
AcDbEntity
  8
0
  6
Continuous
 62
     7
100
AcDbLine
 10
109.2940871554665
 20
84.94103171666848
 30
0.0
 11
109.2940871554665
 21
77.12783316732566
 31
0.0
  0
LINE
  5
486A1
330
2
100
AcDbEntity
  8
0
  6
Continuous
 62
     7
100
AcDbLine
 10
107.9661815363315
 20
70.7410317166682
 30
0.0
 11
109.2940871554674
 21
68.44103171666848
 31
0.0
  0
LINE
  5
486A2
330
2
100
AcDbEntity
  8
0
  6
Continuous
 62
     7
100
AcDbLine
 10
103.8507114824924
 20
84.94103171666848
 30
0.0
 11
103.8507114824924
 21
79.12904642016201
 31
0.0
  0
LINE
  5
486A3
330
2
100
AcDbEntity
  8
0
  6
Continuous
 62
     7
100
AcDbLine
 10
105.4507114824928
 20
72.63603171666819
 30
0.0
 11
104.1278396117041
 21
72.63603171666819
 31
0.0
  0
LINE
  5
486A4
330
2
100
AcDbEntity
  8
0
  6
Continuous
 62
     7
100
AcDbLine
 10
103.8507114824924
 20
72.47603171666833
 30
0.0
 11
104.1278396117041
 21
72.63603171666819
 31
0.0
  0
LINE
  5
486A5
330
2
100
AcDbEntity
  8
0
  6
Continuous
 62
     7
100
AcDbLine
 10
104.1278396117041
 20
72.63603171666819
 30
0.0
 11
104.1278396117041
 21
78.26302101637702
 31
0.0
  0
LINE
  5
486A6
330
2
100
AcDbEntity
  8
0
  6
Continuous
 62
     7
100
AcDbLine
 10
105.8507114824924
 20
71.24103171666866
 30
0.0
 11
106.1507114824926
 21
70.94103171666848
 31
0.0
  0
LINE
  5
486A7
330
2
100
AcDbEntity
  8
0
  6
Continuous
 62
     4
100
AcDbLine
 10
106.1507114824935
 20
70.94103171666848
 30
0.0
 11
106.1507114824935
 21
77.52396573237092
 31
0.0
  0
ARC
  5
486A8
330
2
100
AcDbEntity
  8
0
  6
Continuous
 62
     7
100
AcDbCircle
 10
105.4507114824928
 20
72.23603171666855
 30
0.0
 40
0.4000000000000002
100
AcDbArc
 50
0.0
 51
90.0
  0
ARC
  5
486A9
330
2
100
AcDbEntity
  8
0
  6
Continuous
 62
     7
100
AcDbCircle
 10
107.6197713748179
 20
70.54103171666838
 30
0.0
 40
0.3999999999999998
100
AcDbArc
 50
30.00000000004278
 51
90.0
  0
LINE
  5
486AA
330
2
100
AcDbEntity
  8
0
  6
Continuous
 62
     7
100
AcDbLine
 10
51.35071148249244
 20
84.94103171666848
 30
0.0
 11
51.35071148249244
 21
73.29103171666838
 31
0.0
  0
LINE
  5
486AB
330
2
100
AcDbEntity
  8
0
  6
Continuous
 62
     7
100
AcDbLine
 10
111.3507114824933
 20
88.11603171666821
 30
0.0
 11
78.53835031998006
 21
88.11603171666821
 31
0.0
  0
LINE
  5
486AC
330
2
100
AcDbEntity
  8
0
  6
Continuous
 62
     3
100
AcDbLine
 10
51.4507114824919
 20
95.94103171666848
 30
0.0
 11
56.85071148249244
 21
95.94103171666848
 31
0.0
  0
LINE
  5
486AD
330
2
100
AcDbEntity
  8
0
  6
Continuous
 62
     7
100
AcDbLine
 10
58.85071148249335
 20
96.09103171666767
 30
0.0
 11
63.75071148249185
 21
91.19103171666848
 31
0.0
  0
LINE
  5
486AE
330
2
100
AcDbEntity
  8
0
  6
Continuous
 62
     7
100
AcDbLine
 10
51.90071148249171
 20
95.49103171666866
 30
0.0
 11
56.85071148249244
 21
95.49103171666866
 31
0.0
  0
LINE
  5
486AF
330
2
100
AcDbEntity
  8
0
  6
Continuous
 62
     7
100
AcDbLine
 10
58.85071148249244
 20
96.09103171666811
 30
0.0
 11
56.85071148249244
 21
96.09103171666811
 31
0.0
  0
LINE
  5
486B0
330
2
100
AcDbEntity
  8
0
  6
Continuous
 62
     7
100
AcDbLine
 10
58.85071148249244
 20
96.09103171666811
 30
0.0
 11
58.85071148249244
 21
84.94103171666848
 31
0.0
  0
LINE
  5
486B1
330
2
100
AcDbEntity
  8
0
  6
Continuous
 62
     7
100
AcDbLine
 10
56.85071148249244
 20
96.09103171666811
 30
0.0
 11
56.85071148249244
 21
84.94103171666848
 31
0.0
  0
LINE
  5
486B2
330
2
100
AcDbEntity
  8
0
  6
Continuous
 62
     7
100
AcDbLine
 10
51.90071148249171
 20
95.49103171666866
 30
0.0
 11
51.90071148249171
 21
84.94103171666848
 31
0.0
  0
ARC
  5
486B3
330
2
100
AcDbEntity
  8
0
  6
Continuous
 62
     7
100
AcDbCircle
 10
175.3798372916344
 20
84.94103171666848
 30
0.0
 40
13.97705265804967
100
AcDbArc
 50
92.05007479798284
 51
207.9499252020349
  0
ARC
  5
486B4
330
2
100
AcDbEntity
  8
0
  6
Continuous
 62
     7
100
AcDbCircle
 10
175.3798372916344
 20
84.94103171666848
 30
0.0
 40
16.5
100
AcDbArc
 50
91.73650157593632
 51
208.2634984240654
  0
LINE
  5
486B5
330
2
100
AcDbEntity
  8
0
  6
Continuous
 62
     7
100
AcDbLine
 10
175.3798372916344
 20
89.14719177948109
 30
0.0
 11
175.8798372916344
 21
89.14719177948109
 31
0.0
  0
LINE
  5
486B6
330
2
100
AcDbEntity
  8
0
  6
Continuous
 62
     3
100
AcDbLine
 10
174.8798372916344
 20
84.94103171666848
 30
0.0
 11
175.8798372916344
 21
84.94103171666848
 31
0.0
  0
LINE
  5
486B7
330
2
100
AcDbEntity
  8
0
  6
Continuous
 62
     3
100
AcDbLine
 10
175.3798372916344
 20
84.44103171666847
 30
0.0
 11
175.3798372916344
 21
85.44103171666847
 31
0.0
  0
LINE
  5
486B8
330
2
100
AcDbEntity
  8
0
  6
Continuous
 62
     3
100
AcDbLine
 10
176.3798372916344
 20
84.94103171666848
 30
0.0
 11
192.3798372916344
 21
84.94103171666848
 31
0.0
  0
LINE
  5
486B9
330
2
100
AcDbEntity
  8
0
  6
Continuous
 62
     3
100
AcDbLine
 10
174.3798372916344
 20
84.94103171666848
 30
0.0
 11
158.3798372916344
 21
84.94103171666848
 31
0.0
  0
LINE
  5
486BA
330
2
100
AcDbEntity
  8
0
  6
Continuous
 62
     3
100
AcDbLine
 10
175.3798372916344
 20
85.94103171666848
 30
0.0
 11
175.3798372916344
 21
101.9410317166685
 31
0.0
  0
LINE
  5
486BB
330
2
100
AcDbEntity
  8
0
  6
Continuous
 62
     3
100
AcDbLine
 10
175.3798372916344
 20
83.94103171666847
 30
0.0
 11
175.3798372916344
 21
67.94103171666847
 31
0.0
  0
LINE
  5
486BC
330
2
100
AcDbEntity
  8
0
  6
Continuous
 62
     7
100
AcDbLine
 10
175.8798372916344
 20
89.14719177948109
 30
0.0
 11
175.8798372916344
 21
101.4334542191391
 31
0.0
  0
LINE
  5
486BD
330
2
100
AcDbEntity
  8
0
  6
Continuous
 62
     7
100
AcDbLine
 10
174.8798372916344
 20
89.14719177948109
 30
0.0
 11
174.8798372916344
 21
101.4334542191391
 31
0.0
  0
LINE
  5
486BE
330
2
100
AcDbEntity
  8
0
  6
Continuous
 62
     7
100
AcDbLine
 10
175.3798372916344
 20
89.14719177948109
 30
0.0
 11
174.8798372916344
 21
89.14719177948109
 31
0.0
  0
LINE
  5
486BF
330
2
100
AcDbEntity
  8
0
  6
Continuous
 62
     7
100
AcDbLine
 10
171.737195824855
 20
82.83795168526216
 30
0.0
 11
171.487195824855
 21
83.2709643871542
 31
0.0
  0
LINE
  5
486C0
330
2
100
AcDbEntity
  8
0
  6
Continuous
 62
     7
100
AcDbLine
 10
171.487195824855
 20
83.2709643871542
 30
0.0
 11
160.8469804345486
 21
77.12783316732475
 31
0.0
  0
LINE
  5
486C1
330
2
100
AcDbEntity
  8
0
  6
Continuous
 62
     7
100
AcDbLine
 10
171.987195824855
 20
82.40493898337012
 30
0.0
 11
161.3469804345486
 21
76.26180776354067
 31
0.0
  0
LINE
  5
486C2
330
2
100
AcDbEntity
  8
0
  6
Continuous
 62
     7
100
AcDbLine
 10
171.737195824855
 20
82.83795168526216
 30
0.0
 11
171.987195824855
 21
82.40493898337012
 31
0.0
  0
LINE
  5
486C3
330
2
100
AcDbEntity
  8
0
  6
Continuous
 62
     7
100
AcDbLine
 10
179.0224787584138
 20
82.83795168526285
 30
0.0
 11
178.7724787584138
 21
82.40493898336991
 31
0.0
  0
LINE
  5
486C4
330
2
100
AcDbEntity
  8
0
  6
Continuous
 62
     7
100
AcDbLine
 10
178.7724787584138
 20
82.40493898336991
 30
0.0
 11
189.4126941487202
 21
76.26180776354067
 31
0.0
  0
LINE
  5
486C5
330
2
100
AcDbEntity
  8
0
  6
Continuous
 62
     7
100
AcDbLine
 10
179.2724787584138
 20
83.27096438715489
 30
0.0
 11
189.9126941487202
 21
77.12783316732475
 31
0.0
  0
LINE
  5
486C6
330
2
100
AcDbEntity
  8
0
  6
Continuous
 62
     7
100
AcDbLine
 10
179.0224787584138
 20
82.83795168526285
 30
0.0
 11
179.2724787584138
 21
83.27096438715489
 31
0.0
  0
LINE
  5
486C7
330
2
100
AcDbEntity
  8
0
  6
Continuous
 62
     3
100
AcDbLine
 10
174.5138118878503
 20
84.44103171666847
 30
0.0
 11
160.6574054272996
 21
76.44103171666848
 31
0.0
  0
LINE
  5
486C8
330
2
100
AcDbEntity
  8
0
  6
Continuous
 62
     3
100
AcDbLine
 10
176.2458626954203
 20
84.44103171666847
 30
0.0
 11
190.102269155971
 21
76.44103171666848
 31
0.0
  0
LINE
  5
486C9
330
2
100
AcDbEntity
  8
0
  6
Continuous
 62
     7
100
AcDbLine
 10
111.8507114824924
 20
88.40470685126296
 30
0.0
 11
111.3507114824924
 21
88.11603171666774
 31
0.0
  0
LINE
  5
486CA
330
2
100
AcDbEntity
  8
0
  6
Continuous
 62
     7
100
AcDbLine
 10
111.3507114824922
 20
88.11603171666821
 30
0.0
 11
111.3507114824924
 21
84.94103171666848
 31
0.0
  0
ARC
  5
486CB
330
2
100
AcDbEntity
  8
0
  6
Continuous
 62
     7
100
AcDbCircle
 10
175.3798372916344
 20
84.94103171666848
 30
0.0
 40
16.5
100
AcDbArc
 50
211.7365015759545
 51
328.2634984240454
  0
ARC
  5
486CC
330
2
100
AcDbEntity
  8
0
  6
Continuous
 62
     7
100
AcDbCircle
 10
175.3798372916344
 20
84.94103171666848
 30
0.0
 40
13.97705265804967
100
AcDbArc
 50
212.0500747979809
 51
327.9499252020191
  0
ARC
  5
486CD
330
2
100
AcDbEntity
  8
0
  6
Continuous
 62
     7
100
AcDbCircle
 10
175.3798372916344
 20
84.94103171666848
 30
0.0
 40
13.97705265804967
100
AcDbArc
 50
332.0500747979651
 51
87.94992520201715
  0
ARC
  5
486CE
330
2
100
AcDbEntity
  8
0
  6
Continuous
 62
     7
100
AcDbCircle
 10
175.3798372916344
 20
84.94103171666848
 30
0.0
 40
16.5
100
AcDbArc
 50
331.7365015759346
 51
88.26349842406367
  0
LINE
  5
486CF
330
2
100
AcDbEntity
  8
0
  6
Continuous
 62
     7
100
AcDbLine
 10
105.8507114824924
 20
79.12904642016201
 30
0.0
 11
68.4549203492461
 21
79.12904642016201
 31
0.0
  0
LINE
  5
486D0
330
2
100
AcDbEntity
  8
0
  6
Continuous
 62
     7
100
AcDbLine
 10
105.8507114824924
 20
78.26302101637748
 30
0.0
 11
68.4549203492461
 21
78.26302101637748
 31
0.0
  0
LINE
  5
486D1
330
2
100
AcDbEntity
  8
0
  6
Continuous
 62
     7
100
AcDbLine
 10
68.4549203492461
 20
79.12904642016201
 30
0.0
 11
68.4549203492461
 21
78.26302101637748
 31
0.0
  0
LINE
  5
486D2
330
2
100
AcDbEntity
  8
0
  6
Continuous
 62
     7
100
AcDbLine
 10
107.8507114824924
 20
78.38999113615546
 30
0.0
 11
105.8507114824924
 21
78.38999113615546
 31
0.0
  0
LINE
  5
486D3
330
2
100
AcDbEntity
  8
0
  6
Continuous
 62
     7
100
AcDbLine
 10
107.8507114824924
 20
77.52396573237092
 30
0.0
 11
105.8507114824924
 21
77.52396573237092
 31
0.0
  0
LINE
  5
486D4
330
2
100
AcDbEntity
  8
0
  6
Continuous
 62
     7
100
AcDbLine
 10
110.4073358095184
 20
76.26180776354067
 30
0.0
 11
109.2940871554665
 21
76.26180776354067
 31
0.0
  0
LINE
  5
486D5
330
2
100
AcDbEntity
  8
0
  6
Continuous
 62
     7
100
AcDbLine
 10
110.4073358095184
 20
77.12783316732566
 30
0.0
 11
109.2940871554665
 21
77.12783316732566
 31
0.0
  0
LINE
  5
486D6
330
2
100
AcDbEntity
  8
0
  6
Continuous
 62
     7
100
AcDbLine
 10
107.8507114824924
 20
77.52396573237092
 30
0.0
 11
109.2940871554665
 21
76.26180776354067
 31
0.0
  0
LINE
  5
486D7
330
2
100
AcDbEntity
  8
0
  6
Continuous
 62
     7
100
AcDbLine
 10
109.2940871554665
 20
77.12783316732566
 30
0.0
 11
107.8507114824924
 21
78.38999113615546
 31
0.0
  0
LINE
  5
486D8
330
2
100
AcDbEntity
  8
0
  6
Continuous
 62
     7
100
AcDbLine
 10
111.83746282844
 20
77.52396573237092
 30
0.0
 11
110.4073358095184
 21
76.26180776354067
 31
0.0
  0
LINE
  5
486D9
330
2
100
AcDbEntity
  8
0
  6
Continuous
 62
     7
100
AcDbLine
 10
110.4073358095184
 20
77.12783316732566
 30
0.0
 11
111.83746282844
 21
78.38999113615546
 31
0.0
  0
LINE
  5
486DA
330
2
100
AcDbEntity
  8
0
  6
Continuous
 62
     7
100
AcDbLine
 10
104.197121644007
 20
79.12904642016201
 30
0.0
 11
104.197121644007
 21
84.94103171666848
 31
0.0
  0
LINE
  5
486DB
330
2
100
AcDbEntity
  8
0
  6
Continuous
 62
     7
100
AcDbLine
 10
103.8507114824924
 20
78.26302101637748
 30
0.0
 11
103.8507114824924
 21
72.47603171666833
 31
0.0
  0
LINE
  5
486DC
330
2
100
AcDbEntity
  8
0
  6
Continuous
 62
     4
100
AcDbLine
 10
106.1507114824935
 20
78.38999113615546
 30
0.0
 11
106.1507114824935
 21
84.94103171666848
 31
0.0
  0
LINE
  5
486DD
330
2
100
AcDbEntity
  8
0
  6
Continuous
 62
     7
100
AcDbLine
 10
107.8507114824924
 20
77.52396573237092
 30
0.0
 11
107.8507114824924
 21
70.94103171666848
 31
0.0
  0
LINE
  5
486DE
330
2
100
AcDbEntity
  8
0
  6
Continuous
 62
     7
100
AcDbLine
 10
109.2940871554665
 20
76.26180776354067
 30
0.0
 11
109.2940871554665
 21
68.44103171666848
 31
0.0
  0
LINE
  5
486E0
330
2
100
AcDbEntity
  8
0
  6
Continuous
 62
     7
100
AcDbLine
 10
103.8507114824924
 20
97.40603171666862
 30
0.0
 11
104.1278396117041
 21
97.24603171666878
 31
0.0
  0
LINE
  5
486E2
330
2
100
AcDbEntity
  8
0
  6
Continuous
 62
     7
100
AcDbLine
 10
61.35071148249335
 20
84.94103171666848
 30
0.0
 11
61.35071148249335
 21
72.68817824923326
 31
0.0
  0
LINE
  5
486ED
330
2
100
AcDbEntity
  8
0
  6
Continuous
 62
     7
100
AcDbLine
 10
111.8507114824924
 20
84.94103171666848
 30
0.0
 11
111.8507114824924
 21
70.94103171666848
 31
0.0
  0
LINE
  5
486EE
330
2
100
AcDbEntity
  8
0
  6
Continuous
 62
     7
100
AcDbLine
 10
111.8507114824924
 20
70.94103171666848
 30
0.0
 11
110.4073358095184
 21
68.44103171666848
 31
0.0
  0
LINE
  5
486EF
330
2
100
AcDbEntity
  8
0
  6
Continuous
 62
     7
100
AcDbLine
 10
110.4073358095184
 20
68.44103171666848
 30
0.0
 11
110.4073358095184
 21
76.26180776354067
 31
0.0
  0
LINE
  5
486F0
330
2
100
AcDbEntity
  8
0
  6
Continuous
 62
     7
100
AcDbLine
 10
110.4073358095184
 20
77.12783316732566
 30
0.0
 11
110.4073358095184
 21
84.94103171666848
 31
0.0
  0
LINE
  5
48728
330
2
100
AcDbEntity
  8
0
  6
Continuous
 62
     7
100
AcDbLine
 10
51.65071148249353
 20
96.89103171666852
 30
0.0
 11
61.04784384290269
 21
96.89103171666852
 31
0.0
  0
ARC
  5
48729
330
2
100
AcDbEntity
  8
0
  6
Continuous
 62
     7
100
AcDbCircle
 10
51.65071148249353
 20
96.59103171666856
 30
0.0
 40
0.3
100
AcDbArc
 50
90.0
 51
180.0
  0
LINE
  5
4872A
330
2
100
AcDbEntity
  8
0
  6
Continuous
 62
     7
100
AcDbLine
 10
51.65071148249353
 20
72.99103171666843
 30
0.0
 11
61.0478438429036
 21
72.99103171666843
 31
0.0
  0
ARC
  5
4872B
330
2
100
AcDbEntity
  8
0
  6
Continuous
 62
     7
100
AcDbCircle
 10
51.65071148249353
 20
73.29103171666838
 30
0.0
 40
0.3
100
AcDbArc
 50
180.0
 51
270.0
  0
LINE
  5
4872D
330
2
100
AcDbEntity
  8
0
  6
Continuous
 62
     7
100
AcDbLine
 10
61.0478438429036
 20
72.99103171666843
 30
0.0
 11
61.0478438429036
 21
84.94103171666848
 31
0.0
  0
LINE
  5
48731
330
2
100
AcDbEntity
  8
0
  6
Continuous
 62
     7
100
AcDbLine
 10
61.35069723924153
 20
97.19388511300577
 30
0.0
 11
61.0478438429036
 21
96.89103171666852
 31
0.0
  0
LINE
  5
48732
330
2
100
AcDbEntity
  8
0
  6
Continuous
 62
     7
100
AcDbLine
 10
61.35069723924243
 20
97.193885113006
 30
0.0
 11
103.8507114824924
 21
97.40603171666862
 31
0.0
  0
LINE
  5
48733
330
2
100
AcDbEntity
  8
0
  6
Continuous
 62
     7
100
AcDbLine
 10
61.35069723924153
 20
72.68817832033119
 30
0.0
 11
61.0478438429036
 21
72.99103171666843
 31
0.0
  0
LINE
  5
48734
330
2
100
AcDbEntity
  8
0
  6
Continuous
 62
     7
100
AcDbLine
 10
61.35069723924243
 20
72.68817832033096
 30
0.0
 11
103.8507114824924
 21
72.47603171666833
 31
0.0
  0
LINE
  5
48737
330
2
100
AcDbEntity
  8
0
  6
Continuous
 62
     7
100
AcDbLine
 10
51.90071148249171
 20
95.49103171666866
 30
0.0
 11
51.35071148249335
 21
96.04103171666658
 31
0.0
  0
LINE
  5
48756
330
2
100
AcDbEntity
  8
0
  6
Continuous
 62
     7
100
AcDbLine
 10
78.53835031998006
 20
88.11603171666821
 30
0.0
 11
78.35071148249335
 21
88.44103171666848
 31
0.0
  0
CIRCLE
  5
48759
330
2
100
AcDbEntity
  8
0
  6
Continuous
 62
     7
100
AcDbCircle
 10
175.3798372916344
 20
84.94103171666848
 30
0.0
 40
3.174999999999999
  0
LINE
  5
4875A
330
2
100
AcDbEntity
  8
0
  6
Continuous
 62
     7
100
AcDbLine
 10
78.53835031998006
 20
88.11603171666821
 30
0.0
 11
78.53835031998006
 21
84.94103171666848
 31
0.0
  0
LINE
  5
4875B
330
2
100
AcDbEntity
  8
0
  6
Continuous
 62
     7
100
AcDbLine
 10
78.35071148249335
 20
88.44103171666848
 30
0.0
 11
78.35071148249335
 21
84.94103171666848
 31
0.0
  0
ARC
  5
4875C
330
2
100
AcDbEntity
  8
0
  6
Continuous
 62
     7
100
AcDbCircle
 10
96.05762344267805
 20
123.1593715121394
 30
0.0
 40
37.49999999999988
100
AcDbArc
 50
290.8542445794049
 51
294.9071508426383
  0
ARC
  5
4875D
330
2
100
AcDbEntity
  8
0
  6
Continuous
 62
     7
100
AcDbCircle
 10
96.05762344267805
 20
123.1593715121394
 30
0.0
 40
37.49999999999988
100
AcDbArc
 50
223.7409884355336
 51
249.1457554205951
  0
LINE
  5
48760
330
2
100
AcDbEntity
  8
0
  6
ByBlock
 62
     0
100
AcDbLine
 10
63.7507114824923
 20
91.19103171666848
 30
0.0
 11
73.35071148249426
 21
91.19103171666848
 31
0.0
  0
LINE
  5
48761
330
2
100
AcDbEntity
  8
0
  6
Continuous
 62
     7
100
AcDbLine
 10
74.93842472276515
 20
88.44103171666848
 30
0.0
 11
73.35071148249426
 21
91.19103171666848
 31
0.0
  0
LINE
  5
48762
330
2
100
AcDbEntity
  8
0
  6
Continuous
 62
     7
100
AcDbLine
 10
73.35071148249426
 20
91.19103171666848
 30
0.0
 11
73.35071148249426
 21
84.94103171666848
 31
0.0
  0
LINE
  5
48763
330
2
100
AcDbEntity
  8
0
  6
Continuous
 62
     7
100
AcDbLine
 10
63.7507114824923
 20
91.19103171666848
 30
0.0
 11
63.7507114824923
 21
84.94103171666848
 31
0.0
  0
LINE
  5
48764
330
2
100
AcDbEntity
  8
0
  6
Continuous
 62
     7
100
AcDbLine
 10
74.93842472276515
 20
88.44103171666848
 30
0.0
 11
74.93842472276515
 21
84.94103171666848
 31
0.0
  0
VIEWPORT
  5
2C7EC
102
{ACAD_XDICTIONARY
360
2C7ED
102
}
330
1B
100
AcDbEntity
 67
     1
  8
0
  6
Continuous
 62
     7
100
AcDbViewport
 10
212.4908200734394
 20
97.5
 30
0.0
 40
464.9816401468789
 41
210.0
 68
     1
 69
     1
 12
212.4908200734394
 22
97.5
 13
0.0
 23
0.0
 14
2.0
 24
2.0
 15
2.0
 25
2.0
 16
0.0
 26
0.0
 36
1.0
 17
0.0
 27
0.0
 37
0.0
 42
50.0
 43
0.0
 44
0.0
 45
210.0
 50
0.0
 51
0.0
 72
  1000
 90
   823328
  1

281
     0
 71
     1
 74
     0
110
0.0
120
0.0
130
0.0
111
1.0
121
0.0
131
0.0
112
0.0
122
1.0
132
0.0
 79
     0
146
0.0
170
     0
 61
     5
348
2E
292
     1
282
     1
141
0.0
142
0.0
 63
   250
421
  3355443
  0
ENDSEC
  0
SECTION
  2
OBJECTS
  0
DICTIONARY
  5
B
330
0
100
AcDbDictionary
281
     1
  3
ACAD_CIP_PREVIOUS_PRODUCT_INFO
350
BE4
  3
ACAD_COLOR
350
3F
  3
ACAD_DETAILVIEWSTYLE
350
BDC
  3
ACAD_GROUP
350
3A
  3
ACAD_LAYOUT
350
17
  3
ACAD_MATERIAL
350
D
  3
ACAD_MLEADERSTYLE
350
42
  3
ACAD_MLINESTYLE
350
3B
  3
ACAD_PLOTSETTINGS
350
3C
  3
ACAD_PLOTSTYLENAME
350
A
  3
ACAD_SCALELIST
350
40
  3
ACAD_SECTIONVIEWSTYLE
350
BDA
  3
ACAD_TABLESTYLE
350
41
  3
ACAD_VISUALSTYLE
350
2F
  3
ACDB_RECOMPOSE_DATA
350
48BD1
  3
AcDbVariableDictionary
350
BB8
  3
AEC_PROPERTY_SET_DEFS
350
24C9
  0
DICTIONARY
  5
31
330
2C
100
AcDbDictionary
280
     1
281
     1
  0
DICTIONARY
  5
22
330
21
100
AcDbDictionary
280
     1
281
     1
  3
ACAD_LAYERSTATES
360
23
  0
DICTIONARY
  5
7
330
6
100
AcDbDictionary
280
     1
281
     1
  3
ADSK_XREC_LAYER_RECONCILED
360
8
  0
DICTIONARY
  5
3
330
2
100
AcDbDictionary
280
     1
281
     1
  3
ACAD_SORTENTS
360
BB0
  0
DICTIONARY
  5
2C7ED
330
2C7EC
100
AcDbDictionary
280
     1
281
     1
  3
ASDK_XREC_ANNOTATION_SCALE_INFO
360
2C7EE
  0
XRECORD
  5
BE4
102
{ACAD_REACTORS
330
B
102
}
330
B
100
AcDbXrecord
280
     1
300
ACD
300
2014
300
ACD_F_S
  0
DICTIONARY
  5
3F
102
{ACAD_REACTORS
330
B
102
}
330
B
100
AcDbDictionary
281
     1
  0
DICTIONARY
  5
BDC
102
{ACAD_REACTORS
330
B
102
}
330
B
100
AcDbDictionary
281
     1
  3
Imperial24
350
283CD
  3
Metric50
350
BDD
  0
DICTIONARY
  5
3A
102
{ACAD_REACTORS
330
B
102
}
330
B
100
AcDbDictionary
281
     1
  0
DICTIONARY
  5
17
102
{ACAD_REACTORS
330
B
102
}
330
B
100
AcDbDictionary
281
     1
  3
Model
350
16
  3
배치1
350
1E
  0
DICTIONARY
  5
D
102
{ACAD_REACTORS
330
B
102
}
330
B
100
AcDbDictionary
281
     1
  3
ByBlock
350
3E
  3
ByLayer
350
3D
  3
Global
350
C
  0
DICTIONARY
  5
42
102
{ACAD_REACTORS
330
B
102
}
330
B
100
AcDbDictionary
281
     1
  3
Standard
350
BD9
  0
DICTIONARY
  5
3B
102
{ACAD_REACTORS
330
B
102
}
330
B
100
AcDbDictionary
281
     1
  3
Standard
350
43
  0
DICTIONARY
  5
3C
102
{ACAD_REACTORS
330
B
102
}
330
B
100
AcDbDictionary
281
     1
  0
ACDBDICTIONARYWDFLT
  5
A
102
{ACAD_REACTORS
330
B
102
}
330
B
100
AcDbDictionary
281
     1
  3
Normal
350
9
100
AcDbDictionaryWithDefault
340
9
  0
DICTIONARY
  5
40
102
{ACAD_REACTORS
330
B
102
}
330
B
100
AcDbDictionary
281
     1
  3
A0
350
48
  3
A1
350
49
  3
A2
350
4A
  3
A3
350
4B
  3
A4
350
4C
  3
A5
350
4D
  3
A6
350
4E
  3
A7
350
4F
  3
A8
350
50
  3
A9
350
51
  3
B0
350
52
  3
B1
350
53
  3
B2
350
54
  3
B3
350
55
  3
B4
350
56
  3
B5
350
57
  3
B6
350
58
  0
DICTIONARY
  5
BDA
102
{ACAD_REACTORS
330
B
102
}
330
B
100
AcDbDictionary
281
     1
  3
Imperial24
350
283CC
  3
Metric50
350
BDB
  0
DICTIONARY
  5
41
102
{ACAD_REACTORS
330
B
102
}
330
B
100
AcDbDictionary
281
     1
  3
Standard
350
44
  0
DICTIONARY
  5
2F
102
{ACAD_REACTORS
330
B
102
}
330
B
100
AcDbDictionary
281
     1
  3
2dWireframe
350
2E
  3
3D Hidden
350
1A64
  3
3dWireframe
350
47
  3
Basic
350
BC7
  3
Brighten
350
BCC
  3
ColorChange
350
BD0
  3
Conceptual
350
BCA
  3
Dim
350
BCB
  3
EdgeColorOff
350
BD8
  3
Facepattern
350
BCF
  3
Flat
350
BC3
  3
FlatWithEdges
350
BC4
  3
Gouraud
350
BC5
  3
GouraudWithEdges
350
BC6
  3
Hidden
350
BC9
  3
JitterOff
350
BD6
  3
Linepattern
350
BCE
  3
OverhangOff
350
BD7
  3
Realistic
350
46
  3
Shaded
350
BD5
  3
Shaded with edges
350
BD4
  3
Shades of Gray
350
BD1
  3
Sketchy
350
BD2
  3
Thicken
350
BCD
  3
Wireframe
350
BC8
  3
X-Ray
350
BD3
  0
XRECORD
  5
48BD1
102
{ACAD_REACTORS
330
B
102
}
330
B
100
AcDbXrecord
280
     1
 90
        1
330
44
330
BDB
330
BDD
330
283CC
330
283CD
  0
DICTIONARY
  5
BB8
102
{ACAD_REACTORS
330
B
102
}
330
B
100
AcDbDictionary
281
     1
  3
CANNOSCALE
350
BBE
  3
CMLEADERSTYLE
350
BBA
  3
CTABLESTYLE
350
BB9
  3
CVIEWDETAILSTYLE
350
BBB
  3
CVIEWSECTIONSTYLE
350
BBC
  3
DIMASSOC
350
C3B
  3
HIDETEXT
350
C39
  3
HPCOLOR
350
FF3
  3
INDEXCTL
350
C38
  3
LAYEREVAL
350
BC0
  3
LAYERNOTIFY
350
BC1
  3
LIGHTINGUNITS
350
BBF
  3
MSLTSCALE
350
BBD
  3
SOLIDHIST
350
C3C
  3
SORTENTS
350
C37
  0
DICTIONARY
  5
24C9
102
{ACAD_REACTORS
330
B
102
}
330
B
100
AcDbDictionary
281
     1
  0
DICTIONARY
  5
23
102
{ACAD_REACTORS
330
22
102
}
330
22
100
AcDbDictionary
281
     1
  0
XRECORD
  5
8
102
{ACAD_REACTORS
330
7
102
}
330
7
100
AcDbXrecord
280
     1
290
     1
  0
SORTENTSTABLE
  5
BB0
102
{ACAD_REACTORS
330
3
102
}
330
3
100
AcDbSortentsTable
330
2
331
3C9DF
  5
3C9DF
331
3CA1E
  5
3CA1E
331
3C9DB
  5
3C9DB
331
3CA1A
  5
3CA1A
331
3C9D7
  5
3C9D7
331
3CA16
  5
3CA16
331
3C9D3
  5
3C9D3
331
3CA12
  5
3CA12
331
3C9CF
  5
3C9CF
331
3CA0E
  5
3CA0E
331
3CA0A
  5
3CA0A
331
3CA06
  5
3CA06
331
3CA02
  5
3CA02
331
3C9FE
  5
3C9FE
331
3C9FA
  5
3C9FA
331
3C9F6
  5
3C9F6
331
3C9F2
  5
3C9F2
331
3C9EE
  5
3C9EE
331
3C9EA
  5
3C9EA
331
3CA29
  5
3CA29
331
3C9E6
  5
3C9E6
331
3CA25
  5
3CA25
331
3C9E2
  5
3C9E2
331
3CA21
  5
3CA21
331
3C9DE
  5
3C9DE
331
3CA1D
  5
3CA1D
331
3C9DA
  5
3C9DA
331
3CA19
  5
3CA19
331
3C9D6
  5
3C9D6
331
3CA15
  5
3CA15
331
3C9D2
  5
3C9D2
331
3CA11
  5
3CA11
331
3C9CE
  5
3C9CE
331
3CA0D
  5
3CA0D
331
3CA09
  5
3CA09
331
3CA05
  5
3CA05
331
3CA01
  5
3CA01
331
3C9FD
  5
3C9FD
331
3C9F9
  5
3C9F9
331
3C9F5
  5
3C9F5
331
3C9F1
  5
3C9F1
331
3C9ED
  5
3C9ED
331
3C9E9
  5
3C9E9
331
3CA28
  5
3CA28
331
3C9E5
  5
3C9E5
331
3CA24
  5
3CA24
331
3C9E1
  5
3C9E1
331
3CA20
  5
3CA20
331
3C9DD
  5
3C9DD
331
3CA1C
  5
3CA1C
331
3C9D9
  5
3C9D9
331
3CA18
  5
3CA18
331
3C9D5
  5
3C9D5
331
3CA14
  5
3CA14
331
3C9D1
  5
3C9D1
331
3CA10
  5
3CA10
331
3C9CD
  5
3C9CD
331
3CA0C
  5
3CA0C
331
3CA08
  5
3CA08
331
3CA04
  5
3CA04
331
3CA00
  5
3CA00
331
3C9FC
  5
3C9FC
331
3C9F8
  5
3C9F8
331
3C9F4
  5
3C9F4
331
3C9F0
  5
3C9F0
331
3C9EC
  5
3C9EC
331
3CA2B
  5
3CA2B
331
3C9E8
  5
3C9E8
331
3CA27
  5
3CA27
331
3C9E4
  5
3C9E4
331
3CA23
  5
3CA23
331
3C9E0
  5
3C9E0
331
3CA1F
  5
3CA1F
331
3C9DC
  5
3C9DC
331
3CA1B
  5
3CA1B
331
3C9D8
  5
3C9D8
331
3CA17
  5
3CA17
331
3C9D4
  5
3C9D4
331
3CA13
  5
3CA13
331
3C9D0
  5
3C9D0
331
3CA0F
  5
3CA0F
331
3CA0B
  5
3CA0B
331
3CA07
  5
3CA07
331
3CA03
  5
3CA03
331
3C9FF
  5
3C9FF
331
3C9FB
  5
3C9FB
331
3C9F7
  5
3C9F7
331
3C9F3
  5
3C9F3
331
3C9EF
  5
3C9EF
331
3C9EB
  5
3C9EB
331
3CA2A
  5
3CA2A
331
3C9E7
  5
3C9E7
331
3CA26
  5
3CA26
331
3C9E3
  5
3C9E3
331
3CA22
  5
3CA22
  0
XRECORD
  5
2C7EE
102
{ACAD_REACTORS
330
2C7ED
102
}
330
2C7ED
100
AcDbXrecord
280
     1
 90
        1
340
48
  0
ACDBDETAILVIEWSTYLE
  5
283CD
102
{ACAD_XDICTIONARY
360
48BCF
102
}
102
{ACAD_REACTORS
330
BDC
102
}
330
BDC
100
AcDbModelDocViewStyle
 70
     0
  3
Imperial24
290
     0
100
AcDbDetailViewStyle
 70
     0
 71
     0
 90
        3
 71
     1
340
25
 62
   256
 40
0.24
340
0
 62
   256
 40
0.24
300

 40
0.36
280
     3
 71
     2
340
14
 90
       25
 62
   256
 71
     3
340
25
 62
   256
 40
0.24
 90
        1
 40
0.75
 90
        1
300
%<\AcVar ViewType \f "%tc1">% %<\AcVar ViewDetailId>%\PSCALE %<\AcVar ViewScale \f "%sn">%
 71
     4
340
14
 90
       25
 62
   256
340
14
 90
       25
 62
   256
280
     0
  0
ACDBDETAILVIEWSTYLE
  5
BDD
102
{ACAD_XDICTIONARY
360
48BCB
102
}
102
{ACAD_REACTORS
330
BDC
102
}
330
BDC
100
AcDbModelDocViewStyle
 70
     0
  3
Metric50
290
     0
100
AcDbDetailViewStyle
 70
     0
 71
     0
 90
        3
 71
     1
340
25
 62
   256
 40
5.0
340
0
 62
   256
 40
5.0
300

 40
0.0
280
     1
 71
     2
340
14
 90
       25
 62
   256
 71
     3
340
25
 62
   256
 40
5.0
 90
        0
 40
15.0
 90
        1
300
%<\AcVar ViewDetailId>% (%<\AcVar ViewScale \f "%sn">%)
 71
     4
340
14
 90
       25
 62
   256
340
14
 90
       25
 62
   256
280
     0
  0
LAYOUT
  5
16
102
{ACAD_XDICTIONARY
360
18
102
}
102
{ACAD_REACTORS
330
17
102
}
330
17
100
AcDbPlotSettings
  1

  2
DWG To PDF.pc3
  4
ISO_expand_A4_(297.00_x_210.00_MM)
  6

 40
5.793749809265136
 41
10.79374980926513
 42
5.79376220703125
 43
10.79374694824219
 44
297.0
 45
210.0
 46
10.74179700476176
 47
0.0
 48
214.2303289092835
 49
-5.650030662565313
140
426.8811481846322
141
146.1562857013982
142
1.0
143
0.8057125389846563
 70
 11956
 72
     1
 73
     0
 74
     4
  7
ksm0910.ctb
 75
     0
147
1.241137442468229
 76
     0
 77
     2
 78
   300
148
-214.2303289092835
149
5.650030662565313
100
AcDbLayout
  1
Model
 70
     1
 71
     0
 10
0.0
 20
0.0
 11
12.0
 21
9.0
 12
0.0
 22
0.0
 32
0.0
 14
0.0
 24
0.0
 34
0.0
 15
0.0
 25
0.0
 35
0.0
146
0.0
 13
0.0
 23
0.0
 33
0.0
 16
1.0
 26
0.0
 36
0.0
 17
0.0
 27
1.0
 37
0.0
 76
     0
330
2
331
2D
1001
ACAD_PSEXT
1000
DWG To PDF.pc3
1000
DWG To PDF
1000
파일
1000

1070
     0
  0
LAYOUT
  5
1E
102
{ACAD_XDICTIONARY
360
1F
102
}
102
{ACAD_REACTORS
330
17
102
}
330
17
100
AcDbPlotSettings
  1

  2
none_device
  4
ISO_A4_(210.00_x_297.00_MM)
  6

 40
7.5
 41
20.0
 42
7.5
 43
20.0
 44
210.0
 45
297.0
 46
0.0
 47
0.0
 48
0.0
 49
0.0
140
0.0
141
0.0
142
1.0
143
1.0
 70
   688
 72
     1
 73
     1
 74
     5
  7
ksm0910.ctb
 75
    16
147
1.0
 76
     0
 77
     2
 78
   300
148
0.0
149
0.0
100
AcDbLayout
  1
배치1
 70
     1
 71
     1
 10
-20.0
 20
-7.5
 11
277.0
 21
202.5
 12
0.0
 22
0.0
 32
0.0
 14
1.000000000000000E+20
 24
1.000000000000000E+20
 34
1.000000000000000E+20
 15
-1.000000000000000E+20
 25
-1.000000000000000E+20
 35
-1.000000000000000E+20
146
0.0
 13
0.0
 23
0.0
 33
0.0
 16
1.0
 26
0.0
 36
0.0
 17
0.0
 27
1.0
 37
0.0
 76
     0
330
1B
331
2C7EC
1001
ACAD_PSEXT
1000
없음
1000
없음
1000
해당 없음
1000
배치가 새로운 플로터 구성을 선택할 때까지 플롯되지 않습니다.
1070
     0
  0
MATERIAL
  5
3E
102
{ACAD_REACTORS
330
D
102
}
330
D
100
AcDbMaterial
  1
ByBlock
 94
       63
  0
MATERIAL
  5
3D
102
{ACAD_REACTORS
330
D
102
}
330
D
100
AcDbMaterial
  1
ByLayer
 94
       63
  0
MATERIAL
  5
C
102
{ACAD_XDICTIONARY
360
E
102
}
102
{ACAD_REACTORS
330
D
102
}
330
D
100
AcDbMaterial
  1
Global
 43
0.0007999999797903
 43
0.0
 43
0.0
 43
0.0
 43
0.0
 43
0.0007999999797903
 43
0.0
 43
0.0
 43
0.0
 43
0.0
 43
1.0
 43
0.0
 43
0.0
 43
0.0
 43
0.0
 43
1.0
 49
0.0007999999797903
 49
0.0
 49
0.0
 49
0.0
 49
0.0
 49
0.0007999999797903
 49
0.0
 49
0.0
 49
0.0
 49
0.0
 49
1.0
 49
0.0
 49
0.0
 49
0.0
 49
0.0
 49
1.0
142
0.0007999999797903
142
0.0
142
0.0
142
0.0
142
0.0
142
0.0007999999797903
142
0.0
142
0.0
142
0.0
142
0.0
142
1.0
142
0.0
142
0.0
142
0.0
142
0.0
142
1.0
144
0.0007999999797903
144
0.0
144
0.0
144
0.0
144
0.0
144
0.0007999999797903
144
0.0
144
0.0
144
0.0
144
0.0
144
1.0
144
0.0
144
0.0
144
0.0
144
0.0
144
1.0
 94
       63
1001
ACAD
1070
    -1
1070
     3
1070
     0
1000

1071
        0
1070
     0
  0
MLEADERSTYLE
  5
BD9
102
{ACAD_REACTORS
330
42
330
45790
102
}
330
42
100
AcDbMLeaderStyle
179
     2
170
     2
171
     1
172
     0
 90
        2
 40
0.0
 41
0.0
173
     1
 91
-1023410173
340
28
 92
       -2
290
     1
 42
2.0
291
     1
 43
0.36
  3
Standard
 44
4.0
300

342
25
174
     1
178
     6
175
     1
176
     0
 93
-1023410174
 45
3.0
292
     0
297
     0
 46
4.0
 94
-1056964608
 47
1.0
 49
1.0
140
1.0
293
     1
141
0.0
294
     1
177
     0
142
1.0
295
     0
296
     0
143
0.125
271
     0
272
     9
273
     9
298
     1
  0
MLINESTYLE
  5
43
102
{ACAD_REACTORS
330
3B
102
}
330
3B
100
AcDbMlineStyle
  2
STANDARD
 70
     0
  3

 62
   256
 51
90.0
 52
90.0
 71
     2
 49
0.5
 62
   256
  6
BYLAYER
 49
-0.5
 62
   256
  6
BYLAYER
  0
ACDBPLACEHOLDER
  5
9
102
{ACAD_REACTORS
330
A
102
}
330
A
  0
SCALE
  5
48
102
{ACAD_REACTORS
330
40
102
}
330
40
100
AcDbScale
 70
     0
300
1:1
140
1.0
141
1.0
290
     1
  0
SCALE
  5
49
102
{ACAD_REACTORS
330
40
102
}
330
40
100
AcDbScale
 70
     0
300
1:2
140
1.0
141
2.0
290
     0
  0
SCALE
  5
4A
102
{ACAD_REACTORS
330
40
102
}
330
40
100
AcDbScale
 70
     0
300
1:4
140
1.0
141
4.0
290
     0
  0
SCALE
  5
4B
102
{ACAD_REACTORS
330
40
102
}
330
40
100
AcDbScale
 70
     0
300
1:5
140
1.0
141
5.0
290
     0
  0
SCALE
  5
4C
102
{ACAD_REACTORS
330
40
102
}
330
40
100
AcDbScale
 70
     0
300
1:8
140
1.0
141
8.0
290
     0
  0
SCALE
  5
4D
102
{ACAD_REACTORS
330
40
102
}
330
40
100
AcDbScale
 70
     0
300
1:10
140
1.0
141
10.0
290
     0
  0
SCALE
  5
4E
102
{ACAD_REACTORS
330
40
102
}
330
40
100
AcDbScale
 70
     0
300
1:16
140
1.0
141
16.0
290
     0
  0
SCALE
  5
4F
102
{ACAD_REACTORS
330
40
102
}
330
40
100
AcDbScale
 70
     0
300
1:20
140
1.0
141
20.0
290
     0
  0
SCALE
  5
50
102
{ACAD_REACTORS
330
40
102
}
330
40
100
AcDbScale
 70
     0
300
1:30
140
1.0
141
30.0
290
     0
  0
SCALE
  5
51
102
{ACAD_REACTORS
330
40
102
}
330
40
100
AcDbScale
 70
     0
300
1:40
140
1.0
141
40.0
290
     0
  0
SCALE
  5
52
102
{ACAD_REACTORS
330
40
102
}
330
40
100
AcDbScale
 70
     0
300
1:50
140
1.0
141
50.0
290
     0
  0
SCALE
  5
53
102
{ACAD_REACTORS
330
40
102
}
330
40
100
AcDbScale
 70
     0
300
1:100
140
1.0
141
100.0
290
     0
  0
SCALE
  5
54
102
{ACAD_REACTORS
330
40
102
}
330
40
100
AcDbScale
 70
     0
300
2:1
140
2.0
141
1.0
290
     0
  0
SCALE
  5
55
102
{ACAD_REACTORS
330
40
102
}
330
40
100
AcDbScale
 70
     0
300
4:1
140
4.0
141
1.0
290
     0
  0
SCALE
  5
56
102
{ACAD_REACTORS
330
40
102
}
330
40
100
AcDbScale
 70
     0
300
8:1
140
8.0
141
1.0
290
     0
  0
SCALE
  5
57
102
{ACAD_REACTORS
330
40
102
}
330
40
100
AcDbScale
 70
     0
300
10:1
140
10.0
141
1.0
290
     0
  0
SCALE
  5
58
102
{ACAD_REACTORS
330
40
102
}
330
40
100
AcDbScale
 70
     0
300
100:1
140
100.0
141
1.0
290
     0
  0
ACDBSECTIONVIEWSTYLE
  5
283CC
102
{ACAD_XDICTIONARY
360
48BCD
102
}
102
{ACAD_REACTORS
330
BDA
102
}
330
BDA
100
AcDbModelDocViewStyle
 70
     0
  3
Imperial24
290
     0
100
AcDbSectionViewStyle
 70
     0
 71
     0
 90
       78
 71
     1
340
25
 62
   256
 40
0.24
340
0
340
0
 62
   256
 40
0.24
300
I, O, Q, S, X, Z
 40
0.48
 90
        3
 40
0.18
 90
        1
 71
     2
340
14
 90
       25
 62
   256
340
14
 90
       50
 62
   256
 40
0.24
 40
0.0
 40
0.24
 71
     3
340
25
 62
   256
 40
0.24
 90
        1
 40
0.75
 90
        1
300
%<\AcVar ViewType \f "%tc1">% %<\AcVar ViewSectionStartId>%-%<\AcVar ViewSectionEndId>%\PSCALE %<\AcVar ViewScale \f "%sn">%
 71
     4
 62
   256
 62
   257
300
ANSI31
 40
1.0
 90
        0
290
     0
290
     0
 90
        6
 40
0.0
 40
1.570796326794896
 40
0.2617993877991494
 40
1.308996938995747
 40
-0.2617993877991494
 40
1.832595714594046
  0
ACDBSECTIONVIEWSTYLE
  5
BDB
102
{ACAD_XDICTIONARY
360
48BC9
102
}
102
{ACAD_REACTORS
330
BDA
102
}
330
BDA
100
AcDbModelDocViewStyle
 70
     0
  3
Metric50
290
     0
100
AcDbSectionViewStyle
 70
     0
 71
     0
 90
      102
 71
     1
340
25
 62
   256
 40
5.0
340
0
340
0
 62
   256
 40
5.0
300
I, O, Q, S, X, Z
 40
10.0
 90
        0
 40
2.5
 90
        0
 71
     2
340
14
 90
       25
 62
   256
340
14
 90
       50
 62
   256
 40
5.0
 40
2.5
 40
5.0
 71
     3
340
25
 62
   256
 40
5.0
 90
        0
 40
15.0
 90
        1
300
%<\AcVar ViewSectionStartId>%-%<\AcVar ViewSectionEndId>% (%<\AcVar ViewScale \f "%sn">%)
 71
     4
 62
   256
 62
   257
300
ANSI31
 40
1.0
 90
        0
290
     0
290
     0
 90
        6
 40
0.0
 40
1.570796326794896
 40
0.2617993877991494
 40
1.308996938995747
 40
-0.2617993877991494
 40
1.832595714594046
  0
TABLESTYLE
  5
44
102
{ACAD_XDICTIONARY
360
45
102
}
102
{ACAD_REACTORS
330
41
102
}
330
41
100
AcDbTableStyle
280
     0
  3
Standard
 70
     0
 71
     0
 40
1.5
 41
1.5
280
     0
281
     0
  7
Standard
140
4.5
170
     2
 62
     0
 63
     7
283
     0
 90
      512
 91
        0
  1

274
    -2
284
     1
 64
     0
275
    -2
285
     1
 65
     0
276
    -2
286
     1
 66
     0
277
    -2
287
     1
 67
     0
278
    -2
288
     1
 68
     0
279
    -2
289
     1
 69
     0
  7
Standard
140
6.0
170
     5
 62
     0
 63
     7
283
     0
 90
      512
 91
        0
  1

274
    -2
284
     1
 64
     0
275
    -2
285
     1
 65
     0
276
    -2
286
     1
 66
     0
277
    -2
287
     1
 67
     0
278
    -2
288
     1
 68
     0
279
    -2
289
     1
 69
     0
  7
Standard
140
4.5
170
     5
 62
     0
 63
     7
283
     0
 90
      512
 91
        0
  1

274
    -2
284
     1
 64
     0
275
    -2
285
     1
 65
     0
276
    -2
286
     1
 66
     0
277
    -2
287
     1
 67
     0
278
    -2
288
     1
 68
     0
279
    -2
289
     1
 69
     0
  0
VISUALSTYLE
  5
2E
102
{ACAD_REACTORS
330
2F
102
}
330
2F
100
AcDbVisualStyle
  2
2dWireframe
 70
     4
177
     3
291
     0
 70
    58
 90
        0
176
     1
 90
        2
176
     1
 90
        1
176
     1
 90
        0
176
     1
 40
0.6
176
     1
 40
30.0
176
     1
 62
     7
176
     1
 90
        1
176
     1
 90
        4
176
     1
 62
     7
176
     1
 62
   257
176
     1
 90
        1
176
     1
 90
        1
176
     1
 40
1.0
176
     1
 90
        0
176
     1
 62
   257
176
     1
 40
1.0
176
     1
 90
        1
176
     1
 90
        6
176
     1
 90
        2
176
     1
 62
     7
176
     1
 90
        5
176
     1
 90
        0
176
     1
 90
        0
176
     1
290
     0
176
     1
 90
        1
176
     1
 40
0.0
176
     1
 90
        0
176
     1
290
     1
176
     1
290
     1
176
     1
290
     0
176
     1
290
     0
176
     1
290
     0
176
     1
290
     0
176
     1
290
     0
176
     1
290
     0
176
     1
290
     0
176
     1
 90
       50
176
     1
 40
0.0
176
     1
 40
1.0
176
     1
 90
        0
176
     1
 62
    18
420
        0
176
     1
 90
       50
176
     1
 90
        3
176
     1
 62
     5
420
      255
176
     1
290
     0
176
     1
 90
       50
176
     1
 90
       50
176
     1
 90
       50
176
     1
290
     0
176
     1
 90
       50
176
     1
 62
   256
176
     0
 40
1.0
176
     0
 90
        2
176
     1
  1
strokes_ogs.tif
176
     1
290
     0
176
     1
 40
1.0
176
     1
 40
1.0
176
     1
  0
VISUALSTYLE
  5
1A64
102
{ACAD_REACTORS
330
2F
102
}
330
2F
100
AcDbVisualStyle
  2
3D Hidden
 70
     6
177
     3
291
     0
 70
    58
 90
        1
176
     1
 90
        2
176
     1
 90
        2
176
     1
 90
        0
176
     1
 40
0.6
176
     1
 40
30.0
176
     1
 62
     7
176
     1
 90
        2
176
     1
 90
        2
176
     1
 62
     7
176
     1
 62
   257
176
     1
 90
        2
176
     1
 90
        1
176
     1
 40
40.0
176
     1
 90
        0
176
     1
 62
   257
176
     1
 40
1.0
176
     1
 90
        1
176
     1
 90
        6
176
     1
 90
        2
176
     1
 62
     7
176
     1
 90
        3
176
     1
 90
        0
176
     1
 90
        0
176
     1
290
     0
176
     1
 90
        1
176
     1
 40
0.0
176
     1
 90
        0
176
     1
290
     0
176
     1
290
     1
176
     1
290
     1
176
     1
290
     0
176
     1
290
     0
176
     1
290
     0
176
     1
290
     0
176
     1
290
     0
176
     1
290
     0
176
     1
 90
       50
176
     1
 40
0.0
176
     1
 40
1.0
176
     1
 90
        0
176
     1
 62
    18
420
        0
176
     1
 90
       50
176
     1
 90
        3
176
     1
 62
     5
420
      255
176
     1
290
     0
176
     1
 90
       50
176
     1
 90
       50
176
     1
 90
       50
176
     1
290
     0
176
     1
 90
       50
176
     1
 62
   256
176
     0
 40
1.0
176
     0
 90
        2
176
     1
  1
strokes_ogs.tif
176
     1
290
     0
176
     1
 40
1.0
176
     1
 40
1.0
176
     1
  0
VISUALSTYLE
  5
47
102
{ACAD_REACTORS
330
2F
102
}
330
2F
100
AcDbVisualStyle
  2
3dWireframe
 70
     5
177
     3
291
     0
 70
    58
 90
        0
176
     1
 90
        2
176
     1
 90
        1
176
     1
 90
        0
176
     1
 40
0.6
176
     1
 40
30.0
176
     1
 62
     7
176
     1
 90
        1
176
     1
 90
        4
176
     1
 62
     7
176
     1
 62
   257
176
     1
 90
        1
176
     1
 90
        1
176
     1
 40
1.0
176
     1
 90
        0
176
     1
 62
   257
176
     1
 40
1.0
176
     1
 90
        1
176
     1
 90
        6
176
     1
 90
        2
176
     1
 62
     7
176
     1
 90
        5
176
     1
 90
        0
176
     1
 90
        0
176
     1
290
     0
176
     1
 90
        1
176
     1
 40
0.0
176
     1
 90
        0
176
     1
290
     0
176
     1
290
     1
176
     1
290
     1
176
     1
290
     0
176
     1
290
     0
176
     1
290
     0
176
     1
290
     0
176
     1
290
     0
176
     1
290
     0
176
     1
 90
       50
176
     1
 40
0.0
176
     1
 40
1.0
176
     1
 90
        0
176
     1
 62
    18
420
        0
176
     1
 90
       50
176
     1
 90
        3
176
     1
 62
     5
420
      255
176
     1
290
     0
176
     1
 90
       50
176
     1
 90
       50
176
     1
 90
       50
176
     1
290
     0
176
     1
 90
       50
176
     1
 62
   256
176
     0
 40
1.0
176
     0
 90
        2
176
     1
  1
strokes_ogs.tif
176
     1
290
     0
176
     1
 40
1.0
176
     1
 40
1.0
176
     1
  0
VISUALSTYLE
  5
BC7
102
{ACAD_REACTORS
330
2F
102
}
330
2F
100
AcDbVisualStyle
  2
Basic
 70
     7
177
     3
291
     1
 70
    58
 90
        1
176
     1
 90
        0
176
     1
 90
        1
176
     1
 90
        0
176
     1
 40
0.6
176
     1
 40
30.0
176
     1
 62
     7
176
     1
 90
        0
176
     1
 90
        4
176
     1
 62
     7
176
     1
 62
   257
176
     1
 90
        1
176
     1
 90
        1
176
     1
 40
1.0
176
     1
 90
        8
176
     1
 62
     7
176
     1
 40
1.0
176
     1
 90
        1
176
     1
 90
        6
176
     1
 90
        2
176
     1
 62
     7
176
     1
 90
        5
176
     1
 90
        0
176
     1
 90
        0
176
     1
290
     0
176
     1
 90
        1
176
     1
 40
0.0
176
     1
 90
        0
176
     1
290
     0
176
     1
290
     1
176
     1
290
     1
176
     1
290
     0
176
     1
290
     0
176
     1
290
     0
176
     1
290
     0
176
     1
290
     0
176
     1
290
     0
176
     1
 90
       50
176
     1
 40
0.0
176
     1
 40
1.0
176
     1
 90
        0
176
     1
 62
    18
420
        0
176
     1
 90
       50
176
     1
 90
        3
176
     1
 62
     5
420
      255
176
     1
290
     0
176
     1
 90
       50
176
     1
 90
       50
176
     1
 90
       50
176
     1
290
     0
176
     1
 90
       50
176
     1
 62
   256
176
     0
 40
1.0
176
     0
 90
        2
176
     1
  1
strokes_ogs.tif
176
     1
290
     0
176
     1
 40
1.0
176
     1
 40
1.0
176
     1
  0
VISUALSTYLE
  5
BCC
102
{ACAD_REACTORS
330
2F
102
}
330
2F
100
AcDbVisualStyle
  2
Brighten
 70
    12
177
     3
291
     1
 70
    58
 90
        2
176
     1
 90
        2
176
     1
 90
        0
176
     1
 90
        0
176
     1
 40
0.6
176
     1
 40
30.0
176
     1
 62
     7
176
     1
 90
        1
176
     1
 90
        4
176
     1
 62
     7
176
     1
 62
   257
176
     1
 90
        1
176
     1
 90
        1
176
     1
 40
1.0
176
     1
 90
        8
176
     1
 62
     7
176
     1
 40
1.0
176
     1
 90
        1
176
     1
 90
        6
176
     1
 90
        2
176
     1
 62
     7
176
     1
 90
        5
176
     1
 90
        0
176
     1
 90
        0
176
     1
290
     0
176
     1
 90
        1
176
     1
 40
50.0
176
     1
 90
        0
176
     1
290
     0
176
     1
290
     1
176
     1
290
     1
176
     1
290
     0
176
     1
290
     0
176
     1
290
     0
176
     1
290
     0
176
     1
290
     0
176
     1
290
     0
176
     1
 90
       50
176
     1
 40
0.0
176
     1
 40
1.0
176
     1
 90
        0
176
     1
 62
    18
420
        0
176
     1
 90
       50
176
     1
 90
        3
176
     1
 62
     5
420
      255
176
     1
290
     0
176
     1
 90
       50
176
     1
 90
       50
176
     1
 90
       50
176
     1
290
     0
176
     1
 90
       50
176
     1
 62
   256
176
     0
 40
1.0
176
     0
 90
        2
176
     1
  1
strokes_ogs.tif
176
     1
290
     0
176
     1
 40
1.0
176
     1
 40
1.0
176
     1
  0
VISUALSTYLE
  5
BD0
102
{ACAD_REACTORS
330
2F
102
}
330
2F
100
AcDbVisualStyle
  2
ColorChange
 70
    16
177
     3
291
     1
 70
    58
 90
        2
176
     1
 90
        2
176
     1
 90
        3
176
     1
 90
        0
176
     1
 40
0.6
176
     1
 40
30.0
176
     1
 62
     8
176
     1
 90
        1
176
     1
 90
        4
176
     1
 62
     7
176
     1
 62
   257
176
     1
 90
        1
176
     1
 90
        1
176
     1
 40
1.0
176
     1
 90
        8
176
     1
 62
     8
176
     1
 40
1.0
176
     1
 90
        1
176
     1
 90
        6
176
     1
 90
        2
176
     1
 62
     7
176
     1
 90
        5
176
     1
 90
        0
176
     1
 90
        0
176
     1
290
     0
176
     1
 90
        1
176
     1
 40
0.0
176
     1
 90
        0
176
     1
290
     0
176
     1
290
     1
176
     1
290
     1
176
     1
290
     0
176
     1
290
     0
176
     1
290
     0
176
     1
290
     0
176
     1
290
     0
176
     1
290
     0
176
     1
 90
       50
176
     1
 40
0.0
176
     1
 40
1.0
176
     1
 90
        0
176
     1
 62
    18
420
        0
176
     1
 90
       50
176
     1
 90
        3
176
     1
 62
     5
420
      255
176
     1
290
     0
176
     1
 90
       50
176
     1
 90
       50
176
     1
 90
       50
176
     1
290
     0
176
     1
 90
       50
176
     1
 62
   256
176
     0
 40
1.0
176
     0
 90
        2
176
     1
  1
strokes_ogs.tif
176
     1
290
     0
176
     1
 40
1.0
176
     1
 40
1.0
176
     1
  0
VISUALSTYLE
  5
BCA
102
{ACAD_REACTORS
330
2F
102
}
330
2F
100
AcDbVisualStyle
  2
Conceptual
 70
     9
177
     3
291
     0
 70
    58
 90
        3
176
     1
 90
        2
176
     1
 90
        0
176
     1
 90
        0
176
     1
 40
0.6
176
     1
 40
30.0
176
     1
 62
     7
176
     1
 90
        2
176
     1
 90
        2
176
     1
 62
     7
176
     1
 62
   257
176
     1
 90
        1
176
     1
 90
        1
176
     1
 40
179.0
176
     1
 90
        8
176
     1
 62
     7
176
     1
 40
1.0
176
     1
 90
        1
176
     1
 90
        6
176
     1
 90
        2
176
     1
 62
     7
176
     1
 90
        3
176
     1
 90
        0
176
     1
 90
        0
176
     1
290
     0
176
     1
 90
        1
176
     1
 40
0.0
176
     1
 90
        0
176
     1
290
     0
176
     1
290
     1
176
     1
290
     1
176
     1
290
     0
176
     1
290
     0
176
     1
290
     0
176
     1
290
     0
176
     1
290
     0
176
     1
290
     0
176
     1
 90
       50
176
     1
 40
0.0
176
     1
 40
1.0
176
     1
 90
        0
176
     1
 62
    18
420
        0
176
     1
 90
       50
176
     1
 90
        3
176
     1
 62
     5
420
      255
176
     1
290
     0
176
     1
 90
       50
176
     1
 90
       50
176
     1
 90
       50
176
     1
290
     0
176
     1
 90
       50
176
     1
 62
   256
176
     0
 40
1.0
176
     0
 90
        2
176
     1
  1
strokes_ogs.tif
176
     1
290
     0
176
     1
 40
1.0
176
     1
 40
1.0
176
     1
  0
VISUALSTYLE
  5
BCB
102
{ACAD_REACTORS
330
2F
102
}
330
2F
100
AcDbVisualStyle
  2
Dim
 70
    11
177
     3
291
     1
 70
    58
 90
        2
176
     1
 90
        2
176
     1
 90
        0
176
     1
 90
        0
176
     1
 40
0.6
176
     1
 40
30.0
176
     1
 62
     7
176
     1
 90
        1
176
     1
 90
        4
176
     1
 62
     7
176
     1
 62
   257
176
     1
 90
        1
176
     1
 90
        1
176
     1
 40
1.0
176
     1
 90
        8
176
     1
 62
     7
176
     1
 40
1.0
176
     1
 90
        1
176
     1
 90
        6
176
     1
 90
        2
176
     1
 62
     7
176
     1
 90
        5
176
     1
 90
        0
176
     1
 90
        0
176
     1
290
     0
176
     1
 90
        1
176
     1
 40
-50.0
176
     1
 90
        0
176
     1
290
     0
176
     1
290
     1
176
     1
290
     1
176
     1
290
     0
176
     1
290
     0
176
     1
290
     0
176
     1
290
     0
176
     1
290
     0
176
     1
290
     0
176
     1
 90
       50
176
     1
 40
0.0
176
     1
 40
1.0
176
     1
 90
        0
176
     1
 62
    18
420
        0
176
     1
 90
       50
176
     1
 90
        3
176
     1
 62
     5
420
      255
176
     1
290
     0
176
     1
 90
       50
176
     1
 90
       50
176
     1
 90
       50
176
     1
290
     0
176
     1
 90
       50
176
     1
 62
   256
176
     0
 40
1.0
176
     0
 90
        2
176
     1
  1
strokes_ogs.tif
176
     1
290
     0
176
     1
 40
1.0
176
     1
 40
1.0
176
     1
  0
VISUALSTYLE
  5
BD8
102
{ACAD_REACTORS
330
2F
102
}
330
2F
100
AcDbVisualStyle
  2
EdgeColorOff
 70
    22
177
     3
291
     1
 70
    58
 90
        2
176
     0
 90
        2
176
     0
 90
        0
176
     0
 90
        0
176
     0
 40
0.6
176
     0
 40
30.0
176
     0
 62
     7
176
     0
 90
        1
176
     0
 90
        4
176
     0
 62
     7
176
     0
 62
   257
176
     0
 90
        1
176
     0
 90
        1
176
     0
 40
1.0
176
     0
 90
        8
176
     2
 62
     7
176
     0
 40
1.0
176
     0
 90
        1
176
     0
 90
        6
176
     0
 90
        2
176
     0
 62
     7
176
     0
 90
        5
176
     0
 90
        0
176
     0
 90
        0
176
     0
290
     0
176
     0
 90
        1
176
     0
 40
0.0
176
     0
 90
        0
176
     0
290
     0
176
     0
290
     1
176
     0
290
     1
176
     0
290
     0
176
     0
290
     0
176
     0
290
     0
176
     0
290
     0
176
     0
290
     0
176
     0
290
     0
176
     0
 90
       50
176
     0
 40
0.0
176
     0
 40
1.0
176
     0
 90
        0
176
     0
 62
    18
420
        0
176
     0
 90
       50
176
     0
 90
        3
176
     0
 62
     5
420
      255
176
     0
290
     0
176
     0
 90
       50
176
     0
 90
       50
176
     0
 90
       50
176
     0
290
     0
176
     0
 90
       50
176
     0
 62
   256
176
     0
 40
1.0
176
     0
 90
        2
176
     0
  1
strokes_ogs.tif
176
     0
290
     0
176
     0
 40
1.0
176
     0
 40
1.0
176
     0
  0
VISUALSTYLE
  5
BCF
102
{ACAD_REACTORS
330
2F
102
}
330
2F
100
AcDbVisualStyle
  2
Facepattern
 70
    15
177
     3
291
     1
 70
    58
 90
        2
176
     1
 90
        2
176
     1
 90
        0
176
     1
 90
        0
176
     1
 40
0.6
176
     1
 40
30.0
176
     1
 62
     7
176
     1
 90
        1
176
     1
 90
        4
176
     1
 62
     7
176
     1
 62
   257
176
     1
 90
        1
176
     1
 90
        1
176
     1
 40
1.0
176
     1
 90
        8
176
     1
 62
     7
176
     1
 40
1.0
176
     1
 90
        1
176
     1
 90
        6
176
     1
 90
        2
176
     1
 62
     7
176
     1
 90
        5
176
     1
 90
        0
176
     1
 90
        0
176
     1
290
     0
176
     1
 90
        1
176
     1
 40
0.0
176
     1
 90
        0
176
     1
290
     0
176
     1
290
     1
176
     1
290
     1
176
     1
290
     0
176
     1
290
     0
176
     1
290
     0
176
     1
290
     0
176
     1
290
     0
176
     1
290
     0
176
     1
 90
       50
176
     1
 40
0.0
176
     1
 40
1.0
176
     1
 90
        0
176
     1
 62
    18
420
        0
176
     1
 90
       50
176
     1
 90
        3
176
     1
 62
     5
420
      255
176
     1
290
     0
176
     1
 90
       50
176
     1
 90
       50
176
     1
 90
       50
176
     1
290
     0
176
     1
 90
       50
176
     1
 62
   256
176
     0
 40
1.0
176
     0
 90
        2
176
     1
  1
strokes_ogs.tif
176
     1
290
     0
176
     1
 40
1.0
176
     1
 40
1.0
176
     1
  0
VISUALSTYLE
  5
BC3
102
{ACAD_REACTORS
330
2F
102
}
330
2F
100
AcDbVisualStyle
  2
Flat
 70
     0
177
     3
291
     1
 70
    58
 90
        2
176
     1
 90
        1
176
     1
 90
        1
176
     1
 90
        2
176
     1
 40
0.6
176
     1
 40
30.0
176
     1
 62
     7
176
     1
 90
        0
176
     1
 90
        0
176
     1
 62
     7
176
     1
 62
   257
176
     1
 90
        1
176
     1
 90
        1
176
     1
 40
1.0
176
     1
 90
        8
176
     1
 62
     7
176
     1
 40
1.0
176
     1
 90
        1
176
     1
 90
        6
176
     1
 90
        2
176
     1
 62
     7
176
     1
 90
        5
176
     1
 90
        0
176
     1
 90
        0
176
     1
290
     0
176
     1
 90
       13
176
     1
 40
0.0
176
     1
 90
        0
176
     1
290
     0
176
     1
290
     1
176
     1
290
     1
176
     1
290
     0
176
     1
290
     0
176
     1
290
     0
176
     1
290
     0
176
     1
290
     0
176
     1
290
     0
176
     1
 90
       50
176
     1
 40
0.0
176
     1
 40
1.0
176
     1
 90
        0
176
     1
 62
    18
420
        0
176
     1
 90
       50
176
     1
 90
        3
176
     1
 62
     5
420
      255
176
     1
290
     0
176
     1
 90
       50
176
     1
 90
       50
176
     1
 90
       50
176
     1
290
     0
176
     1
 90
       50
176
     1
 62
   256
176
     0
 40
1.0
176
     0
 90
        2
176
     1
  1
strokes_ogs.tif
176
     1
290
     0
176
     1
 40
1.0
176
     1
 40
1.0
176
     1
  0
VISUALSTYLE
  5
BC4
102
{ACAD_REACTORS
330
2F
102
}
330
2F
100
AcDbVisualStyle
  2
FlatWithEdges
 70
     1
177
     3
291
     1
 70
    58
 90
        2
176
     1
 90
        1
176
     1
 90
        1
176
     1
 90
        2
176
     1
 40
0.6
176
     1
 40
30.0
176
     1
 62
     7
176
     1
 90
        1
176
     1
 90
        0
176
     1
 62
     7
176
     1
 62
   257
176
     1
 90
        1
176
     1
 90
        1
176
     1
 40
1.0
176
     1
 90
        0
176
     1
 62
   257
176
     1
 40
1.0
176
     1
 90
        1
176
     1
 90
        6
176
     1
 90
        2
176
     1
 62
     7
176
     1
 90
        5
176
     1
 90
        0
176
     1
 90
        0
176
     1
290
     0
176
     1
 90
       13
176
     1
 40
0.0
176
     1
 90
        0
176
     1
290
     0
176
     1
290
     1
176
     1
290
     1
176
     1
290
     0
176
     1
290
     0
176
     1
290
     0
176
     1
290
     0
176
     1
290
     0
176
     1
290
     0
176
     1
 90
       50
176
     1
 40
0.0
176
     1
 40
1.0
176
     1
 90
        0
176
     1
 62
    18
420
        0
176
     1
 90
       50
176
     1
 90
        3
176
     1
 62
     5
420
      255
176
     1
290
     0
176
     1
 90
       50
176
     1
 90
       50
176
     1
 90
       50
176
     1
290
     0
176
     1
 90
       50
176
     1
 62
   256
176
     0
 40
1.0
176
     0
 90
        2
176
     1
  1
strokes_ogs.tif
176
     1
290
     0
176
     1
 40
1.0
176
     1
 40
1.0
176
     1
  0
VISUALSTYLE
  5
BC5
102
{ACAD_REACTORS
330
2F
102
}
330
2F
100
AcDbVisualStyle
  2
Gouraud
 70
     2
177
     3
291
     1
 70
    58
 90
        2
176
     1
 90
        2
176
     1
 90
        1
176
     1
 90
        2
176
     1
 40
0.6
176
     1
 40
30.0
176
     1
 62
     7
176
     1
 90
        0
176
     1
 90
        0
176
     1
 62
     7
176
     1
 62
   257
176
     1
 90
        1
176
     1
 90
        1
176
     1
 40
1.0
176
     1
 90
        0
176
     1
 62
     7
176
     1
 40
1.0
176
     1
 90
        1
176
     1
 90
        6
176
     1
 90
        2
176
     1
 62
     7
176
     1
 90
        5
176
     1
 90
        0
176
     1
 90
        0
176
     1
290
     0
176
     1
 90
       13
176
     1
 40
0.0
176
     1
 90
        0
176
     1
290
     0
176
     1
290
     1
176
     1
290
     1
176
     1
290
     0
176
     1
290
     0
176
     1
290
     0
176
     1
290
     0
176
     1
290
     0
176
     1
290
     0
176
     1
 90
       50
176
     1
 40
0.0
176
     1
 40
1.0
176
     1
 90
        0
176
     1
 62
    18
420
        0
176
     1
 90
       50
176
     1
 90
        3
176
     1
 62
     5
420
      255
176
     1
290
     0
176
     1
 90
       50
176
     1
 90
       50
176
     1
 90
       50
176
     1
290
     0
176
     1
 90
       50
176
     1
 62
   256
176
     0
 40
1.0
176
     0
 90
        2
176
     1
  1
strokes_ogs.tif
176
     1
290
     0
176
     1
 40
1.0
176
     1
 40
1.0
176
     1
  0
VISUALSTYLE
  5
BC6
102
{ACAD_REACTORS
330
2F
102
}
330
2F
100
AcDbVisualStyle
  2
GouraudWithEdges
 70
     3
177
     3
291
     1
 70
    58
 90
        2
176
     1
 90
        2
176
     1
 90
        1
176
     1
 90
        2
176
     1
 40
0.6
176
     1
 40
30.0
176
     1
 62
     7
176
     1
 90
        1
176
     1
 90
        0
176
     1
 62
     7
176
     1
 62
   257
176
     1
 90
        1
176
     1
 90
        1
176
     1
 40
1.0
176
     1
 90
        0
176
     1
 62
   257
176
     1
 40
1.0
176
     1
 90
        1
176
     1
 90
        6
176
     1
 90
        2
176
     1
 62
     7
176
     1
 90
        5
176
     1
 90
        0
176
     1
 90
        0
176
     1
290
     0
176
     1
 90
       13
176
     1
 40
0.0
176
     1
 90
        0
176
     1
290
     0
176
     1
290
     1
176
     1
290
     1
176
     1
290
     0
176
     1
290
     0
176
     1
290
     0
176
     1
290
     0
176
     1
290
     0
176
     1
290
     0
176
     1
 90
       50
176
     1
 40
0.0
176
     1
 40
1.0
176
     1
 90
        0
176
     1
 62
    18
420
        0
176
     1
 90
       50
176
     1
 90
        3
176
     1
 62
     5
420
      255
176
     1
290
     0
176
     1
 90
       50
176
     1
 90
       50
176
     1
 90
       50
176
     1
290
     0
176
     1
 90
       50
176
     1
 62
   256
176
     0
 40
1.0
176
     0
 90
        2
176
     1
  1
strokes_ogs.tif
176
     1
290
     0
176
     1
 40
1.0
176
     1
 40
1.0
176
     1
  0
VISUALSTYLE
  5
BC9
102
{ACAD_REACTORS
330
2F
102
}
330
2F
100
AcDbVisualStyle
  2
Hidden
 70
     6
177
     3
291
     0
 70
    58
 90
        1
176
     1
 90
        2
176
     1
 90
        2
176
     1
 90
        0
176
     1
 40
0.6
176
     1
 40
30.0
176
     1
 62
     7
176
     1
 90
        2
176
     1
 90
        2
176
     1
 62
     7
176
     1
 62
   257
176
     1
 90
        2
176
     1
 90
        1
176
     1
 40
40.0
176
     1
 90
        0
176
     1
 62
   257
176
     1
 40
1.0
176
     1
 90
        1
176
     1
 90
        6
176
     1
 90
        2
176
     1
 62
     7
176
     1
 90
        3
176
     1
 90
        0
176
     1
 90
        0
176
     1
290
     0
176
     1
 90
        1
176
     1
 40
0.0
176
     1
 90
        0
176
     1
290
     0
176
     1
290
     1
176
     1
290
     1
176
     1
290
     0
176
     1
290
     0
176
     1
290
     0
176
     1
290
     0
176
     1
290
     0
176
     1
290
     0
176
     1
 90
       50
176
     1
 40
0.0
176
     1
 40
1.0
176
     1
 90
        0
176
     1
 62
    18
420
        0
176
     1
 90
       50
176
     1
 90
        3
176
     1
 62
     5
420
      255
176
     1
290
     0
176
     1
 90
       50
176
     1
 90
       50
176
     1
 90
       50
176
     1
290
     0
176
     1
 90
       50
176
     1
 62
   256
176
     0
 40
1.0
176
     0
 90
        2
176
     1
  1
strokes_ogs.tif
176
     1
290
     0
176
     1
 40
1.0
176
     1
 40
1.0
176
     1
  0
VISUALSTYLE
  5
BD6
102
{ACAD_REACTORS
330
2F
102
}
330
2F
100
AcDbVisualStyle
  2
JitterOff
 70
    20
177
     3
291
     1
 70
    58
 90
        2
176
     0
 90
        2
176
     0
 90
        0
176
     0
 90
        0
176
     0
 40
0.6
176
     0
 40
30.0
176
     0
 62
     7
176
     0
 90
        1
176
     0
 90
        4
176
     0
 62
     7
176
     0
 62
   257
176
     0
 90
        1
176
     0
 90
        1
176
     0
 40
1.0
176
     0
 90
       10
176
     2
 62
     7
176
     0
 40
1.0
176
     0
 90
        1
176
     0
 90
        6
176
     0
 90
        2
176
     0
 62
     7
176
     0
 90
        5
176
     0
 90
        0
176
     0
 90
        0
176
     0
290
     0
176
     0
 90
        1
176
     0
 40
0.0
176
     0
 90
        0
176
     0
290
     0
176
     0
290
     1
176
     0
290
     1
176
     0
290
     0
176
     0
290
     0
176
     0
290
     0
176
     0
290
     0
176
     0
290
     0
176
     0
290
     0
176
     0
 90
       50
176
     0
 40
0.0
176
     0
 40
1.0
176
     0
 90
        0
176
     0
 62
    18
420
        0
176
     0
 90
       50
176
     0
 90
        3
176
     0
 62
     5
420
      255
176
     0
290
     0
176
     0
 90
       50
176
     0
 90
       50
176
     0
 90
       50
176
     0
290
     0
176
     0
 90
       50
176
     0
 62
   256
176
     0
 40
1.0
176
     0
 90
        2
176
     0
  1
strokes_ogs.tif
176
     0
290
     0
176
     0
 40
1.0
176
     0
 40
1.0
176
     0
  0
VISUALSTYLE
  5
BCE
102
{ACAD_REACTORS
330
2F
102
}
330
2F
100
AcDbVisualStyle
  2
Linepattern
 70
    14
177
     3
291
     1
 70
    58
 90
        2
176
     1
 90
        2
176
     1
 90
        0
176
     1
 90
        0
176
     1
 40
0.6
176
     1
 40
30.0
176
     1
 62
     7
176
     1
 90
        1
176
     1
 90
        4
176
     1
 62
     7
176
     1
 62
   257
176
     1
 90
        7
176
     1
 90
        7
176
     1
 40
1.0
176
     1
 90
        8
176
     1
 62
     7
176
     1
 40
1.0
176
     1
 90
        1
176
     1
 90
        6
176
     1
 90
        2
176
     1
 62
     7
176
     1
 90
        5
176
     1
 90
        0
176
     1
 90
        0
176
     1
290
     0
176
     1
 90
        1
176
     1
 40
0.0
176
     1
 90
        0
176
     1
290
     0
176
     1
290
     1
176
     1
290
     1
176
     1
290
     0
176
     1
290
     0
176
     1
290
     0
176
     1
290
     0
176
     1
290
     0
176
     1
290
     0
176
     1
 90
       50
176
     1
 40
0.0
176
     1
 40
1.0
176
     1
 90
        0
176
     1
 62
    18
420
        0
176
     1
 90
       50
176
     1
 90
        3
176
     1
 62
     5
420
      255
176
     1
290
     0
176
     1
 90
       50
176
     1
 90
       50
176
     1
 90
       50
176
     1
290
     0
176
     1
 90
       50
176
     1
 62
   256
176
     0
 40
1.0
176
     0
 90
        2
176
     1
  1
strokes_ogs.tif
176
     1
290
     0
176
     1
 40
1.0
176
     1
 40
1.0
176
     1
  0
VISUALSTYLE
  5
BD7
102
{ACAD_REACTORS
330
2F
102
}
330
2F
100
AcDbVisualStyle
  2
OverhangOff
 70
    21
177
     3
291
     1
 70
    58
 90
        2
176
     0
 90
        2
176
     0
 90
        0
176
     0
 90
        0
176
     0
 40
0.6
176
     0
 40
30.0
176
     0
 62
     7
176
     0
 90
        1
176
     0
 90
        4
176
     0
 62
     7
176
     0
 62
   257
176
     0
 90
        1
176
     0
 90
        1
176
     0
 40
1.0
176
     0
 90
        9
176
     2
 62
     7
176
     0
 40
1.0
176
     0
 90
        1
176
     0
 90
        6
176
     0
 90
        2
176
     0
 62
     7
176
     0
 90
        5
176
     0
 90
        0
176
     0
 90
        0
176
     0
290
     0
176
     0
 90
        1
176
     0
 40
0.0
176
     0
 90
        0
176
     0
290
     0
176
     0
290
     1
176
     0
290
     1
176
     0
290
     0
176
     0
290
     0
176
     0
290
     0
176
     0
290
     0
176
     0
290
     0
176
     0
290
     0
176
     0
 90
       50
176
     0
 40
0.0
176
     0
 40
1.0
176
     0
 90
        0
176
     0
 62
    18
420
        0
176
     0
 90
       50
176
     0
 90
        3
176
     0
 62
     5
420
      255
176
     0
290
     0
176
     0
 90
       50
176
     0
 90
       50
176
     0
 90
       50
176
     0
290
     0
176
     0
 90
       50
176
     0
 62
   256
176
     0
 40
1.0
176
     0
 90
        2
176
     0
  1
strokes_ogs.tif
176
     0
290
     0
176
     0
 40
1.0
176
     0
 40
1.0
176
     0
  0
VISUALSTYLE
  5
46
102
{ACAD_REACTORS
330
2F
102
}
330
2F
100
AcDbVisualStyle
  2
Realistic
 70
     8
177
     3
291
     0
 70
    58
 90
        2
176
     1
 90
        2
176
     1
 90
        1
176
     1
 90
        0
176
     1
 40
0.6
176
     1
 40
30.0
176
     1
 62
     7
176
     1
 90
        1
176
     1
 90
        0
176
     1
 62
     7
176
     1
 62
   257
176
     1
 90
        1
176
     1
 90
        1
176
     1
 40
1.0
176
     1
 90
        8
176
     1
 62
     8
176
     1
 40
1.0
176
     1
 90
        1
176
     1
 90
        6
176
     1
 90
        2
176
     1
 62
     7
176
     1
 90
        5
176
     1
 90
        0
176
     1
 90
        0
176
     1
290
     0
176
     1
 90
       13
176
     1
 40
0.0
176
     1
 90
        0
176
     1
290
     0
176
     1
290
     1
176
     1
290
     1
176
     1
290
     0
176
     1
290
     0
176
     1
290
     0
176
     1
290
     0
176
     1
290
     0
176
     1
290
     0
176
     1
 90
       50
176
     1
 40
0.0
176
     1
 40
1.0
176
     1
 90
        0
176
     1
 62
    18
420
        0
176
     1
 90
       50
176
     1
 90
        3
176
     1
 62
     5
420
      255
176
     1
290
     0
176
     1
 90
       50
176
     1
 90
       50
176
     1
 90
       50
176
     1
290
     0
176
     1
 90
       50
176
     1
 62
   256
176
     0
 40
1.0
176
     0
 90
        2
176
     1
  1
strokes_ogs.tif
176
     1
290
     0
176
     1
 40
1.0
176
     1
 40
1.0
176
     1
  0
VISUALSTYLE
  5
BD5
102
{ACAD_REACTORS
330
2F
102
}
330
2F
100
AcDbVisualStyle
  2
Shaded
 70
    27
177
     3
291
     0
 70
    58
 90
        2
176
     1
 90
        2
176
     1
 90
        1
176
     1
 90
        2
176
     1
 40
0.6
176
     1
 40
30.0
176
     1
 62
     7
176
     1
 90
        0
176
     1
 90
        4
176
     1
 62
     7
176
     1
 62
   257
176
     1
 90
        1
176
     1
 90
        1
176
     1
 40
1.0
176
     1
 90
        8
176
     1
 62
   257
176
     1
 40
1.0
176
     1
 90
        1
176
     1
 90
        6
176
     1
 90
        2
176
     1
 62
     8
176
     1
 90
        3
176
     1
 90
        0
176
     1
 90
        0
176
     1
290
     0
176
     1
 90
        5
176
     1
 40
0.0
176
     1
 90
        0
176
     1
290
     0
176
     1
290
     1
176
     1
290
     1
176
     1
290
     0
176
     1
290
     0
176
     1
290
     0
176
     1
290
     0
176
     1
290
     0
176
     1
290
     0
176
     1
 90
       50
176
     1
 40
0.0
176
     1
 40
1.0
176
     1
 90
        0
176
     1
 62
    18
420
        0
176
     1
 90
       50
176
     1
 90
        3
176
     1
 62
     5
420
      255
176
     1
290
     0
176
     1
 90
       50
176
     1
 90
       50
176
     1
 90
       50
176
     1
290
     0
176
     1
 90
       50
176
     1
 62
   256
176
     0
 40
1.0
176
     0
 90
        2
176
     1
  1
strokes_ogs.tif
176
     1
290
     0
176
     1
 40
1.0
176
     1
 40
1.0
176
     1
  0
VISUALSTYLE
  5
BD4
102
{ACAD_REACTORS
330
2F
102
}
330
2F
100
AcDbVisualStyle
  2
Shaded with edges
 70
    26
177
     3
291
     0
 70
    58
 90
        2
176
     1
 90
        2
176
     1
 90
        1
176
     1
 90
        2
176
     1
 40
0.6
176
     1
 40
30.0
176
     1
 62
     7
176
     1
 90
        1
176
     1
 90
       10
176
     1
 62
     7
176
     1
 62
   257
176
     1
 90
        2
176
     1
 90
        1
176
     1
 40
1.0
176
     1
 90
        8
176
     1
 62
   257
176
     1
 40
1.0
176
     1
 90
        1
176
     1
 90
        6
176
     1
 90
        2
176
     1
 62
     7
176
     1
 90
        3
176
     1
 90
        0
176
     1
 90
        0
176
     1
290
     0
176
     1
 90
        5
176
     1
 40
0.0
176
     1
 90
        0
176
     1
290
     0
176
     1
290
     1
176
     1
290
     1
176
     1
290
     0
176
     1
290
     0
176
     1
290
     0
176
     1
290
     0
176
     1
290
     0
176
     1
290
     0
176
     1
 90
       50
176
     1
 40
0.0
176
     1
 40
1.0
176
     1
 90
        0
176
     1
 62
    18
420
        0
176
     1
 90
       50
176
     1
 90
        3
176
     1
 62
     5
420
      255
176
     1
290
     0
176
     1
 90
       50
176
     1
 90
       50
176
     1
 90
       50
176
     1
290
     0
176
     1
 90
       50
176
     1
 62
   256
176
     0
 40
1.0
176
     0
 90
        2
176
     1
  1
strokes_ogs.tif
176
     1
290
     0
176
     1
 40
1.0
176
     1
 40
1.0
176
     1
  0
VISUALSTYLE
  5
BD1
102
{ACAD_REACTORS
330
2F
102
}
330
2F
100
AcDbVisualStyle
  2
Shades of Gray
 70
    23
177
     3
291
     0
 70
    58
 90
        2
176
     1
 90
        2
176
     1
 90
        3
176
     1
 90
        0
176
     1
 40
0.6
176
     1
 40
30.0
176
     1
 62
     7
176
     1
 90
        2
176
     1
 90
        2
176
     1
 62
     7
176
     1
 62
     7
176
     1
 90
        1
176
     1
 90
        1
176
     1
 40
40.0
176
     1
 90
        8
176
     1
 62
     7
176
     1
 40
1.0
176
     1
 90
        1
176
     1
 90
        6
176
     1
 90
        2
176
     1
 62
     7
176
     1
 90
        3
176
     1
 90
        0
176
     1
 90
        0
176
     1
290
     0
176
     1
 90
        1
176
     1
 40
0.0
176
     1
 90
        0
176
     1
290
     0
176
     1
290
     1
176
     1
290
     1
176
     1
290
     0
176
     1
290
     0
176
     1
290
     0
176
     1
290
     0
176
     1
290
     0
176
     1
290
     0
176
     1
 90
       50
176
     1
 40
0.0
176
     1
 40
1.0
176
     1
 90
        0
176
     1
 62
    18
420
        0
176
     1
 90
       50
176
     1
 90
        3
176
     1
 62
     5
420
      255
176
     1
290
     0
176
     1
 90
       50
176
     1
 90
       50
176
     1
 90
       50
176
     1
290
     0
176
     1
 90
       50
176
     1
 62
   256
176
     0
 40
1.0
176
     0
 90
        2
176
     1
  1
strokes_ogs.tif
176
     1
290
     0
176
     1
 40
1.0
176
     1
 40
1.0
176
     1
  0
VISUALSTYLE
  5
BD2
102
{ACAD_REACTORS
330
2F
102
}
330
2F
100
AcDbVisualStyle
  2
Sketchy
 70
    24
177
     3
291
     0
 70
    58
 90
        1
176
     1
 90
        2
176
     1
 90
        2
176
     1
 90
        0
176
     1
 40
0.6
176
     1
 40
30.0
176
     1
 62
     7
176
     1
 90
        2
176
     1
 90
        2
176
     1
 62
     7
176
     1
 62
     7
176
     1
 90
        1
176
     1
 90
        1
176
     1
 40
40.0
176
     1
 90
       11
176
     1
 62
     7
176
     1
 40
1.0
176
     1
 90
        1
176
     1
 90
        6
176
     1
 90
        2
176
     1
 62
     7
176
     1
 90
        6
176
     1
 90
        0
176
     1
 90
        0
176
     1
290
     0
176
     1
 90
        1
176
     1
 40
0.0
176
     1
 90
        0
176
     1
290
     0
176
     1
290
     1
176
     1
290
     1
176
     1
290
     0
176
     1
290
     0
176
     1
290
     0
176
     1
290
     0
176
     1
290
     0
176
     1
290
     0
176
     1
 90
       50
176
     1
 40
0.0
176
     1
 40
1.0
176
     1
 90
        0
176
     1
 62
    18
420
        0
176
     1
 90
       50
176
     1
 90
        3
176
     1
 62
     5
420
      255
176
     1
290
     0
176
     1
 90
       50
176
     1
 90
       50
176
     1
 90
       50
176
     1
290
     0
176
     1
 90
       50
176
     1
 62
   256
176
     0
 40
1.0
176
     0
 90
        2
176
     1
  1
strokes_ogs.tif
176
     1
290
     0
176
     1
 40
1.0
176
     1
 40
1.0
176
     1
  0
VISUALSTYLE
  5
BCD
102
{ACAD_REACTORS
330
2F
102
}
330
2F
100
AcDbVisualStyle
  2
Thicken
 70
    13
177
     3
291
     1
 70
    58
 90
        2
176
     1
 90
        2
176
     1
 90
        0
176
     1
 90
        0
176
     1
 40
0.6
176
     1
 40
30.0
176
     1
 62
     7
176
     1
 90
        1
176
     1
 90
        4
176
     1
 62
     7
176
     1
 62
   257
176
     1
 90
        1
176
     1
 90
        1
176
     1
 40
1.0
176
     1
 90
       12
176
     1
 62
     7
176
     1
 40
1.0
176
     1
 90
        1
176
     1
 90
        6
176
     1
 90
        2
176
     1
 62
     7
176
     1
 90
        5
176
     1
 90
        0
176
     1
 90
        0
176
     1
290
     0
176
     1
 90
        1
176
     1
 40
0.0
176
     1
 90
        0
176
     1
290
     0
176
     1
290
     1
176
     1
290
     1
176
     1
290
     0
176
     1
290
     0
176
     1
290
     0
176
     1
290
     0
176
     1
290
     0
176
     1
290
     0
176
     1
 90
       50
176
     1
 40
0.0
176
     1
 40
1.0
176
     1
 90
        0
176
     1
 62
    18
420
        0
176
     1
 90
       50
176
     1
 90
        3
176
     1
 62
     5
420
      255
176
     1
290
     0
176
     1
 90
       50
176
     1
 90
       50
176
     1
 90
       50
176
     1
290
     0
176
     1
 90
       50
176
     1
 62
   256
176
     0
 40
1.0
176
     0
 90
        2
176
     1
  1
strokes_ogs.tif
176
     1
290
     0
176
     1
 40
1.0
176
     1
 40
1.0
176
     1
  0
VISUALSTYLE
  5
BC8
102
{ACAD_REACTORS
330
2F
102
}
330
2F
100
AcDbVisualStyle
  2
Wireframe
 70
     5
177
     3
291
     0
 70
    58
 90
        0
176
     1
 90
        2
176
     1
 90
        0
176
     1
 90
        0
176
     1
 40
0.6
176
     1
 40
30.0
176
     1
 62
     7
176
     1
 90
        1
176
     1
 90
        4
176
     1
 62
     7
176
     1
 62
   257
176
     1
 90
        1
176
     1
 90
        1
176
     1
 40
1.0
176
     1
 90
        0
176
     1
 62
   257
176
     1
 40
1.0
176
     1
 90
        1
176
     1
 90
        6
176
     1
 90
        2
176
     1
 62
     7
176
     1
 90
        3
176
     1
 90
        0
176
     1
 90
        0
176
     1
290
     0
176
     1
 90
        1
176
     1
 40
0.0
176
     1
 90
        0
176
     1
290
     0
176
     1
290
     1
176
     1
290
     1
176
     1
290
     0
176
     1
290
     0
176
     1
290
     0
176
     1
290
     0
176
     1
290
     0
176
     1
290
     0
176
     1
 90
       50
176
     1
 40
0.0
176
     1
 40
1.0
176
     1
 90
        0
176
     1
 62
    18
420
        0
176
     1
 90
       50
176
     1
 90
        3
176
     1
 62
     5
420
      255
176
     1
290
     0
176
     1
 90
       50
176
     1
 90
       50
176
     1
 90
       50
176
     1
290
     0
176
     1
 90
       50
176
     1
 62
   256
176
     0
 40
1.0
176
     0
 90
        2
176
     1
  1
strokes_ogs.tif
176
     1
290
     0
176
     1
 40
1.0
176
     1
 40
1.0
176
     1
  0
VISUALSTYLE
  5
BD3
102
{ACAD_REACTORS
330
2F
102
}
330
2F
100
AcDbVisualStyle
  2
X-Ray
 70
    25
177
     3
291
     0
 70
    58
 90
        2
176
     1
 90
        2
176
     1
 90
        1
176
     1
 90
        1
176
     1
 40
0.5
176
     1
 40
30.0
176
     1
 62
     7
176
     1
 90
        1
176
     1
 90
        0
176
     1
 62
     7
176
     1
 62
   257
176
     1
 90
        1
176
     1
 90
        1
176
     1
 40
1.0
176
     1
 90
        8
176
     1
 62
     7
176
     1
 40
1.0
176
     1
 90
        1
176
     1
 90
        6
176
     1
 90
        2
176
     1
 62
     7
176
     1
 90
        3
176
     1
 90
        0
176
     1
 90
        0
176
     1
290
     0
176
     1
 90
       13
176
     1
 40
0.0
176
     1
 90
        0
176
     1
290
     0
176
     1
290
     1
176
     1
290
     1
176
     1
290
     0
176
     1
290
     0
176
     1
290
     0
176
     1
290
     0
176
     1
290
     0
176
     1
290
     0
176
     1
 90
       50
176
     1
 40
0.0
176
     1
 40
1.0
176
     1
 90
        0
176
     1
 62
    18
420
        0
176
     1
 90
       50
176
     1
 90
        3
176
     1
 62
     5
420
      255
176
     1
290
     0
176
     1
 90
       50
176
     1
 90
       50
176
     1
 90
       50
176
     1
290
     0
176
     1
 90
       50
176
     1
 62
   256
176
     0
 40
1.0
176
     0
 90
        2
176
     1
  1
strokes_ogs.tif
176
     1
290
     0
176
     1
 40
1.0
176
     1
 40
1.0
176
     1
  0
DICTIONARYVAR
  5
BBE
102
{ACAD_REACTORS
330
BB8
102
}
330
BB8
100
DictionaryVariables
280
     0
  1
1:1
  0
DICTIONARYVAR
  5
BBA
102
{ACAD_REACTORS
330
BB8
102
}
330
BB8
100
DictionaryVariables
280
     0
  1
STANDARD
  0
DICTIONARYVAR
  5
BB9
102
{ACAD_REACTORS
330
BB8
102
}
330
BB8
100
DictionaryVariables
280
     0
  1
STANDARD
  0
DICTIONARYVAR
  5
BBB
102
{ACAD_REACTORS
330
BB8
102
}
330
BB8
100
DictionaryVariables
280
     0
  1
Metric50
  0
DICTIONARYVAR
  5
BBC
102
{ACAD_REACTORS
330
BB8
102
}
330
BB8
100
DictionaryVariables
280
     0
  1
Metric50
  0
DICTIONARYVAR
  5
C3B
102
{ACAD_REACTORS
330
BB8
102
}
330
BB8
100
DictionaryVariables
280
     0
  1
1
  0
DICTIONARYVAR
  5
C39
102
{ACAD_REACTORS
330
BB8
102
}
330
BB8
100
DictionaryVariables
280
     0
  1
1
  0
DICTIONARYVAR
  5
FF3
102
{ACAD_REACTORS
330
BB8
102
}
330
BB8
100
DictionaryVariables
280
     0
  1
4
  0
DICTIONARYVAR
  5
C38
102
{ACAD_REACTORS
330
BB8
102
}
330
BB8
100
DictionaryVariables
280
     0
  1
0
  0
DICTIONARYVAR
  5
BC0
102
{ACAD_REACTORS
330
BB8
102
}
330
BB8
100
DictionaryVariables
280
     0
  1
1
  0
DICTIONARYVAR
  5
BC1
102
{ACAD_REACTORS
330
BB8
102
}
330
BB8
100
DictionaryVariables
280
     0
  1
15
  0
DICTIONARYVAR
  5
BBF
102
{ACAD_REACTORS
330
BB8
102
}
330
BB8
100
DictionaryVariables
280
     0
  1
0
  0
DICTIONARYVAR
  5
BBD
102
{ACAD_REACTORS
330
BB8
102
}
330
BB8
100
DictionaryVariables
280
     0
  1
0
  0
DICTIONARYVAR
  5
C3C
102
{ACAD_REACTORS
330
BB8
102
}
330
BB8
100
DictionaryVariables
280
     0
  1
1
  0
DICTIONARYVAR
  5
C37
102
{ACAD_REACTORS
330
BB8
102
}
330
BB8
100
DictionaryVariables
280
     0
  1
127
  0
DICTIONARY
  5
48BCF
330
283CD
100
AcDbDictionary
280
     1
281
     1
  3
ACAD_XREC_ROUNDTRIP
360
48BD0
  0
DICTIONARY
  5
48BCB
330
BDD
100
AcDbDictionary
280
     1
281
     1
  3
ACAD_XREC_ROUNDTRIP
360
48BCC
  0
DICTIONARY
  5
18
330
16
100
AcDbDictionary
280
     1
281
     1
  0
DICTIONARY
  5
1F
330
1E
100
AcDbDictionary
280
     1
281
     1
  0
DICTIONARY
  5
E
330
C
100
AcDbDictionary
280
     1
281
     1
  3
BUMPTILE
360
F
  3
DIFFUSETILE
360
10
  3
OPACITYTILE
360
11
  3
REFLECTIONTILE
360
12
  0
DICTIONARY
  5
48BCD
330
283CC
100
AcDbDictionary
280
     1
281
     1
  3
ACAD_XREC_ROUNDTRIP
360
48BCE
  0
DICTIONARY
  5
48BC9
330
BDB
100
AcDbDictionary
280
     1
281
     1
  3
ACAD_XREC_ROUNDTRIP
360
48BCA
  0
DICTIONARY
  5
45
330
44
100
AcDbDictionary
280
     1
281
     1
  3
ACAD_ROUNDTRIP_2008_TABLESTYLE_CELLSTYLEMAP
360
48BC8
  0
XRECORD
  5
48BD0
102
{ACAD_REACTORS
330
48BCF
102
}
330
48BCF
100
AcDbXrecord
280
     1
102
DISPLAYNAME
  1
Imperial24
102
FLAGS
 90
        0
  0
XRECORD
  5
48BCC
102
{ACAD_REACTORS
330
48BCB
102
}
330
48BCB
100
AcDbXrecord
280
     1
102
DISPLAYNAME
  1
Metric50
102
FLAGS
 90
        0
  0
XRECORD
  5
F
102
{ACAD_REACTORS
330
E
102
}
330
E
100
AcDbXrecord
280
     1
270
     1
271
     1
  0
XRECORD
  5
10
102
{ACAD_REACTORS
330
E
102
}
330
E
100
AcDbXrecord
280
     1
270
     1
271
     1
  0
XRECORD
  5
11
102
{ACAD_REACTORS
330
E
102
}
330
E
100
AcDbXrecord
280
     1
270
     1
271
     1
  0
XRECORD
  5
12
102
{ACAD_REACTORS
330
E
102
}
330
E
100
AcDbXrecord
280
     1
270
     1
271
     1
  0
XRECORD
  5
48BCE
102
{ACAD_REACTORS
330
48BCD
102
}
330
48BCD
100
AcDbXrecord
280
     1
102
DISPLAYNAME
  1
Imperial24
102
FLAGS
 90
        0
  0
XRECORD
  5
48BCA
102
{ACAD_REACTORS
330
48BC9
102
}
330
48BC9
100
AcDbXrecord
280
     1
102
DISPLAYNAME
  1
Metric50
102
FLAGS
 90
        0
  0
CELLSTYLEMAP
  5
48BC8
102
{ACAD_REACTORS
330
45
102
}
330
45
100
AcDbCellStyleMap
 90
        3
300
CELLSTYLE
  1
TABLEFORMAT_BEGIN
 90
        5
170
     1
 91
        0
 92
    32768
 62
   257
 93
        1
300
CONTENTFORMAT
  1
CONTENTFORMAT_BEGIN
 90
        0
 91
        0
 92
      512
 93
        0
300

 40
0.0
140
1.0
 94
        5
 62
     0
340
25
144
6.0
309
CONTENTFORMAT_END
171
     1
301
MARGIN
  1
CELLMARGIN_BEGIN
 40
1.5
 40
1.5
 40
1.5
 40
1.5
 40
0.18
 40
0.18
309
CELLMARGIN_END
 94
        6
 95
        1
302
GRIDFORMAT
  1
GRIDFORMAT_BEGIN
 90
        0
 91
        1
 62
     0
 92
       -2
340
28
 93
        0
 40
1.125
309
GRIDFORMAT_END
 95
        2
302
GRIDFORMAT
  1
GRIDFORMAT_BEGIN
 90
        0
 91
        1
 62
     0
 92
       -2
340
28
 93
        0
 40
1.125
309
GRIDFORMAT_END
 95
        4
302
GRIDFORMAT
  1
GRIDFORMAT_BEGIN
 90
        0
 91
        1
 62
     0
 92
       -2
340
28
 93
        0
 40
1.125
309
GRIDFORMAT_END
 95
        8
302
GRIDFORMAT
  1
GRIDFORMAT_BEGIN
 90
        0
 91
        1
 62
     0
 92
       -2
340
28
 93
        0
 40
1.125
309
GRIDFORMAT_END
 95
       16
302
GRIDFORMAT
  1
GRIDFORMAT_BEGIN
 90
        0
 91
        1
 62
     0
 92
       -2
340
28
 93
        0
 40
1.125
309
GRIDFORMAT_END
 95
       32
302
GRIDFORMAT
  1
GRIDFORMAT_BEGIN
 90
        0
 91
        1
 62
     0
 92
       -2
340
28
 93
        0
 40
1.125
309
GRIDFORMAT_END
309
TABLEFORMAT_END
  1
CELLSTYLE_BEGIN
 90
        1
 91
        1
300
_TITLE
309
CELLSTYLE_END
300
CELLSTYLE
  1
TABLEFORMAT_BEGIN
 90
        5
170
     1
 91
        0
 92
        0
 62
   257
 93
        1
300
CONTENTFORMAT
  1
CONTENTFORMAT_BEGIN
 90
        0
 91
        0
 92
      512
 93
        0
300

 40
0.0
140
1.0
 94
        5
 62
     0
340
25
144
4.5
309
CONTENTFORMAT_END
171
     1
301
MARGIN
  1
CELLMARGIN_BEGIN
 40
1.5
 40
1.5
 40
1.5
 40
1.5
 40
0.18
 40
0.18
309
CELLMARGIN_END
 94
        6
 95
        1
302
GRIDFORMAT
  1
GRIDFORMAT_BEGIN
 90
        0
 91
        1
 62
     0
 92
       -2
340
28
 93
        0
 40
1.125
309
GRIDFORMAT_END
 95
        2
302
GRIDFORMAT
  1
GRIDFORMAT_BEGIN
 90
        0
 91
        1
 62
     0
 92
       -2
340
28
 93
        0
 40
1.125
309
GRIDFORMAT_END
 95
        4
302
GRIDFORMAT
  1
GRIDFORMAT_BEGIN
 90
        0
 91
        1
 62
     0
 92
       -2
340
28
 93
        0
 40
1.125
309
GRIDFORMAT_END
 95
        8
302
GRIDFORMAT
  1
GRIDFORMAT_BEGIN
 90
        0
 91
        1
 62
     0
 92
       -2
340
28
 93
        0
 40
1.125
309
GRIDFORMAT_END
 95
       16
302
GRIDFORMAT
  1
GRIDFORMAT_BEGIN
 90
        0
 91
        1
 62
     0
 92
       -2
340
28
 93
        0
 40
1.125
309
GRIDFORMAT_END
 95
       32
302
GRIDFORMAT
  1
GRIDFORMAT_BEGIN
 90
        0
 91
        1
 62
     0
 92
       -2
340
28
 93
        0
 40
1.125
309
GRIDFORMAT_END
309
TABLEFORMAT_END
  1
CELLSTYLE_BEGIN
 90
        2
 91
        1
300
_HEADER
309
CELLSTYLE_END
300
CELLSTYLE
  1
TABLEFORMAT_BEGIN
 90
        5
170
     1
 91
        0
 92
        0
 62
   257
 93
        1
300
CONTENTFORMAT
  1
CONTENTFORMAT_BEGIN
 90
        0
 91
        0
 92
      512
 93
        0
300

 40
0.0
140
1.0
 94
        2
 62
     0
340
25
144
4.5
309
CONTENTFORMAT_END
171
     1
301
MARGIN
  1
CELLMARGIN_BEGIN
 40
1.5
 40
1.5
 40
1.5
 40
1.5
 40
0.18
 40
0.18
309
CELLMARGIN_END
 94
        6
 95
        1
302
GRIDFORMAT
  1
GRIDFORMAT_BEGIN
 90
        0
 91
        1
 62
     0
 92
       -2
340
28
 93
        0
 40
1.125
309
GRIDFORMAT_END
 95
        2
302
GRIDFORMAT
  1
GRIDFORMAT_BEGIN
 90
        0
 91
        1
 62
     0
 92
       -2
340
28
 93
        0
 40
1.125
309
GRIDFORMAT_END
 95
        4
302
GRIDFORMAT
  1
GRIDFORMAT_BEGIN
 90
        0
 91
        1
 62
     0
 92
       -2
340
28
 93
        0
 40
1.125
309
GRIDFORMAT_END
 95
        8
302
GRIDFORMAT
  1
GRIDFORMAT_BEGIN
 90
        0
 91
        1
 62
     0
 92
       -2
340
28
 93
        0
 40
1.125
309
GRIDFORMAT_END
 95
       16
302
GRIDFORMAT
  1
GRIDFORMAT_BEGIN
 90
        0
 91
        1
 62
     0
 92
       -2
340
28
 93
        0
 40
1.125
309
GRIDFORMAT_END
 95
       32
302
GRIDFORMAT
  1
GRIDFORMAT_BEGIN
 90
        0
 91
        1
 62
     0
 92
       -2
340
28
 93
        0
 40
1.125
309
GRIDFORMAT_END
309
TABLEFORMAT_END
  1
CELLSTYLE_BEGIN
 90
        3
 91
        2
300
_DATA
309
CELLSTYLE_END
  0
ENDSEC
  0
SECTION
  2
ACDSDATA
 70
     2
 71
     6
  0
ACDSSCHEMA
 90
        0
  1
AcDb_Thumbnail_Schema
  2
AcDbDs::ID
280
    10
 91
        8
  2
Thumbnail_Data
280
    15
 91
        0
101
ACDSRECORD
 95
        0
 90
        1
  2
AcDbDs::TreatedAsObjectData
280
     1
291
     1
101
ACDSRECORD
 95
        0
 90
        2
  2
AcDbDs::Legacy
280
     1
291
     1
101
ACDSRECORD
  1
AcDbDs::ID
 90
        3
  2
AcDs:Indexable
280
     1
291
     1
101
ACDSRECORD
  1
AcDbDs::ID
 90
        4
  2
AcDbDs::HandleAttribute
280
     7
282
     1
  0
ACDSSCHEMA
 90
        1
  1
AcDbDs::TreatedAsObjectDataSchema
  2
AcDbDs::TreatedAsObjectData
280
     1
 91
        0
  0
ACDSSCHEMA
 90
        2
  1
AcDbDs::LegacySchema
  2
AcDbDs::Legacy
280
     1
 91
        0
  0
ACDSSCHEMA
 90
        3
  1
AcDbDs::IndexedPropertySchema
  2
AcDs:Indexable
280
     1
 91
        0
  0
ACDSSCHEMA
 90
        4
  1
AcDbDs::HandleAttributeSchema
  2
AcDbDs::HandleAttribute
280
     7
 91
        1
284
     1
  0
ACDSRECORD
 90
        0
  2
AcDbDs::ID
280
    10
320
16
  2
Thumbnail_Data
280
    15
 94
     1602
310
89504E470D0A1A0A0000000D49484452000001000000007508030000009634CF9200000300504C5445000000000000C8C8C80000000000000000000000000000000000000000000000000000330000660000990000CC0000FF0033000033330033660033990033CC0033FF0066000066330066660066990066CC0066FF0099
310
000099330099660099990099CC0099FF00CC0000CC3300CC6600CC9900CCCC00CCFF00FF0000FF3300FF6600FF9900FFCC00FFFF3300003300333300663300993300CC3300FF3333003333333333663333993333CC3333FF3366003366333366663366993366CC3366FF3399003399333399663399993399CC3399FF33CC00
310
33CC3333CC6633CC9933CCCC33CCFF33FF0033FF3333FF6633FF9933FFCC33FFFF6600006600336600666600996600CC6600FF6633006633336633666633996633CC6633FF6666006666336666666666996666CC6666FF6699006699336699666699996699CC6699FF66CC0066CC3366CC6666CC9966CCCC66CCFF66FF0066
310
FF3366FF6666FF9966FFCC66FFFF9900009900339900669900999900CC9900FF9933009933339933669933999933CC9933FF9966009966339966669966999966CC9966FF9999009999339999669999999999CC9999FF99CC0099CC3399CC6699CC9999CCCC99CCFF99FF0099FF3399FF6699FF9999FFCC99FFFFCC0000CC00
310
33CC0066CC0099CC00CCCC00FFCC3300CC3333CC3366CC3399CC33CCCC33FFCC6600CC6633CC6666CC6699CC66CCCC66FFCC9900CC9933CC9966CC9999CC99CCCC99FFCCCC00CCCC33CCCC66CCCC99CCCCCCCCCCFFCCFF00CCFF33CCFF66CCFF99CCFFCCCCFFFFFF0000FF0033FF0066FF0099FF00CCFF00FFFF3300FF3333
310
FF3366FF3399FF33CCFF33FFFF6600FF6633FF6666FF6699FF66CCFF66FFFF9900FF9933FF9966FF9999FF99CCFF99FFFFCC00FFCC33FFCC66FFCC99FFCCCCFFCCFFFFFF00FFFF33FFFF66FFFF99FFFFCCFFFFFF0000000D0D0D1A1A1A2828283535354343435050505D5D5D6B6B6B787878868686939393A1A1A1AEAEAEBB
310
BBBBC9C9C9D6D6D6E4E4E4F1F1F1FFFFFF00000000000000000000000000000000000000000000000000000000000008F1915C000002FD4944415478DAEDDC6D7283201006608EB37F72B31CD96BECFF6A40404558520C5F2F93B6990E75E07159406B947AA670E17AF28A8D1431007706C081B22C2C2AA5EB71B05E8533BB
310
2CB2BF2D5D4F2D15228547197B00000000000000000000000000000032CABA4F6B1E40BC9502000090030000000000000000000000000000E9D1B97D80879BF8D5D11753DC9BA986001199CE4F0AA0C8767B0F83D900A69F050800C58A1E48DDAD03A82040228B8E0AB04E25C49FF9E4F3EA6E2558406035901C6658802D08
310
7ADE0B10002607080AF096D60E25BAC911ED739ABD371804383797625B3CFD956A40BBB7C628D82949909B9E9B1048105404B0F12CFC4FDF40C0DE001C23A026407488D9F367FBF75A5F9C7338529181624E7D42A06212740026C05F1F8268C8B228511C01E2023501D401403982FF00B8EE5A49CE38624D009BB92241303A
310
8069F8EB96808F1B3D8ACD94EE1831816A00DE1EF50CF0BA9F09FC35D0B800F70D767DA26404780BC1E10074D7E300BC21710F00FAC2C51ADD4C3AC2DD3BBFB01E19E401A82B8057DF7ED3476C2F091E2320D91403208D80B5CF6AEB78ED0860E910280BC0DB226BAB4CC429007EB6FF9108A0AF01D63FE6088019287A9E25
310
E60400D78980D33A60FF11D90C9D23E06621C4BCAFB169CF31B1563C7DFB361720718183F7F1730F40B64B642FA334BA12A4EF87C0FD52985CBC931D15341180B71D24C166B02E40DE05112980152041FF9BB8282ABB021C00287249AC1B000A4C59144DED2449F29D019CD7C7A949838B34B0198027FE7300000000404F00
310
C23B9ECD00C86E8DE500140F8216EE0DE601140E82161E9BCB04281B04BDE50000000000000000000000807100844F05B95AFA49A291005426C0D211009E1BC4A3B300000000000000000000000000C0AF57F89CF128D2800097DFBC4FE5370DACF689921C8E85F7F5BC0FFA919A1CECBFFA3940FD21700C80F775E84F9504
310
7D80E992E06CD32000FC4C7C2E00C04A10491049707480D38DA4FBCFE50300864033E9B852A9707AA49118ACC7B27AE103AA36CABF005465803FB888D4DC892658940000000049454E44AE426082
  0
ACDSRECORD
 90
        0
  2
AcDbDs::ID
280
    10
320
1E
  2
Thumbnail_Data
280
    15
 94
      882
310
89504E470D0A1A0A0000000D49484452000000B80000007F08030000006B00F8F900000300504C5445FFFFFF000000C8C8C80000000000000000000000000000000000000000000000000000330000660000990000CC0000FF0033000033330033660033990033CC0033FF0066000066330066660066990066CC0066FF0099
310
000099330099660099990099CC0099FF00CC0000CC3300CC6600CC9900CCCC00CCFF00FF0000FF3300FF6600FF9900FFCC00FFFF3300003300333300663300993300CC3300FF3333003333333333663333993333CC3333FF3366003366333366663366993366CC3366FF3399003399333399663399993399CC3399FF33CC00
310
33CC3333CC6633CC9933CCCC33CCFF33FF0033FF3333FF6633FF9933FFCC33FFFF6600006600336600666600996600CC6600FF6633006633336633666633996633CC6633FF6666006666336666666666996666CC6666FF6699006699336699666699996699CC6699FF66CC0066CC3366CC6666CC9966CCCC66CCFF66FF0066
310
FF3366FF6666FF9966FFCC66FFFF9900009900339900669900999900CC9900FF9933009933339933669933999933CC9933FF9966009966339966669966999966CC9966FF9999009999339999669999999999CC9999FF99CC0099CC3399CC6699CC9999CCCC99CCFF99FF0099FF3399FF6699FF9999FFCC99FFFFCC0000CC00
310
33CC0066CC0099CC00CCCC00FFCC3300CC3333CC3366CC3399CC33CCCC33FFCC6600CC6633CC6666CC6699CC66CCCC66FFCC9900CC9933CC9966CC9999CC99CCCC99FFCCCC00CCCC33CCCC66CCCC99CCCCCCCCCCFFCCFF00CCFF33CCFF66CCFF99CCFFCCCCFFFFFF0000FF0033FF0066FF0099FF00CCFF00FFFF3300FF3333
310
FF3366FF3399FF33CCFF33FFFF6600FF6633FF6666FF6699FF66CCFF66FFFF9900FF9933FF9966FF9999FF99CCFF99FFFFCC00FFCC33FFCC66FFCC99FFCCCCFFCCFFFFFF00FFFF33FFFF66FFFF99FFFFCCFFFFFF0000000D0D0D1A1A1A2828283535354343435050505D5D5D6B6B6B787878868686939393A1A1A1AEAEAEBB
310
BBBBC9C9C9D6D6D6E4E4E4F1F1F1FFFFFF000000000000000000000000000000000000000000000000000000000000B0E2D2350000002D4944415478DAEDC13101000000C2A0F54FED6F06A00000000000000000000000000000000000000000000080335BC70001E79522D80000000049454E44AE426082
  0
ENDSEC
  0
EOF
