  0
SECTION
  2
HEADER
  9
$ACADVER
  1
AC1027
  9
$ACADMAINTVER
 70
    55
  9
$DWGCODEPAGE
  3
ANSI_949
  9
$LASTSAVEDBY
  1
DESKTOP
  9
$REQUIREDVERSIONS
160
                 0
  9
$INSBASE
 10
0.0
 20
0.0
 30
0.0
  9
$EXTMIN
 10
-4.283775555476154
 20
-4.293954097465871
 30
-0.0000000000000087
  9
$EXTMAX
 10
355.3017911709587
 20
249.2438652366386
 30
0.0000000000000066
  9
$LIMMIN
 10
0.0
 20
0.0
  9
$LIMMAX
 10
420.0
 20
297.0
  9
$ORTHOMODE
 70
     0
  9
$REGENMODE
 70
     1
  9
$FILLMODE
 70
     1
  9
$QTEXTMODE
 70
     0
  9
$MIRRTEXT
 70
     0
  9
$LTSCALE
 40
5.0
  9
$ATTMODE
 70
     1
  9
$TEXTSIZE
 40
3.0
  9
$TRACEWID
 40
1.0
  9
$TEXTSTYLE
  7
Standard
  9
$CLAYER
  8
0
  9
$CELTYPE
  6
Continuous
  9
$CECOLOR
 62
     7
  9
$CELTSCALE
 40
1.0
  9
$DISPSILH
 70
     0
  9
$DIMSCALE
 40
1.0
  9
$DIMASZ
 40
2.5
  9
$DIMEXO
 40
0.625
  9
$DIMDLI
 40
3.75
  9
$DIMRND
 40
0.0
  9
$DIMDLE
 40
0.0
  9
$DIMEXE
 40
1.25
  9
$DIMTP
 40
0.0
  9
$DIMTM
 40
0.000000001
  9
$DIMTXT
 40
3.0
  9
$DIMCEN
 40
-0.5
  9
$DIMTSZ
 40
0.0
  9
$DIMTOL
 70
     0
  9
$DIMLIM
 70
     0
  9
$DIMTIH
 70
     0
  9
$DIMTOH
 70
     0
  9
$DIMSE1
 70
     0
  9
$DIMSE2
 70
     0
  9
$DIMTAD
 70
     1
  9
$DIMZIN
 70
     8
  9
$DIMBLK
  1

  9
$DIMASO
 70
     1
  9
$DIMSHO
 70
     1
  9
$DIMPOST
  1

  9
$DIMAPOST
  1

  9
$DIMALT
 70
     0
  9
$DIMALTD
 70
     3
  9
$DIMALTF
 40
0.03937007874016
  9
$DIMLFAC
 40
1.0
  9
$DIMTOFL
 70
     1
  9
$DIMTVP
 40
0.0
  9
$DIMTIX
 70
     0
  9
$DIMSOXD
 70
     0
  9
$DIMSAH
 70
     0
  9
$DIMBLK1
  1

  9
$DIMBLK2
  1

  9
$DIMSTYLE
  2
Standard
  9
$DIMCLRD
 70
     3
  9
$DIMCLRE
 70
     3
  9
$DIMCLRT
 70
     2
  9
$DIMTFAC
 40
0.7
  9
$DIMGAP
 40
0.625
  9
$DIMJUST
 70
     0
  9
$DIMSD1
 70
     0
  9
$DIMSD2
 70
     0
  9
$DIMTOLJ
 70
     0
  9
$DIMTZIN
 70
     8
  9
$DIMALTZ
 70
     0
  9
$DIMALTTZ
 70
     0
  9
$DIMUPT
 70
     0
  9
$DIMDEC
 70
     8
  9
$DIMTDEC
 70
     8
  9
$DIMALTU
 70
     2
  9
$DIMALTTD
 70
     3
  9
$DIMTXSTY
  7
Standard
  9
$DIMAUNIT
 70
     1
  9
$DIMADEC
 70
     0
  9
$DIMALTRND
 40
0.0
  9
$DIMAZIN
 70
     0
  9
$DIMDSEP
 70
    46
  9
$DIMATFIT
 70
     3
  9
$DIMFRAC
 70
     0
  9
$DIMLDRBLK
  1

  9
$DIMLUNIT
 70
     2
  9
$DIMLWD
 70
    -1
  9
$DIMLWE
 70
    -1
  9
$DIMTMOVE
 70
     0
  9
$DIMFXL
 40
1.0
  9
$DIMFXLON
 70
     0
  9
$DIMJOGANG
 40
0.7853981633974483
  9
$DIMTFILL
 70
     0
  9
$DIMTFILLCLR
 70
     0
  9
$DIMARCSYM
 70
     1
  9
$DIMLTYPE
  6

  9
$DIMLTEX1
  6

  9
$DIMLTEX2
  6

  9
$DIMTXTDIRECTION
 70
     0
  9
$LUNITS
 70
     2
  9
$LUPREC
 70
     4
  9
$SKETCHINC
 40
0.0
  9
$FILLETRAD
 40
0.0
  9
$AUNITS
 70
     0
  9
$AUPREC
 70
     0
  9
$MENU
  1
.
  9
$ELEVATION
 40
0.0
  9
$PELEVATION
 40
0.0
  9
$THICKNESS
 40
0.0
  9
$LIMCHECK
 70
     0
  9
$CHAMFERA
 40
1.5
  9
$CHAMFERB
 40
1.5
  9
$CHAMFERC
 40
0.0
  9
$CHAMFERD
 40
0.0087266462599716
  9
$SKPOLY
 70
     0
  9
$TDCREATE
 40
2455072.745932974
  9
$TDUCREATE
 40
2455072.370932974
  9
$TDUPDATE
 40
2460908.423743461
  9
$TDUUPDATE
 40
2460908.048743461
  9
$TDINDWG
 40
131.6331347917
  9
$TDUSRTIMER
 40
131.6331346065
  9
$USRTIMER
 70
     1
  9
$ANGBASE
 50
0.0
  9
$ANGDIR
 70
     0
  9
$PDMODE
 70
     0
  9
$PDSIZE
 40
0.0
  9
$PLINEWID
 40
0.0
  9
$SPLFRAME
 70
     0
  9
$SPLINETYPE
 70
     6
  9
$SPLINESEGS
 70
     8
  9
$HANDSEED
  5
27433
  9
$SURFTAB1
 70
     6
  9
$SURFTAB2
 70
     6
  9
$SURFTYPE
 70
     6
  9
$SURFU
 70
     6
  9
$SURFV
 70
     6
  9
$UCSBASE
  2

  9
$UCSNAME
  2

  9
$UCSORG
 10
0.0
 20
0.0
 30
0.0
  9
$UCSXDIR
 10
1.0
 20
0.0
 30
0.0
  9
$UCSYDIR
 10
0.0
 20
1.0
 30
0.0
  9
$UCSORTHOREF
  2

  9
$UCSORTHOVIEW
 70
     0
  9
$UCSORGTOP
 10
0.0
 20
0.0
 30
0.0
  9
$UCSORGBOTTOM
 10
0.0
 20
0.0
 30
0.0
  9
$UCSORGLEFT
 10
0.0
 20
0.0
 30
0.0
  9
$UCSORGRIGHT
 10
0.0
 20
0.0
 30
0.0
  9
$UCSORGFRONT
 10
0.0
 20
0.0
 30
0.0
  9
$UCSORGBACK
 10
0.0
 20
0.0
 30
0.0
  9
$PUCSBASE
  2

  9
$PUCSNAME
  2

  9
$PUCSORG
 10
0.0
 20
0.0
 30
0.0
  9
$PUCSXDIR
 10
1.0
 20
0.0
 30
0.0
  9
$PUCSYDIR
 10
0.0
 20
1.0
 30
0.0
  9
$PUCSORTHOREF
  2

  9
$PUCSORTHOVIEW
 70
     0
  9
$PUCSORGTOP
 10
0.0
 20
0.0
 30
0.0
  9
$PUCSORGBOTTOM
 10
0.0
 20
0.0
 30
0.0
  9
$PUCSORGLEFT
 10
0.0
 20
0.0
 30
0.0
  9
$PUCSORGRIGHT
 10
0.0
 20
0.0
 30
0.0
  9
$PUCSORGFRONT
 10
0.0
 20
0.0
 30
0.0
  9
$PUCSORGBACK
 10
0.0
 20
0.0
 30
0.0
  9
$USERI1
 70
     0
  9
$USERI2
 70
     0
  9
$USERI3
 70
     0
  9
$USERI4
 70
     0
  9
$USERI5
 70
     0
  9
$USERR1
 40
0.0
  9
$USERR2
 40
0.0
  9
$USERR3
 40
0.0
  9
$USERR4
 40
0.0
  9
$USERR5
 40
0.0
  9
$WORLDVIEW
 70
     1
  9
$SHADEDGE
 70
     3
  9
$SHADEDIF
 70
    70
  9
$TILEMODE
 70
     1
  9
$MAXACTVP
 70
    64
  9
$PINSBASE
 10
0.0
 20
0.0
 30
0.0
  9
$PLIMCHECK
 70
     0
  9
$PEXTMIN
 10
1.000000000000000E+20
 20
1.000000000000000E+20
 30
1.000000000000000E+20
  9
$PEXTMAX
 10
-1.000000000000000E+20
 20
-1.000000000000000E+20
 30
-1.000000000000000E+20
  9
$PLIMMIN
 10
-20.0
 20
-7.5
  9
$PLIMMAX
 10
277.0
 20
202.5
  9
$UNITMODE
 70
     0
  9
$VISRETAIN
 70
     1
  9
$PLINEGEN
 70
     0
  9
$PSLTSCALE
 70
     1
  9
$TREEDEPTH
 70
  3020
  9
$CMLSTYLE
  2
Standard
  9
$CMLJUST
 70
     0
  9
$CMLSCALE
 40
20.0
  9
$PROXYGRAPHICS
 70
     1
  9
$MEASUREMENT
 70
     1
  9
$CELWEIGHT
370
    -1
  9
$ENDCAPS
280
     0
  9
$JOINSTYLE
280
     0
  9
$LWDISPLAY
290
     0
  9
$INSUNITS
 70
     4
  9
$HYPERLINKBASE
  1

  9
$STYLESHEET
  1
ksm0910.ctb
  9
$XEDIT
290
     1
  9
$CEPSNTYPE
380
     0
  9
$PSTYLEMODE
290
     1
  9
$FINGERPRINTGUID
  2
{D2C70C36-9B4F-4E20-9CCB-531AA1EE4AC8}
  9
$VERSIONGUID
  2
{6CBF25CC-C2AF-477A-A562-7E023ADF0380}
  9
$EXTNAMES
290
     1
  9
$PSVPSCALE
 40
0.0
  9
$OLESTARTUP
290
     0
  9
$SORTENTS
280
   127
  9
$INDEXCTL
280
     0
  9
$HIDETEXT
280
     1
  9
$XCLIPFRAME
280
     2
  9
$HALOGAP
280
     0
  9
$OBSCOLOR
 70
   257
  9
$OBSLTYPE
280
     0
  9
$INTERSECTIONDISPLAY
280
     0
  9
$INTERSECTIONCOLOR
 70
   257
  9
$DIMASSOC
280
     1
  9
$PROJECTNAME
  1

  9
$CAMERADISPLAY
290
     0
  9
$LENSLENGTH
 40
50.0
  9
$CAMERAHEIGHT
 40
0.0
  9
$STEPSPERSEC
 40
2.0
  9
$STEPSIZE
 40
6.0
  9
$3DDWFPREC
 40
2.0
  9
$PSOLWIDTH
 40
5.0
  9
$PSOLHEIGHT
 40
80.0
  9
$LOFTANG1
 40
1.570796326794896
  9
$LOFTANG2
 40
1.570796326794896
  9
$LOFTMAG1
 40
0.0
  9
$LOFTMAG2
 40
0.0
  9
$LOFTPARAM
 70
     7
  9
$LOFTNORMALS
280
     1
  9
$LATITUDE
 40
37.795
  9
$LONGITUDE
 40
-122.394
  9
$NORTHDIRECTION
 40
0.0
  9
$TIMEZONE
 70
 -8000
  9
$LIGHTGLYPHDISPLAY
280
     1
  9
$TILEMODELIGHTSYNCH
280
     1
  9
$CMATERIAL
347
3D
  9
$SOLIDHIST
280
     1
  9
$SHOWHIST
280
     1
  9
$DWFFRAME
280
     2
  9
$DGNFRAME
280
     0
  9
$REALWORLDSCALE
290
     1
  9
$INTERFERECOLOR
 62
     1
  9
$INTERFEREOBJVS
345
46
  9
$INTERFEREVPVS
346
47
  9
$CSHADOW
280
     0
  9
$SHADOWPLANELOCATION
 40
0.0
  0
ENDSEC
  0
SECTION
  2
CLASSES
  0
CLASS
  1
ACDBDICTIONARYWDFLT
  2
AcDbDictionaryWithDefault
  3
ObjectDBX Classes
 90
        0
 91
        1
280
     0
281
     0
  0
CLASS
  1
DICTIONARYVAR
  2
AcDbDictionaryVar
  3
ObjectDBX Classes
 90
        0
 91
       18
280
     0
281
     0
  0
CLASS
  1
TABLESTYLE
  2
AcDbTableStyle
  3
ObjectDBX Classes
 90
     4095
 91
        1
280
     0
281
     0
  0
CLASS
  1
MATERIAL
  2
AcDbMaterial
  3
ObjectDBX Classes
 90
     1153
 91
        3
280
     0
281
     0
  0
CLASS
  1
VISUALSTYLE
  2
AcDbVisualStyle
  3
ObjectDBX Classes
 90
     4095
 91
       26
280
     0
281
     0
  0
CLASS
  1
SCALE
  2
AcDbScale
  3
ObjectDBX Classes
 90
     1153
 91
       17
280
     0
281
     0
  0
CLASS
  1
MLEADERSTYLE
  2
AcDbMLeaderStyle
  3
ACDB_MLEADERSTYLE_CLASS
 90
     4095
 91
        1
280
     0
281
     0
  0
CLASS
  1
CELLSTYLEMAP
  2
AcDbCellStyleMap
  3
ObjectDBX Classes
 90
     1152
 91
        2
280
     0
281
     0
  0
CLASS
  1
SORTENTSTABLE
  2
AcDbSortentsTable
  3
ObjectDBX Classes
 90
        0
 91
        1
280
     0
281
     0
  0
CLASS
  1
DIMASSOC
  2
AcDbDimAssoc
  3
"AcDbDimAssoc|Product Desc:     AcDim ARX App For Dimension|Company:          Autodesk, Inc.|WEB Address:      www.autodesk.com"
 90
        0
 91
        0
280
     0
281
     0
  0
CLASS
  1
SOLID_BACKGROUND
  2
AcDbSolidBackground
  3
SCENEOE
 90
     4095
 91
        0
280
     0
281
     0
  0
CLASS
  1
NPOCOLLECTION
  2
AcDbImpNonPersistentObjectsCollection
  3
ObjectDBX Classes
 90
     1153
 91
        0
280
     0
281
     0
  0
CLASS
  1
ACAD_EVALUATION_GRAPH
  2
AcDbEvalGraph
  3
ObjectDBX Classes
 90
     1153
 91
        0
280
     0
281
     0
  0
CLASS
  1
ACAECUSTOBJ
  2
AcAeEditorObj
  3
AcAeEditorObj
 90
     1024
 91
        0
280
     1
281
     0
  0
CLASS
  1
ACDB_DYNAMICBLOCKPURGEPREVENTER_VERSION
  2
AcDbDynamicBlockPurgePreventer
  3
ObjectDBX Classes
 90
     1153
 91
        0
280
     0
281
     0
  0
CLASS
  1
HELIX
  2
AcDbHelix
  3
ObjectDBX Classes
 90
     4095
 91
        0
280
     0
281
     1
  0
CLASS
  1
MULTILEADER
  2
AcDbMLeader
  3
ACDB_MLEADER_CLASS
 90
     1025
 91
        3
280
     0
281
     1
  0
CLASS
  1
ACMDIMBREAKPERSREACTOR
  2
AcmDimBreakPersReactor
  3
amgDimApp().moduleName()
 90
     1023
 91
        0
280
     1
281
     0
  0
CLASS
  1
ACDB_MTEXTOBJECTCONTEXTDATA_CLASS
  2
AcDbMTextObjectContextData
  3
ObjectDBX Classes
 90
     1153
 91
        0
280
     0
281
     0
  0
CLASS
  1
BREAKDATA
  2
AcDbBreakData
  3
ObjectDBX Classes
 90
     1024
 91
        0
280
     0
281
     0
  0
CLASS
  1
EXACXREFPANELOBJECT
  2
ExAcXREFPanelObject
  3
EXAC_ESW
 90
     1025
 91
        0
280
     1
281
     0
  0
CLASS
  1
ACDBSECTIONVIEWSTYLE
  2
AcDbSectionViewStyle
  3
ObjectDBX Classes
 90
     1025
 91
        1
280
     0
281
     0
  0
CLASS
  1
ACDBDETAILVIEWSTYLE
  2
AcDbDetailViewStyle
  3
ObjectDBX Classes
 90
     1025
 91
        1
280
     0
281
     0
  0
ENDSEC
  0
SECTION
  2
TABLES
  0
TABLE
  2
VPORT
  5
2C
102
{ACAD_XDICTIONARY
360
31
102
}
330
0
100
AcDbSymbolTable
 70
     1
  0
VPORT
  5
2D
330
2C
100
AcDbSymbolTableRecord
100
AcDbViewportTableRecord
  2
*Active
 70
     0
 10
0.0
 20
0.0
 11
1.0
 21
1.0
 12
179.2881918016492
 22
146.1297258247095
 13
0.0
 23
0.0
 14
2.0
 24
2.0
 15
2.0
 25
2.0
 16
0.0
 26
0.0
 36
1.0
 17
0.0
 27
0.0
 37
0.0
 40
408.577020907505
 41
2.15871121718377
 42
50.0
 43
0.0
 44
0.0
 50
0.0
 51
0.0
 71
     0
 72
  1000
 73
     1
 74
     3
 75
     0
 76
     0
 77
     0
 78
     1
281
     0
 65
     1
110
0.0
120
0.0
130
0.0
111
1.0
121
0.0
131
0.0
112
0.0
122
1.0
132
0.0
 79
     0
146
0.0
348
2E
 60
     3
 61
     5
292
     1
282
     1
141
0.0
142
0.0
 63
   250
421
  3355443
1001
ACAD_NAV_VCDISPLAY
1070
     3
  0
ENDTAB
  0
TABLE
  2
LTYPE
  5
27
330
0
100
AcDbSymbolTable
 70
     3
  0
LTYPE
  5
28
330
27
100
AcDbSymbolTableRecord
100
AcDbLinetypeTableRecord
  2
ByBlock
 70
     0
  3

 72
    65
 73
     0
 40
0.0
  0
LTYPE
  5
29
330
27
100
AcDbSymbolTableRecord
100
AcDbLinetypeTableRecord
  2
ByLayer
 70
     0
  3

 72
    65
 73
     0
 40
0.0
  0
LTYPE
  5
14
330
27
100
AcDbSymbolTableRecord
100
AcDbLinetypeTableRecord
  2
Continuous
 70
     0
  3
Solid line
 72
    65
 73
     0
 40
0.0
  0
LTYPE
  5
4DD
330
27
100
AcDbSymbolTableRecord
100
AcDbLinetypeTableRecord
  2
CENTER
 70
     0
  3
____ _ ____ _ ____ _ ____ _ ____ _ ____ _ ____ 
 72
    65
 73
     4
 40
2.0
 49
1.25
 74
     0
 49
-0.25
 74
     0
 49
0.25
 74
     0
 49
-0.25
 74
     0
  0
LTYPE
  5
251C9
330
27
100
AcDbSymbolTableRecord
100
AcDbLinetypeTableRecord
  2
HIDDEN
 70
     0
  3
Hidden __ __ __ __ __ __ __ __ __ __ __ __ __ _
 72
    65
 73
     2
 40
9.524999999999998
 49
6.349999999999999
 74
     0
 49
-3.174999999999999
 74
     0
  0
ENDTAB
  0
TABLE
  2
LAYER
  5
21
102
{ACAD_XDICTIONARY
360
22
102
}
330
0
100
AcDbSymbolTable
 70
     9
  0
LAYER
  5
6
102
{ACAD_XDICTIONARY
360
7
102
}
330
21
100
AcDbSymbolTableRecord
100
AcDbLayerTableRecord
  2
0
 70
     0
 62
     7
  6
Continuous
370
    -3
390
9
347
C
348
0
  0
LAYER
  5
1A4
330
21
100
AcDbSymbolTableRecord
100
AcDbLayerTableRecord
  2
DEFPOINTS
 70
     0
 62
     7
  6
Continuous
290
     0
370
    -3
390
9
347
C
348
0
  0
LAYER
  5
1DDF3
330
21
100
AcDbSymbolTableRecord
100
AcDbLayerTableRecord
  2
Layer 1
 70
     0
 62
     7
  6
Continuous
370
     0
390
9
347
C
348
0
  0
LAYER
  5
2665D
330
21
100
AcDbSymbolTableRecord
100
AcDbLayerTableRecord
  2
3
 70
     0
 62
     3
  6
CENTER
370
    -3
390
9
347
C
348
0
  0
LAYER
  5
26C58
330
21
100
AcDbSymbolTableRecord
100
AcDbLayerTableRecord
  2
06-D06-75
 70
     0
 62
     7
  6
Continuous
370
    -3
390
9
347
C
348
0
1001
AcAecLayerStandard
1000

1000

  0
LAYER
  5
26C59
330
21
100
AcDbSymbolTableRecord
100
AcDbLayerTableRecord
  2
63-BT50-165
 70
     0
 62
     7
  6
Continuous
370
    -3
390
9
347
C
348
0
1001
AcAecLayerStandard
1000

1000

  0
LAYER
  5
26C5A
330
21
100
AcDbSymbolTableRecord
100
AcDbLayerTableRecord
  2
51-BT40-45
 70
     0
 62
     7
  6
Continuous
370
    -3
390
9
347
C
348
0
1001
AcAecLayerStandard
1000

1000

  0
LAYER
  5
26C5B
330
21
100
AcDbSymbolTableRecord
100
AcDbLayerTableRecord
  2
61-BT50-60
 70
     0
 62
     7
  6
Continuous
370
    -3
390
9
347
C
348
0
1001
AcAecLayerStandard
1000

1000

  0
LAYER
  5
26C5C
330
21
100
AcDbSymbolTableRecord
100
AcDbLayerTableRecord
  2
64-BT50-195
 70
     0
 62
     7
  6
Continuous
370
    -3
390
9
347
C
348
0
1001
AcAecLayerStandard
1000

1000

  0
ENDTAB
  0
TABLE
  2
STYLE
  5
24
330
0
100
AcDbSymbolTable
 70
     4
  0
STYLE
  5
25
330
24
100
AcDbSymbolTableRecord
100
AcDbTextStyleTableRecord
  2
Standard
 70
     0
 40
3.0
 41
1.0
 50
0.0
 71
     0
 42
3.0
  3
isocp.shx
  4
whgtxt.shx
  0
STYLE
  5
35
330
24
100
AcDbSymbolTableRecord
100
AcDbTextStyleTableRecord
  2
ROMANS
 70
     0
 40
2.5
 41
1.0
 50
0.0
 71
     0
 42
2.5
  3
romans.shx
  4

  0
STYLE
  5
5C
330
24
100
AcDbSymbolTableRecord
100
AcDbTextStyleTableRecord
  2
굴림
 70
     0
 40
3.0
 41
1.0
 50
0.0
 71
     0
 42
3.0
  3

  4

1001
ACAD
1000
Gulim
1071
    33074
  0
ENDTAB
  0
TABLE
  2
VIEW
  5
2A
330
0
100
AcDbSymbolTable
 70
     0
  0
ENDTAB
  0
TABLE
  2
UCS
  5
2B
330
0
100
AcDbSymbolTable
 70
     0
  0
ENDTAB
  0
TABLE
  2
APPID
  5
32
330
0
100
AcDbSymbolTable
 70
    45
  0
APPID
  5
13
330
32
100
AcDbSymbolTableRecord
100
AcDbRegAppTableRecord
  2
ACAD
 70
     0
  0
APPID
  5
1A
330
32
100
AcDbSymbolTableRecord
100
AcDbRegAppTableRecord
  2
ACAD_PSEXT
 70
     0
  0
APPID
  5
37
330
32
100
AcDbSymbolTableRecord
100
AcDbRegAppTableRecord
  2
ACAD_DSTYLE_DIMJAG
 70
     0
  0
APPID
  5
38
330
32
100
AcDbSymbolTableRecord
100
AcDbRegAppTableRecord
  2
ACAD_DSTYLE_DIMTALN
 70
     0
  0
APPID
  5
36
330
32
100
AcDbSymbolTableRecord
100
AcDbRegAppTableRecord
  2
ACAD_DSTYLE_DIMJOGGED_JOGANGLE_SYMBOL
 70
     0
  0
APPID
  5
183
330
32
100
AcDbSymbolTableRecord
100
AcDbRegAppTableRecord
  2
AcAecLayerStandard
 70
     0
  0
APPID
  5
3DE
330
32
100
AcDbSymbolTableRecord
100
AcDbRegAppTableRecord
  2
ACAD_DSTYLE_DIMRADIAL_EXTENSION
 70
     0
  0
APPID
  5
530
330
32
100
AcDbSymbolTableRecord
100
AcDbRegAppTableRecord
  2
GRADIENTCOLOR1ACI
 70
     0
  0
APPID
  5
531
330
32
100
AcDbSymbolTableRecord
100
AcDbRegAppTableRecord
  2
GRADIENTCOLOR2ACI
 70
     0
  0
APPID
  5
30
330
32
100
AcDbSymbolTableRecord
100
AcDbRegAppTableRecord
  2
ACAD_NAV_VCDISPLAY
 70
     0
  0
APPID
  5
C34
330
32
100
AcDbSymbolTableRecord
100
AcDbRegAppTableRecord
  2
ACAD_MLEADERVER
 70
     0
  0
APPID
  5
C97
330
32
100
AcDbSymbolTableRecord
100
AcDbRegAppTableRecord
  2
ACAD_EXEMPT_FROM_CAD_STANDARDS
 70
     0
  0
APPID
  5
D79
330
32
100
AcDbSymbolTableRecord
100
AcDbRegAppTableRecord
  2
AcadAnnoMonitorAlertIconDisabled
 70
     0
  0
APPID
  5
1A45
330
32
100
AcDbSymbolTableRecord
100
AcDbRegAppTableRecord
  2
GENIUS_GENODEF_13
 70
     0
  0
APPID
  5
1A46
330
32
100
AcDbSymbolTableRecord
100
AcDbRegAppTableRecord
  2
GENIUS_GENOBJ-N-FIL_13
 70
     0
  0
APPID
  5
1A47
330
32
100
AcDbSymbolTableRecord
100
AcDbRegAppTableRecord
  2
ACAD_DSTYLE_DIMBREAK
 70
     0
  0
APPID
  5
1A48
330
32
100
AcDbSymbolTableRecord
100
AcDbRegAppTableRecord
  2
GENIUS_GENOBJ-N-HTC_13
 70
     0
  0
APPID
  5
1A49
330
32
100
AcDbSymbolTableRecord
100
AcDbRegAppTableRecord
  2
GENIUS_GENHATCH_13
 70
     0
  0
APPID
  5
1A4A
330
32
100
AcDbSymbolTableRecord
100
AcDbRegAppTableRecord
  2
GENIUS_GENREC_14
 70
     0
  0
APPID
  5
1A4B
330
32
100
AcDbSymbolTableRecord
100
AcDbRegAppTableRecord
  2
GENIUS_GENOBJ-N-REC_13
 70
     0
  0
APPID
  5
1A4C
330
32
100
AcDbSymbolTableRecord
100
AcDbRegAppTableRecord
  2
ACAUTHENVIRON
 70
     0
  0
APPID
  5
1A4D
330
32
100
AcDbSymbolTableRecord
100
AcDbRegAppTableRecord
  2
AcDbDynamicBlockTrueName
 70
     0
  0
APPID
  5
1A4E
330
32
100
AcDbSymbolTableRecord
100
AcDbRegAppTableRecord
  2
AcDbDynamicBlockGUID
 70
     0
  0
APPID
  5
1A4F
330
32
100
AcDbSymbolTableRecord
100
AcDbRegAppTableRecord
  2
AcDbBlockRepETag
 70
     0
  0
APPID
  5
1A50
330
32
100
AcDbSymbolTableRecord
100
AcDbRegAppTableRecord
  2
DCO15
 70
     0
  0
APPID
  5
1A51
330
32
100
AcDbSymbolTableRecord
100
AcDbRegAppTableRecord
  2
ACAD_DSTYLE_DIMTEXT_FILL
 70
     0
  0
APPID
  5
1A52
330
32
100
AcDbSymbolTableRecord
100
AcDbRegAppTableRecord
  2
ACAD_DSTYLE_DIM_LINETYPE
 70
     0
  0
APPID
  5
1A53
330
32
100
AcDbSymbolTableRecord
100
AcDbRegAppTableRecord
  2
ACAD_DSTYLE_DIM_EXT1_LINETYPE
 70
     0
  0
APPID
  5
1A54
330
32
100
AcDbSymbolTableRecord
100
AcDbRegAppTableRecord
  2
ACAD_DSTYLE_DIM_EXT2_LINETYPE
 70
     0
  0
APPID
  5
1A55
330
32
100
AcDbSymbolTableRecord
100
AcDbRegAppTableRecord
  2
ACAD_DSTYLE_DIMINSPECT
 70
     0
  0
APPID
  5
1A56
330
32
100
AcDbSymbolTableRecord
100
AcDbRegAppTableRecord
  2
AcadAnnotative
 70
     0
  0
APPID
  5
1A57
330
32
100
AcDbSymbolTableRecord
100
AcDbRegAppTableRecord
  2
GENIUS_GENDTOL_13
 70
     0
  0
APPID
  5
1A58
330
32
100
AcDbSymbolTableRecord
100
AcDbRegAppTableRecord
  2
GENIUS_GENFIL_13
 70
     0
  0
APPID
  5
1A59
330
32
100
AcDbSymbolTableRecord
100
AcDbRegAppTableRecord
  2
GENIUS_GENOBJ-N-CHA_13
 70
     0
  0
APPID
  5
1A5A
330
32
100
AcDbSymbolTableRecord
100
AcDbRegAppTableRecord
  2
AcadAnnotativeDecomposition
 70
     0
  0
APPID
  5
1A5B
330
32
100
AcDbSymbolTableRecord
100
AcDbRegAppTableRecord
  2
MCAD_NO_VIS
 70
     0
  0
APPID
  5
1A5C
330
32
100
AcDbSymbolTableRecord
100
AcDbRegAppTableRecord
  2
ACAD_TEMP_GRAPHIC
 70
     0
  0
APPID
  5
1A5D
330
32
100
AcDbSymbolTableRecord
100
AcDbRegAppTableRecord
  2
ACATTRIBSERVICES
 70
     0
  0
APPID
  5
1A5E
330
32
100
AcDbSymbolTableRecord
100
AcDbRegAppTableRecord
  2
DESIGNERASSEMBLIES
 70
     0
  0
APPID
  5
1A5F
330
32
100
AcDbSymbolTableRecord
100
AcDbRegAppTableRecord
  2
GENIUS_GENDIMSH_14
 70
     0
  0
APPID
  5
1A60
330
32
100
AcDbSymbolTableRecord
100
AcDbRegAppTableRecord
  2
ACAD_DSTYLE_DIMARC_LENGTH_SYMBOL
 70
     0
  0
APPID
  5
1A61
330
32
100
AcDbSymbolTableRecord
100
AcDbRegAppTableRecord
  2
ACAD_SPLINE_DATA
 70
     0
  0
APPID
  5
1A62
330
32
100
AcDbSymbolTableRecord
100
AcDbRegAppTableRecord
  2
GENIUS_GENOREF_13
 70
     0
  0
APPID
  5
1A63
330
32
100
AcDbSymbolTableRecord
100
AcDbRegAppTableRecord
  2
ACAD_DSTYLE_DIMANGULAR_EXTENSION
 70
     0
  0
APPID
  5
23F4C
330
32
100
AcDbSymbolTableRecord
100
AcDbRegAppTableRecord
  2
HATCHBACKGROUNDCOLOR
 70
     0
  0
ENDTAB
  0
TABLE
  2
DIMSTYLE
  5
33
330
0
100
AcDbSymbolTable
 70
     5
100
AcDbDimStyleTable
 71
     1
340
34
  0
DIMSTYLE
105
34
330
33
100
AcDbSymbolTableRecord
100
AcDbDimStyleTableRecord
  2
Standard
 70
     0
 41
2.5
 73
     0
 77
     3
 78
     8
140
2.5
141
-1.0
147
1.0
175
     1
176
     3
177
     3
178
     2
179
     8
271
     8
272
     8
275
     1
340
35
1001
ACAD_DSTYLE_DIMJOGGED_JOGANGLE_SYMBOL
1070
   384
1040
0.7853981633974483
1001
ACAD_DSTYLE_DIMJAG
1070
   388
1040
1.5
1001
ACAD_DSTYLE_DIMTALN
1070
   392
1070
     0
  0
DIMSTYLE
105
1A8
102
{ACAD_REACTORS
330
26933
330
269CE
330
269CF
330
269D0
102
}
330
33
100
AcDbSymbolTableRecord
100
AcDbDimStyleTableRecord
  2
Standard$0
 70
     0
 41
2.5
 73
     0
 77
     3
 78
     8
140
2.5
141
-1.0
147
1.0
175
     1
176
     3
177
     3
178
     2
179
     8
271
     8
272
     8
275
     1
340
35
  0
DIMSTYLE
105
26C5F
102
{ACAD_REACTORS
330
27349
330
27376
102
}
330
33
100
AcDbSymbolTableRecord
100
AcDbDimStyleTableRecord
  2
사본 ISO-25
 70
     0
 41
2.5
 42
0.625
 43
3.75
 44
1.25
 48
0.000000001
 73
     0
 74
     0
 77
     1
 78
     8
140
3.0
141
-0.5
143
0.03937007874016
146
0.7
147
0.625
171
     3
172
     1
176
     3
177
     3
178
     2
179
     8
271
     8
272
     8
274
     3
275
     1
283
     0
284
     8
340
25
371
    -1
372
    -1
1001
ACAD_DSTYLE_DIMBREAK
1070
   391
1040
3.75
1001
ACAD_DSTYLE_DIMJAG
1070
   388
1040
1.5
1001
ACAD_DSTYLE_DIMTALN
1070
   392
1070
     0
  0
DIMSTYLE
105
26C60
102
{ACAD_REACTORS
330
2734A
102
}
330
33
100
AcDbSymbolTableRecord
100
AcDbDimStyleTableRecord
  2
STANDARD$2
 70
     0
 41
2.5
 73
     0
 77
     3
 78
     8
140
2.5
141
-1.0
147
1.0
175
     1
176
     3
177
     3
178
     2
179
     8
271
     8
272
     8
275
     1
340
35
  0
ENDTAB
  0
TABLE
  2
BLOCK_RECORD
  5
1
330
0
100
AcDbSymbolTable
 70
     9
  0
BLOCK_RECORD
  5
2
102
{ACAD_XDICTIONARY
360
3
102
}
330
1
100
AcDbSymbolTableRecord
100
AcDbBlockTableRecord
  2
*Model_Space
340
16
 70
     0
280
     1
281
     0
  0
BLOCK_RECORD
  5
1B
330
1
100
AcDbSymbolTableRecord
100
AcDbBlockTableRecord
  2
*Paper_Space
340
1E
 70
     0
280
     1
281
     0
  0
BLOCK_RECORD
  5
25D72
330
1
100
AcDbSymbolTableRecord
100
AcDbBlockTableRecord
  2
_DetailCallout
340
0
 70
     4
280
     1
281
     0
  0
BLOCK_RECORD
  5
269E7
330
1
100
AcDbSymbolTableRecord
100
AcDbBlockTableRecord
  2
*D1
340
0
 70
     0
280
     1
281
     0
  0
BLOCK_RECORD
  5
269F3
330
1
100
AcDbSymbolTableRecord
100
AcDbBlockTableRecord
  2
*D2
340
0
 70
     0
280
     1
281
     0
  0
BLOCK_RECORD
  5
26A41
330
1
100
AcDbSymbolTableRecord
100
AcDbBlockTableRecord
  2
*D3
340
0
 70
     0
280
     1
281
     0
  0
BLOCK_RECORD
  5
26A5D
330
1
100
AcDbSymbolTableRecord
100
AcDbBlockTableRecord
  2
*D4
340
0
 70
     0
280
     1
281
     0
  0
BLOCK_RECORD
  5
2734C
330
1
100
AcDbSymbolTableRecord
100
AcDbBlockTableRecord
  2
*D5
340
0
 70
     0
280
     1
281
     0
  0
BLOCK_RECORD
  5
27358
330
1
100
AcDbSymbolTableRecord
100
AcDbBlockTableRecord
  2
*D6
340
0
 70
     0
280
     1
281
     0
  0
BLOCK_RECORD
  5
27377
330
1
100
AcDbSymbolTableRecord
100
AcDbBlockTableRecord
  2
*D7
340
0
 70
     0
280
     1
281
     0
  0
ENDTAB
  0
ENDSEC
  0
SECTION
  2
BLOCKS
  0
BLOCK
  5
5
330
2
100
AcDbEntity
  8
0
100
AcDbBlockBegin
  2
*Model_Space
 70
     0
 10
0.0
 20
0.0
 30
0.0
  3
*Model_Space
  1

  0
ENDBLK
  5
15
330
2
100
AcDbEntity
  8
0
100
AcDbBlockEnd
  0
BLOCK
  5
1C
330
1B
100
AcDbEntity
 67
     1
  8
0
100
AcDbBlockBegin
  2
*Paper_Space
 70
     0
 10
0.0
 20
0.0
 30
0.0
  3
*Paper_Space
  1

  0
ENDBLK
  5
1D
330
1B
100
AcDbEntity
 67
     1
  8
0
100
AcDbBlockEnd
  0
BLOCK
  5
25D73
330
25D72
100
AcDbEntity
  8
0
100
AcDbBlockBegin
  2
_DetailCallout
 70
     2
 10
0.0
 20
0.0
 30
0.0
  3
_DetailCallout
  1

  0
CIRCLE
  5
25D74
330
25D72
100
AcDbEntity
  8
0
  6
ByBlock
 62
     0
370
    -2
100
AcDbCircle
 10
0.0
 20
0.0
 30
0.0
 40
8.0
  0
LINE
  5
25D75
330
25D72
100
AcDbEntity
  8
0
  6
ByBlock
 62
     0
370
    -2
100
AcDbLine
 10
8.0
 20
0.0
 30
0.0
 11
-8.0
 21
0.0
 31
0.0
  0
ATTDEF
  5
25D76
330
25D72
100
AcDbEntity
  8
0
 62
     0
100
AcDbText
 10
-3.857142857142857
 20
1.0
 30
0.0
 40
3.0
  1
뷰번호
  7
ROMANS
 72
     1
 11
0.0
 21
1.0
 31
0.0
100
AcDbAttributeDefinition
280
     0
  3
뷰 번호 입력
  2
뷰번호
 70
     0
280
     0
  0
ATTDEF
  5
25D77
330
25D72
100
AcDbEntity
  8
0
 62
     0
100
AcDbText
 10
-5.142857142857142
 20
-6.0
 30
0.0
 40
3.0
  1
시트번호
  7
ROMANS
 72
     1
 11
0.0
 21
-6.0
 31
0.0
100
AcDbAttributeDefinition
280
     0
  3
시트 번호 입력
  2
시트번호
 70
     0
280
     0
  0
ENDBLK
  5
25D78
330
25D72
100
AcDbEntity
  8
0
100
AcDbBlockEnd
  0
BLOCK
  5
269E8
330
269E7
100
AcDbEntity
  8
0
 62
     7
100
AcDbBlockBegin
  2
*D1
 70
     1
 10
0.0
 20
0.0
 30
0.0
  3
*D1
  1

  0
LINE
  5
2738F
330
269E7
100
AcDbEntity
  8
0
  6
Continuous
 62
     3
440
 16777216
100
AcDbLine
 10
53.86293203318814
 20
119.2007079958345
 30
0.0
 11
53.86293203318814
 21
71.44290466007681
 31
0.0
  0
LINE
  5
27390
330
269E7
100
AcDbEntity
  8
0
  6
Continuous
 62
     3
440
 16777216
100
AcDbLine
 10
82.86293203318814
 20
82.20070799583448
 30
0.0
 11
82.86293203318814
 21
71.44290466007681
 31
0.0
  0
LINE
  5
27391
330
269E7
100
AcDbEntity
  8
0
  6
Continuous
 62
     3
440
 16777216
100
AcDbLine
 10
56.36293203318814
 20
72.69290466007681
 30
0.0
 11
80.36293203318814
 21
72.69290466007681
 31
0.0
  0
SOLID
  5
27392
330
269E7
100
AcDbEntity
  8
0
  6
Continuous
 62
     3
440
 16777216
100
AcDbTrace
 10
56.36293203318814
 20
73.10957132674348
 30
0.0
 11
56.36293203318814
 21
72.27623799341014
 31
0.0
 12
53.86293203318814
 22
72.69290466007681
 32
0.0
 13
53.86293203318814
 23
72.69290466007681
 33
0.0
  0
SOLID
  5
27393
330
269E7
100
AcDbEntity
  8
0
  6
Continuous
 62
     3
440
 16777216
100
AcDbTrace
 10
80.36293203318814
 20
73.10957132674348
 30
0.0
 11
80.36293203318814
 21
72.27623799341014
 31
0.0
 12
82.86293203318814
 22
72.69290466007681
 32
0.0
 13
82.86293203318814
 23
72.69290466007681
 33
0.0
  0
MTEXT
  5
27394
330
269E7
100
AcDbEntity
  8
0
  6
Continuous
 62
     2
440
 16777216
100
AcDbMText
 10
68.36293203318814
 20
74.81819993566735
 30
0.0
 40
3.0
 41
0.0
 46
0.0
 71
     5
 72
     1
  1
29mm%%p.05
 73
     1
 44
1.0
  0
POINT
  5
27395
330
269E7
100
AcDbEntity
  8
DEFPOINTS
  6
Continuous
 62
     0
440
 16777216
100
AcDbPoint
 10
53.86293203318814
 20
119.8257079958344
 30
0.0
  0
POINT
  5
27396
330
269E7
100
AcDbEntity
  8
DEFPOINTS
  6
Continuous
 62
     0
440
 16777216
100
AcDbPoint
 10
82.86293203318814
 20
82.82570799583448
 30
0.0
  0
POINT
  5
27397
330
269E7
100
AcDbEntity
  8
DEFPOINTS
  6
Continuous
 62
     0
440
 16777216
100
AcDbPoint
 10
82.86293203318814
 20
72.69290466007681
 30
0.0
  0
ENDBLK
  5
269E9
330
269E7
100
AcDbEntity
  8
0
 62
     7
100
AcDbBlockEnd
  0
BLOCK
  5
269F4
330
269F3
100
AcDbEntity
  8
0
 62
     7
100
AcDbBlockBegin
  2
*D2
 70
     1
 10
0.0
 20
0.0
 30
0.0
  3
*D2
  1

  0
LINE
  5
27398
330
269F3
100
AcDbEntity
  8
0
  6
Continuous
 62
     3
440
 16777216
100
AcDbLine
 10
53.86293203318814
 20
119.2007079958345
 30
0.0
 11
53.86293203318814
 21
63.44290466007681
 31
0.0
  0
LINE
  5
27399
330
269F3
100
AcDbEntity
  8
0
  6
Continuous
 62
     3
440
 16777216
100
AcDbLine
 10
111.8629320331881
 20
119.2007079958345
 30
0.0
 11
111.8629320331881
 21
63.44290466007681
 31
0.0
  0
LINE
  5
2739A
330
269F3
100
AcDbEntity
  8
0
  6
Continuous
 62
     3
440
 16777216
100
AcDbLine
 10
56.36293203318814
 20
64.69290466007681
 30
0.0
 11
109.3629320331881
 21
64.69290466007681
 31
0.0
  0
SOLID
  5
2739B
330
269F3
100
AcDbEntity
  8
0
  6
Continuous
 62
     3
440
 16777216
100
AcDbTrace
 10
56.36293203318814
 20
65.10957132674348
 30
0.0
 11
56.36293203318814
 21
64.27623799341013
 31
0.0
 12
53.86293203318814
 22
64.69290466007681
 32
0.0
 13
53.86293203318814
 23
64.69290466007681
 33
0.0
  0
SOLID
  5
2739C
330
269F3
100
AcDbEntity
  8
0
  6
Continuous
 62
     3
440
 16777216
100
AcDbTrace
 10
109.3629320331881
 20
65.10957132674348
 30
0.0
 11
109.3629320331881
 21
64.27623799341013
 31
0.0
 12
111.8629320331881
 22
64.69290466007681
 32
0.0
 13
111.8629320331881
 23
64.69290466007681
 33
0.0
  0
MTEXT
  5
2739D
330
269F3
100
AcDbEntity
  8
0
  6
Continuous
 62
     2
440
 16777216
100
AcDbMText
 10
82.86293203318814
 20
66.8179046600768
 30
0.0
 40
3.0
 41
0.0
 46
0.0
 71
     5
 72
     1
  1
58mm%%p.05
 73
     1
 44
1.0
  0
POINT
  5
2739E
330
269F3
100
AcDbEntity
  8
DEFPOINTS
  6
Continuous
 62
     0
440
 16777216
100
AcDbPoint
 10
53.86293203318814
 20
119.8257079958344
 30
0.0
  0
POINT
  5
2739F
330
269F3
100
AcDbEntity
  8
DEFPOINTS
  6
Continuous
 62
     0
440
 16777216
100
AcDbPoint
 10
111.8629320331881
 20
119.8257079958344
 30
0.0
  0
POINT
  5
273A0
330
269F3
100
AcDbEntity
  8
DEFPOINTS
  6
Continuous
 62
     0
440
 16777216
100
AcDbPoint
 10
111.8629320331881
 20
64.69290466007681
 30
0.0
  0
ENDBLK
  5
269F5
330
269F3
100
AcDbEntity
  8
0
 62
     7
100
AcDbBlockEnd
  0
BLOCK
  5
26A42
330
26A41
100
AcDbEntity
  8
0
 62
     7
100
AcDbBlockBegin
  2
*D3
 70
     1
 10
0.0
 20
0.0
 30
0.0
  3
*D3
  1

  0
LINE
  5
27388
330
26A41
100
AcDbEntity
  8
0
  6
Continuous
 62
     3
440
 16777216
100
AcDbLine
 10
197.7832820207802
 20
163.3257079958345
 30
0.0
 11
153.1686681098925
 21
163.3257079958345
 31
0.0
  0
LINE
  5
27389
330
26A41
100
AcDbEntity
  8
0
  6
Continuous
 62
     3
440
 16777216
100
AcDbLine
 10
154.4186681098925
 20
160.8257079958345
 30
0.0
 11
154.4186681098925
 21
116.1929352313429
 31
0.0
  0
SOLID
  5
2738A
330
26A41
100
AcDbEntity
  8
0
  6
Continuous
 62
     3
440
 16777216
100
AcDbTrace
 10
154.0020014432258
 20
160.8257079958345
 30
0.0
 11
154.8353347765591
 21
160.8257079958345
 31
0.0
 12
154.4186681098925
 22
163.3257079958345
 32
0.0
 13
154.4186681098925
 23
163.3257079958345
 33
0.0
  0
MTEXT
  5
2738B
330
26A41
100
AcDbEntity
  8
0
  6
Continuous
 62
     2
440
 16777216
100
AcDbMText
 10
152.2936681098924
 20
122.3253254498455
 30
0.0
 40
3.0
 41
0.0
 46
0.0
 71
     5
 72
     1
  1
%%C3.149
 11
0.0000000000000001
 21
1.0
 31
0.0
 73
     1
 44
1.0
  0
POINT
  5
2738C
330
26A41
100
AcDbEntity
  8
DEFPOINTS
  6
Continuous
 62
     0
440
 16777216
100
AcDbPoint
 10
198.4082820207802
 20
83.32570799583448
 30
0.0
  0
POINT
  5
2738D
330
26A41
100
AcDbEntity
  8
DEFPOINTS
  6
Continuous
 62
     0
440
 16777216
100
AcDbPoint
 10
198.4082820207802
 20
163.3257079958345
 30
0.0
  0
POINT
  5
2738E
330
26A41
100
AcDbEntity
  8
DEFPOINTS
  6
Continuous
 62
     0
440
 16777216
100
AcDbPoint
 10
154.4186681098925
 20
163.3257079958345
 30
0.0
  0
ENDBLK
  5
26A43
330
26A41
100
AcDbEntity
  8
0
 62
     7
100
AcDbBlockEnd
  0
BLOCK
  5
26A5E
330
26A5D
100
AcDbEntity
  8
0
 62
     7
100
AcDbBlockBegin
  2
*D4
 70
     1
 10
0.0
 20
0.0
 30
0.0
  3
*D4
  1

  0
LINE
  5
273A1
330
26A5D
100
AcDbEntity
  8
0
  6
Continuous
 62
     3
440
 16777216
100
AcDbLine
 10
208.3082820207794
 20
120.2007079958372
 30
0.0
 11
208.3082820207794
 21
106.5088951644872
 31
0.0
  0
LINE
  5
273A2
330
26A5D
100
AcDbEntity
  8
0
  6
Continuous
 62
     3
440
 16777216
100
AcDbLine
 10
197.4082820207793
 20
112.5437473285479
 30
0.0
 11
197.4082820207793
 21
106.5088951644872
 31
0.0
  0
LINE
  5
273A3
330
26A5D
100
AcDbEntity
  8
0
  6
Continuous
 62
     3
440
 16777216
100
AcDbLine
 10
205.8082820207794
 20
107.7588951644872
 30
0.0
 11
199.9082820207793
 21
107.7588951644872
 31
0.0
  0
LINE
  5
273A4
330
26A5D
100
AcDbEntity
  8
0
  6
Continuous
 62
     3
440
 16777216
100
AcDbLine
 10
197.4082820207793
 20
107.7588951644872
 30
0.0
 11
181.3499871769718
 21
107.7588951644872
 31
0.0
  0
SOLID
  5
273A5
330
26A5D
100
AcDbEntity
  8
0
  6
Continuous
 62
     3
440
 16777216
100
AcDbTrace
 10
205.8082820207794
 20
108.1755618311538
 30
0.0
 11
205.8082820207794
 21
107.3422284978205
 31
0.0
 12
208.3082820207794
 22
107.7588951644872
 32
0.0
 13
208.3082820207794
 23
107.7588951644872
 33
0.0
  0
SOLID
  5
273A6
330
26A5D
100
AcDbEntity
  8
0
  6
Continuous
 62
     3
440
 16777216
100
AcDbTrace
 10
199.9082820207793
 20
108.1755618311538
 30
0.0
 11
199.9082820207793
 21
107.3422284978205
 31
0.0
 12
197.4082820207793
 22
107.7588951644872
 32
0.0
 13
197.4082820207793
 23
107.7588951644872
 33
0.0
  0
MTEXT
  5
273A7
330
26A5D
100
AcDbEntity
  8
0
  6
Continuous
 62
     2
440
 16777216
100
AcDbMText
 10
188.129047570351
 20
110.0346202030167
 30
0.0
 40
3.0
 41
0.0
 46
0.0
 71
     5
 72
     1
  1
(2-10.9)
 73
     1
 44
1.0
  0
POINT
  5
273A8
330
26A5D
100
AcDbEntity
  8
DEFPOINTS
  6
Continuous
 62
     0
440
 16777216
100
AcDbPoint
 10
208.3082820207794
 20
120.8257079958372
 30
0.0
  0
POINT
  5
273A9
330
26A5D
100
AcDbEntity
  8
DEFPOINTS
  6
Continuous
 62
     0
440
 16777216
100
AcDbPoint
 10
197.4082820207793
 20
113.1687473285479
 30
0.0
  0
POINT
  5
273AA
330
26A5D
100
AcDbEntity
  8
DEFPOINTS
  6
Continuous
 62
     0
440
 16777216
100
AcDbPoint
 10
197.4082820207793
 20
107.7588951644872
 30
0.0
  0
ENDBLK
  5
26A5F
330
26A5D
100
AcDbEntity
  8
0
 62
     7
100
AcDbBlockEnd
  0
BLOCK
  5
2734D
330
2734C
100
AcDbEntity
  8
0
 62
     7
100
AcDbBlockBegin
  2
*D5
 70
     1
 10
0.0
 20
0.0
 30
0.0
  3
*D5
  1

  0
LINE
  5
273AB
330
2734C
100
AcDbEntity
  8
0
  6
Continuous
 62
     3
440
 16777216
100
AcDbLine
 10
299.2522820207785
 20
143.0257079958343
 30
0.0
 11
316.6285597363702
 21
143.0257079958343
 31
0.0
  0
LINE
  5
273AC
330
2734C
100
AcDbEntity
  8
0
  6
Continuous
 62
     3
440
 16777216
100
AcDbLine
 10
299.2582820207797
 20
103.6257079958337
 30
0.0
 11
316.6285597363701
 21
103.6257079958337
 31
0.0
  0
LINE
  5
273AD
330
2734C
100
AcDbEntity
  8
0
  6
Continuous
 62
     3
440
 16777216
100
AcDbLine
 10
315.3785597363702
 20
140.5257079958343
 30
0.0
 11
315.3785597363701
 21
106.1257079958337
 31
0.0
  0
SOLID
  5
273AE
330
2734C
100
AcDbEntity
  8
0
  6
Continuous
 62
     3
440
 16777216
100
AcDbTrace
 10
314.9618930697035
 20
140.5257079958343
 30
0.0
 11
315.7952264030368
 21
140.5257079958343
 31
0.0
 12
315.3785597363702
 22
143.0257079958343
 32
0.0
 13
315.3785597363702
 23
143.0257079958343
 33
0.0
  0
SOLID
  5
273AF
330
2734C
100
AcDbEntity
  8
0
  6
Continuous
 62
     3
440
 16777216
100
AcDbTrace
 10
314.9618930697034
 20
106.1257079958337
 30
0.0
 11
315.7952264030368
 21
106.1257079958337
 31
0.0
 12
315.3785597363701
 22
103.6257079958337
 32
0.0
 13
315.3785597363701
 23
103.6257079958337
 33
0.0
  0
MTEXT
  5
273B0
330
2734C
100
AcDbEntity
  8
0
  6
Continuous
 62
     2
440
 16777216
100
AcDbMText
 10
313.2535597363701
 20
123.325707995834
 30
0.0
 40
3.0
 41
0.0
 46
0.0
 71
     5
 72
     1
  1
%%c1.551
 11
0.0000000000000001
 21
1.0
 31
0.0
 73
     1
 44
1.0
  0
POINT
  5
273B1
330
2734C
100
AcDbEntity
  8
DEFPOINTS
  6
Continuous
 62
     0
440
 16777216
100
AcDbPoint
 10
298.6272820207785
 20
143.0257079958343
 30
0.0
  0
POINT
  5
273B2
330
2734C
100
AcDbEntity
  8
DEFPOINTS
  6
Continuous
 62
     0
440
 16777216
100
AcDbPoint
 10
298.6332820207797
 20
103.6257079958337
 30
0.0
  0
POINT
  5
273B3
330
2734C
100
AcDbEntity
  8
DEFPOINTS
  6
Continuous
 62
     0
440
 16777216
100
AcDbPoint
 10
315.3785597363701
 20
103.6257079958337
 30
0.0
  0
ENDBLK
  5
2734E
330
2734C
100
AcDbEntity
  8
0
 62
     7
100
AcDbBlockEnd
  0
BLOCK
  5
27359
330
27358
100
AcDbEntity
  8
0
 62
     7
100
AcDbBlockBegin
  2
*D6
 70
     1
 10
0.0
 20
0.0
 30
0.0
  3
*D6
  1

  0
ARC
  5
273B4
330
27358
100
AcDbEntity
  8
0
  6
Continuous
 62
     3
440
 16777216
100
AcDbCircle
 10
539.3205153250375
 20
123.3257079958768
 30
0.0
 40
281.3351573564642
100
AcDbArc
 50
180.5091433343042
 51
183.9908566656827
  0
SOLID
  5
273B5
330
27358
100
AcDbEntity
  8
0
  6
Continuous
 62
     3
440
 16777216
100
AcDbTrace
 10
257.5798031625509
 20
120.8238813810648
 30
0.0
 11
258.4131282703728
 21
120.8275839636943
 31
0.0
 12
257.9853579685734
 22
123.3257079958451
 32
0.0
 13
257.9853579685734
 23
123.3257079958451
 33
0.0
  0
SOLID
  5
273B6
330
27358
100
AcDbEntity
  8
0
  6
Continuous
 62
     3
440
 16777216
100
AcDbTrace
 10
259.0830714439759
 20
103.7763915738578
 30
0.0
 11
258.2520246980682
 21
103.7147008082539
 31
0.0
 12
258.8526203678338
 22
101.252405953333
 32
0.0
 13
258.8526203678338
 23
101.252405953333
 33
0.0
  0
MTEXT
  5
273B7
330
27358
100
AcDbEntity
  8
0
  6
Continuous
 62
     2
440
 16777216
100
AcDbMText
 10
260.325618881116
 20
112.3639686600331
 30
0.0
 40
3.0
 41
0.0
 46
0.0
 71
     5
 72
     1
  1
4.5°
 11
0.0392598157589553
 21
-0.9992290362407272
 31
0.0
 73
     1
 44
1.0
  0
POINT
  5
273B8
330
27358
100
AcDbEntity
  8
DEFPOINTS
  6
Continuous
 62
     0
440
 16777216
100
AcDbPoint
 10
258.0817645004968
 20
115.96121212458
 30
0.0
  0
POINT
  5
273B9
330
27358
100
AcDbEntity
  8
DEFPOINTS
  6
Continuous
 62
     0
440
 16777216
100
AcDbPoint
 10
287.2007828405683
 20
103.483454725269
 30
0.0
  0
POINT
  5
273BA
330
27358
100
AcDbEntity
  8
DEFPOINTS
  6
Continuous
 62
     0
440
 16777216
100
AcDbPoint
 10
164.3460285295284
 20
123.3257079958344
 30
0.0
  0
POINT
  5
273BB
330
27358
100
AcDbEntity
  8
DEFPOINTS
  6
Continuous
 62
     0
440
 16777216
100
AcDbPoint
 10
301.0082820207796
 20
123.3257079958499
 30
0.0
  0
POINT
  5
273BC
330
27358
100
AcDbEntity
  8
DEFPOINTS
  6
Continuous
 62
     0
440
 16777216
100
AcDbPoint
 10
242.0625502983846
 20
99.93099878116812
 30
0.0
  0
ENDBLK
  5
2735A
330
27358
100
AcDbEntity
  8
0
 62
     7
100
AcDbBlockEnd
  0
BLOCK
  5
27378
330
27377
100
AcDbEntity
  8
0
 62
     7
100
AcDbBlockBegin
  2
*D7
 70
     1
 10
0.0
 20
0.0
 30
0.0
  3
*D7
  1

  0
LINE
  5
273BD
330
27377
100
AcDbEntity
  8
0
  6
Continuous
 62
     3
440
 16777216
100
AcDbLine
 10
224.0332820207784
 20
98.29540778289684
 30
0.0
 11
238.1244525727395
 21
94.51969001308965
 31
0.0
  0
LINE
  5
273BE
330
27377
100
AcDbEntity
  8
0
  6
Continuous
 62
     3
440
 16777216
100
AcDbLine
 10
236.8744525727396
 20
97.35462650362855
 30
0.0
 11
236.8744525727396
 21
122.2543895717877
 31
0.0
  0
SOLID
  5
273BF
330
27377
100
AcDbEntity
  8
0
  6
Continuous
 62
     3
440
 16777216
100
AcDbTrace
 10
236.4577859060729
 20
97.35462650362855
 30
0.0
 11
237.2911192394062
 21
97.35462650362855
 31
0.0
 12
236.8744525727396
 22
94.85462650362853
 32
0.0
 13
236.8744525727396
 23
94.85462650362853
 33
0.0
  0
MTEXT
  5
273C0
330
27377
100
AcDbEntity
  8
0
  6
Continuous
 62
     2
440
 16777216
100
AcDbMText
 10
234.59872753421
 20
115.1753291784085
 30
0.0
 40
3.0
 41
0.0
 46
0.0
 71
     5
 72
     1
  1
(%%c1.957)
 11
0.0000000000000001
 21
1.0
 31
0.0
 73
     1
 44
1.0
  0
POINT
  5
273C1
330
27377
100
AcDbEntity
  8
DEFPOINTS
  6
Continuous
 62
     0
440
 16777216
100
AcDbPoint
 10
223.4082820207802
 20
148.1885399635035
 30
0.0
  0
POINT
  5
273C2
330
27377
100
AcDbEntity
  8
DEFPOINTS
  6
Continuous
 62
     0
440
 16777216
100
AcDbPoint
 10
223.4082820207784
 20
98.4628760281663
 30
0.0
  0
POINT
  5
273C3
330
27377
100
AcDbEntity
  8
DEFPOINTS
  6
Continuous
 62
     0
440
 16777216
100
AcDbPoint
 10
236.8744525727396
 20
94.85462650362853
 30
0.0
  0
ENDBLK
  5
27379
330
27377
100
AcDbEntity
  8
0
 62
     7
100
AcDbBlockEnd
  0
ENDSEC
  0
SECTION
  2
ENTITIES
  0
LWPOLYLINE
  5
24498
330
2
100
AcDbEntity
  8
0
 62
     0
100
AcDbPolyline
 90
        4
 70
     1
 43
0.0
 10
0.0
 20
0.0
 10
0.0
 20
244.9489638202782
 10
351.0124800000003
 20
244.9489638202782
 10
351.0124800000003
 20
0.0
  0
LINE
  5
24499
330
2
100
AcDbEntity
  8
0
  6
Continuous
 62
     7
100
AcDbLine
 10
263.2593600000008
 20
-4.280640000000363
 30
0.0
 11
263.2593600000008
 21
0.0
 31
0.0
  0
LINE
  5
2449A
330
2
100
AcDbEntity
  8
0
  6
Continuous
 62
     7
100
AcDbLine
 10
258.9787200000005
 20
0.0
 30
0.0
 11
258.9787200000005
 21
34.44594803722607
 31
0.0
  0
LINE
  5
2449B
330
2
100
AcDbEntity
  8
0
  6
Continuous
 62
     7
100
AcDbLine
 10
87.75312000000063
 20
-4.280640000000363
 30
0.0
 11
87.75312000000063
 21
0.0
 31
0.0
  0
LINE
  5
2449C
330
2
100
AcDbEntity
  8
0
  6
Continuous
 62
     7
100
AcDbLine
 10
263.2593600000008
 20
249.2296038202775
 30
0.0
 11
263.2593600000008
 21
244.9489638202782
 31
0.0
  0
LINE
  5
2449D
330
2
100
AcDbEntity
  8
0
  6
Continuous
 62
     7
100
AcDbLine
 10
87.75312000000063
 20
249.2296038202775
 30
0.0
 11
87.75312000000063
 21
244.9489638202782
 31
0.0
  0
LINE
  5
2449E
330
2
100
AcDbEntity
  8
0
  6
Continuous
 62
     7
100
AcDbLine
 10
-4.280639999999228
 20
61.2372409550687
 30
0.0
 11
0.0
 21
61.2372409550687
 31
0.0
  0
LINE
  5
2449F
330
2
100
AcDbEntity
  8
0
  6
Continuous
 62
     7
100
AcDbLine
 10
-4.280639999999228
 20
183.7117228652084
 30
0.0
 11
0.0
 21
183.7117228652084
 31
0.0
  0
LINE
  5
244A0
330
2
100
AcDbEntity
  8
0
  6
Continuous
 62
     7
100
AcDbLine
 10
355.2931200000006
 20
61.2372409550687
 30
0.0
 11
351.0124800000003
 21
61.2372409550687
 31
0.0
  0
LINE
  5
244A1
330
2
100
AcDbEntity
  8
0
  6
Continuous
 62
     7
100
AcDbLine
 10
355.2931200000006
 20
183.7117228652084
 30
0.0
 11
351.0124800000003
 21
183.7117228652084
 31
0.0
  0
LINE
  5
244A2
330
2
100
AcDbEntity
  8
0
  6
Continuous
 62
     7
100
AcDbLine
 10
351.0124800000003
 20
34.44594803722607
 30
0.0
 11
258.9787200000005
 21
34.44594803722607
 31
0.0
  0
LINE
  5
244A3
330
2
100
AcDbEntity
  8
0
  6
Continuous
 62
     7
100
AcDbLine
 10
258.9787200000005
 20
11.4819826790746
 30
0.0
 11
351.0124800000003
 21
11.4819826790746
 31
0.0
  0
LINE
  5
244A4
330
2
100
AcDbEntity
  8
0
  6
Continuous
 62
     7
100
AcDbLine
 10
258.9787200000005
 20
22.96396535815034
 30
0.0
 11
351.0124800000003
 21
22.96396535815034
 31
0.0
  0
LINE
  5
244A5
330
2
100
AcDbEntity
  8
0
  6
Continuous
 62
     7
100
AcDbLine
 10
258.9787200000005
 20
0.0
 30
0.0
 11
351.0124800000003
 21
0.0
 31
0.0
  0
LINE
  5
244A6
330
2
100
AcDbEntity
  8
0
  6
Continuous
 62
     7
100
AcDbLine
 10
351.0124800000003
 20
122.4744819101385
 30
0.0
 11
355.2931200000006
 21
122.4744819101385
 31
0.0
  0
LINE
  5
244A7
330
2
100
AcDbEntity
  8
0
  6
Continuous
 62
     7
100
AcDbLine
 10
353.1528000000005
 20
121.0190643101389
 30
0.0
 11
353.1528000000005
 21
123.9298995101381
 31
0.0
  0
LINE
  5
244A8
330
2
100
AcDbEntity
  8
0
  6
Continuous
 62
     7
100
AcDbLine
 10
353.1528000000005
 20
121.0190643101389
 30
0.0
 11
351.0124800000003
 21
122.4744819101385
 31
0.0
  0
LINE
  5
244A9
330
2
100
AcDbEntity
  8
0
  6
Continuous
 62
     7
100
AcDbLine
 10
351.0124800000003
 20
122.4744819101385
 30
0.0
 11
353.1528000000005
 21
123.9298995101381
 31
0.0
  0
LINE
  5
244AA
330
2
100
AcDbEntity
  8
0
  6
Continuous
 62
     7
100
AcDbLine
 10
0.0
 20
122.4744819101385
 30
0.0
 11
-4.280639999999228
 21
122.4744819101385
 31
0.0
  0
LINE
  5
244AB
330
2
100
AcDbEntity
  8
0
  6
Continuous
 62
     7
100
AcDbLine
 10
-2.140320000000181
 20
121.0190643101389
 30
0.0
 11
-2.140320000000181
 21
123.9298995101381
 31
0.0
  0
LINE
  5
244AC
330
2
100
AcDbEntity
  8
0
  6
Continuous
 62
     7
100
AcDbLine
 10
-2.140320000000181
 20
121.0190643101389
 30
0.0
 11
0.0
 21
122.4744819101385
 31
0.0
  0
LINE
  5
244AD
330
2
100
AcDbEntity
  8
0
  6
Continuous
 62
     7
100
AcDbLine
 10
0.0
 20
122.4744819101385
 30
0.0
 11
-2.140320000000181
 21
123.9298995101381
 31
0.0
  0
LINE
  5
244AE
330
2
100
AcDbEntity
  8
0
  6
Continuous
 62
     7
100
AcDbLine
 10
175.5062400000013
 20
244.9489638202782
 30
0.0
 11
175.5062400000013
 21
249.2296038202775
 31
0.0
  0
LINE
  5
244AF
330
2
100
AcDbEntity
  8
0
  6
Continuous
 62
     7
100
AcDbLine
 10
174.0508224000005
 20
247.0892838202773
 30
0.0
 11
176.9616576000008
 21
247.0892838202773
 31
0.0
  0
LINE
  5
244B0
330
2
100
AcDbEntity
  8
0
  6
Continuous
 62
     7
100
AcDbLine
 10
174.0508224000005
 20
247.0892838202773
 30
0.0
 11
175.5062400000013
 21
244.9489638202782
 31
0.0
  0
LINE
  5
244B1
330
2
100
AcDbEntity
  8
0
  6
Continuous
 62
     7
100
AcDbLine
 10
175.5062400000013
 20
244.9489638202782
 30
0.0
 11
176.9616576000008
 21
247.0892838202773
 31
0.0
  0
LINE
  5
244B2
330
2
100
AcDbEntity
  8
0
  6
Continuous
 62
     7
100
AcDbLine
 10
175.5062400000013
 20
0.0
 30
0.0
 11
175.5062400000013
 21
-4.280640000000363
 31
0.0
  0
LINE
  5
244B3
330
2
100
AcDbEntity
  8
0
  6
Continuous
 62
     7
100
AcDbLine
 10
174.0508224000005
 20
-2.140320000000181
 30
0.0
 11
176.9616576000008
 21
-2.140320000000181
 31
0.0
  0
LINE
  5
244B4
330
2
100
AcDbEntity
  8
0
  6
Continuous
 62
     7
100
AcDbLine
 10
174.0508224000005
 20
-2.140320000000181
 30
0.0
 11
175.5062400000013
 21
0.0
 31
0.0
  0
LINE
  5
244B5
330
2
100
AcDbEntity
  8
0
  6
Continuous
 62
     7
100
AcDbLine
 10
175.5062400000013
 20
0.0
 30
0.0
 11
176.9616576000008
 21
-2.140320000000181
 31
0.0
  0
TEXT
  5
244B6
330
2
100
AcDbEntity
  8
0
 62
     2
100
AcDbText
 10
42.98015657380208
 20
-3.468338122204353
 30
0.0
 40
2.397158399999999
  1
4
  7
굴림
100
AcDbText
  0
TEXT
  5
244B7
330
2
100
AcDbEntity
  8
0
 62
     2
100
AcDbText
 10
130.8146353481772
 20
-3.468338122204353
 30
0.0
 40
2.397158399999999
  1
3
  7
굴림
100
AcDbText
  0
TEXT
  5
244B8
330
2
100
AcDbEntity
  8
0
 62
     2
100
AcDbText
 10
218.4542432787428
 20
-3.468338122204353
 30
0.0
 40
2.397158399999999
  1
2
  7
굴림
100
AcDbText
  0
TEXT
  5
244B9
330
2
100
AcDbEntity
  8
0
 62
     2
100
AcDbText
 10
306.4750005923157
 20
-3.468338122204353
 30
0.0
 40
2.397158399999999
  1
1
  7
굴림
100
AcDbText
  0
TEXT
  5
244BA
330
2
100
AcDbEntity
  8
0
 62
     2
100
AcDbText
 10
42.98015657380208
 20
246.3137889065149
 30
0.0
 40
2.397158399999999
  1
4
  7
굴림
100
AcDbText
  0
TEXT
  5
244BB
330
2
100
AcDbEntity
  8
0
 62
     2
100
AcDbText
 10
130.8146353481772
 20
246.3137889065149
 30
0.0
 40
2.397158399999999
  1
3
  7
굴림
100
AcDbText
  0
TEXT
  5
244BC
330
2
100
AcDbEntity
  8
0
 62
     2
100
AcDbText
 10
218.4542432787428
 20
246.3137889065149
 30
0.0
 40
2.397158399999999
  1
2
  7
굴림
100
AcDbText
  0
TEXT
  5
244BD
330
2
100
AcDbEntity
  8
0
 62
     2
100
AcDbText
 10
306.4750005923157
 20
246.3137889065149
 30
0.0
 40
2.397158399999999
  1
1
  7
굴림
100
AcDbText
  0
TEXT
  5
244BE
330
2
100
AcDbEntity
  8
0
 62
     2
100
AcDbText
 10
-3.460628395905252
 20
29.82042864410486
 30
0.0
 40
2.397158399999999
  1
A
  7
굴림
100
AcDbText
  0
TEXT
  5
244BF
330
2
100
AcDbEntity
  8
0
 62
     2
100
AcDbText
 10
-3.460628395905252
 20
90.54964392292117
 30
0.0
 40
2.397158399999999
  1
B
  7
굴림
100
AcDbText
  0
TEXT
  5
244C0
330
2
100
AcDbEntity
  8
0
 62
     2
100
AcDbText
 10
-3.460628395905252
 20
151.8583564019574
 30
0.0
 40
2.397158399999999
  1
C
  7
굴림
100
AcDbText
  0
TEXT
  5
244C1
330
2
100
AcDbEntity
  8
0
 62
     2
100
AcDbText
 10
-3.460628395905252
 20
213.5445952772715
 30
0.0
 40
2.397158399999999
  1
D
  7
굴림
100
AcDbText
  0
TEXT
  5
244C2
330
2
100
AcDbEntity
  8
0
 62
     2
100
AcDbText
 10
352.294808205016
 20
29.82042864410486
 30
0.0
 40
2.397158399999999
  1
A
  7
굴림
100
AcDbText
  0
TEXT
  5
244C3
330
2
100
AcDbEntity
  8
0
 62
     2
100
AcDbText
 10
352.294808205016
 20
90.54964392292117
 30
0.0
 40
2.397158399999999
  1
B
  7
굴림
100
AcDbText
  0
TEXT
  5
244C4
330
2
100
AcDbEntity
  8
0
 62
     2
100
AcDbText
 10
352.294808205016
 20
151.8583564019574
 30
0.0
 40
2.397158399999999
  1
C
  7
굴림
100
AcDbText
  0
TEXT
  5
244C5
330
2
100
AcDbEntity
  8
0
 62
     2
100
AcDbText
 10
352.294808205016
 20
213.5445952772715
 30
0.0
 40
2.397158399999999
  1
D
  7
굴림
100
AcDbText
  0
TEXT
  5
244C6
330
2
100
AcDbEntity
  8
0
 62
     2
100
AcDbText
 10
285.3791962851971
 20
15.77777236324569
 30
0.0
 40
3.356021759999999
  1
www.maritool.com
  7
굴림
100
AcDbText
  0
TEXT
  5
244C7
330
2
100
AcDbEntity
  8
0
 62
     2
100
AcDbText
 10
262.4344375011333
 20
4.536342687300697
 30
0.0
 40
2.684817407999999
  1
ITEM#
  7
굴림
100
AcDbText
  0
TEXT
  5
244C8
330
2
100
AcDbEntity
  8
0
 62
     2
100
AcDbText
 10
277.1889077775843
 20
3.898437559889804
 30
0.0
 40
4.027226111999999
  1
HSK80F-DSF16-4.0
  7
굴림
100
AcDbText
  0
LWPOLYLINE
  5
24547
102
{ACAD_REACTORS
330
24548
102
}
330
2
100
AcDbEntity
  8
Layer 1
 62
   103
100
AcDbPolyline
 90
        8
 70
     1
 43
0.0
 10
330.9283306722212
 20
33.17009673403428
 10
298.1031530710711
 20
33.17138728554236
 10
297.6135026460495
 20
31.56081696119198
 10
308.989030954243
 20
31.56025187027097
 10
306.8120223901573
 20
24.01120451269535
 10
308.9453040325671
 20
24.01120451269535
 10
311.1218950652837
 20
31.56025187027097
 10
330.4362531220675
 20
31.55929866530112
  0
HATCH
  5
24548
330
2
100
AcDbEntity
  8
0
  6
Continuous
 62
    93
100
AcDbHatch
 10
0.0
 20
0.0
 30
0.0
210
0.0
220
0.0
230
0.9999999999999998
  2
SOLID
 70
     1
 71
     1
 91
        1
 92
        7
 72
     0
 73
     1
 93
        8
 10
298.1031530710711
 20
33.17138728554236
 10
297.6135026460495
 20
31.56081696119198
 10
308.989030954243
 20
31.56025187027097
 10
306.8120223901573
 20
24.01120451269535
 10
308.9453040325671
 20
24.01120451269535
 10
311.1218950652837
 20
31.56025187027097
 10
330.4362531220675
 20
31.55929866530112
 10
330.9283306722212
 20
33.17009673403428
 97
        1
330
24547
 75
     1
 76
     1
 47
0.0428322549537331
 98
        1
 10
312.5477094073707
 20
32.37557164405409
450
        0
451
        0
460
0.0
461
0.0
452
        0
462
1.0
453
        2
463
0.0
 63
     5
421
      255
463
1.0
 63
     2
421
 16776960
470
LINEAR
1001
GRADIENTCOLOR1ACI
1070
     5
1001
GRADIENTCOLOR2ACI
1070
     2
1001
ACAD
1010
0.0
1020
0.0
1030
0.0
  0
HATCH
  5
24549
330
2
100
AcDbEntity
  8
0
  6
Continuous
 62
     0
100
AcDbHatch
 10
0.0
 20
0.0
 30
0.0
210
0.0
220
0.0
230
0.9999999999999998
  2
SOLID
 70
     1
 71
     1
 91
        1
 92
        5
 93
       13
 72
     4
 94
        3
 73
     0
 74
     0
 95
        8
 96
        4
 40
1.0
 40
1.0
 40
1.0
 40
1.0
 40
2.0
 40
2.0
 40
2.0
 40
2.0
 10
286.4112498564757
 20
28.49268258096325
 10
286.4112498564757
 20
28.49268258096325
 10
285.4326322395831
 20
24.01120451269535
 10
285.4326322395831
 20
24.01120451269535
 97
        0
 72
     4
 94
        3
 73
     0
 74
     0
 95
        8
 96
        4
 40
0.0
 40
0.0
 40
0.0
 40
0.0
 40
1.0
 40
1.0
 40
1.0
 40
1.0
 10
285.4326322395831
 20
24.01120451269535
 10
285.4326322395831
 20
24.01120451269535
 10
287.5851582824187
 20
24.01120451269535
 10
287.5851582824187
 20
24.01120451269535
 97
        0
 72
     4
 94
        3
 73
     0
 74
     0
 95
        8
 96
        4
 40
12.0
 40
12.0
 40
12.0
 40
12.0
 40
13.0
 40
13.0
 40
13.0
 40
13.0
 10
287.5851582824187
 20
24.01120451269535
 10
287.5851582824187
 20
24.01120451269535
 10
288.7107469416131
 20
30.91915141387211
 10
288.7107469416131
 20
30.91915141387211
 97
        0
 72
     4
 94
        3
 73
     0
 74
     0
 95
        8
 96
        4
 40
11.0
 40
11.0
 40
11.0
 40
11.0
 40
12.0
 40
12.0
 40
12.0
 40
12.0
 10
288.7107469416131
 20
30.91915141387211
 10
288.7107469416131
 20
30.91915141387211
 10
286.3913981376936
 20
30.91915141387211
 10
286.3913981376936
 20
30.91915141387211
 97
        0
 72
     4
 94
        3
 73
     0
 74
     0
 95
        8
 96
        4
 40
10.0
 40
10.0
 40
10.0
 40
10.0
 40
11.0
 40
11.0
 40
11.0
 40
11.0
 10
286.3913981376936
 20
30.91915141387211
 10
286.3913981376936
 20
30.91915141387211
 10
284.0038778482447
 20
27.1228760276138
 10
284.0038778482447
 20
27.1228760276138
 97
        0
 72
     4
 94
        3
 73
     0
 74
     0
 95
        8
 96
        4
 40
9.0
 40
9.0
 40
9.0
 40
9.0
 40
10.0
 40
10.0
 40
10.0
 40
10.0
 10
284.0038778482447
 20
27.1228760276138
 10
284.0038778482447
 20
27.1228760276138
 10
283.5835385953676
 20
30.91915141387211
 10
283.5835385953676
 20
30.91915141387211
 97
        0
 72
     4
 94
        3
 73
     0
 74
     0
 95
        8
 96
        4
 40
8.0
 40
8.0
 40
8.0
 40
8.0
 40
9.0
 40
9.0
 40
9.0
 40
9.0
 10
283.5835385953676
 20
30.91915141387211
 10
283.5835385953676
 20
30.91915141387211
 10
281.3032858530524
 20
30.91915141387211
 10
281.3032858530524
 20
30.91915141387211
 97
        0
 72
     4
 94
        3
 73
     0
 74
     0
 95
        8
 96
        4
 40
7.0
 40
7.0
 40
7.0
 40
7.0
 40
8.0
 40
8.0
 40
8.0
 40
8.0
 10
281.3032858530524
 20
30.91915141387211
 10
281.3032858530524
 20
30.91915141387211
 10
278.7887980061516
 20
24.01120451269535
 10
278.7887980061516
 20
24.01120451269535
 97
        0
 72
     4
 94
        3
 73
     0
 74
     0
 95
        8
 96
        4
 40
6.0
 40
6.0
 40
6.0
 40
6.0
 40
7.0
 40
7.0
 40
7.0
 40
7.0
 10
278.7887980061516
 20
24.01120451269535
 10
278.7887980061516
 20
24.01120451269535
 10
280.8923970170241
 20
24.01120451269535
 10
280.8923970170241
 20
24.01120451269535
 97
        0
 72
     4
 94
        3
 73
     0
 74
     0
 95
        8
 96
        4
 40
5.0
 40
5.0
 40
5.0
 40
5.0
 40
6.0
 40
6.0
 40
6.0
 40
6.0
 10
280.8923970170241
 20
24.01120451269535
 10
280.8923970170241
 20
24.01120451269535
 10
282.311358435706
 20
28.59038492158321
 10
282.311358435706
 20
28.59038492158321
 97
        0
 72
     4
 94
        3
 73
     0
 74
     0
 95
        8
 96
        4
 40
4.0
 40
4.0
 40
4.0
 40
4.0
 40
5.0
 40
5.0
 40
5.0
 40
5.0
 10
282.311358435706
 20
28.59038492158321
 10
282.311358435706
 20
28.59038492158321
 10
282.8299324105637
 20
24.01120451269535
 10
282.8299324105637
 20
24.01120451269535
 97
        0
 72
     4
 94
        3
 73
     0
 74
     0
 95
        8
 96
        4
 40
3.0
 40
3.0
 40
3.0
 40
3.0
 40
4.0
 40
4.0
 40
4.0
 40
4.0
 10
282.8299324105637
 20
24.01120451269535
 10
282.8299324105637
 20
24.01120451269535
 10
283.5149486137714
 20
24.01120451269535
 10
283.5149486137714
 20
24.01120451269535
 97
        0
 72
     4
 94
        3
 73
     0
 74
     0
 95
        8
 96
        4
 40
2.0
 40
2.0
 40
2.0
 40
2.0
 40
3.0
 40
3.0
 40
3.0
 40
3.0
 10
283.5149486137714
 20
24.01120451269535
 10
283.5149486137714
 20
24.01120451269535
 10
286.4112498564757
 20
28.49268258096325
 10
286.4112498564757
 20
28.49268258096325
 97
        0
 97
       13
330
24557
330
24555
330
24554
330
24553
330
24552
330
24551
330
24550
330
2454F
330
2454E
330
2454D
330
2454C
330
2454B
330
2454A
 75
     1
 76
     1
 47
0.0269459378258844
 98
        1
 10
286.5361013654737
 20
26.35980709993985
450
        0
451
        0
460
0.0
461
0.0
452
        0
462
1.0
453
        2
463
0.0
 63
     5
421
      255
463
1.0
 63
     2
421
 16776960
470
LINEAR
1001
GRADIENTCOLOR1ACI
1070
     5
1001
GRADIENTCOLOR2ACI
1070
     2
1001
ACAD
1010
0.0
1020
0.0
1030
0.0
  0
SPLINE
  5
2454A
102
{ACAD_REACTORS
330
24549
102
}
330
2
100
AcDbEntity
  8
Layer 1
100
AcDbSpline
210
0.0
220
0.0
230
1.0
 70
    24
 71
     3
 72
     8
 73
     4
 74
     0
 42
0.000000001
 43
0.0000000001
 40
0.0
 40
0.0
 40
0.0
 40
0.0
 40
1.0
 40
1.0
 40
1.0
 40
1.0
 10
287.5851582824187
 20
24.01120451269535
 30
0.0
 10
287.5851582824187
 20
24.01120451269535
 30
0.0
 10
285.4326322395831
 20
24.01120451269535
 30
0.0
 10
285.4326322395831
 20
24.01120451269535
 30
0.0
  0
SPLINE
  5
2454B
102
{ACAD_REACTORS
330
24549
102
}
330
2
100
AcDbEntity
  8
Layer 1
100
AcDbSpline
210
0.0
220
0.0
230
1.0
 70
    24
 71
     3
 72
     8
 73
     4
 74
     0
 42
0.000000001
 43
0.0000000001
 40
1.0
 40
1.0
 40
1.0
 40
1.0
 40
2.0
 40
2.0
 40
2.0
 40
2.0
 10
285.4326322395831
 20
24.01120451269535
 30
0.0
 10
285.4326322395831
 20
24.01120451269535
 30
0.0
 10
286.4112498564757
 20
28.49268258096325
 30
0.0
 10
286.4112498564757
 20
28.49268258096325
 30
0.0
  0
SPLINE
  5
2454C
102
{ACAD_REACTORS
330
24549
102
}
330
2
100
AcDbEntity
  8
Layer 1
100
AcDbSpline
210
0.0
220
0.0
230
1.0
 70
    24
 71
     3
 72
     8
 73
     4
 74
     0
 42
0.000000001
 43
0.0000000001
 40
2.0
 40
2.0
 40
2.0
 40
2.0
 40
3.0
 40
3.0
 40
3.0
 40
3.0
 10
286.4112498564757
 20
28.49268258096325
 30
0.0
 10
286.4112498564757
 20
28.49268258096325
 30
0.0
 10
283.5149486137714
 20
24.01120451269535
 30
0.0
 10
283.5149486137714
 20
24.01120451269535
 30
0.0
  0
SPLINE
  5
2454D
102
{ACAD_REACTORS
330
24549
102
}
330
2
100
AcDbEntity
  8
Layer 1
100
AcDbSpline
210
0.0
220
0.0
230
1.0
 70
    24
 71
     3
 72
     8
 73
     4
 74
     0
 42
0.000000001
 43
0.0000000001
 40
3.0
 40
3.0
 40
3.0
 40
3.0
 40
4.0
 40
4.0
 40
4.0
 40
4.0
 10
283.5149486137714
 20
24.01120451269535
 30
0.0
 10
283.5149486137714
 20
24.01120451269535
 30
0.0
 10
282.8299324105637
 20
24.01120451269535
 30
0.0
 10
282.8299324105637
 20
24.01120451269535
 30
0.0
  0
SPLINE
  5
2454E
102
{ACAD_REACTORS
330
24549
102
}
330
2
100
AcDbEntity
  8
Layer 1
100
AcDbSpline
210
0.0
220
0.0
230
1.0
 70
    24
 71
     3
 72
     8
 73
     4
 74
     0
 42
0.000000001
 43
0.0000000001
 40
4.0
 40
4.0
 40
4.0
 40
4.0
 40
5.0
 40
5.0
 40
5.0
 40
5.0
 10
282.8299324105637
 20
24.01120451269535
 30
0.0
 10
282.8299324105637
 20
24.01120451269535
 30
0.0
 10
282.311358435706
 20
28.59038492158321
 30
0.0
 10
282.311358435706
 20
28.59038492158321
 30
0.0
  0
SPLINE
  5
2454F
102
{ACAD_REACTORS
330
24549
102
}
330
2
100
AcDbEntity
  8
Layer 1
100
AcDbSpline
210
0.0
220
0.0
230
1.0
 70
    24
 71
     3
 72
     8
 73
     4
 74
     0
 42
0.000000001
 43
0.0000000001
 40
5.0
 40
5.0
 40
5.0
 40
5.0
 40
6.0
 40
6.0
 40
6.0
 40
6.0
 10
282.311358435706
 20
28.59038492158321
 30
0.0
 10
282.311358435706
 20
28.59038492158321
 30
0.0
 10
280.8923970170241
 20
24.01120451269535
 30
0.0
 10
280.8923970170241
 20
24.01120451269535
 30
0.0
  0
SPLINE
  5
24550
102
{ACAD_REACTORS
330
24549
102
}
330
2
100
AcDbEntity
  8
Layer 1
100
AcDbSpline
210
0.0
220
0.0
230
1.0
 70
    24
 71
     3
 72
     8
 73
     4
 74
     0
 42
0.000000001
 43
0.0000000001
 40
6.0
 40
6.0
 40
6.0
 40
6.0
 40
7.0
 40
7.0
 40
7.0
 40
7.0
 10
280.8923970170241
 20
24.01120451269535
 30
0.0
 10
280.8923970170241
 20
24.01120451269535
 30
0.0
 10
278.7887980061516
 20
24.01120451269535
 30
0.0
 10
278.7887980061516
 20
24.01120451269535
 30
0.0
  0
SPLINE
  5
24551
102
{ACAD_REACTORS
330
24549
102
}
330
2
100
AcDbEntity
  8
Layer 1
100
AcDbSpline
210
0.0
220
0.0
230
1.0
 70
    24
 71
     3
 72
     8
 73
     4
 74
     0
 42
0.000000001
 43
0.0000000001
 40
7.0
 40
7.0
 40
7.0
 40
7.0
 40
8.0
 40
8.0
 40
8.0
 40
8.0
 10
278.7887980061516
 20
24.01120451269535
 30
0.0
 10
278.7887980061516
 20
24.01120451269535
 30
0.0
 10
281.3032858530524
 20
30.91915141387211
 30
0.0
 10
281.3032858530524
 20
30.91915141387211
 30
0.0
  0
SPLINE
  5
24552
102
{ACAD_REACTORS
330
24549
102
}
330
2
100
AcDbEntity
  8
Layer 1
100
AcDbSpline
210
0.0
220
0.0
230
1.0
 70
    24
 71
     3
 72
     8
 73
     4
 74
     0
 42
0.000000001
 43
0.0000000001
 40
8.0
 40
8.0
 40
8.0
 40
8.0
 40
9.0
 40
9.0
 40
9.0
 40
9.0
 10
281.3032858530524
 20
30.91915141387211
 30
0.0
 10
281.3032858530524
 20
30.91915141387211
 30
0.0
 10
283.5835385953676
 20
30.91915141387211
 30
0.0
 10
283.5835385953676
 20
30.91915141387211
 30
0.0
  0
SPLINE
  5
24553
102
{ACAD_REACTORS
330
24549
102
}
330
2
100
AcDbEntity
  8
Layer 1
100
AcDbSpline
210
0.0
220
0.0
230
1.0
 70
    24
 71
     3
 72
     8
 73
     4
 74
     0
 42
0.000000001
 43
0.0000000001
 40
9.0
 40
9.0
 40
9.0
 40
9.0
 40
10.0
 40
10.0
 40
10.0
 40
10.0
 10
283.5835385953676
 20
30.91915141387211
 30
0.0
 10
283.5835385953676
 20
30.91915141387211
 30
0.0
 10
284.0038778482447
 20
27.1228760276138
 30
0.0
 10
284.0038778482447
 20
27.1228760276138
 30
0.0
  0
SPLINE
  5
24554
102
{ACAD_REACTORS
330
24549
102
}
330
2
100
AcDbEntity
  8
Layer 1
100
AcDbSpline
210
0.0
220
0.0
230
1.0
 70
    24
 71
     3
 72
     8
 73
     4
 74
     0
 42
0.000000001
 43
0.0000000001
 40
10.0
 40
10.0
 40
10.0
 40
10.0
 40
11.0
 40
11.0
 40
11.0
 40
11.0
 10
284.0038778482447
 20
27.1228760276138
 30
0.0
 10
284.0038778482447
 20
27.1228760276138
 30
0.0
 10
286.3913981376936
 20
30.91915141387211
 30
0.0
 10
286.3913981376936
 20
30.91915141387211
 30
0.0
  0
SPLINE
  5
24555
102
{ACAD_REACTORS
330
24549
102
}
330
2
100
AcDbEntity
  8
Layer 1
100
AcDbSpline
210
0.0
220
0.0
230
1.0
 70
    24
 71
     3
 72
     8
 73
     4
 74
     0
 42
0.000000001
 43
0.0000000001
 40
11.0
 40
11.0
 40
11.0
 40
11.0
 40
12.0
 40
12.0
 40
12.0
 40
12.0
 10
286.3913981376936
 20
30.91915141387211
 30
0.0
 10
286.3913981376936
 20
30.91915141387211
 30
0.0
 10
288.7107469416131
 20
30.91915141387211
 30
0.0
 10
288.7107469416131
 20
30.91915141387211
 30
0.0
  0
SPLINE
  5
24556
102
{ACAD_REACTORS
330
2455C
102
}
330
2
100
AcDbEntity
  8
Layer 1
100
AcDbSpline
210
0.0
220
0.0
230
1.0
 70
     8
 71
     3
 72
     8
 73
     4
 74
     0
 42
0.000000001
 43
0.0000000001
 40
12.0
 40
12.0
 40
12.0
 40
12.0
 40
13.0
 40
13.0
 40
13.0
 40
13.0
 10
300.8982598926038
 20
26.85523841933281
 30
0.0
 10
301.2060943846134
 20
26.94884136104689
 30
0.0
 10
301.5115375605944
 20
27.08636101142312
 30
0.0
 10
301.7817562718915
 20
27.29281129527482
 30
0.0
  0
SPLINE
  5
24557
102
{ACAD_REACTORS
330
24549
102
}
330
2
100
AcDbEntity
  8
Layer 1
100
AcDbSpline
210
0.0
220
0.0
230
1.0
 70
    24
 71
     3
 72
     8
 73
     4
 74
     0
 42
0.000000001
 43
0.0000000001
 40
12.0
 40
12.0
 40
12.0
 40
12.0
 40
13.0
 40
13.0
 40
13.0
 40
13.0
 10
288.7107469416131
 20
30.91915141387211
 30
0.0
 10
288.7107469416131
 20
30.91915141387211
 30
0.0
 10
287.5851582824187
 20
24.01120451269535
 30
0.0
 10
287.5851582824187
 20
24.01120451269535
 30
0.0
  0
HATCH
  5
24558
330
2
100
AcDbEntity
  8
0
  6
Continuous
 62
     0
100
AcDbHatch
 10
0.0
 20
0.0
 30
0.0
210
0.0
220
0.0
230
0.9999999999999998
  2
SOLID
 70
     1
 71
     0
 91
        1
 92
        5
 93
        2
 72
     4
 94
        3
 73
     0
 74
     0
 95
       35
 96
       31
 40
9.999999403953552
 40
9.999999403953552
 40
9.999999403953552
 40
9.999999403953552
 40
10.9999988079071
 40
10.9999988079071
 40
10.9999988079071
 40
11.9999988079071
 40
11.9999988079071
 40
11.9999988079071
 40
12.9999988079071
 40
12.9999988079071
 40
12.9999988079071
 40
13.9999988079071
 40
13.9999988079071
 40
13.9999988079071
 40
14.9999988079071
 40
14.9999988079071
 40
14.9999988079071
 40
15.9999988079071
 40
15.9999988079071
 40
15.9999988079071
 40
16.9999988079071
 40
16.9999988079071
 40
16.9999988079071
 40
17.9999988079071
 40
17.9999988079071
 40
17.9999988079071
 40
18.9999988079071
 40
18.9999988079071
 40
18.9999988079071
 40
18.99999940395355
 40
18.99999940395355
 40
18.99999940395355
 40
18.99999940395355
 10
291.4457672032388
 20
25.12677241900558
 10
291.4457690043629
 20
25.12677241900558
 10
292.9566614023078
 20
25.12677241900558
 10
292.9566614023078
 20
25.12677241900558
 10
292.9566614023078
 20
25.12677241900558
 10
293.0252504192085
 20
24.01120451269534
 10
293.0252504192085
 20
24.01120451269534
 10
293.0252504192085
 20
24.01120451269534
 10
295.1095670191158
 20
24.01120451269534
 10
295.1095670191158
 20
24.01120451269534
 10
295.1095670191158
 20
24.01120451269534
 10
294.5908045131359
 20
30.92878833894112
 10
294.5908045131359
 20
30.92878833894112
 10
294.5908045131359
 20
30.92878833894112
 10
292.2814764037625
 20
30.92878833894112
 10
292.2814764037625
 20
30.92878833894112
 10
292.2814764037625
 20
30.92878833894112
 10
287.8001489806603
 20
24.01120451269534
 10
287.8001489806603
 20
24.01120451269534
 10
287.8001489806603
 20
24.01120451269534
 10
290.0407361852051
 20
24.01120451269534
 10
290.0407361852051
 20
24.01120451269534
 10
290.0407361852051
 20
24.01120451269534
 10
290.0518588307107
 20
24.02676704558314
 10
290.0518588307107
 20
24.02676704558314
 10
290.0518588307107
 20
24.02676704558314
 10
292.8000491810954
 20
28.5903849215832
 10
292.8000491810954
 20
28.5903849215832
 10
292.8000491810954
 20
28.5903849215832
 10
292.8000491810954
 20
28.59038492158248
 10
292.8000491810955
 20
28.59038492158104
 97
        0
 72
     4
 94
        3
 73
     0
 74
     0
 95
       17
 96
       13
 40
6.999999403953552
 40
6.999999403953552
 40
6.999999403953552
 40
6.999999403953552
 40
7.999998807907104
 40
7.999998807907104
 40
7.999998807907104
 40
8.999998807907104
 40
8.999998807907104
 40
8.999998807907104
 40
9.999998807907104
 40
9.999998807907104
 40
9.999998807907104
 40
9.999999403953552
 40
9.999999403953552
 40
9.999999403953552
 40
9.999999403953552
 10
292.8000491810955
 20
28.59038492158104
 10
292.8000492862535
 20
28.59038250688472
 10
292.8882621723944
 20
26.56478841528107
 10
292.8882621723944
 20
26.56478841528107
 10
292.8882621723944
 20
26.56478841528107
 10
292.1958433310568
 20
26.56478841528107
 10
292.1958433310568
 20
26.56478841528107
 10
292.1958433310568
 20
26.56478841528107
 10
291.4457672032371
 20
25.12677241900558
 10
291.4457672032371
 20
25.12677241900558
 10
291.4457672032371
 20
25.12677241900558
 10
291.4457672032377
 20
25.12677241900558
 10
291.4457672032388
 20
25.12677241900558
 97
        0
 97
        0
 75
     1
 76
     1
 47
0.0269459378258844
 98
        1
 10
294.2513848905983
 20
26.86713231191252
450
        0
451
        0
460
0.0
461
0.0
452
        0
462
1.0
453
        2
463
0.0
 63
     5
421
      255
463
1.0
 63
     2
421
 16776960
470
LINEAR
1001
GRADIENTCOLOR1ACI
1070
     5
1001
GRADIENTCOLOR2ACI
1070
     2
1001
ACAD
1010
0.0
1020
0.0
1030
0.0
  0
SPLINE
  5
24559
330
2
100
AcDbEntity
  8
Layer 1
100
AcDbSpline
210
0.0
220
0.0
230
1.0
 70
    11
 71
     3
 72
    41
 73
    37
 74
     0
 42
0.000000001
 43
0.0000000001
 40
0.0
 40
0.0
 40
0.0
 40
0.0
 40
1.0
 40
1.0
 40
1.0
 40
2.0
 40
2.0
 40
2.0
 40
3.0
 40
3.0
 40
3.0
 40
4.0
 40
4.0
 40
4.0
 40
5.0
 40
5.0
 40
5.0
 40
6.0
 40
6.0
 40
6.0
 40
7.0
 40
7.0
 40
7.0
 40
8.0
 40
8.0
 40
8.0
 40
9.0
 40
9.0
 40
9.0
 40
10.0
 40
10.0
 40
10.0
 40
11.0
 40
11.0
 40
11.0
 40
12.0
 40
12.0
 40
12.0
 40
12.0
 10
290.0407361852051
 20
24.01120451269535
 30
0.0
 10
290.0407361852051
 20
24.01120451269535
 30
0.0
 10
287.8001489806603
 20
24.01120451269535
 30
0.0
 10
287.8001489806603
 20
24.01120451269535
 30
0.0
 10
287.8001489806603
 20
24.01120451269535
 30
0.0
 10
292.2814764037625
 20
30.92878833894112
 30
0.0
 10
292.2814764037625
 20
30.92878833894112
 30
0.0
 10
292.2814764037625
 20
30.92878833894112
 30
0.0
 10
294.5908045131359
 20
30.92878833894112
 30
0.0
 10
294.5908045131359
 20
30.92878833894112
 30
0.0
 10
294.5908045131359
 20
30.92878833894112
 30
0.0
 10
295.1095670191158
 20
24.01120451269535
 30
0.0
 10
295.1095670191158
 20
24.01120451269535
 30
0.0
 10
295.1095670191158
 20
24.01120451269535
 30
0.0
 10
293.0252504192085
 20
24.01120451269535
 30
0.0
 10
293.0252504192085
 20
24.01120451269535
 30
0.0
 10
293.0252504192085
 20
24.01120451269535
 30
0.0
 10
292.9566614023078
 20
25.12677241900558
 30
0.0
 10
292.9566614023078
 20
25.12677241900558
 30
0.0
 10
292.9566614023078
 20
25.12677241900558
 30
0.0
 10
291.4457672032371
 20
25.12677241900558
 30
0.0
 10
291.4457672032371
 20
25.12677241900558
 30
0.0
 10
291.4457672032371
 20
25.12677241900558
 30
0.0
 10
292.1958433310568
 20
26.56478841528108
 30
0.0
 10
292.1958433310568
 20
26.56478841528108
 30
0.0
 10
292.1958433310568
 20
26.56478841528108
 30
0.0
 10
292.8882621723944
 20
26.56478841528108
 30
0.0
 10
292.8882621723944
 20
26.56478841528108
 30
0.0
 10
292.8882621723944
 20
26.56478841528108
 30
0.0
 10
292.8000491810954
 20
28.59038492158321
 30
0.0
 10
292.8000491810954
 20
28.59038492158321
 30
0.0
 10
292.8000491810954
 20
28.59038492158321
 30
0.0
 10
290.0518588307107
 20
24.02676704558315
 30
0.0
 10
290.0518588307107
 20
24.02676704558315
 30
0.0
 10
290.0518588307107
 20
24.02676704558315
 30
0.0
 10
290.0407361852051
 20
24.01120451269535
 30
0.0
 10
290.0407361852051
 20
24.01120451269535
 30
0.0
  0
HATCH
  5
2455A
330
2
100
AcDbEntity
  8
0
  6
Continuous
 62
     0
100
AcDbHatch
 10
0.0
 20
0.0
 30
0.0
210
0.0
220
0.0
230
0.9999999999999998
  2
SOLID
 70
     1
 71
     1
 91
        1
 92
        5
 93
        1
 72
     4
 94
        3
 73
     0
 74
     0
 95
       17
 96
       13
 40
0.0
 40
0.0
 40
0.0
 40
0.0
 40
1.0
 40
1.0
 40
1.0
 40
2.0
 40
2.0
 40
2.0
 40
3.0
 40
3.0
 40
3.0
 40
4.0
 40
4.0
 40
4.0
 40
4.0
 10
304.6491354747195
 20
24.01120451269535
 10
304.6491354747195
 20
24.01120451269535
 10
302.516080079836
 20
24.01120451269535
 10
302.516080079836
 20
24.01120451269535
 10
302.516080079836
 20
24.01120451269535
 10
304.3655542627194
 20
30.91915141387211
 10
304.3655542627194
 20
30.91915141387211
 10
304.3655542627194
 20
30.91915141387211
 10
306.4984563311567
 20
30.91915141387211
 10
306.4984563311567
 20
30.91915141387211
 10
306.4984563311567
 20
30.91915141387211
 10
304.6491354747195
 20
24.01120451269535
 10
304.6491354747195
 20
24.01120451269535
 97
        0
 97
        1
330
2455B
 75
     1
 76
     1
 47
0.0269459378258844
 98
        1
 10
303.7622632208152
 20
25.89822666859415
450
        0
451
        0
460
0.0
461
0.0
452
        0
462
1.0
453
        2
463
0.0
 63
     5
421
      255
463
1.0
 63
     2
421
 16776960
470
LINEAR
1001
GRADIENTCOLOR1ACI
1070
     5
1001
GRADIENTCOLOR2ACI
1070
     2
1001
ACAD
1010
0.0
1020
0.0
1030
0.0
  0
SPLINE
  5
2455B
102
{ACAD_REACTORS
330
2455A
102
}
330
2
100
AcDbEntity
  8
Layer 1
100
AcDbSpline
210
0.0
220
0.0
230
1.0
 70
    11
 71
     3
 72
    17
 73
    13
 74
     0
 42
0.000000001
 43
0.0000000001
 40
0.0
 40
0.0
 40
0.0
 40
0.0
 40
1.0
 40
1.0
 40
1.0
 40
2.0
 40
2.0
 40
2.0
 40
3.0
 40
3.0
 40
3.0
 40
4.0
 40
4.0
 40
4.0
 40
4.0
 10
304.6491354747195
 20
24.01120451269535
 30
0.0
 10
304.6491354747195
 20
24.01120451269535
 30
0.0
 10
302.516080079836
 20
24.01120451269535
 30
0.0
 10
302.516080079836
 20
24.01120451269535
 30
0.0
 10
302.516080079836
 20
24.01120451269535
 30
0.0
 10
304.3655542627194
 20
30.91915141387211
 30
0.0
 10
304.3655542627194
 20
30.91915141387211
 30
0.0
 10
304.3655542627194
 20
30.91915141387211
 30
0.0
 10
306.4984563311567
 20
30.91915141387211
 30
0.0
 10
306.4984563311567
 20
30.91915141387211
 30
0.0
 10
306.4984563311567
 20
30.91915141387211
 30
0.0
 10
304.6491354747195
 20
24.01120451269535
 30
0.0
 10
304.6491354747195
 20
24.01120451269535
 30
0.0
  0
HATCH
  5
2455C
330
2
100
AcDbEntity
  8
0
  6
Continuous
 62
     0
100
AcDbHatch
 10
0.0
 20
0.0
 30
0.0
210
0.0
220
0.0
230
0.9999999999999998
  2
SOLID
 70
     1
 71
     1
 91
        1
 92
        5
 93
       14
 72
     4
 94
        3
 73
     0
 74
     0
 95
        8
 96
        4
 40
11.0
 40
11.0
 40
11.0
 40
11.0
 40
12.0
 40
12.0
 40
12.0
 40
12.0
 10
301.8820411424834
 20
23.91817093194104
 10
301.8820411424834
 20
23.91817093194104
 10
300.8982598926038
 20
26.85523841933281
 10
300.8982598926038
 20
26.85523841933281
 97
        0
 72
     4
 94
        3
 73
     0
 74
     0
 95
        8
 96
        4
 40
12.0
 40
12.0
 40
12.0
 40
12.0
 40
13.0
 40
13.0
 40
13.0
 40
13.0
 10
300.8982598926038
 20
26.85523841933281
 10
301.2060943846134
 20
26.94884136104689
 10
301.5115375605944
 20
27.08636101142312
 10
301.7817562718915
 20
27.29281129527482
 97
        0
 72
     4
 94
        3
 73
     0
 74
     0
 95
        8
 96
        4
 40
13.0
 40
13.0
 40
13.0
 40
13.0
 40
14.0
 40
14.0
 40
14.0
 40
14.0
 10
301.7817562718915
 20
27.29281129527482
 10
302.378750216446
 20
27.75281699301516
 10
302.6919746588708
 20
28.40856898857127
 10
302.6919746588708
 20
29.05407248686042
 97
        0
 72
     4
 94
        3
 73
     0
 74
     0
 95
        8
 96
        4
 40
0.0
 40
0.0
 40
0.0
 40
0.0
 40
1.0
 40
1.0
 40
1.0
 40
1.0
 10
302.6919746588708
 20
29.05407248686042
 10
302.6919746588708
 20
30.44338914241503
 10
301.4689114034391
 20
30.93269795086192
 10
300.4024617587985
 20
30.93269795086192
 97
        0
 72
     4
 94
        3
 73
     0
 74
     0
 95
        8
 96
        4
 40
1.0
 40
1.0
 40
1.0
 40
1.0
 40
2.0
 40
2.0
 40
2.0
 40
2.0
 10
300.4024617587985
 20
30.93269795086192
 10
300.4024617587985
 20
30.93269795086192
 10
297.3495482177585
 20
30.93269795086192
 10
297.3495482177585
 20
30.93269795086192
 97
        0
 72
     4
 94
        3
 73
     0
 74
     0
 95
        8
 96
        4
 40
2.0
 40
2.0
 40
2.0
 40
2.0
 40
3.0
 40
3.0
 40
3.0
 40
3.0
 10
297.3495482177585
 20
30.93269795086192
 10
297.3495482177585
 20
30.93269795086192
 10
295.490431543509
 20
24.02456959621111
 10
295.490431543509
 20
24.02456959621111
 97
        0
 72
     4
 94
        3
 73
     0
 74
     0
 95
        8
 96
        4
 40
3.0
 40
3.0
 40
3.0
 40
3.0
 40
4.0
 40
4.0
 40
4.0
 40
4.0
 10
295.490431543509
 20
24.02456959621111
 10
295.490431543509
 20
24.02456959621111
 10
297.6826230665112
 20
24.02456959621111
 10
297.6826230665112
 20
24.02456959621111
 97
        0
 72
     4
 94
        3
 73
     0
 74
     0
 95
        8
 96
        4
 40
4.0
 40
4.0
 40
4.0
 40
4.0
 40
5.0
 40
5.0
 40
5.0
 40
5.0
 10
297.6826230665112
 20
24.02456959621111
 10
297.6826230665112
 20
24.02456959621111
 10
299.1204872331982
 20
29.38657928710757
 10
299.1204872331982
 20
29.38657928710757
 97
        0
 72
     4
 94
        3
 73
     0
 74
     0
 95
        8
 96
        4
 40
5.0
 40
5.0
 40
5.0
 40
5.0
 40
6.0
 40
6.0
 40
6.0
 40
6.0
 10
299.1204872331982
 20
29.38657928710757
 10
299.1204872331982
 20
29.38657928710757
 10
299.7663703054598
 20
29.38657928710757
 10
299.7663703054598
 20
29.38657928710757
 97
        0
 72
     4
 94
        3
 73
     0
 74
     0
 95
        8
 96
        4
 40
6.0
 40
6.0
 40
6.0
 40
6.0
 40
7.0
 40
7.0
 40
7.0
 40
7.0
 10
299.7663703054598
 20
29.38657928710757
 10
300.1478041908117
 20
29.38657928710757
 10
300.5394486160352
 20
29.29855608279594
 10
300.5394486160352
 20
28.8290989931312
 97
        0
 72
     4
 94
        3
 73
     0
 74
     0
 95
        8
 96
        4
 40
7.0
 40
7.0
 40
7.0
 40
7.0
 40
8.0
 40
8.0
 40
8.0
 40
8.0
 10
300.5394486160352
 20
28.8290989931312
 10
300.5394486160352
 20
28.57482238869542
 10
300.3438921052045
 20
28.16355398907367
 10
299.698009032944
 20
28.18336775045926
 97
        0
 72
     4
 94
        3
 73
     0
 74
     0
 95
        8
 96
        4
 40
8.0
 40
8.0
 40
8.0
 40
8.0
 40
9.0
 40
9.0
 40
9.0
 40
9.0
 10
299.698009032944
 20
28.18336775045926
 10
299.698009032944
 20
28.18336775045926
 10
299.2843113598958
 20
26.66898147083799
 10
299.2843113598958
 20
26.66898147083799
 97
        0
 72
     4
 94
        3
 73
     0
 74
     0
 95
        8
 96
        4
 40
9.0
 40
9.0
 40
9.0
 40
9.0
 40
10.0
 40
10.0
 40
10.0
 40
10.0
 10
299.2843113598958
 20
26.66898147083799
 10
299.2843113598958
 20
26.66898147083799
 10
300.0744325418533
 20
23.91817093194104
 10
300.0744325418533
 20
23.91817093194104
 97
        0
 72
     4
 94
        3
 73
     0
 74
     0
 95
        8
 96
        4
 40
10.0
 40
10.0
 40
10.0
 40
10.0
 40
11.0
 40
11.0
 40
11.0
 40
11.0
 10
300.0744325418533
 20
23.91817093194104
 10
300.0744325418533
 20
23.91817093194104
 10
301.8820411424834
 20
23.91817093194104
 10
301.8820411424834
 20
23.91817093194104
 97
        0
 97
       13
330
24567
330
24556
330
24568
330
2455D
330
2455E
330
2455F
330
24560
330
24561
330
24562
330
24563
330
24564
330
24565
330
24566
 75
     1
 76
     1
 47
0.0269459378258844
 98
        1
 10
300.41498929828
 20
26.49802511455241
450
        0
451
        0
460
0.0
461
0.0
452
        0
462
1.0
453
        2
463
0.0
 63
     5
421
      255
463
1.0
 63
     2
421
 16776960
470
LINEAR
1001
GRADIENTCOLOR1ACI
1070
     5
1001
GRADIENTCOLOR2ACI
1070
     2
1001
ACAD
1010
0.0
1020
0.0
1030
0.0
  0
SPLINE
  5
2455D
102
{ACAD_REACTORS
330
2455C
102
}
330
2
100
AcDbEntity
  8
Layer 1
100
AcDbSpline
210
0.0
220
0.0
230
1.0
 70
     8
 71
     3
 72
     8
 73
     4
 74
     0
 42
0.000000001
 43
0.0000000001
 40
0.0
 40
0.0
 40
0.0
 40
0.0
 40
1.0
 40
1.0
 40
1.0
 40
1.0
 10
302.6919746588708
 20
29.05407248686042
 30
0.0
 10
302.6919746588708
 20
30.44338914241503
 30
0.0
 10
301.4689114034391
 20
30.93269795086192
 30
0.0
 10
300.4024617587985
 20
30.93269795086192
 30
0.0
  0
SPLINE
  5
2455E
102
{ACAD_REACTORS
330
2455C
102
}
330
2
100
AcDbEntity
  8
Layer 1
100
AcDbSpline
210
0.0
220
0.0
230
1.0
 70
    24
 71
     3
 72
     8
 73
     4
 74
     0
 42
0.000000001
 43
0.0000000001
 40
1.0
 40
1.0
 40
1.0
 40
1.0
 40
2.0
 40
2.0
 40
2.0
 40
2.0
 10
300.4024617587985
 20
30.93269795086192
 30
0.0
 10
300.4024617587985
 20
30.93269795086192
 30
0.0
 10
297.3495482177585
 20
30.93269795086192
 30
0.0
 10
297.3495482177585
 20
30.93269795086192
 30
0.0
  0
SPLINE
  5
2455F
102
{ACAD_REACTORS
330
2455C
102
}
330
2
100
AcDbEntity
  8
Layer 1
100
AcDbSpline
210
0.0
220
0.0
230
1.0
 70
    24
 71
     3
 72
     8
 73
     4
 74
     0
 42
0.000000001
 43
0.0000000001
 40
2.0
 40
2.0
 40
2.0
 40
2.0
 40
3.0
 40
3.0
 40
3.0
 40
3.0
 10
297.3495482177585
 20
30.93269795086192
 30
0.0
 10
297.3495482177585
 20
30.93269795086192
 30
0.0
 10
295.490431543509
 20
24.02456959621111
 30
0.0
 10
295.490431543509
 20
24.02456959621111
 30
0.0
  0
SPLINE
  5
24560
102
{ACAD_REACTORS
330
2455C
102
}
330
2
100
AcDbEntity
  8
Layer 1
100
AcDbSpline
210
0.0
220
0.0
230
1.0
 70
    24
 71
     3
 72
     8
 73
     4
 74
     0
 42
0.000000001
 43
0.0000000001
 40
3.0
 40
3.0
 40
3.0
 40
3.0
 40
4.0
 40
4.0
 40
4.0
 40
4.0
 10
295.490431543509
 20
24.02456959621111
 30
0.0
 10
295.490431543509
 20
24.02456959621111
 30
0.0
 10
297.6826230665112
 20
24.02456959621111
 30
0.0
 10
297.6826230665112
 20
24.02456959621111
 30
0.0
  0
SPLINE
  5
24561
102
{ACAD_REACTORS
330
2455C
102
}
330
2
100
AcDbEntity
  8
Layer 1
100
AcDbSpline
210
0.0
220
0.0
230
1.0
 70
    24
 71
     3
 72
     8
 73
     4
 74
     0
 42
0.000000001
 43
0.0000000001
 40
4.0
 40
4.0
 40
4.0
 40
4.0
 40
5.0
 40
5.0
 40
5.0
 40
5.0
 10
297.6826230665112
 20
24.02456959621111
 30
0.0
 10
297.6826230665112
 20
24.02456959621111
 30
0.0
 10
299.1204872331982
 20
29.38657928710757
 30
0.0
 10
299.1204872331982
 20
29.38657928710757
 30
0.0
  0
SPLINE
  5
24562
102
{ACAD_REACTORS
330
2455C
102
}
330
2
100
AcDbEntity
  8
Layer 1
100
AcDbSpline
210
0.0
220
0.0
230
1.0
 70
    24
 71
     3
 72
     8
 73
     4
 74
     0
 42
0.000000001
 43
0.0000000001
 40
5.0
 40
5.0
 40
5.0
 40
5.0
 40
6.0
 40
6.0
 40
6.0
 40
6.0
 10
299.1204872331982
 20
29.38657928710757
 30
0.0
 10
299.1204872331982
 20
29.38657928710757
 30
0.0
 10
299.7663703054598
 20
29.38657928710757
 30
0.0
 10
299.7663703054598
 20
29.38657928710757
 30
0.0
  0
SPLINE
  5
24563
102
{ACAD_REACTORS
330
2455C
102
}
330
2
100
AcDbEntity
  8
Layer 1
100
AcDbSpline
210
0.0
220
0.0
230
1.0
 70
     8
 71
     3
 72
    11
 73
     7
 74
     0
 42
0.000000001
 43
0.0000000001
 40
6.0
 40
6.0
 40
6.0
 40
6.0
 40
7.0
 40
7.0
 40
7.0
 40
8.0
 40
8.0
 40
8.0
 40
8.0
 10
299.7663703054598
 20
29.38657928710757
 30
0.0
 10
300.1478041908117
 20
29.38657928710757
 30
0.0
 10
300.5394486160352
 20
29.29855608279594
 30
0.0
 10
300.5394486160352
 20
28.8290989931312
 30
0.0
 10
300.5394486160352
 20
28.57482238869542
 30
0.0
 10
300.3438921052045
 20
28.16355398907367
 30
0.0
 10
299.698009032944
 20
28.18336775045926
 30
0.0
  0
SPLINE
  5
24564
102
{ACAD_REACTORS
330
2455C
102
}
330
2
100
AcDbEntity
  8
Layer 1
100
AcDbSpline
210
0.0
220
0.0
230
1.0
 70
    24
 71
     3
 72
     8
 73
     4
 74
     0
 42
0.000000001
 43
0.0000000001
 40
8.0
 40
8.0
 40
8.0
 40
8.0
 40
9.0
 40
9.0
 40
9.0
 40
9.0
 10
299.698009032944
 20
28.18336775045926
 30
0.0
 10
299.698009032944
 20
28.18336775045926
 30
0.0
 10
299.2843113598958
 20
26.66898147083799
 30
0.0
 10
299.2843113598958
 20
26.66898147083799
 30
0.0
  0
SPLINE
  5
24565
102
{ACAD_REACTORS
330
2455C
102
}
330
2
100
AcDbEntity
  8
Layer 1
100
AcDbSpline
210
0.0
220
0.0
230
1.0
 70
    24
 71
     3
 72
     8
 73
     4
 74
     0
 42
0.000000001
 43
0.0000000001
 40
9.0
 40
9.0
 40
9.0
 40
9.0
 40
10.0
 40
10.0
 40
10.0
 40
10.0
 10
299.2843113598958
 20
26.66898147083799
 30
0.0
 10
299.2843113598958
 20
26.66898147083799
 30
0.0
 10
300.0744325418533
 20
23.91817093194104
 30
0.0
 10
300.0744325418533
 20
23.91817093194104
 30
0.0
  0
SPLINE
  5
24566
102
{ACAD_REACTORS
330
2455C
102
}
330
2
100
AcDbEntity
  8
Layer 1
100
AcDbSpline
210
0.0
220
0.0
230
1.0
 70
    24
 71
     3
 72
     8
 73
     4
 74
     0
 42
0.000000001
 43
0.0000000001
 40
10.0
 40
10.0
 40
10.0
 40
10.0
 40
11.0
 40
11.0
 40
11.0
 40
11.0
 10
300.0744325418533
 20
23.91817093194104
 30
0.0
 10
300.0744325418533
 20
23.91817093194104
 30
0.0
 10
301.8820411424834
 20
23.91817093194104
 30
0.0
 10
301.8820411424834
 20
23.91817093194104
 30
0.0
  0
SPLINE
  5
24567
102
{ACAD_REACTORS
330
2455C
102
}
330
2
100
AcDbEntity
  8
Layer 1
100
AcDbSpline
210
0.0
220
0.0
230
1.0
 70
    24
 71
     3
 72
     8
 73
     4
 74
     0
 42
0.000000001
 43
0.0000000001
 40
11.0
 40
11.0
 40
11.0
 40
11.0
 40
12.0
 40
12.0
 40
12.0
 40
12.0
 10
301.8820411424834
 20
23.91817093194104
 30
0.0
 10
301.8820411424834
 20
23.91817093194104
 30
0.0
 10
300.8982598926038
 20
26.85523841933281
 30
0.0
 10
300.8982598926038
 20
26.85523841933281
 30
0.0
  0
SPLINE
  5
24568
102
{ACAD_REACTORS
330
2455C
102
}
330
2
100
AcDbEntity
  8
Layer 1
100
AcDbSpline
210
0.0
220
0.0
230
1.0
 70
     8
 71
     3
 72
     8
 73
     4
 74
     0
 42
0.000000001
 43
0.0000000001
 40
13.0
 40
13.0
 40
13.0
 40
13.0
 40
14.0
 40
14.0
 40
14.0
 40
14.0
 10
301.7817562718915
 20
27.29281129527482
 30
0.0
 10
302.378750216446
 20
27.75281699301516
 30
0.0
 10
302.6919746588708
 20
28.40856898857127
 30
0.0
 10
302.6919746588708
 20
29.05407248686042
 30
0.0
  0
HATCH
  5
24569
330
2
100
AcDbEntity
  8
0
  6
Continuous
 62
     0
100
AcDbHatch
 10
0.0
 20
0.0
 30
0.0
210
0.0
220
0.0
230
0.9999999999999998
  2
SOLID
 70
     1
 71
     1
 91
        2
 92
        5
 93
        4
 72
     4
 94
        3
 73
     0
 74
     0
 95
        8
 96
        4
 40
0.0
 40
0.0
 40
0.0
 40
0.0
 40
1.0
 40
1.0
 40
1.0
 40
1.0
 10
311.2540627226425
 20
26.81223268820518
 10
311.2540627226425
 20
25.02204795988658
 10
312.4800866550616
 20
23.64996396270028
 10
314.601108058148
 20
23.64996396270028
 97
        0
 72
     4
 94
        3
 73
     0
 74
     0
 95
        8
 96
        4
 40
3.0
 40
3.0
 40
3.0
 40
3.0
 40
4.0
 40
4.0
 40
4.0
 40
4.0
 10
314.601108058148
 20
23.64996396270028
 10
317.4132197936661
 20
23.64996396270028
 10
318.862964625704
 20
25.80028847649322
 10
318.862964625704
 20
27.7463262780782
 97
        0
 72
     4
 94
        3
 73
     0
 74
     0
 95
        8
 96
        4
 40
2.0
 40
2.0
 40
2.0
 40
2.0
 40
3.0
 40
3.0
 40
3.0
 40
3.0
 10
318.862964625704
 20
27.7463262780782
 10
318.862964625704
 20
29.48815749994433
 10
317.6371304802712
 20
30.92821897798134
 10
315.4284274894491
 20
30.92821897798134
 97
        0
 72
     4
 94
        3
 73
     0
 74
     0
 95
        8
 96
        4
 40
1.0
 40
1.0
 40
1.0
 40
1.0
 40
2.0
 40
2.0
 40
2.0
 40
2.0
 10
315.4284274894491
 20
30.92821897798134
 10
312.7136005631808
 20
30.92821897798134
 10
311.2540627226425
 20
28.76791166870192
 10
311.2540627226425
 20
26.81223268820518
 97
        0
 97
        1
330
2456A
 92
       20
 93
        4
 72
     4
 94
        3
 73
     0
 74
     0
 95
        8
 96
        4
 40
2.0
 40
2.0
 40
2.0
 40
2.0
 40
3.0
 40
3.0
 40
3.0
 40
3.0
 10
314.7278478076941
 20
25.30414733653464
 10
314.0078339385281
 20
25.30414733653464
 10
313.3849150916257
 20
25.7810061186697
 10
313.3849150916257
 20
26.7929503303828
 97
        0
 72
     4
 94
        3
 73
     0
 74
     0
 95
        8
 96
        4
 40
1.0
 40
1.0
 40
1.0
 40
1.0
 40
2.0
 40
2.0
 40
2.0
 40
2.0
 10
313.3849150916257
 20
26.7929503303828
 10
313.3849150916257
 20
27.84384300786625
 10
314.1149514496602
 20
29.35192418338362
 10
315.4478996342577
 20
29.35192418338362
 97
        0
 72
     4
 94
        3
 73
     0
 74
     0
 95
        8
 96
        4
 40
0.0
 40
0.0
 40
0.0
 40
0.0
 40
1.0
 40
1.0
 40
1.0
 40
1.0
 10
315.4478996342577
 20
29.35192418338362
 10
316.1484793160115
 20
29.35192418338362
 10
316.7517741885156
 20
28.87525518823363
 10
316.7517741885156
 20
27.87291419803573
 97
        0
 72
     4
 94
        3
 73
     0
 74
     0
 95
        8
 96
        4
 40
3.0
 40
3.0
 40
3.0
 40
3.0
 40
4.0
 40
4.0
 40
4.0
 40
4.0
 10
316.7517741885156
 20
27.87291419803573
 10
316.7517741885156
 20
26.87080095222174
 10
316.1681412478074
 20
25.30414733653464
 10
314.7278478076941
 20
25.30414733653464
 97
        0
 97
        1
330
2456B
 75
     1
 76
     1
 47
0.0269459378258844
 98
        2
 10
312.7191077424897
 20
25.75981271916948
 10
312.7191077424897
 20
25.75981271916948
450
        0
451
        0
460
0.0
461
0.0
452
        0
462
1.0
453
        2
463
0.0
 63
     5
421
      255
463
1.0
 63
     2
421
 16776960
470
LINEAR
1001
GRADIENTCOLOR1ACI
1070
     5
1001
GRADIENTCOLOR2ACI
1070
     2
1001
ACAD
1010
0.0
1020
0.0
1030
0.0
  0
SPLINE
  5
2456A
102
{ACAD_REACTORS
330
24569
102
}
330
2
100
AcDbEntity
  8
Layer 1
100
AcDbSpline
210
0.0
220
0.0
230
1.0
 70
     9
 71
     3
 72
    17
 73
    13
 74
     0
 42
0.000000001
 43
0.0000000001
 40
0.0
 40
0.0
 40
0.0
 40
0.0
 40
1.0
 40
1.0
 40
1.0
 40
2.0
 40
2.0
 40
2.0
 40
3.0
 40
3.0
 40
3.0
 40
4.0
 40
4.0
 40
4.0
 40
4.0
 10
314.601108058148
 20
23.64996396270028
 30
0.0
 10
312.4800866550616
 20
23.64996396270028
 30
0.0
 10
311.2540627226425
 20
25.02204795988658
 30
0.0
 10
311.2540627226425
 20
26.81223268820518
 30
0.0
 10
311.2540627226425
 20
28.76791166870192
 30
0.0
 10
312.7136005631808
 20
30.92821897798134
 30
0.0
 10
315.4284274894491
 20
30.92821897798134
 30
0.0
 10
317.6371304802712
 20
30.92821897798134
 30
0.0
 10
318.862964625704
 20
29.48815749994433
 30
0.0
 10
318.862964625704
 20
27.7463262780782
 30
0.0
 10
318.862964625704
 20
25.80028847649322
 30
0.0
 10
317.4132197936661
 20
23.64996396270028
 30
0.0
 10
314.601108058148
 20
23.64996396270028
 30
0.0
  0
SPLINE
  5
2456B
102
{ACAD_REACTORS
330
24569
102
}
330
2
100
AcDbEntity
  8
Layer 1
100
AcDbSpline
210
0.0
220
0.0
230
1.0
 70
     9
 71
     3
 72
    17
 73
    13
 74
     0
 42
0.000000001
 43
0.0000000001
 40
0.0
 40
0.0
 40
0.0
 40
0.0
 40
1.0
 40
1.0
 40
1.0
 40
2.0
 40
2.0
 40
2.0
 40
3.0
 40
3.0
 40
3.0
 40
4.0
 40
4.0
 40
4.0
 40
4.0
 10
316.7517741885156
 20
27.87291419803573
 30
0.0
 10
316.7517741885156
 20
28.87525518823363
 30
0.0
 10
316.1484793160115
 20
29.35192418338362
 30
0.0
 10
315.4478996342577
 20
29.35192418338362
 30
0.0
 10
314.1149514496602
 20
29.35192418338362
 30
0.0
 10
313.3849150916257
 20
27.84384300786625
 30
0.0
 10
313.3849150916257
 20
26.7929503303828
 30
0.0
 10
313.3849150916257
 20
25.7810061186697
 30
0.0
 10
314.0078339385281
 20
25.30414733653464
 30
0.0
 10
314.7278478076941
 20
25.30414733653464
 30
0.0
 10
316.1681412478074
 20
25.30414733653464
 30
0.0
 10
316.7517741885156
 20
26.87080095222174
 30
0.0
 10
316.7517741885156
 20
27.87291419803573
 30
0.0
  0
HATCH
  5
2456C
330
2
100
AcDbEntity
  8
0
  6
Continuous
 62
     0
100
AcDbHatch
 10
0.0
 20
0.0
 30
0.0
210
0.0
220
0.0
230
0.9999999999999998
  2
SOLID
 70
     1
 71
     1
 91
        2
 92
        5
 93
        4
 72
     4
 94
        3
 73
     0
 74
     0
 95
        8
 96
        4
 40
0.0
 40
0.0
 40
0.0
 40
0.0
 40
1.0
 40
1.0
 40
1.0
 40
1.0
 10
319.1005779327302
 20
26.81223268820518
 10
319.1005779327302
 20
25.02204795988658
 10
320.3267536947389
 20
23.64996396270028
 10
322.4475853108391
 20
23.64996396270028
 97
        0
 72
     4
 94
        3
 73
     0
 74
     0
 95
        8
 96
        4
 40
3.0
 40
3.0
 40
3.0
 40
3.0
 40
4.0
 40
4.0
 40
4.0
 40
4.0
 10
322.4475853108391
 20
23.64996396270028
 10
325.2597350037549
 20
23.64996396270028
 10
326.7094798357928
 20
25.80028847649322
 10
326.7094798357928
 20
27.7463262780782
 97
        0
 72
     4
 94
        3
 73
     0
 74
     0
 95
        8
 96
        4
 40
2.0
 40
2.0
 40
2.0
 40
2.0
 40
3.0
 40
3.0
 40
3.0
 40
3.0
 10
326.7094798357928
 20
27.7463262780782
 10
326.7094798357928
 20
29.48815749994433
 10
325.4834559033726
 20
30.92821897798134
 10
323.2749426995367
 20
30.92821897798134
 97
        0
 72
     4
 94
        3
 73
     0
 74
     0
 95
        8
 96
        4
 40
1.0
 40
1.0
 40
1.0
 40
1.0
 40
2.0
 40
2.0
 40
2.0
 40
2.0
 10
323.2749426995367
 20
30.92821897798134
 10
320.5599259862832
 20
30.92821897798134
 10
319.1005779327302
 20
28.76791166870192
 10
319.1005779327302
 20
26.81223268820518
 97
        0
 97
        1
330
2456E
 92
       20
 93
        4
 72
     4
 94
        3
 73
     0
 74
     0
 95
        8
 96
        4
 40
2.0
 40
2.0
 40
2.0
 40
2.0
 40
3.0
 40
3.0
 40
3.0
 40
3.0
 10
322.5739834438103
 20
25.30414733653464
 10
321.8539695746433
 20
25.30414733653464
 10
321.2315840470689
 20
25.7810061186697
 10
321.2315840470689
 20
26.7929503303828
 97
        0
 72
     4
 94
        3
 73
     0
 74
     0
 95
        8
 96
        4
 40
1.0
 40
1.0
 40
1.0
 40
1.0
 40
2.0
 40
2.0
 40
2.0
 40
2.0
 10
321.2315840470689
 20
26.7929503303828
 10
321.2315840470689
 20
27.84384300786625
 10
321.9612751367784
 20
29.35192418338362
 10
323.2938454833866
 20
29.35192418338362
 97
        0
 72
     4
 94
        3
 73
     0
 74
     0
 95
        8
 96
        4
 40
0.0
 40
0.0
 40
0.0
 40
0.0
 40
1.0
 40
1.0
 40
1.0
 40
1.0
 10
323.2938454833866
 20
29.35192418338362
 10
323.9948047391141
 20
29.35192418338362
 10
324.5980996116182
 20
28.87525518823363
 10
324.5980996116182
 20
27.87291419803573
 97
        0
 72
     4
 94
        3
 73
     0
 74
     0
 95
        8
 96
        4
 40
3.0
 40
3.0
 40
3.0
 40
3.0
 40
4.0
 40
4.0
 40
4.0
 40
4.0
 10
324.5980996116182
 20
27.87291419803573
 10
324.5980996116182
 20
26.87080095222174
 10
324.0140870969365
 20
25.30414733653464
 10
322.5739834438103
 20
25.30414733653464
 97
        0
 97
        1
330
2456D
 75
     1
 76
     1
 47
0.0269459378258844
 98
        2
 10
321.0988358044172
 20
26.31347251554043
 10
321.0988358044172
 20
26.31347251554043
450
        0
451
        0
460
0.0
461
0.0
452
        0
462
1.0
453
        2
463
0.0
 63
     5
421
      255
463
1.0
 63
     2
421
 16776960
470
LINEAR
1001
GRADIENTCOLOR1ACI
1070
     5
1001
GRADIENTCOLOR2ACI
1070
     2
1001
ACAD
1010
0.0
1020
0.0
1030
0.0
  0
SPLINE
  5
2456D
102
{ACAD_REACTORS
330
2456C
102
}
330
2
100
AcDbEntity
  8
Layer 1
100
AcDbSpline
210
0.0
220
0.0
230
1.0
 70
     9
 71
     3
 72
    17
 73
    13
 74
     0
 42
0.000000001
 43
0.0000000001
 40
0.0
 40
0.0
 40
0.0
 40
0.0
 40
1.0
 40
1.0
 40
1.0
 40
2.0
 40
2.0
 40
2.0
 40
3.0
 40
3.0
 40
3.0
 40
4.0
 40
4.0
 40
4.0
 40
4.0
 10
324.5980996116182
 20
27.87291419803573
 30
0.0
 10
324.5980996116182
 20
28.87525518823363
 30
0.0
 10
323.9948047391141
 20
29.35192418338362
 30
0.0
 10
323.2938454833866
 20
29.35192418338362
 30
0.0
 10
321.9612751367784
 20
29.35192418338362
 30
0.0
 10
321.2315840470689
 20
27.84384300786625
 30
0.0
 10
321.2315840470689
 20
26.7929503303828
 30
0.0
 10
321.2315840470689
 20
25.7810061186697
 30
0.0
 10
321.8539695746433
 20
25.30414733653464
 30
0.0
 10
322.5739834438103
 20
25.30414733653464
 30
0.0
 10
324.0140870969365
 20
25.30414733653464
 30
0.0
 10
324.5980996116182
 20
26.87080095222174
 30
0.0
 10
324.5980996116182
 20
27.87291419803573
 30
0.0
  0
SPLINE
  5
2456E
102
{ACAD_REACTORS
330
2456C
102
}
330
2
100
AcDbEntity
  8
Layer 1
100
AcDbSpline
210
0.0
220
0.0
230
1.0
 70
     9
 71
     3
 72
    17
 73
    13
 74
     0
 42
0.000000001
 43
0.0000000001
 40
0.0
 40
0.0
 40
0.0
 40
0.0
 40
1.0
 40
1.0
 40
1.0
 40
2.0
 40
2.0
 40
2.0
 40
3.0
 40
3.0
 40
3.0
 40
4.0
 40
4.0
 40
4.0
 40
4.0
 10
322.4475853108391
 20
23.64996396270028
 30
0.0
 10
320.3267536947389
 20
23.64996396270028
 30
0.0
 10
319.1005779327302
 20
25.02204795988658
 30
0.0
 10
319.1005779327302
 20
26.81223268820518
 30
0.0
 10
319.1005779327302
 20
28.76791166870192
 30
0.0
 10
320.5599259862832
 20
30.92821897798134
 30
0.0
 10
323.2749426995367
 20
30.92821897798134
 30
0.0
 10
325.4834559033726
 20
30.92821897798134
 30
0.0
 10
326.7094798357928
 20
29.48815749994433
 30
0.0
 10
326.7094798357928
 20
27.7463262780782
 30
0.0
 10
326.7094798357928
 20
25.80028847649322
 30
0.0
 10
325.2597350037549
 20
23.64996396270028
 30
0.0
 10
322.4475853108391
 20
23.64996396270028
 30
0.0
  0
HATCH
  5
2456F
330
2
100
AcDbEntity
  8
0
  6
Continuous
 62
     0
100
AcDbHatch
 10
0.0
 20
0.0
 30
0.0
210
0.0
220
0.0
230
0.9999999999999998
  2
SOLID
 70
     1
 71
     1
 91
        1
 92
        5
 93
        6
 72
     4
 94
        3
 73
     0
 74
     0
 95
        8
 96
        4
 40
4.0
 40
4.0
 40
4.0
 40
4.0
 40
5.0
 40
5.0
 40
5.0
 40
5.0
 10
328.8147130689378
 20
25.44997965691685
 10
328.8147130689378
 20
25.44997965691685
 10
330.2257012910132
 20
30.72400818056879
 10
330.2257012910132
 20
30.72400818056879
 97
        0
 72
     4
 94
        3
 73
     0
 74
     0
 95
        8
 96
        4
 40
3.0
 40
3.0
 40
3.0
 40
3.0
 40
4.0
 40
4.0
 40
4.0
 40
4.0
 10
330.2257012910132
 20
30.72400818056879
 10
330.2257012910132
 20
30.72400818056879
 10
328.0652041947476
 20
30.72400818056879
 10
328.0652041947476
 20
30.72400818056879
 97
        0
 72
     4
 94
        3
 73
     0
 74
     0
 95
        8
 96
        4
 40
2.0
 40
2.0
 40
2.0
 40
2.0
 40
3.0
 40
3.0
 40
3.0
 40
3.0
 10
328.0652041947476
 20
30.72400818056879
 10
328.0652041947476
 20
30.72400818056879
 10
326.2264719552955
 20
23.85440250449561
 10
326.2264719552955
 20
23.85440250449561
 97
        0
 72
     4
 94
        3
 73
     0
 74
     0
 95
        8
 96
        4
 40
1.0
 40
1.0
 40
1.0
 40
1.0
 40
2.0
 40
2.0
 40
2.0
 40
2.0
 10
326.2264719552955
 20
23.85440250449561
 10
326.2264719552955
 20
23.85440250449561
 10
330.6734868611142
 20
23.85440250449561
 10
330.6734868611142
 20
23.85440250449561
 97
        0
 72
     4
 94
        3
 73
     0
 74
     0
 95
        8
 96
        4
 40
0.0
 40
0.0
 40
0.0
 40
0.0
 40
1.0
 40
1.0
 40
1.0
 40
1.0
 10
330.6734868611142
 20
23.85440250449561
 10
330.6734868611142
 20
23.85440250449561
 10
331.2013202735208
 20
25.44997965691685
 10
331.2013202735208
 20
25.44997965691685
 97
        0
 72
     4
 94
        3
 73
     0
 74
     0
 95
        8
 96
        4
 40
5.0
 40
5.0
 40
5.0
 40
5.0
 40
6.0
 40
6.0
 40
6.0
 40
6.0
 10
331.2013202735208
 20
25.44997965691685
 10
331.2013202735208
 20
25.44997965691685
 10
328.8147130689378
 20
25.44997965691685
 10
328.8147130689378
 20
25.44997965691685
 97
        0
 97
        6
330
24574
330
24573
330
24572
330
24571
330
24570
330
24575
 75
     1
 76
     1
 47
0.0168242271866721
 98
        1
 10
328.1531101705909
 20
25.89809871116685
450
        0
451
        0
460
0.0
461
0.0
452
        0
462
1.0
453
        2
463
0.0
 63
     5
421
      255
463
1.0
 63
     2
421
 16776960
470
LINEAR
1001
GRADIENTCOLOR1ACI
1070
     5
1001
GRADIENTCOLOR2ACI
1070
     2
1001
ACAD
1010
0.0
1020
0.0
1030
0.0
  0
SPLINE
  5
24570
102
{ACAD_REACTORS
330
2456F
102
}
330
2
100
AcDbEntity
  8
Layer 1
100
AcDbSpline
210
0.0
220
0.0
230
1.0
 70
    24
 71
     3
 72
     8
 73
     4
 74
     0
 42
0.000000001
 43
0.0000000001
 40
0.0
 40
0.0
 40
0.0
 40
0.0
 40
1.0
 40
1.0
 40
1.0
 40
1.0
 10
331.2013202735208
 20
25.44997965691685
 30
0.0
 10
331.2013202735208
 20
25.44997965691685
 30
0.0
 10
330.6734868611142
 20
23.85440250449561
 30
0.0
 10
330.6734868611142
 20
23.85440250449561
 30
0.0
  0
SPLINE
  5
24571
102
{ACAD_REACTORS
330
2456F
102
}
330
2
100
AcDbEntity
  8
Layer 1
100
AcDbSpline
210
0.0
220
0.0
230
1.0
 70
    24
 71
     3
 72
     8
 73
     4
 74
     0
 42
0.000000001
 43
0.0000000001
 40
1.0
 40
1.0
 40
1.0
 40
1.0
 40
2.0
 40
2.0
 40
2.0
 40
2.0
 10
330.6734868611142
 20
23.85440250449561
 30
0.0
 10
330.6734868611142
 20
23.85440250449561
 30
0.0
 10
326.2264719552955
 20
23.85440250449561
 30
0.0
 10
326.2264719552955
 20
23.85440250449561
 30
0.0
  0
SPLINE
  5
24572
102
{ACAD_REACTORS
330
2456F
102
}
330
2
100
AcDbEntity
  8
Layer 1
100
AcDbSpline
210
0.0
220
0.0
230
1.0
 70
    24
 71
     3
 72
     8
 73
     4
 74
     0
 42
0.000000001
 43
0.0000000001
 40
2.0
 40
2.0
 40
2.0
 40
2.0
 40
3.0
 40
3.0
 40
3.0
 40
3.0
 10
326.2264719552955
 20
23.85440250449561
 30
0.0
 10
326.2264719552955
 20
23.85440250449561
 30
0.0
 10
328.0652041947476
 20
30.72400818056879
 30
0.0
 10
328.0652041947476
 20
30.72400818056879
 30
0.0
  0
SPLINE
  5
24573
102
{ACAD_REACTORS
330
2456F
102
}
330
2
100
AcDbEntity
  8
Layer 1
100
AcDbSpline
210
0.0
220
0.0
230
1.0
 70
    24
 71
     3
 72
     8
 73
     4
 74
     0
 42
0.000000001
 43
0.0000000001
 40
3.0
 40
3.0
 40
3.0
 40
3.0
 40
4.0
 40
4.0
 40
4.0
 40
4.0
 10
328.0652041947476
 20
30.72400818056879
 30
0.0
 10
328.0652041947476
 20
30.72400818056879
 30
0.0
 10
330.2257012910132
 20
30.72400818056879
 30
0.0
 10
330.2257012910132
 20
30.72400818056879
 30
0.0
  0
SPLINE
  5
24574
102
{ACAD_REACTORS
330
2456F
102
}
330
2
100
AcDbEntity
  8
Layer 1
100
AcDbSpline
210
0.0
220
0.0
230
1.0
 70
    24
 71
     3
 72
     8
 73
     4
 74
     0
 42
0.000000001
 43
0.0000000001
 40
4.0
 40
4.0
 40
4.0
 40
4.0
 40
5.0
 40
5.0
 40
5.0
 40
5.0
 10
330.2257012910132
 20
30.72400818056879
 30
0.0
 10
330.2257012910132
 20
30.72400818056879
 30
0.0
 10
328.8147130689378
 20
25.44997965691685
 30
0.0
 10
328.8147130689378
 20
25.44997965691685
 30
0.0
  0
SPLINE
  5
24575
102
{ACAD_REACTORS
330
2456F
102
}
330
2
100
AcDbEntity
  8
Layer 1
100
AcDbSpline
210
0.0
220
0.0
230
1.0
 70
    24
 71
     3
 72
     8
 73
     4
 74
     0
 42
0.000000001
 43
0.0000000001
 40
5.0
 40
5.0
 40
5.0
 40
5.0
 40
6.0
 40
6.0
 40
6.0
 40
6.0
 10
328.8147130689378
 20
25.44997965691685
 30
0.0
 10
328.8147130689378
 20
25.44997965691685
 30
0.0
 10
331.2013202735208
 20
25.44997965691685
 30
0.0
 10
331.2013202735208
 20
25.44997965691685
 30
0.0
  0
LINE
  5
2691C
330
2
100
AcDbEntity
  8
0
  6
Continuous
 62
     3
100
AcDbLine
 10
197.4082820207802
 20
83.45019777995423
 30
0.0
 11
197.4082820207802
 21
71.9621605633289
 31
0.0
  0
MTEXT
  5
2691D
330
2
100
AcDbEntity
  8
0
  6
Continuous
 62
     2
100
AcDbMText
 10
197.4088161899278
 20
69.51334545953307
 30
0.0
 40
3.0
 41
0.0
 46
0.0
 71
     5
 72
     1
  1
0.00
 73
     1
 44
1.0
  0
LINE
  5
2691E
330
2
100
AcDbEntity
  8
0
  6
Continuous
 62
     3
100
AcDbLine
 10
223.4082820207802
 20
83.45019777995423
 30
0.0
 11
223.4082820207802
 21
71.99491918391379
 31
0.0
  0
MTEXT
  5
2691F
330
2
100
AcDbEntity
  8
0
  6
Continuous
 62
     2
100
AcDbMText
 10
223.114468087633
 20
69.51334545953307
 30
0.0
 40
3.0
 41
0.0
 46
0.0
 71
     5
 72
     1
  1
1.02
 73
     1
 44
1.0
  0
LINE
  5
26920
330
2
100
AcDbEntity
  8
0
  6
Continuous
 62
     3
100
AcDbLine
 10
165.4082820207802
 20
100.6713554610993
 30
0.0
 11
165.4082820207802
 21
71.9621605633289
 31
0.0
  0
MTEXT
  5
26921
330
2
100
AcDbEntity
  8
0
  6
Continuous
 62
     2
100
AcDbMText
 10
165.4088161899278
 20
69.51334545953307
 30
0.0
 40
3.0
 41
0.0
 46
0.0
 71
     5
 72
     1
  1
1.26
 73
     1
 44
1.0
  0
DIMENSION
  5
26933
330
2
100
AcDbEntity
  8
0
  6
Continuous
 62
     7
100
AcDbDimension
280
     0
  2
*D3
 10
154.4186681098925
 20
163.3257079958345
 30
0.0
 11
154.4186681098924
 21
122.3253254498455
 31
0.0
 70
   160
  1
%%C3.149
 71
     5
 42
80.00000000000001
 73
     0
 74
     0
 75
     0
  3
Standard$0
100
AcDbAlignedDimension
 13
198.4082820207802
 23
83.32570799583448
 33
0.0
 14
198.4082820207802
 24
163.3257079958345
 34
0.0
 50
90.0
100
AcDbRotatedDimension
1001
ACAD
1000
DSTYLE
1002
{
1070
    75
1070
     1
1070
   281
1070
     1
1070
   282
1070
     0
1070
    42
1040
0.625
1070
    43
1040
3.75
1070
    44
1040
1.25
1070
    48
1040
0.000000001
1070
    74
1070
     0
1070
    77
1070
     1
1070
    90
1070
     1
1070
   140
1040
3.0
1070
   141
1040
-0.5
1070
   143
1040
0.03937007874016
1070
   146
1040
0.7
1070
   147
1040
0.625
1070
   171
1070
     3
1070
   172
1070
     1
1070
   175
1070
     0
1070
   179
1070
     0
1070
   274
1070
     3
1070
   283
1070
     0
1070
   284
1070
     8
1070
   340
1005
25
1070
   371
1070
    -1
1070
   372
1070
    -1
1002
}
  0
MULTILEADER
  5
26938
330
2
100
AcDbEntity
  8
0
  6
Continuous
 62
     7
160
               968
310
C80300001A0000000C00000016000000020000C30C00000033000000000000000C00000013000000993A00000C00000016000000020000C3F400000026000000E275AEB1702D6040143C74059F9E6740000000000000000000000000000000000000000000000000000000000000F03F000000000000F03F00000000000000
310
00000000000000000036002D004D003600780031002E00300020005400480052004500410044002000780020002E003500310020004400450045005000000000001A000000010000000000000000000440000000000000F03F0000000000000000000000000000F03F00000000000000000000000000000000000000000000
310
00000000000001000000000000000000000072006F006D0061006E0073002E0073006800780000000000000000000C00000016000000020000C3EC0000002600000068D7C637D2156140BFE61EB049196740000000000000000000000000000000000000000000000000000000000000F03F000000000000F03F0000000000
310
00000000000000000000004400520049004C004C002000052235002E0032006D006D002000780020002E003700350020004400450045005000000017000000010000000000000000000440000000000000F03F0000000000000000000000000000F03F00000000000000000000000000000000000000000000000000000000
310
01000000000000000000000072006F006D0061006E0073002E0073006800780000000000000000000C00000033000000000000000C00000010000000000000000C00000016000000030000C30C00000012000000000000000C00000013000000010000000C0000001400000001000000540000000700000003000000CD0965
310
82EF7C6940CAEF704CB6B964400000000000000000581D3309218D6940546139DE3D6A64400000000000000000DF74EF65096469407450C31A2AB0644000000000000000000C0000001300000089130000540000000600000003000000563F2A747C7069401F209A33F0B464400000000000000000982C3355C65C68407491
310
C95AF4836740000000000000000068D7C637D2C567407491C95AF483674000000000000000000C00000013000000112700003C000000060000000200000068D7C637D2C567407491C95AF4836740000000000000000068D7C637D2B567407491C95AF483674000000000000000000C00000016000000030000C30C00000012
310
000000000000000C00000017000000000000000C000000130000009A3A00000C00000016000000070000C30C00000012000000000000000C00000017000000FFFFFFFF0C0000003300000000000000
100
AcDbMLeader
270
     2
300
CONTEXT_DATA{
 40
1.0
 10
129.3961970763254
 20
188.1235784470442
 30
0.0
 41
2.5
140
2.5
145
0.5
174
     2
175
     2
176
     2
177
     1
290
     1
304
6-M6x1.0 THREAD x .51 DEEP\PDRILL %%C5.2mm x .75 DEEP
 11
0.0
 21
0.0
 31
1.0
340
35
 12
189.1819113620397
 22
191.4569117803772
 32
0.0
 13
1.0
 23
0.0
 33
0.0
 42
0.0
 43
61.62374361267189
 44
0.0
 45
1.0
170
     1
 90
-1023410174
171
     3
172
     5
 91
-939524096
141
1.5
 92
        0
291
     0
292
     0
173
     0
293
     0
142
0.0
143
0.0
294
     0
295
     0
296
     0
110
348.0420102223068
120
180.9367360519278
130
0.0
111
1.0
121
0.0
131
0.0
112
0.0
122
1.0
132
0.0
297
     0
302
LEADER{
290
     1
291
     1
 10
190.1819113620397
 20
188.1235784470442
 30
0.0
 11
-1.0
 21
0.0
 31
0.0
 90
        0
 40
0.5
304
LEADER_LINE{
 10
204.4102827070553
 20
163.3200522537905
 30
0.0
 10
194.8992105483528
 20
188.1235784470442
 30
0.0
 91
        0
305
}
271
     0
303
}
272
     9
273
     9
301
}
340
BD9
 90
   314368
170
     1
 91
-1023410173
341
28
171
    -1
290
     1
291
     1
 41
0.5
 42
2.5
172
     2
343
35
173
     2
 95
        2
174
     1
175
     0
 92
-1023410174
292
     0
 93
-1023410174
 10
1.0
 20
1.0
 30
1.0
 43
0.0
176
     1
293
     0
294
     0
178
     0
179
     3
 45
1.0
271
     0
272
     9
273
     9
295
     0
  0
MULTILEADER
  5
269CD
330
2
100
AcDbEntity
  8
0
  6
Continuous
 62
     7
160
               960
310
C00300001A0000000C00000016000000020000C30C00000033000000000000000C00000013000000993A00000C00000016000000020000C3E800000026000000459044F6A95B4440209F443AD9116640000000000000000000000000000000000000000000000000000000000000F03F000000000000F03F00000000000000
310
00000000000000000032002D0039003000B000200043002700530049004E004B00200054004F002000052236006D006D000000D52914000000010000000000000000000440000000000000F03F0000000000000000000000000000F03F00000000000000000000000000000000000000000000000000000000010000000000
310
00000000000072006F006D0061006E0073002E0073006800780000000000000000000C00000016000000020000C3F000000026000000515375026D4C4440CB49EFE4838C6540000000000000000000000000000000000000000000000000000000000000F03F000000000000F03F0000000000000000000000000000000044
310
00520049004C004C002000052235006D006D002B002E00300033002D002E00300031002000440050002E00340033000000784118000000010000000000000000000440000000000000F03F0000000000000000000000000000F03F000000000000000000000000000000000000000000000000000000000100000000000000
310
0000000072006F006D0061006E0073002E0073006800780000001003000000000C00000033000000000000000C00000010000000000000000C00000016000000030000C30C00000012000000000000000C00000013000000010000000C000000140000000100000054000000070000000300000025669B9A5D144A403E8F3A
310
0EFC0F60400000000000000000A0B1FFF49F3C4A40A8240B1C047F5F400000000000000000AFF1BCC823AE49401A449EC85E08604000000000000000000C0000001300000089130000540000000600000003000000EA2BACB140E14940AC696C6B2D0C60400000000000000000E0FD8190A3CA4240F4928109CDFE65400000
310
0000000000002047B2D160094440F4928109CDFE654000000000000000000C00000013000000112700003C00000006000000020000002047B2D160094440F4928109CDFE654000000000000000002047B2D160494440F4928109CDFE654000000000000000000C00000016000000030000C30C00000012000000000000000C
310
00000017000000000000000C000000130000009A3A00000C00000016000000070000C30C00000012000000000000000C00000017000000FFFFFFFF0C0000003300000000000000
100
AcDbMLeader
270
     2
300
CONTEXT_DATA{
 40
1.0
 10
40.57326718525859
 20
175.9625289469473
 30
0.0
 41
2.5
140
2.5
145
0.5
174
     2
175
     2
176
     0
177
     1
290
     1
304
2-90%%d C'SINK TO %%c6mm\PDRILL %%C5mm+.03-.01 DP.43
 11
0.0
 21
0.0
 31
1.0
340
35
 12
41.0732671852586
 22
179.5339575183758
 32
0.0
 13
1.0
 23
0.0
 33
0.0
 42
0.0
 43
59.31167247817575
 44
0.0
 45
1.0
170
     1
 90
-1023410174
171
     1
172
     1
 91
-939524096
141
1.5
 92
        0
291
     0
292
     0
173
     0
293
     0
142
0.0
143
0.0
294
     0
295
     0
296
     0
110
-594.5938667570833
120
2672.967698142184
130
0.0
111
1.0
121
0.0
131
0.0
112
0.0
122
1.0
132
0.0
297
     0
302
LEADER{
290
     1
291
     1
 10
40.0732671852586
 20
175.9625289469473
 30
0.0
 11
1.0
 21
0.0
 31
0.0
 90
        0
 40
0.5
304
LEADER_LINE{
 10
52.47363150105525
 20
125.9846258267231
 30
0.0
 10
37.58311659190417
 20
175.9625289469473
 30
0.0
 91
        0
305
}
271
     0
303
}
272
     9
273
     9
301
}
340
BD9
 90
1124457664
170
     1
 91
-1023410173
341
28
171
    -1
290
     1
291
     1
 41
0.5
 42
2.5
172
     2
343
35
173
     2
 95
        2
174
     1
175
     0
 92
-1023410174
292
     0
344
25D72
 93
-1023410174
 10
1.0
 20
1.0
 30
1.0
 43
0.0
176
     0
293
     0
294
     0
178
     0
179
     1
 45
1.0
271
     0
272
     9
273
     9
295
     0
  0
DIMENSION
  5
269CE
330
2
100
AcDbEntity
  8
0
  6
Continuous
 62
     7
100
AcDbDimension
280
     0
  2
*D1
 10
82.86293203318814
 20
72.69290466007681
 30
0.0
 11
68.36293203318814
 21
74.81819993566735
 31
0.0
 70
    32
  1
29mm%%p.05
 71
     5
 42
29.0
 73
     0
 74
     0
 75
     0
  3
Standard$0
100
AcDbAlignedDimension
 13
53.86293203318814
 23
119.8257079958344
 33
0.0
 14
82.86293203318814
 24
82.82570799583448
 34
0.0
100
AcDbRotatedDimension
1001
ACAD
1000
DSTYLE
1002
{
1070
   171
1070
     3
1070
   143
1040
0.03937007874016
1070
   274
1070
     3
1070
   141
1040
-0.5
1070
    43
1040
3.75
1070
    44
1040
1.25
1070
    42
1040
0.625
1070
   147
1040
0.625
1070
   371
1070
    -1
1070
   372
1070
    -1
1070
   175
1070
     0
1070
    77
1070
     1
1070
   146
1040
0.7
1070
    48
1040
0.000000001
1070
   172
1070
     1
1070
    74
1070
     0
1070
   283
1070
     0
1070
   340
1005
25
1070
   140
1040
3.0
1070
   284
1070
     8
1070
    90
1070
     1
1002
}
  0
DIMENSION
  5
269CF
330
2
100
AcDbEntity
  8
0
  6
Continuous
 62
     7
100
AcDbDimension
280
     0
  2
*D2
 10
111.8629320331881
 20
64.69290466007681
 30
0.0
 11
82.86293203318814
 21
66.8179046600768
 31
0.0
 70
    32
  1
58mm%%p.05
 71
     5
 42
58.0
 73
     0
 74
     0
 75
     0
  3
Standard$0
100
AcDbAlignedDimension
 13
53.86293203318814
 23
119.8257079958344
 33
0.0
 14
111.8629320331881
 24
119.8257079958344
 34
0.0
100
AcDbRotatedDimension
1001
ACAD
1000
DSTYLE
1002
{
1070
   171
1070
     3
1070
   143
1040
0.03937007874016
1070
   274
1070
     3
1070
   141
1040
-0.5
1070
    43
1040
3.75
1070
    44
1040
1.25
1070
    42
1040
0.625
1070
   147
1040
0.625
1070
   371
1070
    -1
1070
   372
1070
    -1
1070
   175
1070
     0
1070
    77
1070
     1
1070
   146
1040
0.7
1070
    48
1040
0.000000001
1070
   172
1070
     1
1070
    74
1070
     0
1070
   283
1070
     0
1070
   340
1005
25
1070
   140
1040
3.0
1070
   284
1070
     8
1070
    90
1070
     1
1002
}
  0
DIMENSION
  5
269D0
330
2
100
AcDbEntity
  8
0
  6
Continuous
 62
     7
100
AcDbDimension
280
     0
  2
*D4
 10
197.4082820207793
 20
107.7588951644872
 30
0.0
 11
188.129047570351
 21
107.7588951644872
 31
0.0
 70
   160
 71
     5
 42
10.90000000000009
 73
     0
 74
     0
 75
     0
  3
Standard$0
100
AcDbAlignedDimension
 13
208.3082820207794
 23
120.8257079958372
 33
0.0
 14
197.4082820207793
 24
113.1687473285479
 34
0.0
100
AcDbRotatedDimension
1001
ACAD
1000
DSTYLE
1002
{
1070
     3
1000
(2-<>)
1070
   171
1070
     3
1070
   143
1040
0.03937007874016
1070
   274
1070
     3
1070
   141
1040
-0.5
1070
    43
1040
3.75
1070
    44
1040
1.25
1070
    42
1040
0.625
1070
   147
1040
0.625
1070
   371
1070
    -1
1070
   372
1070
    -1
1070
   175
1070
     0
1070
    77
1070
     1
1070
   146
1040
0.7
1070
    48
1040
0.000000001
1070
   172
1070
     1
1070
    74
1070
     0
1070
   283
1070
     0
1070
   340
1005
25
1070
   140
1040
3.0
1070
   284
1070
     8
1070
    90
1070
     1
1002
}
  0
HATCH
  5
271A9
330
2
100
AcDbEntity
  8
0
  6
Continuous
 62
     4
100
AcDbHatch
 10
0.0
 20
0.0
 30
0.0
210
0.0
220
0.0
230
1.0
  2
ANSI31
 70
     0
 71
     0
 91
       11
 92
        7
 72
     1
 73
     1
 93
       74
 10
289.0082820207806
 20
143.0257079958334
 42
0.0
 10
224.9908882880798
 20
148.0639861490578
 42
0.0
 10
223.4082820207802
 20
149.7760399635223
 42
0.0
 10
223.4082820207793
 20
162.3257079958345
 42
0.4142135623730951
 10
222.4082820207793
 20
163.3257079958345
 42
0.0
 10
218.930118662837
 20
163.3257079958345
 42
0.0
 10
217.2832820207793
 20
160.4733032600258
 42
0.0
 10
217.2832820207793
 20
158.8257079958345
 42
-0.4142135623730992
 10
216.7832820207793
 20
158.3257079958344
 42
0.0
 10
215.4082820207793
 20
158.3257079958344
 42
0.0
 10
214.0332820207793
 20
158.3257079958344
 42
-0.4142135623730951
 10
213.5332820207793
 20
158.8257079958345
 42
0.0
 10
213.5332820207793
 20
160.4733032600267
 42
0.0
 10
211.8864453787253
 20
163.3257079958345
 42
0.0
 10
207.7239377628291
 20
163.3257079958354
 42
0.0
 10
207.4082820207866
 20
163.0100522537929
 42
0.0
 10
207.4072816776504
 20
163.0090519106567
 42
0.0
 10
207.4082820207866
 20
163.0080515675205
 42
0.0
 10
207.4082820207866
 20
150.3257079958345
 42
0.0
 10
206.9582820207858
 20
149.5462851324279
 42
0.0
 10
206.9582820207858
 20
144.3257079958335
 42
0.0
 10
204.4082820207857
 20
142.8534648094006
 42
0.0
 10
201.8582820207864
 20
144.3257079958345
 42
0.0
 10
201.8582820207864
 20
149.5462851324279
 42
0.0
 10
201.4082820207857
 20
150.3257079958345
 42
0.0
 10
201.4082820207866
 20
163.0060508812499
 42
0.0
 10
201.4082820207866
 20
163.0080515675205
 42
0.0
 10
201.4092823639219
 20
163.0090519106557
 42
0.0
 10
201.4082820207866
 20
163.010052253791
 42
0.0
 10
201.0926262787432
 20
163.3257079958345
 42
0.0
 10
198.4082820207811
 20
163.3257079958345
 42
0.4142135623730951
 10
197.4082820207811
 20
162.3257079958345
 42
0.0
 10
197.4082820207793
 20
149.3157079958342
 42
0.0
 10
197.60828202078
 20
147.8926340513577
 42
0.0
 10
197.60828202078
 20
147.8157079958342
 42
-0.2134217652858193
 10
197.4082820207757
 20
147.3684944003304
 42
-0.1844830881358518
 10
197.0082820207797
 20
147.2157079958339
 42
0.0
 10
196.0278972630501
 20
147.2157079958339
 42
0.0
 10
194.9071008069793
 20
147.516024501118
 42
0.0
 10
166.5482386881638
 20
146.0952777279632
 42
0.3996270516289742
 10
165.4082820207793
 20
144.8967808367666
 42
0.0
 10
165.4082820207793
 20
140.9030582650235
 42
0.0
 10
166.4082820207793
 20
140.3257079958344
 42
0.0
 10
178.412256616996
 20
140.3257079958344
 42
0.0
 10
179.9711023438074
 20
143.0257079958343
 42
-0.1083505043629066
 10
180.1443074245642
 20
143.2156059443911
 42
-0.1550958778294636
 10
180.4907175860778
 20
143.3257079958345
 42
0.0
 10
191.3719337869558
 20
143.3257079958345
 42
-0.2277350772923724
 10
197.6169317853534
 20
140.3257079958344
 42
0.0
 10
205.0791258231909
 20
140.3257079958344
 42
-0.5982346904415551
 10
207.4082820207793
 20
139.0757079958345
 42
0.0
 10
207.4082820207793
 20
132.6257079958337
 42
0.0
 10
207.7082820207804
 20
132.3257079958344
 42
0.0
 10
214.1082820207801
 20
132.3257079958344
 42
0.0
 10
214.4082820207793
 20
132.6257079958337
 42
0.0
 10
214.4082820207793
 20
132.8257079958345
 42
0.0
 10
219.4082820207793
 20
132.8257079958345
 42
0.0
 10
219.4082820207848
 20
132.3257079958335
 42
0.0
 10
219.9082820207848
 20
131.8257079958335
 42
0.0
 10
225.4082820207848
 20
131.8257079958335
 42
0.0
 10
225.4082820207848
 20
130.8257079958335
 42
0.0
 10
225.4082820207848
 20
129.3257079958317
 42
0.0
 10
225.9082820207829
 20
128.8257079958326
 42
0.0
 10
248.5082820207815
 20
128.8257079958345
 42
0.0
 10
249.0082820207815
 20
129.3257079958344
 42
0.0
 10
249.0082820207815
 20
135.9257079958494
 42
-0.4142135623730951
 10
249.4082820207812
 20
136.3257079958499
 42
0.0
 10
252.1422566169956
 20
136.3257079958499
 42
0.0
 10
254.0082820207815
 20
135.8257079958499
 42
0.0
 10
268.8906304883537
 20
135.8257079958499
 42
0.0
 10
298.1041277733009
 20
138.6386478439359
 42
0.386369269929464
 10
299.0082820207797
 20
139.6340440423033
 42
0.0
 10
299.0082820207797
 20
142.6447079958339
 42
0.0
 10
298.6272820207803
 20
143.0257079958343
 42
0.0
 97
        0
 92
        7
 72
     0
 73
     1
 93
        4
 10
214.1082820207801
 20
132.3257079958344
 10
207.7082820207795
 20
132.3257079958344
 10
208.2082820207804
 20
131.8257079958345
 10
213.60828202078
 20
131.8257079958345
 97
        0
 92
        7
 72
     0
 73
     1
 93
        6
 10
201.4082820207866
 20
163.0060508812499
 10
201.4082820207857
 20
150.3257079958345
 10
201.8582820207864
 20
150.3257079958345
 10
201.8582820207855
 20
162.5600522537921
 10
201.4092823639219
 20
163.0090519106557
 10
201.4082820207866
 20
163.0080515675205
 97
        0
 92
        7
 72
     0
 73
     1
 93
        3
 10
201.4082820207857
 20
150.3257079958345
 10
201.8582820207864
 20
149.5462851324279
 10
201.8582820207864
 20
150.3257079958345
 97
        0
 92
        7
 72
     0
 73
     1
 93
        3
 10
206.9582820207858
 20
149.5462851324279
 10
207.4082820207866
 20
150.3257079958345
 10
206.9582820207858
 20
150.3257079958345
 97
        0
 92
        7
 72
     0
 73
     1
 93
        5
 10
207.4082820207866
 20
150.3257079958345
 10
207.4082820207866
 20
163.0080515675205
 10
207.4072816776504
 20
163.0090519106567
 10
206.9582820207858
 20
162.5600522537903
 10
206.9582820207858
 20
150.3257079958345
 97
        0
 92
        9
 93
        4
 72
     1
 10
311.0035597363701
 20
117.6257079958337
 11
311.0035597363701
 21
129.0257079958334
 72
     1
 10
311.0035597363701
 20
129.0257079958334
 11
315.5035597363701
 21
129.0257079958334
 72
     1
 10
315.5035597363701
 20
129.0257079958334
 11
315.5035597363701
 21
117.6257079958337
 72
     1
 10
315.5035597363701
 20
117.6257079958337
 11
311.0035597363701
 21
117.6257079958337
 97
        0
 92
        9
 93
        4
 72
     1
 10
230.2832820207848
 20
176.9320415529251
 11
238.2321009184222
 21
176.9320415529251
 72
     1
 10
238.2321009184222
 20
176.9320415529251
 11
238.2321009184222
 21
172.4314510017444
 72
     1
 10
238.2321009184222
 20
172.4314510017444
 11
230.2832820207848
 21
172.4314510017444
 72
     1
 10
230.2832820207848
 20
172.4314510017444
 11
230.2832820207848
 21
176.9320415529251
 97
        0
 92
        9
 93
        4
 72
     1
 10
187.6580594352451
 20
176.9320415529251
 11
197.1585046063189
 21
176.9320415529251
 72
     1
 10
197.1585046063189
 20
176.9320415529251
 11
197.1585046063189
 21
172.4314510017444
 72
     1
 10
197.1585046063189
 20
172.4314510017444
 11
187.6580594352451
 21
172.4314510017444
 72
     1
 10
187.6580594352451
 20
172.4314510017444
 11
187.6580594352451
 21
176.9320415529251
 97
        0
 92
        9
 93
        4
 72
     1
 10
232.1978826834754
 20
107.9710947279796
 11
232.1978826834754
 21
122.3795636288365
 72
     1
 10
232.1978826834754
 20
122.3795636288365
 11
236.9994525727395
 21
122.3795636288365
 72
     1
 10
236.9994525727395
 20
122.3795636288365
 11
236.9994525727395
 21
107.9710947279796
 72
     1
 10
236.9994525727395
 20
107.9710947279796
 11
232.1978826834754
 21
107.9710947279796
 97
        0
 92
        9
 93
        4
 72
     1
 10
150.0436681098933
 20
116.0677275981085
 11
150.0436681098933
 21
128.5829233015826
 72
     1
 10
150.0436681098933
 20
128.5829233015826
 11
154.5436681098933
 21
128.5829233015826
 72
     1
 10
154.5436681098933
 20
128.5829233015826
 11
154.5436681098933
 21
116.0677275981085
 72
     1
 10
154.5436681098933
 20
116.0677275981085
 11
150.0436681098933
 21
116.0677275981085
 97
        0
 75
     1
 76
     1
 52
0.0
 41
1.0
 77
     0
 78
     1
 53
45.0
 43
-6248.485015574455
 44
5529.262366404795
 45
-2.245064030267288
 46
2.245064030267288
 79
     0
 47
0.0
 98
        6
 10
231.2903632153555
 20
137.9435091329202
 10
211.9761173854584
 20
132.1023612534796
 10
201.5714448733859
 20
151.3593112030436
 10
201.6171062380124
 20
150.2634384519975
 10
207.1193006755545
 20
150.1721157227436
 10
207.256284769436
 20
150.7885441452068
1001
ACAD
1010
0.0
1020
0.0
1030
0.0
1001
HATCHBACKGROUNDCOLOR
1071
-939524096
1000
없음
1000

  0
CIRCLE
  5
271AB
330
2
100
AcDbEntity
  8
0
  6
Continuous
 62
     7
100
AcDbCircle
 10
82.86293203318814
 20
123.3257079958345
 30
0.0
 40
40.0
  0
LINE
  5
271AC
330
2
100
AcDbEntity
  8
0
  6
Continuous
 62
     3
100
AcDbLine
 10
82.36293203318814
 20
123.3257079958345
 30
0.0
 11
83.36293203318815
 21
123.3257079958345
 31
0.0
  0
LINE
  5
271AD
330
2
100
AcDbEntity
  8
0
  6
Continuous
 62
     3
100
AcDbLine
 10
82.86293203318814
 20
122.8257079958344
 30
0.0
 11
82.86293203318814
 21
123.8257079958344
 31
0.0
  0
LINE
  5
271AE
330
2
100
AcDbEntity
  8
0
  6
Continuous
 62
     3
100
AcDbLine
 10
83.86293203318814
 20
123.3257079958345
 30
0.0
 11
123.3629320331881
 21
123.3257079958345
 31
0.0
  0
LINE
  5
271AF
330
2
100
AcDbEntity
  8
0
  6
Continuous
 62
     3
100
AcDbLine
 10
81.86293203318815
 20
123.3257079958345
 30
0.0
 11
42.36293203318814
 21
123.3257079958345
 31
0.0
  0
LINE
  5
271B0
330
2
100
AcDbEntity
  8
0
  6
Continuous
 62
     3
100
AcDbLine
 10
82.86293203318814
 20
124.3257079958345
 30
0.0
 11
82.86293203318814
 21
163.8257079958345
 31
0.0
  0
LINE
  5
271B1
330
2
100
AcDbEntity
  8
0
  6
Continuous
 62
     3
100
AcDbLine
 10
82.86293203318814
 20
122.3257079958345
 30
0.0
 11
82.86293203318814
 21
82.82570799583448
 31
0.0
  0
LINE
  5
271B2
330
2
100
AcDbEntity
  8
0
  6
HIDDEN
 62
     2
 48
0.05
100
AcDbLine
 10
85.41293203318742
 20
162.5600522537903
 30
0.0
 11
85.41293203318742
 21
144.3257079958345
 31
0.0
  0
LINE
  5
271B3
330
2
100
AcDbEntity
  8
0
  6
HIDDEN
 62
     2
 48
0.05
100
AcDbLine
 10
85.86293203318815
 20
163.0080515675205
 30
0.0
 11
85.86293203318815
 21
150.3257079958345
 31
0.0
  0
LINE
  5
271B4
330
2
100
AcDbEntity
  8
0
  6
HIDDEN
 62
     2
 48
0.05
100
AcDbLine
 10
85.41293203318833
 20
162.5600522537903
 30
0.0
 11
82.86493271945687
 21
162.5600522537903
 31
0.0
  0
LINE
  5
271B5
330
2
100
AcDbEntity
  8
0
  6
HIDDEN
 62
     2
 48
0.05
100
AcDbLine
 10
85.41293203318742
 20
162.5600522537912
 30
0.0
 11
86.05131311565651
 21
163.1984333362603
 31
0.0
  0
LINE
  5
271B6
330
2
100
AcDbEntity
  8
0
  6
HIDDEN
 62
     2
 48
0.05
100
AcDbLine
 10
82.86293203318814
 20
144.3257079958345
 30
0.0
 11
85.41293203318742
 21
144.3257079958345
 31
0.0
  0
LINE
  5
271B7
330
2
100
AcDbEntity
  8
0
  6
HIDDEN
 62
     2
 48
0.05
100
AcDbLine
 10
82.86293203318814
 20
142.8534648094006
 30
0.0
 11
85.41293203318833
 21
144.3257079958335
 31
0.0
  0
LINE
  5
271B8
330
2
100
AcDbEntity
  8
0
  6
HIDDEN
 62
     2
 48
0.05
100
AcDbLine
 10
80.31293203318796
 20
162.5600522537903
 30
0.0
 11
80.31293203318796
 21
144.3257079958345
 31
0.0
  0
LINE
  5
271B9
330
2
100
AcDbEntity
  8
0
  6
HIDDEN
 62
     2
 48
0.05
100
AcDbLine
 10
82.86293203318814
 20
144.3257079958345
 30
0.0
 11
80.31293203318796
 21
144.3257079958345
 31
0.0
  0
LINE
  5
271BA
330
2
100
AcDbEntity
  8
0
  6
HIDDEN
 62
     2
 48
0.05
100
AcDbLine
 10
82.86293203318814
 20
142.8534648094006
 30
0.0
 11
80.31293203318796
 21
144.3257079958335
 31
0.0
  0
LINE
  5
271BB
330
2
100
AcDbEntity
  8
0
  6
HIDDEN
 62
     2
 48
0.05
100
AcDbLine
 10
80.31293203318705
 20
162.5600522537903
 30
0.0
 11
82.86093134691851
 21
162.5600522537903
 31
0.0
  0
LINE
  5
271BC
330
2
100
AcDbEntity
  8
0
  6
HIDDEN
 62
     2
 48
0.05
100
AcDbLine
 10
80.31293203318796
 20
162.5600522537912
 30
0.0
 11
79.67455095071887
 21
163.1984333362603
 31
0.0
  0
LINE
  5
271BD
330
2
100
AcDbEntity
  8
0
  6
HIDDEN
 62
     2
 48
0.05
100
AcDbLine
 10
82.86230151258473
 20
150.3257079958345
 30
0.0
 11
85.86293203318815
 21
150.3257079958345
 31
0.0
  0
LINE
  5
271BE
330
2
100
AcDbEntity
  8
0
  6
HIDDEN
 62
     2
 48
0.05
100
AcDbLine
 10
85.41293203318742
 20
149.5462851324279
 30
0.0
 11
85.86293203318815
 21
150.3257079958345
 31
0.0
  0
LINE
  5
271BF
330
2
100
AcDbEntity
  8
0
  6
HIDDEN
 62
     2
 48
0.05
100
AcDbLine
 10
79.86293203318814
 20
163.0080515675205
 30
0.0
 11
79.86293203318814
 21
150.3257079958345
 31
0.0
  0
LINE
  5
271C0
330
2
100
AcDbEntity
  8
0
  6
HIDDEN
 62
     2
 48
0.05
100
AcDbLine
 10
82.86356255379065
 20
150.3257079958345
 30
0.0
 11
79.86293203318814
 21
150.3257079958345
 31
0.0
  0
LINE
  5
271C1
330
2
100
AcDbEntity
  8
0
  6
HIDDEN
 62
     2
 48
0.05
100
AcDbLine
 10
80.31293203318796
 20
149.5462851324279
 30
0.0
 11
79.86293203318814
 21
150.3257079958345
 31
0.0
  0
LINE
  5
271C2
330
2
100
AcDbEntity
  8
0
  6
CENTER
 62
     3
100
AcDbLine
 10
119.7573586048936
 20
144.6267151086054
 30
0.0
 11
98.06069654430372
 21
132.1001414274075
 31
0.0
  0
LINE
  5
271C3
330
2
100
AcDbEntity
  8
0
  6
CENTER
 62
     3
100
AcDbLine
 10
45.96850546148266
 20
144.6267151086054
 30
0.0
 11
67.66516752207166
 21
132.1001414274075
 31
0.0
  0
LINE
  5
271C4
330
2
100
AcDbEntity
  8
0
  6
CENTER
 62
     3
100
AcDbLine
 10
119.7573586048936
 20
102.0247008830635
 30
0.0
 11
98.06069654430372
 21
114.5512745642614
 31
0.0
  0
LINE
  5
271C5
330
2
100
AcDbEntity
  8
0
  6
CENTER
 62
     3
100
AcDbLine
 10
45.96850546148266
 20
102.0247008830635
 30
0.0
 11
67.66516752207166
 21
114.5512745642614
 31
0.0
  0
LINE
  5
271C6
330
2
100
AcDbEntity
  8
0
  6
HIDDEN
 62
     2
 48
0.05
100
AcDbLine
 10
50.15999320497371
 20
145.1512449044627
 30
0.0
 11
65.95139855371485
 21
136.0340727754852
 31
0.0
  0
LINE
  5
271C7
330
2
100
AcDbEntity
  8
0
  6
HIDDEN
 62
     2
 48
0.05
100
AcDbLine
 10
49.99701441840511
 20
145.7649559930311
 30
0.0
 11
60.98024613100893
 21
139.4237842071885
 31
0.0
  0
LINE
  5
271C8
330
2
100
AcDbEntity
  8
0
  6
HIDDEN
 62
     2
 48
0.05
100
AcDbLine
 10
50.15999320497463
 20
145.1512449044636
 30
0.0
 11
48.88599354810844
 21
142.9446127699472
 31
0.0
  0
LINE
  5
271C9
330
2
100
AcDbEntity
  8
0
  6
HIDDEN
 62
     2
 48
0.05
100
AcDbLine
 10
50.15999320497281
 20
145.1512449044627
 30
0.0
 11
49.92632951149494
 21
146.0232896804106
 31
0.0
  0
LINE
  5
271CA
330
2
100
AcDbEntity
  8
0
  6
HIDDEN
 62
     2
 48
0.05
100
AcDbLine
 10
64.67639855371522
 20
133.8257079958354
 30
0.0
 11
65.95139855371485
 21
136.0340727754852
 31
0.0
  0
LINE
  5
271CB
330
2
100
AcDbEntity
  8
0
  6
HIDDEN
 62
     2
 48
0.05
100
AcDbLine
 10
65.95139855371485
 20
133.0895864026175
 30
0.0
 11
65.95139855371485
 21
136.0340727754852
 31
0.0
  0
LINE
  5
271CC
330
2
100
AcDbEntity
  8
0
  6
HIDDEN
 62
     2
 48
0.05
100
AcDbLine
 10
47.60999320497353
 20
140.734515345163
 30
0.0
 11
63.40139855371558
 21
131.6173432161846
 31
0.0
  0
LINE
  5
271CD
330
2
100
AcDbEntity
  8
0
  6
HIDDEN
 62
     2
 48
0.05
100
AcDbLine
 10
64.67639855371522
 20
133.8257079958345
 30
0.0
 11
63.40139855371558
 21
131.6173432161846
 31
0.0
  0
LINE
  5
271CE
330
2
100
AcDbEntity
  8
0
  6
HIDDEN
 62
     2
 48
0.05
100
AcDbLine
 10
65.95139855371485
 20
133.0895864026175
 30
0.0
 11
63.40139855371558
 21
131.6173432161837
 31
0.0
  0
LINE
  5
271CF
330
2
100
AcDbEntity
  8
0
  6
HIDDEN
 62
     2
 48
0.05
100
AcDbLine
 10
47.60999320497353
 20
140.7345153451621
 30
0.0
 11
48.8839928618388
 21
142.9411474796785
 31
0.0
  0
LINE
  5
271D0
330
2
100
AcDbEntity
  8
0
  6
HIDDEN
 62
     2
 48
0.05
100
AcDbLine
 10
47.60999320497353
 20
140.734515345163
 30
0.0
 11
46.73794842902566
 21
140.5008516516833
 31
0.0
  0
LINE
  5
271D1
330
2
100
AcDbEntity
  8
0
  6
HIDDEN
 62
     2
 48
0.05
100
AcDbLine
 10
59.47993087070677
 20
136.8251619489752
 30
0.0
 11
60.98024613100893
 21
139.4237842071885
 31
0.0
  0
LINE
  5
271D2
330
2
100
AcDbEntity
  8
0
  6
HIDDEN
 62
     2
 48
0.05
100
AcDbLine
 10
61.43024613100874
 20
138.644361343781
 30
0.0
 11
60.98024613100893
 21
139.4237842071885
 31
0.0
  0
LINE
  5
271D3
330
2
100
AcDbEntity
  8
0
  6
HIDDEN
 62
     2
 48
0.05
100
AcDbLine
 10
46.99701441840511
 20
140.5688035703248
 30
0.0
 11
57.98024613100801
 21
134.2276317844813
 31
0.0
  0
LINE
  5
271D4
330
2
100
AcDbEntity
  8
0
  6
HIDDEN
 62
     2
 48
0.05
100
AcDbLine
 10
59.48056139130926
 20
136.8262540426946
 30
0.0
 11
57.98024613100801
 21
134.2276317844813
 31
0.0
  0
LINE
  5
271D5
330
2
100
AcDbEntity
  8
0
  6
HIDDEN
 62
     2
 48
0.05
100
AcDbLine
 10
58.88024613100856
 20
134.2276317844813
 30
0.0
 11
57.98024613100801
 21
134.2276317844813
 31
0.0
  0
LINE
  5
271D6
330
2
100
AcDbEntity
  8
0
  6
HIDDEN
 62
     2
 48
0.05
100
AcDbLine
 10
47.60999320497353
 20
105.9169006465059
 30
0.0
 11
63.40139855371467
 21
115.0340727754843
 31
0.0
  0
LINE
  5
271D7
330
2
100
AcDbEntity
  8
0
  6
HIDDEN
 62
     2
 48
0.05
100
AcDbLine
 10
46.99701441840511
 20
106.0826124213441
 30
0.0
 11
57.98024613100801
 21
112.4237842071876
 31
0.0
  0
LINE
  5
271D8
330
2
100
AcDbEntity
  8
0
  6
HIDDEN
 62
     2
 48
0.05
100
AcDbLine
 10
47.60999320497353
 20
105.9169006465059
 30
0.0
 11
48.8839928618388
 21
103.7102685119904
 31
0.0
  0
LINE
  5
271D9
330
2
100
AcDbEntity
  8
0
  6
HIDDEN
 62
     2
 48
0.05
100
AcDbLine
 10
47.60999320497353
 20
105.9169006465059
 30
0.0
 11
46.73794842902566
 21
106.1505643399847
 31
0.0
  0
LINE
  5
271DA
330
2
100
AcDbEntity
  8
0
  6
HIDDEN
 62
     2
 48
0.05
100
AcDbLine
 10
64.67639855371522
 20
112.8257079958345
 30
0.0
 11
63.40139855371467
 21
115.0340727754843
 31
0.0
  0
LINE
  5
271DB
330
2
100
AcDbEntity
  8
0
  6
HIDDEN
 62
     2
 48
0.05
100
AcDbLine
 10
65.95139855371485
 20
113.5618295890514
 30
0.0
 11
63.40139855371558
 21
115.0340727754852
 31
0.0
  0
LINE
  5
271DC
330
2
100
AcDbEntity
  8
0
  6
HIDDEN
 62
     2
 48
0.05
100
AcDbLine
 10
50.15999320497371
 20
101.5001710872053
 30
0.0
 11
65.95139855371485
 21
110.6173432161837
 31
0.0
  0
LINE
  5
271DD
330
2
100
AcDbEntity
  8
0
  6
HIDDEN
 62
     2
 48
0.05
100
AcDbLine
 10
64.67639855371522
 20
112.8257079958336
 30
0.0
 11
65.95139855371485
 21
110.6173432161837
 31
0.0
  0
LINE
  5
271DE
330
2
100
AcDbEntity
  8
0
  6
HIDDEN
 62
     2
 48
0.05
100
AcDbLine
 10
65.95139855371485
 20
113.5618295890505
 30
0.0
 11
65.95139855371485
 21
110.6173432161837
 31
0.0
  0
LINE
  5
271DF
330
2
100
AcDbEntity
  8
0
  6
HIDDEN
 62
     2
 48
0.05
100
AcDbLine
 10
50.15999320497463
 20
101.5001710872044
 30
0.0
 11
48.88599354810844
 21
103.7068032217217
 31
0.0
  0
LINE
  5
271E0
330
2
100
AcDbEntity
  8
0
  6
HIDDEN
 62
     2
 48
0.05
100
AcDbLine
 10
50.15999320497281
 20
101.5001710872053
 30
0.0
 11
49.92632951149494
 21
100.6281263112574
 31
0.0
  0
LINE
  5
271E1
330
2
100
AcDbEntity
  8
0
  6
HIDDEN
 62
     2
 48
0.05
100
AcDbLine
 10
59.48056139130926
 20
109.8251619489734
 30
0.0
 11
57.98024613100801
 21
112.4237842071876
 31
0.0
  0
LINE
  5
271E2
330
2
100
AcDbEntity
  8
0
  6
HIDDEN
 62
     2
 48
0.05
100
AcDbLine
 10
58.88024613100856
 20
112.4237842071876
 30
0.0
 11
57.98024613100801
 21
112.4237842071876
 31
0.0
  0
LINE
  5
271E3
330
2
100
AcDbEntity
  8
0
  6
HIDDEN
 62
     2
 48
0.05
100
AcDbLine
 10
49.99701441840511
 20
100.8864599986378
 30
0.0
 11
60.98024613100893
 21
107.2276317844804
 31
0.0
  0
LINE
  5
271E4
330
2
100
AcDbEntity
  8
0
  6
HIDDEN
 62
     2
 48
0.05
100
AcDbLine
 10
59.47993087070677
 20
109.8262540426937
 30
0.0
 11
60.98024613100893
 21
107.2276317844804
 31
0.0
  0
LINE
  5
271E5
330
2
100
AcDbEntity
  8
0
  6
HIDDEN
 62
     2
 48
0.05
100
AcDbLine
 10
61.43024613100874
 20
108.007054647887
 30
0.0
 11
60.98024613100893
 21
107.2276317844804
 31
0.0
  0
LINE
  5
271E6
330
2
100
AcDbEntity
  8
0
  6
HIDDEN
 62
     2
 48
0.05
100
AcDbLine
 10
80.31293203318796
 20
84.09136373787863
 30
0.0
 11
80.31293203318796
 21
102.3257079958344
 31
0.0
  0
LINE
  5
271E7
330
2
100
AcDbEntity
  8
0
  6
HIDDEN
 62
     2
 48
0.05
100
AcDbLine
 10
79.86293203318814
 20
83.64336442414844
 30
0.0
 11
79.86293203318814
 21
96.32570799583447
 31
0.0
  0
LINE
  5
271E8
330
2
100
AcDbEntity
  8
0
  6
HIDDEN
 62
     2
 48
0.05
100
AcDbLine
 10
80.31293203318705
 20
84.09136373787863
 30
0.0
 11
82.86093134691851
 21
84.09136373787863
 31
0.0
  0
LINE
  5
271E9
330
2
100
AcDbEntity
  8
0
  6
HIDDEN
 62
     2
 48
0.05
100
AcDbLine
 10
80.31293203318796
 20
84.09136373787772
 30
0.0
 11
79.67455095071978
 21
83.45298265540861
 31
0.0
  0
LINE
  5
271EA
330
2
100
AcDbEntity
  8
0
  6
HIDDEN
 62
     2
 48
0.05
100
AcDbLine
 10
82.86293203318814
 20
102.3257079958344
 30
0.0
 11
80.31293203318796
 21
102.3257079958344
 31
0.0
  0
LINE
  5
271EB
330
2
100
AcDbEntity
  8
0
  6
HIDDEN
 62
     2
 48
0.05
100
AcDbLine
 10
82.86293203318814
 20
103.7979511822683
 30
0.0
 11
80.31293203318796
 21
102.3257079958354
 31
0.0
  0
LINE
  5
271EC
330
2
100
AcDbEntity
  8
0
  6
HIDDEN
 62
     2
 48
0.05
100
AcDbLine
 10
85.41293203318742
 20
84.09136373787863
 30
0.0
 11
85.41293203318742
 21
102.3257079958344
 31
0.0
  0
LINE
  5
271ED
330
2
100
AcDbEntity
  8
0
  6
HIDDEN
 62
     2
 48
0.05
100
AcDbLine
 10
82.86293203318814
 20
102.3257079958344
 30
0.0
 11
85.41293203318742
 21
102.3257079958344
 31
0.0
  0
LINE
  5
271EE
330
2
100
AcDbEntity
  8
0
  6
HIDDEN
 62
     2
 48
0.05
100
AcDbLine
 10
82.86293203318814
 20
103.7979511822683
 30
0.0
 11
85.41293203318833
 21
102.3257079958354
 31
0.0
  0
LINE
  5
271EF
330
2
100
AcDbEntity
  8
0
  6
HIDDEN
 62
     2
 48
0.05
100
AcDbLine
 10
85.41293203318923
 20
84.09136373787863
 30
0.0
 11
82.86493271945778
 21
84.09136373787863
 31
0.0
  0
LINE
  5
271F0
330
2
100
AcDbEntity
  8
0
  6
HIDDEN
 62
     2
 48
0.05
100
AcDbLine
 10
85.41293203318833
 20
84.09136373787772
 30
0.0
 11
86.05131311565742
 21
83.45298265540861
 31
0.0
  0
LINE
  5
271F1
330
2
100
AcDbEntity
  8
0
  6
HIDDEN
 62
     2
 48
0.05
100
AcDbLine
 10
82.86356255379065
 20
96.32570799583447
 30
0.0
 11
79.86293203318814
 21
96.32570799583447
 31
0.0
  0
LINE
  5
271F2
330
2
100
AcDbEntity
  8
0
  6
HIDDEN
 62
     2
 48
0.05
100
AcDbLine
 10
80.31293203318796
 20
97.10513085924105
 30
0.0
 11
79.86293203318814
 21
96.32570799583447
 31
0.0
  0
LINE
  5
271F3
330
2
100
AcDbEntity
  8
0
  6
HIDDEN
 62
     2
 48
0.05
100
AcDbLine
 10
85.86293203318815
 20
83.64336442414844
 30
0.0
 11
85.86293203318815
 21
96.32570799583447
 31
0.0
  0
LINE
  5
271F4
330
2
100
AcDbEntity
  8
0
  6
HIDDEN
 62
     2
 48
0.05
100
AcDbLine
 10
82.86230151258473
 20
96.32570799583447
 30
0.0
 11
85.86293203318815
 21
96.32570799583447
 31
0.0
  0
LINE
  5
271F5
330
2
100
AcDbEntity
  8
0
  6
HIDDEN
 62
     2
 48
0.05
100
AcDbLine
 10
85.41293203318742
 20
97.10513085924105
 30
0.0
 11
85.86293203318815
 21
96.32570799583447
 31
0.0
  0
LINE
  5
271F6
330
2
100
AcDbEntity
  8
0
  6
HIDDEN
 62
     2
 48
0.05
100
AcDbLine
 10
115.5658708614025
 20
101.5001710872062
 30
0.0
 11
99.77446551266144
 21
110.6173432161846
 31
0.0
  0
LINE
  5
271F7
330
2
100
AcDbEntity
  8
0
  6
HIDDEN
 62
     2
 48
0.05
100
AcDbLine
 10
115.7288496479711
 20
100.8864599986378
 30
0.0
 11
104.7456179353673
 21
107.2276317844813
 31
0.0
  0
LINE
  5
271F8
330
2
100
AcDbEntity
  8
0
  6
HIDDEN
 62
     2
 48
0.05
100
AcDbLine
 10
115.5658708614016
 20
101.5001710872062
 30
0.0
 11
116.8398705182678
 21
103.7068032217217
 31
0.0
  0
LINE
  5
271F9
330
2
100
AcDbEntity
  8
0
  6
HIDDEN
 62
     2
 48
0.05
100
AcDbLine
 10
115.5658708614035
 20
101.5001710872062
 30
0.0
 11
115.7995345548813
 21
100.6281263112583
 31
0.0
  0
LINE
  5
271FA
330
2
100
AcDbEntity
  8
0
  6
HIDDEN
 62
     2
 48
0.05
100
AcDbLine
 10
101.049465512661
 20
112.8257079958345
 30
0.0
 11
99.77446551266144
 21
110.6173432161846
 31
0.0
  0
LINE
  5
271FB
330
2
100
AcDbEntity
  8
0
  6
HIDDEN
 62
     2
 48
0.05
100
AcDbLine
 10
99.77446551266144
 20
113.5618295890514
 30
0.0
 11
99.77446551266144
 21
110.6173432161846
 31
0.0
  0
LINE
  5
271FC
330
2
100
AcDbEntity
  8
0
  6
HIDDEN
 62
     2
 48
0.05
100
AcDbLine
 10
118.1158708614027
 20
105.9169006465068
 30
0.0
 11
102.3244655126607
 21
115.0340727754852
 31
0.0
  0
LINE
  5
271FD
330
2
100
AcDbEntity
  8
0
  6
HIDDEN
 62
     2
 48
0.05
100
AcDbLine
 10
101.049465512661
 20
112.8257079958354
 30
0.0
 11
102.3244655126607
 21
115.0340727754852
 31
0.0
  0
LINE
  5
271FE
330
2
100
AcDbEntity
  8
0
  6
HIDDEN
 62
     2
 48
0.05
100
AcDbLine
 10
99.77446551266144
 20
113.5618295890514
 30
0.0
 11
102.3244655126607
 21
115.0340727754852
 31
0.0
  0
LINE
  5
271FF
330
2
100
AcDbEntity
  8
0
  6
HIDDEN
 62
     2
 48
0.05
100
AcDbLine
 10
118.1158708614027
 20
105.9169006465077
 30
0.0
 11
116.8418712045375
 21
103.7102685119904
 31
0.0
  0
LINE
  5
27200
330
2
100
AcDbEntity
  8
0
  6
HIDDEN
 62
     2
 48
0.05
100
AcDbLine
 10
118.1158708614027
 20
105.9169006465068
 30
0.0
 11
118.9879156373506
 21
106.1505643399856
 31
0.0
  0
LINE
  5
27201
330
2
100
AcDbEntity
  8
0
  6
HIDDEN
 62
     2
 48
0.05
100
AcDbLine
 10
106.2459331956695
 20
109.8262540426946
 30
0.0
 11
104.7456179353673
 21
107.2276317844813
 31
0.0
  0
LINE
  5
27202
330
2
100
AcDbEntity
  8
0
  6
HIDDEN
 62
     2
 48
0.05
100
AcDbLine
 10
104.2956179353675
 20
108.0070546478879
 30
0.0
 11
104.7456179353673
 21
107.2276317844813
 31
0.0
  0
LINE
  5
27203
330
2
100
AcDbEntity
  8
0
  6
HIDDEN
 62
     2
 48
0.05
100
AcDbLine
 10
118.7288496479711
 20
106.0826124213441
 30
0.0
 11
107.7456179353682
 21
112.4237842071885
 31
0.0
  0
LINE
  5
27204
330
2
100
AcDbEntity
  8
0
  6
HIDDEN
 62
     2
 48
0.05
100
AcDbLine
 10
106.245302675067
 20
109.8251619489753
 30
0.0
 11
107.7456179353682
 21
112.4237842071885
 31
0.0
  0
LINE
  5
27205
330
2
100
AcDbEntity
  8
0
  6
HIDDEN
 62
     2
 48
0.05
100
AcDbLine
 10
106.8456179353677
 20
112.4237842071876
 30
0.0
 11
107.7456179353682
 21
112.4237842071885
 31
0.0
  0
LINE
  5
27206
330
2
100
AcDbEntity
  8
0
  6
HIDDEN
 62
     2
 48
0.05
100
AcDbLine
 10
118.1158708614027
 20
140.7345153451621
 30
0.0
 11
102.3244655126607
 21
131.6173432161837
 31
0.0
  0
LINE
  5
27207
330
2
100
AcDbEntity
  8
0
  6
HIDDEN
 62
     2
 48
0.05
100
AcDbLine
 10
118.7288496479711
 20
140.5688035703248
 30
0.0
 11
107.7456179353682
 21
134.2276317844804
 31
0.0
  0
LINE
  5
27208
330
2
100
AcDbEntity
  8
0
  6
HIDDEN
 62
     2
 48
0.05
100
AcDbLine
 10
118.1158708614027
 20
140.7345153451612
 30
0.0
 11
116.8418712045375
 21
142.9411474796785
 31
0.0
  0
LINE
  5
27209
330
2
100
AcDbEntity
  8
0
  6
HIDDEN
 62
     2
 48
0.05
100
AcDbLine
 10
118.1158708614027
 20
140.7345153451621
 30
0.0
 11
118.9879156373506
 21
140.5008516516833
 31
0.0
  0
LINE
  5
2720A
330
2
100
AcDbEntity
  8
0
  6
HIDDEN
 62
     2
 48
0.05
100
AcDbLine
 10
101.049465512661
 20
133.8257079958345
 30
0.0
 11
102.3244655126607
 21
131.6173432161837
 31
0.0
  0
LINE
  5
2720B
330
2
100
AcDbEntity
  8
0
  6
HIDDEN
 62
     2
 48
0.05
100
AcDbLine
 10
99.77446551266144
 20
133.0895864026175
 30
0.0
 11
102.3244655126607
 21
131.6173432161837
 31
0.0
  0
LINE
  5
2720C
330
2
100
AcDbEntity
  8
0
  6
HIDDEN
 62
     2
 48
0.05
100
AcDbLine
 10
115.5658708614025
 20
145.1512449044627
 30
0.0
 11
99.77446551266144
 21
136.0340727754852
 31
0.0
  0
LINE
  5
2720D
330
2
100
AcDbEntity
  8
0
  6
HIDDEN
 62
     2
 48
0.05
100
AcDbLine
 10
101.049465512661
 20
133.8257079958345
 30
0.0
 11
99.77446551266144
 21
136.0340727754852
 31
0.0
  0
LINE
  5
2720E
330
2
100
AcDbEntity
  8
0
  6
HIDDEN
 62
     2
 48
0.05
100
AcDbLine
 10
99.77446551266144
 20
133.0895864026175
 30
0.0
 11
99.77446551266144
 21
136.0340727754843
 31
0.0
  0
LINE
  5
2720F
330
2
100
AcDbEntity
  8
0
  6
HIDDEN
 62
     2
 48
0.05
100
AcDbLine
 10
115.5658708614016
 20
145.1512449044627
 30
0.0
 11
116.8398705182678
 21
142.9446127699472
 31
0.0
  0
LINE
  5
27210
330
2
100
AcDbEntity
  8
0
  6
HIDDEN
 62
     2
 48
0.05
100
AcDbLine
 10
115.5658708614025
 20
145.1512449044627
 30
0.0
 11
115.7995345548813
 21
146.0232896804106
 31
0.0
  0
LINE
  5
27211
330
2
100
AcDbEntity
  8
0
  6
HIDDEN
 62
     2
 48
0.05
100
AcDbLine
 10
106.2453026750661
 20
136.8262540426937
 30
0.0
 11
107.7456179353682
 21
134.2276317844804
 31
0.0
  0
LINE
  5
27212
330
2
100
AcDbEntity
  8
0
  6
HIDDEN
 62
     2
 48
0.05
100
AcDbLine
 10
106.8456179353677
 20
134.2276317844804
 30
0.0
 11
107.7456179353682
 21
134.2276317844804
 31
0.0
  0
LINE
  5
27213
330
2
100
AcDbEntity
  8
0
  6
HIDDEN
 62
     2
 48
0.05
100
AcDbLine
 10
115.7288496479711
 20
145.7649559930311
 30
0.0
 11
104.7456179353673
 21
139.4237842071876
 31
0.0
  0
LINE
  5
27214
330
2
100
AcDbEntity
  8
0
  6
HIDDEN
 62
     2
 48
0.05
100
AcDbLine
 10
106.2459331956695
 20
136.8251619489743
 30
0.0
 11
104.7456179353673
 21
139.4237842071876
 31
0.0
  0
LINE
  5
27215
330
2
100
AcDbEntity
  8
0
  6
HIDDEN
 62
     2
 48
0.05
100
AcDbLine
 10
104.2956179353675
 20
138.644361343781
 30
0.0
 11
104.7456179353673
 21
139.4237842071876
 31
0.0
  0
ARC
  5
27216
330
2
100
AcDbEntity
  8
0
  6
Continuous
 62
     3
100
AcDbCircle
 10
82.86293203318814
 20
123.3257079958345
 30
0.0
 40
9.0
100
AcDbArc
 50
350.3225825841446
 51
283.1077429923183
  0
CIRCLE
  5
27217
330
2
100
AcDbEntity
  8
0
  6
Continuous
 62
     7
100
AcDbCircle
 10
82.86293203318814
 20
123.3257079958345
 30
0.0
 40
8.5
  0
CIRCLE
  5
27218
330
2
100
AcDbEntity
  8
0
  6
Continuous
 62
     7
100
AcDbCircle
 10
82.86293203318814
 20
123.3257079958345
 30
0.0
 40
9.5
  0
CIRCLE
  5
27219
330
2
100
AcDbEntity
  8
0
  6
Continuous
 62
     7
100
AcDbCircle
 10
82.86293203318814
 20
123.3257079958345
 30
0.0
 40
5.514944026609148
  0
CIRCLE
  5
2721A
330
2
100
AcDbEntity
  8
0
  6
Continuous
 62
     7
100
AcDbCircle
 10
111.8629320331881
 20
123.3257079958345
 30
0.0
 40
2.5
  0
CIRCLE
  5
2721B
330
2
100
AcDbEntity
  8
0
  6
Continuous
 62
     7
100
AcDbCircle
 10
111.8629320331881
 20
123.3257079958345
 30
0.0
 40
3.0
  0
CIRCLE
  5
2721C
330
2
100
AcDbEntity
  8
0
  6
Continuous
 62
     7
100
AcDbCircle
 10
82.86293203318814
 20
123.3257079958345
 30
0.0
 40
24.19031650528405
  0
CIRCLE
  5
2721D
330
2
100
AcDbEntity
  8
0
  6
Continuous
 62
     7
100
AcDbCircle
 10
82.86293203318814
 20
123.3257079958345
 30
0.0
 40
17.0
  0
LINE
  5
2721E
330
2
100
AcDbEntity
  8
0
  6
Continuous
 62
     3
100
AcDbLine
 10
111.3629320331881
 20
123.3257079958345
 30
0.0
 11
112.3629320331881
 21
123.3257079958345
 31
0.0
  0
LINE
  5
2721F
330
2
100
AcDbEntity
  8
0
  6
Continuous
 62
     3
100
AcDbLine
 10
111.8629320331881
 20
122.8257079958344
 30
0.0
 11
111.8629320331881
 21
123.8257079958344
 31
0.0
  0
LINE
  5
27220
330
2
100
AcDbEntity
  8
0
  6
Continuous
 62
     3
100
AcDbLine
 10
112.8629320331881
 20
123.3257079958345
 30
0.0
 11
115.3629320331881
 21
123.3257079958345
 31
0.0
  0
LINE
  5
27221
330
2
100
AcDbEntity
  8
0
  6
Continuous
 62
     3
100
AcDbLine
 10
110.8629320331881
 20
123.3257079958345
 30
0.0
 11
108.3629320331881
 21
123.3257079958345
 31
0.0
  0
LINE
  5
27222
330
2
100
AcDbEntity
  8
0
  6
Continuous
 62
     3
100
AcDbLine
 10
111.8629320331881
 20
124.3257079958345
 30
0.0
 11
111.8629320331881
 21
126.8257079958345
 31
0.0
  0
LINE
  5
27223
330
2
100
AcDbEntity
  8
0
  6
Continuous
 62
     3
100
AcDbLine
 10
111.8629320331881
 20
122.3257079958345
 30
0.0
 11
111.8629320331881
 21
119.8257079958344
 31
0.0
  0
CIRCLE
  5
27224
330
2
100
AcDbEntity
  8
0
  6
Continuous
 62
     7
100
AcDbCircle
 10
53.86293203318814
 20
123.3257079958345
 30
0.0
 40
2.5
  0
CIRCLE
  5
27225
330
2
100
AcDbEntity
  8
0
  6
Continuous
 62
     7
100
AcDbCircle
 10
53.86293203318814
 20
123.3257079958345
 30
0.0
 40
3.0
  0
LINE
  5
27226
330
2
100
AcDbEntity
  8
0
  6
Continuous
 62
     3
100
AcDbLine
 10
54.36293203318815
 20
123.3257079958345
 30
0.0
 11
53.36293203318814
 21
123.3257079958345
 31
0.0
  0
LINE
  5
27227
330
2
100
AcDbEntity
  8
0
  6
Continuous
 62
     3
100
AcDbLine
 10
53.86293203318814
 20
122.8257079958344
 30
0.0
 11
53.86293203318814
 21
123.8257079958344
 31
0.0
  0
LINE
  5
27228
330
2
100
AcDbEntity
  8
0
  6
Continuous
 62
     3
100
AcDbLine
 10
52.86293203318814
 20
123.3257079958345
 30
0.0
 11
50.36293203318814
 21
123.3257079958345
 31
0.0
  0
LINE
  5
27229
330
2
100
AcDbEntity
  8
0
  6
Continuous
 62
     3
100
AcDbLine
 10
54.86293203318814
 20
123.3257079958345
 30
0.0
 11
57.36293203318814
 21
123.3257079958345
 31
0.0
  0
LINE
  5
2722A
330
2
100
AcDbEntity
  8
0
  6
Continuous
 62
     3
100
AcDbLine
 10
53.86293203318814
 20
124.3257079958345
 30
0.0
 11
53.86293203318814
 21
126.8257079958345
 31
0.0
  0
LINE
  5
2722B
330
2
100
AcDbEntity
  8
0
  6
Continuous
 62
     3
100
AcDbLine
 10
53.86293203318814
 20
122.3257079958345
 30
0.0
 11
53.86293203318814
 21
119.8257079958344
 31
0.0
  0
CIRCLE
  5
2722D
330
2
100
AcDbEntity
  8
0
  6
HIDDEN
 62
     2
 48
0.05
100
AcDbCircle
 10
82.86293203318814
 20
123.3257079958345
 30
0.0
 40
20.0
  0
LINE
  5
2722E
330
2
100
AcDbEntity
  8
0
  6
Continuous
 62
     7
100
AcDbLine
 10
299.0082820207797
 20
142.6447079958339
 30
0.0
 11
298.6272820207803
 21
143.0257079958343
 31
0.0
  0
LINE
  5
2722F
330
2
100
AcDbEntity
  8
0
  6
Continuous
 62
     7
100
AcDbLine
 10
248.5082820207815
 20
128.8257079958345
 30
0.0
 11
249.0082820207815
 21
129.3257079958344
 31
0.0
  0
LINE
  5
27230
330
2
100
AcDbEntity
  8
0
  6
Continuous
 62
     7
100
AcDbLine
 10
252.1422566169956
 20
136.3257079958499
 30
0.0
 11
254.0082820207815
 21
135.8257079958499
 31
0.0
  0
LINE
  5
27231
330
2
100
AcDbEntity
  8
06-D06-75
  6
Continuous
 62
     7
100
AcDbLine
 10
268.8906304883537
 20
135.8257079958499
 30
0.0
 11
298.1041277733027
 21
138.6386478439359
 31
0.0
  0
ARC
  5
27232
330
2
100
AcDbEntity
  8
0
  6
Continuous
 62
     7
100
AcDbCircle
 10
298.0082820207815
 20
139.6340440423033
 30
0.0
 40
1.0
100
AcDbArc
 50
275.4999999999515
 51
0.0
  0
ARC
  5
27233
330
2
100
AcDbEntity
  8
63-BT50-165
  6
Continuous
 62
     7
100
AcDbCircle
 10
249.4082820207812
 20
135.9257079958494
 30
0.0
 40
0.4
100
AcDbArc
 50
90.0
 51
180.0
  0
LINE
  5
27234
330
2
100
AcDbEntity
  8
63-BT50-165
  6
Continuous
 62
     7
100
AcDbLine
 10
249.4082820207812
 20
136.3257079958499
 30
0.0
 11
252.1422566169974
 21
136.3257079958499
 31
0.0
  0
LINE
  5
27235
330
2
100
AcDbEntity
  8
51-BT40-45
  6
Continuous
 62
     7
100
AcDbLine
 10
254.0082820207815
 20
135.8257079958499
 30
0.0
 11
268.8906304883537
 21
135.8257079958499
 31
0.0
  0
LINE
  5
27236
330
2
100
AcDbEntity
  8
64-BT50-195
  6
Continuous
 62
     7
100
AcDbLine
 10
289.0082820207797
 20
143.0257079958343
 30
0.0
 11
298.6272820207803
 21
143.0257079958343
 31
0.0
  0
LINE
  5
27237
330
2
100
AcDbEntity
  8
0
  6
Continuous
 62
     4
100
AcDbLine
 10
298.6332820207797
 20
103.6257079958337
 30
0.0
 11
298.6332820207797
 21
123.3257079958345
 31
0.0
  0
LINE
  5
27238
330
2
100
AcDbEntity
  8
0
  6
Continuous
 62
     7
100
AcDbLine
 10
299.0082820207797
 20
104.006707995834
 30
0.0
 11
298.6272820207803
 21
103.6257079958346
 31
0.0
  0
LINE
  5
27239
330
2
100
AcDbEntity
  8
64-BT50-195
  6
Continuous
 62
     7
100
AcDbLine
 10
289.0082820207797
 20
103.6257079958346
 30
0.0
 11
298.6272820207803
 21
103.6257079958346
 31
0.0
  0
LINE
  5
2723A
330
2
100
AcDbEntity
  8
63-BT50-165
  6
Continuous
 62
     7
100
AcDbLine
 10
299.0082820207797
 20
123.3257079958345
 30
0.0
 11
299.0082820207797
 21
104.006707995834
 31
0.0
  0
LINE
  5
2723B
330
2
100
AcDbEntity
  8
0
  6
Continuous
 62
     7
100
AcDbLine
 10
289.0082820207797
 20
103.6257079958346
 30
0.0
 11
289.0082820207797
 21
123.3757079958501
 31
0.0
  0
LINE
  5
2723C
330
2
100
AcDbEntity
  8
0
  6
Continuous
 62
     7
100
AcDbLine
 10
299.0082820207797
 20
104.5757079958181
 30
0.0
 11
299.0082820207797
 21
123.3257079958345
 31
0.0
  0
LINE
  5
2723E
330
2
100
AcDbEntity
  8
0
  6
Continuous
 62
     7
100
AcDbLine
 10
248.5082820207815
 20
128.8257079958345
 30
0.0
 11
248.5082820207815
 21
123.3257079958345
 31
0.0
  0
LINE
  5
2723F
330
2
100
AcDbEntity
  8
0
  6
Continuous
 62
     7
100
AcDbLine
 10
268.890630488381
 20
135.825707995849
 30
0.0
 11
268.890630488381
 21
123.3257079958345
 31
0.0
  0
LINE
  5
27240
330
2
100
AcDbEntity
  8
0
  6
Continuous
 62
     7
100
AcDbLine
 10
254.0082820207815
 20
135.8257079958499
 30
0.0
 11
254.0082820207815
 21
123.3257079958345
 31
0.0
  0
LINE
  5
27241
330
2
100
AcDbEntity
  8
63-BT50-165
  6
Continuous
 62
     7
100
AcDbLine
 10
249.0082820207815
 20
123.3257079958345
 30
0.0
 11
249.0082820207815
 21
135.9257079958503
 31
0.0
  0
LINE
  5
27242
330
2
100
AcDbEntity
  8
61-BT50-60
  6
Continuous
 62
     7
100
AcDbLine
 10
252.1422566169956
 20
123.3257079958345
 30
0.0
 11
252.1422566169956
 21
136.3257079958499
 31
0.0
  0
LINE
  5
27243
330
2
100
AcDbEntity
  8
63-BT50-165
  6
Continuous
 62
     7
100
AcDbLine
 10
299.0082820207797
 20
123.3257079958499
 30
0.0
 11
299.0082820207797
 21
142.6447079958339
 31
0.0
  0
LINE
  5
27244
330
2
100
AcDbEntity
  8
0
  6
Continuous
 62
     4
100
AcDbLine
 10
225.4082820207811
 20
130.8257079958335
 30
0.0
 11
225.4082820207811
 21
128.7257079958341
 31
0.0
  0
LINE
  5
27245
330
2
100
AcDbEntity
  8
0
  6
Continuous
 62
     7
100
AcDbLine
 10
225.9082820207829
 20
128.8257079958317
 30
0.0
 11
225.4082820207848
 21
129.3257079958317
 31
0.0
  0
ARC
  5
27246
330
2
100
AcDbEntity
  8
0
  6
Continuous
100
AcDbCircle
 10
222.4082820207793
 20
162.3257079958345
 30
0.0
 40
1.0
100
AcDbArc
 50
0.0
 51
90.0
  0
LINE
  5
27247
330
2
100
AcDbEntity
  8
0
  6
Continuous
100
AcDbLine
 10
223.4082820207802
 20
162.3257079958326
 30
0.0
 11
223.4082820207802
 21
149.7760399635223
 31
0.0
  0
LINE
  5
27248
330
2
100
AcDbEntity
  8
0
  6
Continuous
 62
     3
100
AcDbLine
 10
201.8582820207864
 20
149.5462851324279
 30
0.0
 11
201.4082820207857
 21
150.3257079958345
 31
0.0
  0
LINE
  5
27249
330
2
100
AcDbEntity
  8
0
  6
Continuous
 62
     2
100
AcDbLine
 10
204.4089125413891
 20
150.3257079958345
 30
0.0
 11
201.4082820207857
 21
150.3257079958345
 31
0.0
  0
LINE
  5
2724A
330
2
100
AcDbEntity
  8
0
 62
     3
100
AcDbLine
 10
201.4082820207866
 20
163.0080515675205
 30
0.0
 11
201.4082820207857
 21
150.3257079958345
 31
0.0
  0
LINE
  5
2724B
330
2
100
AcDbEntity
  8
0
  6
Continuous
 62
     3
100
AcDbLine
 10
206.9582820207858
 20
149.5462851324279
 30
0.0
 11
207.4082820207866
 21
150.3257079958345
 31
0.0
  0
LINE
  5
2724C
330
2
100
AcDbEntity
  8
0
  6
Continuous
 62
     2
100
AcDbLine
 10
204.4076515001832
 20
150.3257079958345
 30
0.0
 11
207.4082820207866
 21
150.3257079958345
 31
0.0
  0
LINE
  5
2724D
330
2
100
AcDbEntity
  8
0
  6
Continuous
 62
     7
100
AcDbLine
 10
201.8582820207855
 20
162.5600522537921
 30
0.0
 11
201.0926262787423
 21
163.3257079958354
 31
0.0
  0
LINE
  5
2724E
330
2
100
AcDbEntity
  8
0
  6
Continuous
 62
     7
100
AcDbLine
 10
201.8582820207855
 20
162.5600522537903
 30
0.0
 11
204.406281334516
 21
162.5600522537903
 31
0.0
  0
LINE
  5
2724F
330
2
100
AcDbEntity
  8
0
  6
Continuous
 62
     7
100
AcDbLine
 10
206.9582820207858
 20
162.5600522537921
 30
0.0
 11
207.7239377628291
 21
163.3257079958354
 31
0.0
  0
LINE
  5
27250
330
2
100
AcDbEntity
  8
0
  6
Continuous
 62
     7
100
AcDbLine
 10
206.9582820207868
 20
162.5600522537903
 30
0.0
 11
204.4102827070553
 21
162.5600522537903
 31
0.0
  0
LINE
  5
27251
330
2
100
AcDbEntity
  8
0
 62
     3
100
AcDbLine
 10
207.4082820207866
 20
163.0080515675205
 30
0.0
 11
207.4082820207866
 21
150.3257079958345
 31
0.0
  0
LINE
  5
27252
330
2
100
AcDbEntity
  8
0
  6
Continuous
100
AcDbLine
 10
217.2832820207793
 20
160.4733032600258
 30
0.0
 11
218.930118662837
 21
163.3257079958345
 31
0.0
  0
ARC
  5
27253
330
2
100
AcDbEntity
  8
0
  6
Continuous
100
AcDbCircle
 10
216.7832820207793
 20
158.8257079958345
 30
0.0
 40
0.5
100
AcDbArc
 50
270.0
 51
0.0
  0
ARC
  5
27254
330
2
100
AcDbEntity
  8
0
  6
Continuous
100
AcDbCircle
 10
214.0332820207793
 20
158.8257079958345
 30
0.0
 40
0.5
100
AcDbArc
 50
180.0
 51
270.0
  0
LINE
  5
27255
330
2
100
AcDbEntity
  8
0
  6
Continuous
100
AcDbLine
 10
214.0332820207793
 20
158.3257079958344
 30
0.0
 11
215.4082820207793
 21
158.3257079958344
 31
0.0
  0
LINE
  5
27256
330
2
100
AcDbEntity
  8
0
  6
Continuous
100
AcDbLine
 10
216.7832820207793
 20
158.3257079958344
 30
0.0
 11
215.4082820207793
 21
158.3257079958344
 31
0.0
  0
LINE
  5
27257
330
2
100
AcDbEntity
  8
0
  6
Continuous
100
AcDbLine
 10
217.2832820207793
 20
158.8257079958345
 30
0.0
 11
217.2832820207793
 21
160.4733032600258
 31
0.0
  0
LINE
  5
27258
330
2
100
AcDbEntity
  8
0
  6
Continuous
100
AcDbLine
 10
213.5332820207793
 20
158.8257079958345
 30
0.0
 11
213.5332820207793
 21
160.4733032600267
 31
0.0
  0
LINE
  5
27259
330
2
100
AcDbEntity
  8
0
  6
Continuous
100
AcDbLine
 10
213.5332820207793
 20
160.4733032600267
 30
0.0
 11
211.8864453787253
 21
163.3257079958345
 31
0.0
  0
LINE
  5
2725A
330
2
100
AcDbEntity
  8
0
  6
Continuous
 62
     7
100
AcDbLine
 10
219.9082820207848
 20
131.8257079958335
 30
0.0
 11
219.4082820207848
 21
132.3257079958335
 31
0.0
  0
LINE
  5
2725B
330
2
100
AcDbEntity
  8
0
  6
Continuous
100
AcDbLine
 10
204.4082820207857
 20
142.8534648094006
 30
0.0
 11
201.8582820207855
 21
144.3257079958335
 31
0.0
  0
LINE
  5
2725C
330
2
100
AcDbEntity
  8
0
  6
Continuous
100
AcDbLine
 10
204.4082820207866
 20
144.3257079958345
 30
0.0
 11
201.8582820207864
 21
144.3257079958345
 31
0.0
  0
LINE
  5
2725D
330
2
100
AcDbEntity
  8
0
  6
Continuous
100
AcDbLine
 10
204.4082820207866
 20
142.8534648094006
 30
0.0
 11
206.9582820207858
 21
144.3257079958335
 31
0.0
  0
LINE
  5
2725E
330
2
100
AcDbEntity
  8
0
  6
Continuous
100
AcDbLine
 10
204.4082820207866
 20
144.3257079958345
 30
0.0
 11
206.9582820207858
 21
144.3257079958345
 31
0.0
  0
LINE
  5
2725F
330
2
100
AcDbEntity
  8
0
  6
Continuous
100
AcDbLine
 10
213.60828202078
 20
131.8257079958345
 30
0.0
 11
214.4082820207793
 21
132.6257079958337
 31
0.0
  0
LINE
  5
27260
330
2
100
AcDbEntity
  8
0
  6
Continuous
100
AcDbLine
 10
214.4082820207793
 20
132.8257079958345
 30
0.0
 11
219.4082820207793
 21
132.8257079958345
 31
0.0
  0
LINE
  5
27261
330
2
100
AcDbEntity
  8
0
  6
Continuous
100
AcDbLine
 10
208.2082820207804
 20
131.8257079958345
 30
0.0
 11
207.4082820207793
 21
132.6257079958337
 31
0.0
  0
LINE
  5
27262
330
2
100
AcDbEntity
  8
0
  6
Continuous
 62
     3
100
AcDbLine
 10
207.7082820207804
 20
132.3257079958344
 30
0.0
 11
214.1082820207801
 21
132.3257079958344
 31
0.0
  0
LINE
  5
27263
330
2
100
AcDbEntity
  8
0
  6
Continuous
100
AcDbLine
 10
208.2082820207804
 20
131.8257079958345
 30
0.0
 11
213.60828202078
 21
131.8257079958345
 31
0.0
  0
ARC
  5
27264
330
2
100
AcDbEntity
  8
0
  6
Continuous
100
AcDbCircle
 10
205.9082820207793
 20
139.0757079958345
 30
0.0
 40
1.5
100
AcDbArc
 50
0.0
 51
123.5573097619043
  0
LINE
  5
27265
330
2
100
AcDbEntity
  8
0
 62
     0
100
AcDbLine
 10
201.8582820207864
 20
162.5600522537903
 30
0.0
 11
201.8582820207864
 21
144.3257079958345
 31
0.0
  0
LINE
  5
27266
330
2
100
AcDbEntity
  8
0
  6
CENTER
 62
     3
100
AcDbLine
 10
204.4082820207866
 20
165.9277222213765
 30
0.0
 11
204.4082820207866
 21
141.8745748589814
 31
0.0
  0
LINE
  5
27267
330
2
100
AcDbEntity
  8
0
 62
     0
100
AcDbLine
 10
206.9582820207858
 20
162.5600522537903
 30
0.0
 11
206.9582820207858
 21
144.3257079958345
 31
0.0
  0
LINE
  5
27268
330
2
100
AcDbEntity
  8
0
  6
Continuous
 62
     7
100
AcDbLine
 10
219.9082820207848
 20
131.8257079958335
 30
0.0
 11
225.4082820207848
 21
131.8257079958335
 31
0.0
  0
LINE
  5
27269
330
2
100
AcDbEntity
  8
0
  6
Continuous
100
AcDbLine
 10
218.930118662837
 20
163.3257079958345
 30
0.0
 11
222.4082820207793
 21
163.3257079958345
 31
0.0
  0
ARC
  5
2726B
330
2
100
AcDbEntity
  8
0
  6
Continuous
100
AcDbCircle
 10
166.60828202078
 20
144.8967808367666
 30
0.0
 40
1.199999999999999
100
AcDbArc
 50
92.86805555556354
 51
180.0
  0
LINE
  5
2726C
330
2
100
AcDbEntity
  8
0
100
AcDbLine
 10
166.5482386881638
 20
146.0952777279641
 30
0.0
 11
194.9071008069793
 21
147.516024501118
 31
0.0
  0
LINE
  5
2726D
330
2
100
AcDbEntity
  8
0
  6
Continuous
100
AcDbLine
 10
196.0278972630501
 20
147.2157079958339
 30
0.0
 11
197.0082820207797
 21
147.2157079958339
 31
0.0
  0
LINE
  5
2726E
330
2
100
AcDbEntity
  8
0
  6
Continuous
100
AcDbLine
 10
194.9071008069793
 20
147.516024501118
 30
0.0
 11
196.0278972630501
 21
147.2157079958339
 31
0.0
  0
ARC
  5
2726F
330
2
100
AcDbEntity
  8
0
  6
Continuous
100
AcDbCircle
 10
197.0082820207797
 20
147.8157079958342
 30
0.0
 40
0.6
100
AcDbArc
 50
270.0
 51
0.0
  0
LINE
  5
27270
330
2
100
AcDbEntity
  8
0
  6
Continuous
100
AcDbLine
 10
197.4082820207793
 20
149.3157079958342
 30
0.0
 11
197.60828202078
 21
147.8926340513577
 31
0.0
  0
LINE
  5
27271
330
2
100
AcDbEntity
  8
0
  6
Continuous
100
AcDbLine
 10
197.60828202078
 20
147.8157079958342
 30
0.0
 11
197.60828202078
 21
147.8926340513577
 31
0.0
  0
LINE
  5
27272
330
2
100
AcDbEntity
  8
0
  6
Continuous
100
AcDbLine
 10
197.4082820207811
 20
162.3257079958345
 30
0.0
 11
197.4082820207757
 21
147.368494400334
 31
0.0
  0
ARC
  5
27273
330
2
100
AcDbEntity
  8
0
  6
Continuous
100
AcDbCircle
 10
198.4082820207811
 20
162.3257079958345
 30
0.0
 40
1.0
100
AcDbArc
 50
90.0
 51
180.0
  0
POINT
  5
27274
330
2
100
AcDbEntity
  8
DEFPOINTS
  6
ByBlock
 62
     0
100
AcDbPoint
 10
179.9711023438074
 20
143.0257079958343
 30
0.0
  0
POINT
  5
27275
330
2
100
AcDbEntity
  8
DEFPOINTS
  6
ByBlock
 62
     0
100
AcDbPoint
 10
180.1443074245642
 20
143.2156059443911
 30
0.0
  0
ARC
  5
27276
330
2
100
AcDbEntity
  8
0
  6
Continuous
100
AcDbCircle
 10
180.4907175860778
 20
142.7257079958341
 30
0.0
 40
0.6
100
AcDbArc
 50
90.0
 51
149.9999999999871
  0
LINE
  5
27277
330
2
100
AcDbEntity
  8
0
  6
Continuous
100
AcDbLine
 10
180.4907175860778
 20
143.3257079958345
 30
0.0
 11
191.3719337869558
 21
143.3257079958345
 31
0.0
  0
ARC
  5
27278
330
2
100
AcDbEntity
  8
0
  6
Continuous
100
AcDbCircle
 10
191.3719337869558
 20
135.3257079958344
 30
0.0
 40
8.0
100
AcDbArc
 50
38.68218745347702
 51
90.0
  0
POINT
  5
27279
330
2
100
AcDbEntity
  8
DEFPOINTS
  6
ByBlock
 62
     0
100
AcDbPoint
 10
178.412256616996
 20
140.3257079958344
 30
0.0
  0
LINE
  5
2727A
330
2
100
AcDbEntity
  8
0
  6
Continuous
100
AcDbLine
 10
166.4082820207793
 20
140.3257079958344
 30
0.0
 11
165.4082820207793
 21
140.9030582650235
 31
0.0
  0
LINE
  5
2727B
330
2
100
AcDbEntity
  8
0
  6
Continuous
100
AcDbLine
 10
166.4082820207793
 20
140.3257079958344
 30
0.0
 11
178.412256616996
 21
140.3257079958344
 31
0.0
  0
LINE
  5
2727C
330
2
100
AcDbEntity
  8
0
  6
Continuous
100
AcDbLine
 10
179.9711023438074
 20
143.0257079958343
 30
0.0
 11
178.412256616996
 21
140.3257079958344
 31
0.0
  0
LINE
  5
2727E
330
2
100
AcDbEntity
  8
0
  6
Continuous
100
AcDbLine
 10
198.4082820207811
 20
163.3257079958345
 30
0.0
 11
211.8864453787253
 21
163.3257079958345
 31
0.0
  0
LINE
  5
2727F
330
2
100
AcDbEntity
  8
0
  6
Continuous
100
AcDbLine
 10
205.0791258231918
 20
140.3257079958344
 30
0.0
 11
197.6169317853534
 21
140.3257079958344
 31
0.0
  0
ARC
  5
27280
330
2
100
AcDbEntity
  8
0
  6
Continuous
100
AcDbCircle
 10
222.4082820207793
 20
84.32570799583448
 30
0.0
 40
1.0
100
AcDbArc
 50
270.0
 51
0.0
  0
LINE
  5
27281
330
2
100
AcDbEntity
  8
0
  6
Continuous
100
AcDbLine
 10
223.4082820207784
 20
84.32570799583448
 30
0.0
 11
223.4082820207784
 21
123.3257079958345
 31
0.0
  0
LINE
  5
27282
330
2
100
AcDbEntity
  8
0
  6
Continuous
 62
     7
 48
0.05
100
AcDbLine
 10
208.3082820207799
 20
120.8257079958372
 30
0.0
 11
209.751657693753
 21
123.3257079958354
 31
0.0
  0
LINE
  5
27283
330
2
100
AcDbEntity
  8
0
  6
Continuous
 62
     7
 48
0.05
100
AcDbLine
 10
208.3082820207799
 20
120.8257079958363
 30
0.0
 11
208.3082820207799
 21
123.3257079958345
 31
0.0
  0
LINE
  5
27284
330
2
100
AcDbEntity
  8
0
  6
Continuous
100
AcDbLine
 10
216.7832820207802
 20
88.32570799583356
 30
0.0
 11
215.4082820207793
 21
88.32570799583448
 31
0.0
  0
LINE
  5
27285
330
2
100
AcDbEntity
  8
0
  6
Continuous
100
AcDbLine
 10
214.0332820207793
 20
88.32570799583356
 30
0.0
 11
215.4082820207793
 21
88.32570799583448
 31
0.0
  0
LINE
  5
27286
330
2
100
AcDbEntity
  8
0
  6
Continuous
100
AcDbLine
 10
217.2832820207793
 20
86.17811273164319
 30
0.0
 11
218.930118662837
 21
83.32570799583448
 31
0.0
  0
LINE
  5
27287
330
2
100
AcDbEntity
  8
0
  6
Continuous
100
AcDbLine
 10
218.930118662837
 20
83.32570799583448
 30
0.0
 11
218.930118662837
 21
123.3257079958345
 31
0.0
  0
LINE
  5
27288
330
2
100
AcDbEntity
  8
0
  6
Continuous
100
AcDbLine
 10
211.8864453787235
 20
83.32570799583448
 30
0.0
 11
211.8864453787198
 21
118.7451762236666
 31
0.0
  0
LINE
  5
27289
330
2
100
AcDbEntity
  8
0
  6
Continuous
100
AcDbLine
 10
213.5332820207793
 20
86.17811273164226
 30
0.0
 11
211.8864453787235
 21
83.32570799583448
 31
0.0
  0
ARC
  5
2728A
330
2
100
AcDbEntity
  8
0
  6
Continuous
100
AcDbCircle
 10
216.7832820207802
 20
87.82570799583357
 30
0.0
 40
0.5
100
AcDbArc
 50
0.0
 51
90.0
  0
LINE
  5
2728B
330
2
100
AcDbEntity
  8
0
  6
Continuous
100
AcDbLine
 10
217.2832820207893
 20
123.3257079958345
 30
0.0
 11
217.2832820207793
 21
86.17811273164319
 31
0.0
  0
ARC
  5
2728C
330
2
100
AcDbEntity
  8
0
  6
Continuous
100
AcDbCircle
 10
214.0332820207793
 20
87.82570799583357
 30
0.0
 40
0.5
100
AcDbArc
 50
90.0
 51
180.0
  0
LINE
  5
2728D
330
2
100
AcDbEntity
  8
0
  6
Continuous
100
AcDbLine
 10
213.5332820207793
 20
121.2239381955675
 30
0.0
 11
213.5332820207793
 21
86.17811273164226
 31
0.0
  0
LINE
  5
2728E
330
2
100
AcDbEntity
  8
0
  6
Continuous
100
AcDbLine
 10
218.930118662837
 20
83.32570799583448
 30
0.0
 11
222.4082820207793
 21
83.32570799583448
 31
0.0
  0
LINE
  5
2728F
330
2
100
AcDbEntity
  8
0
  6
Continuous
 62
     7
 48
0.05
100
AcDbLine
 10
197.9082820207811
 20
120.8257079958363
 30
0.0
 11
197.9082820207811
 21
123.3257079958345
 31
0.0
  0
LINE
  5
27290
330
2
100
AcDbEntity
  8
0
  6
Continuous
 62
     7
 48
0.05
100
AcDbLine
 10
197.4082820207793
 20
120.3257079958345
 30
0.0
 11
197.9082820207811
 21
120.8257079958372
 31
0.0
  0
ARC
  5
27291
330
2
100
AcDbEntity
  8
0
  6
Continuous
 62
     7
100
AcDbCircle
 10
188.4082820207793
 20
123.3257079958345
 30
0.0
 40
4.25
100
AcDbArc
 50
180.0
 51
0.0
  0
POINT
  5
27292
330
2
100
AcDbEntity
  8
DEFPOINTS
  6
ByBlock
 62
     3
100
AcDbPoint
 10
188.4082820207793
 20
117.6971830480757
 30
0.0
  0
POINT
  5
27293
330
2
100
AcDbEntity
  8
DEFPOINTS
  6
ByBlock
 62
     7
100
AcDbPoint
 10
190.7530569291946
 20
120.3991860620568
 30
0.0
  0
LINE
  5
27294
330
2
100
AcDbEntity
  8
0
100
AcDbLine
 10
166.5482386881638
 20
100.5561382637039
 30
0.0
 11
194.9071008069793
 21
99.13539149054997
 31
0.0
  0
POINT
  5
27295
330
2
100
AcDbEntity
  8
DEFPOINTS
  6
ByBlock
 62
     0
100
AcDbPoint
 10
180.1443074245642
 20
123.3257079958345
 30
0.0
  0
ARC
  5
27296
330
2
100
AcDbEntity
  8
0
  6
Continuous
100
AcDbCircle
 10
197.0082820207797
 20
98.8357079958347
 30
0.0
 40
0.6
100
AcDbArc
 50
48.1896851040575
 51
90.0
  0
LINE
  5
27297
330
2
100
AcDbEntity
  8
0
  6
Continuous
100
AcDbLine
 10
196.0278972630501
 20
99.43570799583415
 30
0.0
 11
197.0082820207797
 21
99.43570799583415
 31
0.0
  0
LINE
  5
27298
330
2
100
AcDbEntity
  8
0
  6
Continuous
100
AcDbLine
 10
194.9071008069793
 20
99.13539149054997
 30
0.0
 11
196.0278972630501
 21
99.43570799583415
 31
0.0
  0
LINE
  5
27299
330
2
100
AcDbEntity
  8
0
  6
Continuous
 62
     7
100
AcDbLine
 10
194.9071008069793
 20
123.3257079958345
 30
0.0
 11
194.9071008069793
 21
99.13539149054997
 31
0.0
  0
LINE
  5
2729A
330
2
100
AcDbEntity
  8
0
  6
Continuous
100
AcDbLine
 10
196.0278972630501
 20
99.43570799583415
 30
0.0
 11
196.0278972630501
 21
123.3257079958345
 31
0.0
  0
ARC
  5
2729B
330
2
100
AcDbEntity
  8
0
  6
Continuous
100
AcDbCircle
 10
198.4082820207811
 20
84.32570799583448
 30
0.0
 40
1.0
100
AcDbArc
 50
180.0
 51
270.0
  0
LINE
  5
2729C
330
2
100
AcDbEntity
  8
0
  6
Continuous
100
AcDbLine
 10
197.4082820207793
 20
123.3257079958345
 30
0.0
 11
197.4082820207811
 21
84.32570799583448
 31
0.0
  0
ARC
  5
2729D
330
2
100
AcDbEntity
  8
0
  6
Continuous
100
AcDbCircle
 10
166.60828202078
 20
101.7546351549014
 30
0.0
 40
1.199999999999999
100
AcDbArc
 50
180.0
 51
267.1319444444364
  0
LINE
  5
2729E
330
2
100
AcDbEntity
  8
0
  6
Continuous
100
AcDbLine
 10
165.4082820207793
 20
101.7546351549014
 30
0.0
 11
165.4082820207793
 21
123.3257079958345
 31
0.0
  0
SPLINE
  5
272A0
330
2
100
AcDbEntity
  8
0
  6
Continuous
 62
     2
100
AcDbSpline
210
0.0
220
0.0
230
1.0
 70
     8
 71
     3
 72
    12
 73
     8
 74
     0
 42
0.000000001
 43
0.0000000001
 40
0.0
 40
0.0
 40
0.0
 40
0.0
 40
4.674327730188298
 40
8.757798890259049
 40
13.53881954948476
 40
17.06081490510214
 40
20.33639438704106
 40
20.33639438704106
 40
20.33639438704106
 40
20.33639438704106
 10
197.4082820207793
 20
115.8559685545757
 30
0.0
 10
198.9212163550753
 20
116.4047680736745
 30
0.0
 10
201.7558431503573
 20
117.4329963231181
 30
0.0
 10
206.231480744608
 20
115.7584336867845
 30
0.0
 10
210.3508777324339
 20
117.2820881090343
 30
0.0
 10
213.3512211088953
 20
119.9674548559247
 30
0.0
 10
213.8465687931191
 20
122.2336741868263
 30
0.0
 10
214.0852643205169
 20
123.3257079958345
 30
0.0
  0
LINE
  5
272A1
330
2
100
AcDbEntity
  8
0
  6
Continuous
 62
     7
 48
0.05
100
AcDbLine
 10
197.9082820207811
 20
120.8257079958363
 30
0.0
 11
208.3082820207799
 21
120.8257079958363
 31
0.0
  0
HATCH
  5
272A2
330
2
100
AcDbEntity
  8
0
  6
Continuous
 62
     4
100
AcDbHatch
 10
0.0
 20
0.0
 30
0.0
210
0.0
220
0.0
230
1.0
  2
ANSI31
 70
     0
 71
     0
 91
        3
 92
        5
 93
       11
 72
     4
 94
        3
 73
     1
 74
     0
 95
       11
 96
        7
 40
0.0
 40
0.0
 40
0.0
 40
0.0
 40
4.674327730188298
 40
8.757798890259049
 40
13.53881954948476
 40
15.15923772326177
 40
15.15923772326177
 40
15.15923772326177
 40
15.15923772326177
 10
197.4082820207793
 20
115.8559685545757
 42
1.0
 10
198.9212163550753
 20
116.4047680736745
 42
1.0
 10
201.7558431503573
 20
117.4329963231181
 42
1.0
 10
206.231480744608
 20
115.7584336867845
 42
1.0
 10
209.7184666860747
 20
117.0481762305941
 42
1.0
 10
211.4849349652366
 20
118.3731521080941
 42
1.0
 10
211.8864453744889
 20
118.7451762197457
 42
1.0
 97
        0
 72
     1
 10
211.8864453787198
 20
118.7451762187826
 11
211.8864453787198
 21
118.7475989654709
 72
     1
 10
211.8864453787198
 20
118.7475989654709
 11
211.8876533920663
 21
118.7462957606027
 72
     4
 94
        3
 73
     1
 74
     0
 95
        9
 96
        5
 40
15.16088458532654
 40
15.16088458532654
 40
15.16088458532654
 40
15.16088458532654
 40
17.06081490510214
 40
18.18681735974611
 40
18.18681735974611
 40
18.18681735974611
 40
18.18681735974611
 10
211.8876694212202
 20
118.7463106189658
 42
1.0
 10
212.3583290978211
 20
119.1825938941061
 42
1.0
 10
213.0079453799597
 20
119.957644845084
 42
1.0
 10
213.4066749682704
 20
120.869363294411
 42
1.0
 10
213.5322509064033
 20
121.2210487622893
 42
1.0
 97
        0
 72
     4
 94
        3
 73
     1
 74
     0
 95
        8
 96
        4
 40
18.18681735974611
 40
18.18681735974611
 40
18.18681735974611
 40
18.18681735974611
 40
20.33639438704106
 40
20.33639438704106
 40
20.33639438704106
 40
20.33639438704106
 10
213.5322509064033
 20
121.2210487622893
 42
1.0
 10
213.7719796482695
 20
121.8924282956674
 42
1.0
 10
213.9286219843932
 20
122.6090681457514
 42
1.0
 10
214.0852643205169
 20
123.3257079958345
 42
1.0
 97
        0
 72
     1
 10
214.0852643205169
 20
123.3257079958345
 11
213.60828202078
 21
123.3257079958345
 72
     1
 10
213.60828202078
 20
123.3257079958345
 11
209.751657693753
 21
123.3257079958345
 72
     1
 10
209.751657693753
 20
123.3257079958354
 11
208.3082820207799
 21
120.8257079958372
 72
     1
 10
208.3082820207799
 20
120.8257079958363
 11
197.9082820207811
 21
120.8257079958363
 72
     1
 10
197.9082820207811
 20
120.8257079958372
 11
197.4082820207793
 21
120.3257079958345
 72
     1
 10
197.4082820207793
 20
120.3257079958345
 11
197.4082820207793
 21
115.8559685545757
 97
        0
 92
        9
 93
        4
 72
     1
 10
150.0436681098933
 20
116.0677275981085
 11
150.0436681098933
 21
128.5829233015835
 72
     1
 10
150.0436681098933
 20
128.5829233015835
 11
154.5436681098933
 21
128.5829233015835
 72
     1
 10
154.5436681098933
 20
128.5829233015835
 11
154.5436681098933
 21
116.0677275981085
 72
     1
 10
154.5436681098933
 20
116.0677275981085
 11
150.0436681098933
 21
116.0677275981085
 97
        0
 92
        9
 93
        4
 72
     1
 10
181.2248131199237
 20
112.4354650537503
 11
195.0332820207793
 21
112.4354650537503
 72
     1
 10
195.0332820207793
 20
112.4354650537503
 11
195.0332820207793
 21
107.6338951644872
 72
     1
 10
195.0332820207793
 20
107.6338951644872
 11
181.2248131199237
 21
107.6338951644872
 72
     1
 10
181.2248131199237
 20
107.6338951644872
 11
181.2248131199237
 21
112.4354650537503
 97
        0
 75
     1
 76
     1
 52
90.0
 41
1.0
 77
     0
 78
     1
 53
135.0
 43
-540.8917967491036
 44
2363.324728129455
 45
-2.245064030267288
 46
-2.245064030267287
 79
     0
 47
0.0
 98
        1
 10
200.2091642150396
 20
118.6085185871421
1001
ACAD
1010
0.0
1020
0.0
1030
0.0
1001
HATCHBACKGROUNDCOLOR
1071
-939524096
1000
없음
1000

  0
LINE
  5
272A3
330
2
100
AcDbEntity
  8
0
  6
Continuous
100
AcDbLine
 10
198.4082820207811
 20
83.32570799583448
 30
0.0
 11
211.8864453787235
 21
83.32570799583448
 31
0.0
  0
LINE
  5
272A4
330
2
100
AcDbEntity
  8
0
  6
Continuous
 62
     7
100
AcDbLine
 10
225.9082820207829
 20
128.8257079958326
 30
0.0
 11
225.9082820207829
 21
123.3257079958326
 31
0.0
  0
LINE
  5
272A5
330
2
100
AcDbEntity
  8
0
  6
Continuous
 62
     7
100
AcDbLine
 10
225.4082820207848
 20
131.8257079958335
 30
0.0
 11
225.4082820207811
 21
123.3257079958326
 31
0.0
  0
LINE
  5
272A6
330
2
100
AcDbEntity
  8
0
  6
Continuous
 62
     7
100
AcDbLine
 10
219.9082820207848
 20
131.8257079958335
 30
0.0
 11
219.9082820207812
 21
123.3257079958317
 31
0.0
  0
LINE
  5
272A7
330
2
100
AcDbEntity
  8
0
  6
Continuous
 62
     0
100
AcDbLine
 10
219.4082820207848
 20
132.8257079958326
 30
0.0
 11
219.4082820207848
 21
123.3257079958326
 31
0.0
  0
CIRCLE
  5
272A8
330
2
100
AcDbEntity
  8
0
 62
     7
100
AcDbCircle
 10
188.4082820207793
 20
123.3257079958345
 30
0.0
 40
3.75
  0
LINE
  5
272A9
330
2
100
AcDbEntity
  8
3
 62
     3
100
AcDbLine
 10
188.4082820207793
 20
128.9542329435932
 30
0.0
 11
188.4082820207793
 21
117.6971830480757
 31
0.0
  0
LINE
  5
272AA
330
2
100
AcDbEntity
  8
0
  6
Continuous
100
AcDbLine
 10
213.60828202078
 20
131.8257079958345
 30
0.0
 11
213.60828202078
 21
123.3257079958345
 31
0.0
  0
LINE
  5
272AB
330
2
100
AcDbEntity
  8
0
  6
Continuous
100
AcDbLine
 10
214.4082820207793
 20
132.8257079958345
 30
0.0
 11
214.4082820207793
 21
123.3257079958345
 31
0.0
  0
LINE
  5
272AC
330
2
100
AcDbEntity
  8
0
  6
Continuous
100
AcDbLine
 10
219.4082820207793
 20
132.8257079958345
 30
0.0
 11
219.4082820207811
 21
123.3257079958345
 31
0.0
  0
LINE
  5
272AD
330
2
100
AcDbEntity
  8
0
  6
Continuous
100
AcDbLine
 10
208.2082820207804
 20
131.8257079958345
 30
0.0
 11
208.2082820207804
 21
123.3257079958345
 31
0.0
  0
LINE
  5
272AE
330
2
100
AcDbEntity
  8
0
  6
Continuous
100
AcDbLine
 10
207.4082820207793
 20
139.0757079958345
 30
0.0
 11
207.4082820207793
 21
123.3257079958345
 31
0.0
  0
LINE
  5
272AF
330
2
100
AcDbEntity
  8
0
  6
Continuous
 62
     7
100
AcDbLine
 10
205.0791258231918
 20
140.3257079958344
 30
0.0
 11
205.0791258231918
 21
123.3257079958345
 31
0.0
  0
LINE
  5
272B0
330
2
100
AcDbEntity
  8
0
  6
Continuous
100
AcDbLine
 10
197.6169317853534
 20
140.3257079958344
 30
0.0
 11
197.6169317853534
 21
123.3257079958345
 31
0.0
  0
LINE
  5
272B1
330
2
100
AcDbEntity
  8
0
  6
Continuous
100
AcDbLine
 10
207.4082820207793
 20
139.0757079958345
 30
0.0
 11
207.4082820207793
 21
123.3257079958345
 31
0.0
  0
LINE
  5
272B2
330
2
100
AcDbEntity
  8
0
  6
Continuous
100
AcDbLine
 10
180.1443074245642
 20
143.2156059443911
 30
0.0
 11
180.1443074245642
 21
123.3257079958345
 31
0.0
  0
LINE
  5
272B3
330
2
100
AcDbEntity
  8
0
  6
Continuous
100
AcDbLine
 10
166.4082820207793
 20
140.3257079958344
 30
0.0
 11
166.4082820207793
 21
123.3257079958345
 31
0.0
  0
LINE
  5
272B4
330
2
100
AcDbEntity
  8
0
  6
Continuous
100
AcDbLine
 10
165.4082820207793
 20
144.8967808367666
 30
0.0
 11
165.4082820207793
 21
123.3257079958345
 31
0.0
  0
LINE
  5
272B5
330
2
100
AcDbEntity
  8
0
  6
Continuous
100
AcDbLine
 10
178.412256616996
 20
140.3257079958344
 30
0.0
 11
178.412256616996
 21
123.3257079958345
 31
0.0
  0
LINE
  5
272B6
330
2
100
AcDbEntity
  8
0
  6
Continuous
 62
     7
100
AcDbLine
 10
248.5082820207815
 20
128.8257079958345
 30
0.0
 11
225.9082820207829
 21
128.8257079958326
 31
0.0
  0
LINE
  5
272B7
330
2
100
AcDbEntity
  8
64-BT50-195
  6
Continuous
 62
     7
100
AcDbLine
 10
289.0082820207806
 20
143.0257079958334
 30
0.0
 11
224.9908882880807
 21
148.0639861490559
 31
0.0
  0
LINE
  5
272B9
330
2
100
AcDbEntity
  8
64-BT50-195
  6
Continuous
 62
     7
100
AcDbLine
 10
289.0082820207697
 20
103.6257079958374
 30
0.0
 11
224.990888288078
 21
98.5874298426321
 31
0.0
  0
LINE
  5
272BB
330
2
100
AcDbEntity
  8
0
  6
CENTER
 62
     3
100
AcDbLine
 10
163.4082820207811
 20
123.3257079958345
 30
0.0
 11
301.0082820207797
 21
123.3257079958499
 31
0.0
  0
LINE
  5
272BC
330
2
100
AcDbEntity
  8
0
  6
Continuous
 62
     7
100
AcDbLine
 10
224.9908882880798
 20
98.58742984263029
 30
0.0
 11
223.4082820207784
 21
96.87537602816304
 31
0.0
  0
LINE
  5
272BD
330
2
100
AcDbEntity
  8
0
  6
Continuous
 62
     7
100
AcDbLine
 10
224.9908882880798
 20
148.0639861490578
 30
0.0
 11
223.4082820207784
 21
149.776039963525
 31
0.0
  0
LINE
  5
272BE
330
2
100
AcDbEntity
  8
0
  6
Continuous
 62
     7
100
AcDbLine
 10
224.9908882880798
 20
98.58742984263029
 30
0.0
 11
224.9908882880798
 21
123.3257079958345
 31
0.0
  0
LINE
  5
272BF
330
2
100
AcDbEntity
  8
64-BT50-195
  6
Continuous
 62
     4
100
AcDbLine
 10
224.6132449822342
 20
98.55770866989189
 30
0.0
 11
223.4082820207784
 21
98.4628760281654
 31
0.0
  0
LINE
  5
272C0
330
2
100
AcDbEntity
  8
64-BT50-195
  6
Continuous
 62
     4
100
AcDbLine
 10
224.6132449822342
 20
148.093707321777
 30
0.0
 11
223.4082820207784
 21
148.1885399635035
 31
0.0
  0
LINE
  5
272C1
330
2
100
AcDbEntity
  8
0
  6
Continuous
 62
     4
100
AcDbLine
 10
223.4082820207802
 20
149.4309162612541
 30
0.0
 11
223.4082820207802
 21
148.1885399635035
 31
0.0
  0
LINE
  5
27347
330
2
100
AcDbEntity
  8
0
  6
Continuous
 62
     3
100
AcDbLine
 10
299.0082820207797
 20
103.164860390725
 30
0.0
 11
299.0082820207797
 21
71.99491918391379
 31
0.0
  0
MTEXT
  5
27348
330
2
100
AcDbEntity
  8
0
  6
Continuous
 62
     2
100
AcDbMText
 10
298.7144680876324
 20
69.51334545953307
 30
0.0
 40
3.0
 41
0.0
 46
0.0
 71
     5
 72
     1
  1
4.00
 73
     1
 44
1.0
  0
DIMENSION
  5
27349
330
2
100
AcDbEntity
  8
0
  6
Continuous
 62
     4
100
AcDbDimension
280
     0
  2
*D5
 10
315.3785597363701
 20
103.6257079958337
 30
0.0
 11
313.2535597363701
 21
123.325707995834
 31
0.0
 70
    32
  1
%%c1.551
 71
     5
 42
39.40000000000053
 73
     0
 74
     0
 75
     0
  3
사본 ISO-25
100
AcDbAlignedDimension
 13
298.6272820207785
 23
143.0257079958343
 33
0.0
 14
298.6332820207797
 24
103.6257079958337
 34
0.0
 50
90.0
100
AcDbRotatedDimension
1001
ACAD
1000
DSTYLE
1002
{
1070
     3
1000
%%c<>
1070
    90
1070
     1
1002
}
  0
DIMENSION
  5
2734A
330
2
100
AcDbEntity
  8
0
  6
Continuous
 62
     7
100
AcDbDimension
280
     0
  2
*D6
 10
242.0625502983846
 20
99.93099878116812
 30
0.0
 11
260.325618881116
 21
112.3639686600331
 31
0.0
 70
    34
 71
     5
 42
0.0785398163392923
 73
     0
 74
     0
 75
     0
  3
STANDARD$2
100
AcDb2LineAngularDimension
 13
164.3460285295284
 23
123.3257079958345
 33
0.0
 14
301.0082820207797
 24
123.3257079958499
 34
0.0
 15
287.2007828405683
 25
103.4834547252691
 35
0.0
 16
258.0817645004968
 26
115.96121212458
 36
0.0
1001
ACAD
1000
DSTYLE
1002
{
1070
    42
1040
0.625
1070
    43
1040
3.75
1070
    44
1040
1.25
1070
    48
1040
0.000000001
1070
    74
1070
     0
1070
    77
1070
     1
1070
    90
1070
     1
1070
   140
1040
3.0
1070
   141
1040
-0.5
1070
   143
1040
0.03937007874016
1070
   146
1040
0.7
1070
   147
1040
0.625
1070
   171
1070
     3
1070
   172
1070
     1
1070
   175
1070
     0
1070
   179
1070
     1
1070
   274
1070
     3
1070
   275
1070
     0
1070
   283
1070
     0
1070
   284
1070
     8
1070
   340
1005
25
1070
   371
1070
    -1
1070
   372
1070
    -1
1002
}
  0
MULTILEADER
  5
2734B
330
2
100
AcDbEntity
  8
0
  6
Continuous
 62
     7
160
               688
310
B0020000180000000C00000016000000020000C30C00000033000000000000000C00000013000000993A00000C00000016000000020000C3D400000026000000F2D5F20A62AC7340E8272121A2945540000000000000000000000000000000000000000000000000000000000000F03F000000000000F03F00000000000000
310
0000000000000000004400530046003100360020005400610070006500720000000B000000010000000000000000000440000000000000F03F0000000000000000000000000000F03F0000000000000000000000000000000000000000000000000000000001000000000000000000000072006F006D0061006E0073002E00
310
73006800780000002E00000078000C00000033000000000000000C00000010000000000000000C00000016000000030000C30C00000012000000000000000C00000013000000010000000C000000140000000100000054000000070000000300000073D3626A0F287240064EA1518DEC604000000000000000002C17D0C5E0
310
1D7240D42888A70E3B61400000000000000000E38B188B3D3472405B5EEA7466F7604000000000000000000C0000001300000089130000540000000600000003000000ABAFBD7A262E724031D645E3F9F1604000000000000000006C18A2D30C877340287D7676F7C9554000000000000000006C74DA8400A47340287D7676
310
F7C9554000000000000000000C00000013000000112700003C00000006000000020000006C74DA8400A47340287D7676F7C9554000000000000000006C74DA8400AC7340287D7676F7C9554000000000000000000C00000016000000030000C30C00000012000000000000000C00000017000000000000000C000000130000
310
009A3A00000C00000016000000070000C30C00000012000000000000000C00000017000000FFFFFFFF0C0000003300000000000000
100
AcDbMLeader
270
     2
300
CONTEXT_DATA{
 40
1.0
 10
314.7501266988172
 20
87.15572892733746
 30
0.0
 41
2.5
140
2.5
145
0.5
174
     2
175
     2
176
     0
177
     1
290
     1
304
DSF16 Taper
 11
0.0
 21
0.0
 31
1.0
340
35
 12
315.2501266988172
 22
88.82239559400444
 32
0.0
 13
1.0
 23
0.0
 33
0.0
 42
0.0
 43
24.31071428571428
 44
0.0
 45
1.0
170
     1
 90
-1023410174
171
     1
172
     5
 91
-939524096
141
1.5
 92
        0
291
     0
292
     0
173
     0
293
     0
142
0.0
143
0.0
294
     0
295
     0
296
     0
110
300.7878673053954
120
122.9193282799075
130
0.0
111
1.0
121
0.0
131
0.0
112
0.0
122
1.0
132
0.0
297
     0
302
LEADER{
290
     1
291
     1
 10
314.2501266988172
 20
87.15572892733746
 30
0.0
 11
1.0
 21
0.0
 31
0.0
 90
        0
 40
0.5
304
LEADER_LINE{
 10
289.8673761490379
 20
137.8455388697972
 30
0.0
 10
312.4406315166332
 20
87.15572892733746
 30
0.0
 91
        0
305
}
271
     0
303
}
272
     9
273
     9
301
}
340
BD9
 90
   314368
170
     1
 91
-1023410173
341
28
171
    -1
290
     1
291
     1
 41
0.5
 42
2.5
172
     2
343
35
173
     2
 95
        2
174
     1
175
     0
 92
-1023410174
292
     0
 93
-1023410174
 10
1.0
 20
1.0
 30
1.0
 43
0.0
176
     1
293
     0
294
     0
178
     0
179
     1
 45
1.0
271
     0
272
     9
273
     9
295
     0
  0
DIMENSION
  5
27376
330
2
100
AcDbEntity
  8
0
  6
Continuous
 62
     4
100
AcDbDimension
280
     0
  2
*D7
 10
236.8744525727396
 20
94.85462650362853
 30
0.0
 11
236.8744525727395
 21
115.1753291784085
 31
0.0
 70
   160
  1
(%%c1.957)
 71
     5
 42
49.72566393533726
 73
     0
 74
     0
 75
     0
  3
사본 ISO-25
100
AcDbAlignedDimension
 13
223.4082820207802
 23
148.1885399635035
 33
0.0
 14
223.4082820207784
 24
98.4628760281663
 34
0.0
 50
90.0
100
AcDbRotatedDimension
1001
ACAD
1000
DSTYLE
1002
{
1070
     3
1000
(%%c<>)
1070
    75
1070
     1
1070
    90
1070
     1
1070
   271
1070
     3
1070
   281
1070
     1
1002
}
  0
ENDSEC
  0
SECTION
  2
OBJECTS
  0
DICTIONARY
  5
B
330
0
100
AcDbDictionary
281
     1
  3
ACAD_CIP_PREVIOUS_PRODUCT_INFO
350
BE4
  3
ACAD_COLOR
350
3F
  3
ACAD_DETAILVIEWSTYLE
350
BDC
  3
ACAD_GROUP
350
3A
  3
ACAD_LAYOUT
350
17
  3
ACAD_MATERIAL
350
D
  3
ACAD_MLEADERSTYLE
350
42
  3
ACAD_MLINESTYLE
350
3B
  3
ACAD_PLOTSETTINGS
350
3C
  3
ACAD_PLOTSTYLENAME
350
A
  3
ACAD_SCALELIST
350
40
  3
ACAD_SECTIONVIEWSTYLE
350
BDA
  3
ACAD_TABLESTYLE
350
41
  3
ACAD_VISUALSTYLE
350
2F
  3
ACDB_RECOMPOSE_DATA
350
27432
  3
AcDbVariableDictionary
350
BB8
  3
AEC_PROPERTY_SET_DEFS
350
24C9
  3
ASE_INDEX_DICTIONARY
350
23A5C
  0
DICTIONARY
  5
31
330
2C
100
AcDbDictionary
280
     1
281
     1
  0
DICTIONARY
  5
22
330
21
100
AcDbDictionary
280
     1
281
     1
  3
ACAD_LAYERSTATES
360
23
  0
DICTIONARY
  5
7
330
6
100
AcDbDictionary
280
     1
281
     1
  3
ADSK_XREC_LAYER_RECONCILED
360
8
  0
DICTIONARY
  5
3
330
2
100
AcDbDictionary
280
     1
281
     1
  3
ACAD_SORTENTS
360
BB0
  0
XRECORD
  5
BE4
102
{ACAD_REACTORS
330
B
102
}
330
B
100
AcDbXrecord
280
     1
300
ACD
300
2014
300
ACD_F_S
  0
DICTIONARY
  5
3F
102
{ACAD_REACTORS
330
B
102
}
330
B
100
AcDbDictionary
281
     1
  0
DICTIONARY
  5
BDC
102
{ACAD_REACTORS
330
B
102
}
330
B
100
AcDbDictionary
281
     1
  3
Metric50
350
BDD
  0
DICTIONARY
  5
3A
102
{ACAD_REACTORS
330
B
102
}
330
B
100
AcDbDictionary
281
     1
  0
DICTIONARY
  5
17
102
{ACAD_REACTORS
330
B
102
}
330
B
100
AcDbDictionary
281
     1
  3
Model
350
16
  3
배치1
350
1E
  0
DICTIONARY
  5
D
102
{ACAD_REACTORS
330
B
102
}
330
B
100
AcDbDictionary
281
     1
  3
ByBlock
350
3E
  3
ByLayer
350
3D
  3
Global
350
C
  0
DICTIONARY
  5
42
102
{ACAD_REACTORS
330
B
102
}
330
B
100
AcDbDictionary
281
     1
  3
Standard
350
BD9
  0
DICTIONARY
  5
3B
102
{ACAD_REACTORS
330
B
102
}
330
B
100
AcDbDictionary
281
     1
  3
Standard
350
43
  0
DICTIONARY
  5
3C
102
{ACAD_REACTORS
330
B
102
}
330
B
100
AcDbDictionary
281
     1
  0
ACDBDICTIONARYWDFLT
  5
A
102
{ACAD_REACTORS
330
B
102
}
330
B
100
AcDbDictionary
281
     1
  3
Normal
350
9
100
AcDbDictionaryWithDefault
340
9
  0
DICTIONARY
  5
40
102
{ACAD_REACTORS
330
B
102
}
330
B
100
AcDbDictionary
281
     1
  3
A0
350
48
  3
A1
350
49
  3
A2
350
4A
  3
A3
350
4B
  3
A4
350
4C
  3
A5
350
4D
  3
A6
350
4E
  3
A7
350
4F
  3
A8
350
50
  3
A9
350
51
  3
B0
350
52
  3
B1
350
53
  3
B2
350
54
  3
B3
350
55
  3
B4
350
56
  3
B5
350
57
  3
B6
350
58
  0
DICTIONARY
  5
BDA
102
{ACAD_REACTORS
330
B
102
}
330
B
100
AcDbDictionary
281
     1
  3
Metric50
350
BDB
  0
DICTIONARY
  5
41
102
{ACAD_REACTORS
330
B
102
}
330
B
100
AcDbDictionary
281
     1
  3
Standard
350
44
  0
DICTIONARY
  5
2F
102
{ACAD_REACTORS
330
B
102
}
330
B
100
AcDbDictionary
281
     1
  3
2dWireframe
350
2E
  3
3D Hidden
350
1A64
  3
3dWireframe
350
47
  3
Basic
350
BC7
  3
Brighten
350
BCC
  3
ColorChange
350
BD0
  3
Conceptual
350
BCA
  3
Dim
350
BCB
  3
EdgeColorOff
350
BD8
  3
Facepattern
350
BCF
  3
Flat
350
BC3
  3
FlatWithEdges
350
BC4
  3
Gouraud
350
BC5
  3
GouraudWithEdges
350
BC6
  3
Hidden
350
BC9
  3
JitterOff
350
BD6
  3
Linepattern
350
BCE
  3
OverhangOff
350
BD7
  3
Realistic
350
46
  3
Shaded
350
BD5
  3
Shaded with edges
350
BD4
  3
Shades of Gray
350
BD1
  3
Sketchy
350
BD2
  3
Thicken
350
BCD
  3
Wireframe
350
BC8
  3
X-Ray
350
BD3
  0
XRECORD
  5
27432
102
{ACAD_REACTORS
330
B
102
}
330
B
100
AcDbXrecord
280
     1
 90
        1
330
44
330
BDB
330
BDD
  0
DICTIONARY
  5
BB8
102
{ACAD_REACTORS
330
B
102
}
330
B
100
AcDbDictionary
281
     1
  3
CANNOSCALE
350
BBE
  3
CMLEADERSTYLE
350
BBA
  3
CTABLESTYLE
350
BB9
  3
CVIEWDETAILSTYLE
350
BBB
  3
CVIEWSECTIONSTYLE
350
BBC
  3
DIMASSOC
350
C3B
  3
HIDETEXT
350
C39
  3
HPCOLOR
350
FF3
  3
INDEXCTL
350
C38
  3
LAYEREVAL
350
BC0
  3
LAYERNOTIFY
350
BC1
  3
LIGHTINGUNITS
350
BBF
  3
MSLTSCALE
350
BBD
  3
SOLIDHIST
350
C3C
  3
SORTENTS
350
C37
  0
DICTIONARY
  5
24C9
102
{ACAD_REACTORS
330
B
102
}
330
B
100
AcDbDictionary
281
     1
  0
DICTIONARY
  5
23A5C
102
{ACAD_REACTORS
330
B
102
}
330
B
100
AcDbDictionary
281
     1
  3
ASEBlockHierarchyIndexRecord
350
23A5D
1001
DCO15
1040
2083736454.057
  0
DICTIONARY
  5
23
102
{ACAD_REACTORS
330
22
102
}
330
22
100
AcDbDictionary
281
     1
  0
XRECORD
  5
8
102
{ACAD_REACTORS
330
7
102
}
330
7
100
AcDbXrecord
280
     1
290
     1
  0
SORTENTSTABLE
  5
BB0
102
{ACAD_REACTORS
330
3
102
}
330
3
100
AcDbSortentsTable
330
2
331
244AD
  5
244B2
331
2455C
  5
24561
331
244A9
  5
244AE
331
24558
  5
2455D
331
24554
  5
24559
331
244A5
  5
244AA
331
24550
  5
24555
331
244A1
  5
244A6
331
2454C
  5
24551
331
2449D
  5
244A2
331
24548
  5
2454D
331
24499
  5
2449E
331
24575
  5
24A09
331
24571
  5
24953
331
2456D
  5
24572
331
244C8
  5
2453B
331
24569
  5
2456E
331
244C4
  5
244DD
331
244C0
  5
244C5
331
244BC
  5
244C1
331
24567
  5
2456C
331
244B8
  5
244BD
331
24563
  5
24568
331
244B4
  5
244B9
331
244B0
  5
244B5
331
2455F
  5
24564
331
2455B
  5
24560
331
244AC
  5
244B1
331
24557
  5
2455C
331
244A8
  5
244AD
331
24553
  5
24558
331
244A4
  5
244A9
331
244A0
  5
244A5
331
2454F
  5
24554
331
2454B
  5
24550
331
2449C
  5
244A1
331
24547
  5
2454C
331
24498
  5
2449D
331
24574
  5
24956
331
24570
  5
24575
331
2456C
  5
24571
331
244C7
  5
2453A
331
24568
  5
2456D
331
244C3
  5
244C8
331
244BF
  5
244C4
331
244BB
  5
244C0
331
24566
  5
2456B
331
244B7
  5
244BC
331
24562
  5
24567
331
244B3
  5
244B8
331
2455E
  5
24563
331
244AF
  5
244B4
331
2455A
  5
2455F
331
244AB
  5
244B0
331
24556
  5
2455B
331
244A7
  5
244AC
331
24552
  5
24557
331
244A3
  5
244A8
331
2454E
  5
24553
331
2449F
  5
244A4
331
2454A
  5
2454F
331
2449B
  5
244A0
331
24573
  5
24955
331
2456F
  5
24574
331
2456B
  5
24570
331
244C6
  5
24539
331
244C2
  5
244C7
331
244BE
  5
244C3
331
244BA
  5
244BF
331
244B6
  5
244BB
331
24565
  5
2456A
331
244B2
  5
244B7
331
24561
  5
24566
331
244AE
  5
244B3
331
2455D
  5
24562
331
244AA
  5
244AF
331
24559
  5
2455E
331
24555
  5
2455A
331
244A6
  5
244AB
331
24551
  5
24556
331
244A2
  5
244A7
331
2454D
  5
24552
331
2449E
  5
244A3
331
24549
  5
2454E
331
2449A
  5
2449F
331
24572
  5
24954
331
2456E
  5
24573
331
2456A
  5
2456F
331
244C5
  5
24538
331
244C1
  5
244C6
331
244BD
  5
244C2
331
244B9
  5
244BE
331
244B5
  5
244BA
331
24564
  5
24569
331
244B1
  5
244B6
331
24560
  5
24565
  0
ACDBDETAILVIEWSTYLE
  5
BDD
102
{ACAD_XDICTIONARY
360
27430
102
}
102
{ACAD_REACTORS
330
BDC
102
}
330
BDC
100
AcDbModelDocViewStyle
 70
     0
  3
Metric50
290
     0
100
AcDbDetailViewStyle
 70
     0
 71
     0
 90
        3
 71
     1
340
25
 62
   256
 40
5.0
340
0
 62
   256
 40
5.0
300

 40
0.0
280
     1
 71
     2
340
14
 90
       25
 62
   256
 71
     3
340
25
 62
   256
 40
5.0
 90
        0
 40
15.0
 90
        1
300
%<\AcVar ViewDetailId>% (%<\AcVar ViewScale \f "%sn">%)
 71
     4
340
14
 90
       25
 62
   256
340
14
 90
       25
 62
   256
280
     0
  0
LAYOUT
  5
16
102
{ACAD_XDICTIONARY
360
18
102
}
102
{ACAD_REACTORS
330
17
102
}
330
17
100
AcDbPlotSettings
  1

  2
Samsung M267x 287x Series
  4
A4
  6

 40
5.027082920074462
 41
5.027099609375
 42
5.027069091796875
 43
5.027069091796875
 44
209.9733276367187
 45
296.9259948730469
 46
0.0
 47
0.3443247085572807
 48
5290.957610138349
 49
-1180.058350911508
140
5701.957610138348
141
-892.9458025305684
142
1.0
143
1.436143118755716
 70
 11956
 72
     1
 73
     1
 74
     4
  7
ksm0910.ctb
 75
     0
147
0.6963094324933345
 76
     0
 77
     2
 78
   300
148
-5290.957610138349
149
1180.058350911508
100
AcDbLayout
  1
Model
 70
     1
 71
     0
 10
0.0
 20
0.0
 11
12.0
 21
9.0
 12
0.0
 22
0.0
 32
0.0
 14
0.0
 24
0.0
 34
0.0
 15
0.0
 25
0.0
 35
0.0
146
0.0
 13
0.0
 23
0.0
 33
0.0
 16
1.0
 26
0.0
 36
0.0
 17
0.0
 27
1.0
 37
0.0
 76
     0
330
2
331
2D
1001
ACAD_PSEXT
1000
Samsung M267x 287x Series
1000
Samsung M267x 287x Series
1000
USB001
1000

1070
     0
  0
LAYOUT
  5
1E
102
{ACAD_XDICTIONARY
360
1F
102
}
102
{ACAD_REACTORS
330
17
102
}
330
17
100
AcDbPlotSettings
  1

  2
none_device
  4
ISO_A4_(210.00_x_297.00_MM)
  6

 40
7.5
 41
20.0
 42
7.5
 43
20.0
 44
210.0
 45
297.0
 46
0.0
 47
0.0
 48
0.0
 49
0.0
140
0.0
141
0.0
142
1.0
143
1.0
 70
   688
 72
     1
 73
     1
 74
     5
  7
ksm0910.ctb
 75
    16
147
1.0
 76
     0
 77
     2
 78
   300
148
0.0
149
0.0
100
AcDbLayout
  1
배치1
 70
     1
 71
     1
 10
-20.0
 20
-7.5
 11
277.0
 21
202.5
 12
0.0
 22
0.0
 32
0.0
 14
1.000000000000000E+20
 24
1.000000000000000E+20
 34
1.000000000000000E+20
 15
-1.000000000000000E+20
 25
-1.000000000000000E+20
 35
-1.000000000000000E+20
146
0.0
 13
0.0
 23
0.0
 33
0.0
 16
1.0
 26
0.0
 36
0.0
 17
0.0
 27
1.0
 37
0.0
 76
     0
330
1B
1001
ACAD_PSEXT
1000
없음
1000
없음
1000
해당 없음
1000
배치가 새로운 플로터 구성을 선택할 때까지 플롯되지 않습니다.
1070
     0
  0
MATERIAL
  5
3E
102
{ACAD_REACTORS
330
D
102
}
330
D
100
AcDbMaterial
  1
ByBlock
 94
       63
  0
MATERIAL
  5
3D
102
{ACAD_REACTORS
330
D
102
}
330
D
100
AcDbMaterial
  1
ByLayer
 94
       63
  0
MATERIAL
  5
C
102
{ACAD_XDICTIONARY
360
E
102
}
102
{ACAD_REACTORS
330
D
102
}
330
D
100
AcDbMaterial
  1
Global
 43
0.0007999999797903
 43
0.0
 43
0.0
 43
0.0
 43
0.0
 43
0.0007999999797903
 43
0.0
 43
0.0
 43
0.0
 43
0.0
 43
1.0
 43
0.0
 43
0.0
 43
0.0
 43
0.0
 43
1.0
 49
0.0007999999797903
 49
0.0
 49
0.0
 49
0.0
 49
0.0
 49
0.0007999999797903
 49
0.0
 49
0.0
 49
0.0
 49
0.0
 49
1.0
 49
0.0
 49
0.0
 49
0.0
 49
0.0
 49
1.0
142
0.0007999999797903
142
0.0
142
0.0
142
0.0
142
0.0
142
0.0007999999797903
142
0.0
142
0.0
142
0.0
142
0.0
142
1.0
142
0.0
142
0.0
142
0.0
142
0.0
142
1.0
144
0.0007999999797903
144
0.0
144
0.0
144
0.0
144
0.0
144
0.0007999999797903
144
0.0
144
0.0
144
0.0
144
0.0
144
1.0
144
0.0
144
0.0
144
0.0
144
0.0
144
1.0
 94
       63
1001
ACAD
1070
    -1
1070
     3
1070
     0
1000

1071
        0
1070
     0
  0
MLEADERSTYLE
  5
BD9
102
{ACAD_REACTORS
330
42
330
26938
330
269CD
330
2734B
102
}
330
42
100
AcDbMLeaderStyle
179
     2
170
     2
171
     1
172
     0
 90
        2
 40
0.0
 41
0.0
173
     1
 91
-1056964608
340
28
 92
       -2
290
     1
 42
2.0
291
     1
 43
0.36
  3
Standard
 44
4.0
300

342
25
174
     1
178
     6
175
     1
176
     0
 93
-1056964608
 45
4.0
292
     0
297
     0
 46
4.0
 94
-1056964608
 47
1.0
 49
1.0
140
1.0
293
     1
141
0.0
294
     1
177
     0
142
1.0
295
     0
296
     0
143
0.125
271
     0
272
     9
273
     9
298
     1
  0
MLINESTYLE
  5
43
102
{ACAD_REACTORS
330
3B
102
}
330
3B
100
AcDbMlineStyle
  2
STANDARD
 70
     0
  3

 62
   256
 51
90.0
 52
90.0
 71
     2
 49
0.5
 62
   256
  6
BYLAYER
 49
-0.5
 62
   256
  6
BYLAYER
  0
ACDBPLACEHOLDER
  5
9
102
{ACAD_REACTORS
330
A
102
}
330
A
  0
SCALE
  5
48
102
{ACAD_REACTORS
330
40
102
}
330
40
100
AcDbScale
 70
     0
300
1:1
140
1.0
141
1.0
290
     1
  0
SCALE
  5
49
102
{ACAD_REACTORS
330
40
102
}
330
40
100
AcDbScale
 70
     0
300
1:2
140
1.0
141
2.0
290
     0
  0
SCALE
  5
4A
102
{ACAD_REACTORS
330
40
102
}
330
40
100
AcDbScale
 70
     0
300
1:4
140
1.0
141
4.0
290
     0
  0
SCALE
  5
4B
102
{ACAD_REACTORS
330
40
102
}
330
40
100
AcDbScale
 70
     0
300
1:5
140
1.0
141
5.0
290
     0
  0
SCALE
  5
4C
102
{ACAD_REACTORS
330
40
102
}
330
40
100
AcDbScale
 70
     0
300
1:8
140
1.0
141
8.0
290
     0
  0
SCALE
  5
4D
102
{ACAD_REACTORS
330
40
102
}
330
40
100
AcDbScale
 70
     0
300
1:10
140
1.0
141
10.0
290
     0
  0
SCALE
  5
4E
102
{ACAD_REACTORS
330
40
102
}
330
40
100
AcDbScale
 70
     0
300
1:16
140
1.0
141
16.0
290
     0
  0
SCALE
  5
4F
102
{ACAD_REACTORS
330
40
102
}
330
40
100
AcDbScale
 70
     0
300
1:20
140
1.0
141
20.0
290
     0
  0
SCALE
  5
50
102
{ACAD_REACTORS
330
40
102
}
330
40
100
AcDbScale
 70
     0
300
1:30
140
1.0
141
30.0
290
     0
  0
SCALE
  5
51
102
{ACAD_REACTORS
330
40
102
}
330
40
100
AcDbScale
 70
     0
300
1:40
140
1.0
141
40.0
290
     0
  0
SCALE
  5
52
102
{ACAD_REACTORS
330
40
102
}
330
40
100
AcDbScale
 70
     0
300
1:50
140
1.0
141
50.0
290
     0
  0
SCALE
  5
53
102
{ACAD_REACTORS
330
40
102
}
330
40
100
AcDbScale
 70
     0
300
1:100
140
1.0
141
100.0
290
     0
  0
SCALE
  5
54
102
{ACAD_REACTORS
330
40
102
}
330
40
100
AcDbScale
 70
     0
300
2:1
140
2.0
141
1.0
290
     0
  0
SCALE
  5
55
102
{ACAD_REACTORS
330
40
102
}
330
40
100
AcDbScale
 70
     0
300
4:1
140
4.0
141
1.0
290
     0
  0
SCALE
  5
56
102
{ACAD_REACTORS
330
40
102
}
330
40
100
AcDbScale
 70
     0
300
8:1
140
8.0
141
1.0
290
     0
  0
SCALE
  5
57
102
{ACAD_REACTORS
330
40
102
}
330
40
100
AcDbScale
 70
     0
300
10:1
140
10.0
141
1.0
290
     0
  0
SCALE
  5
58
102
{ACAD_REACTORS
330
40
102
}
330
40
100
AcDbScale
 70
     0
300
100:1
140
100.0
141
1.0
290
     0
  0
ACDBSECTIONVIEWSTYLE
  5
BDB
102
{ACAD_XDICTIONARY
360
2742E
102
}
102
{ACAD_REACTORS
330
BDA
102
}
330
BDA
100
AcDbModelDocViewStyle
 70
     0
  3
Metric50
290
     0
100
AcDbSectionViewStyle
 70
     0
 71
     0
 90
      102
 71
     1
340
25
 62
   256
 40
5.0
340
0
340
0
 62
   256
 40
5.0
300
I, O, Q, S, X, Z
 40
10.0
 90
        0
 40
2.5
 90
        0
 71
     2
340
14
 90
       25
 62
   256
340
14
 90
       50
 62
   256
 40
5.0
 40
2.5
 40
5.0
 71
     3
340
25
 62
   256
 40
5.0
 90
        0
 40
15.0
 90
        1
300
%<\AcVar ViewSectionStartId>%-%<\AcVar ViewSectionEndId>% (%<\AcVar ViewScale \f "%sn">%)
 71
     4
 62
   256
 62
   257
300
ANSI31
 40
1.0
 90
        0
290
     0
290
     0
 90
        6
 40
0.0
 40
1.570796326794896
 40
0.2617993877991494
 40
1.308996938995747
 40
-0.2617993877991494
 40
1.832595714594046
  0
TABLESTYLE
  5
44
102
{ACAD_XDICTIONARY
360
45
102
}
102
{ACAD_REACTORS
330
41
102
}
330
41
100
AcDbTableStyle
280
     0
  3
Standard
 70
     0
 71
     0
 40
1.5
 41
1.5
280
     0
281
     0
  7
Standard
140
4.5
170
     2
 62
     0
 63
     7
283
     0
 90
      512
 91
        0
  1

274
    -2
284
     1
 64
     0
275
    -2
285
     1
 65
     0
276
    -2
286
     1
 66
     0
277
    -2
287
     1
 67
     0
278
    -2
288
     1
 68
     0
279
    -2
289
     1
 69
     0
  7
Standard
140
6.0
170
     5
 62
     0
 63
     7
283
     0
 90
      512
 91
        0
  1

274
    -2
284
     1
 64
     0
275
    -2
285
     1
 65
     0
276
    -2
286
     1
 66
     0
277
    -2
287
     1
 67
     0
278
    -2
288
     1
 68
     0
279
    -2
289
     1
 69
     0
  7
Standard
140
4.5
170
     5
 62
     0
 63
     7
283
     0
 90
      512
 91
        0
  1

274
    -2
284
     1
 64
     0
275
    -2
285
     1
 65
     0
276
    -2
286
     1
 66
     0
277
    -2
287
     1
 67
     0
278
    -2
288
     1
 68
     0
279
    -2
289
     1
 69
     0
  0
VISUALSTYLE
  5
2E
102
{ACAD_REACTORS
330
2F
102
}
330
2F
100
AcDbVisualStyle
  2
2dWireframe
 70
     4
177
     3
291
     0
 70
    58
 90
        0
176
     1
 90
        2
176
     1
 90
        1
176
     1
 90
        0
176
     1
 40
0.6
176
     1
 40
30.0
176
     1
 62
     7
176
     1
 90
        1
176
     1
 90
        4
176
     1
 62
     7
176
     1
 62
   257
176
     1
 90
        1
176
     1
 90
        1
176
     1
 40
1.0
176
     1
 90
        0
176
     1
 62
   257
176
     1
 40
1.0
176
     1
 90
        1
176
     1
 90
        6
176
     1
 90
        2
176
     1
 62
     7
176
     1
 90
        5
176
     1
 90
        0
176
     1
 90
        0
176
     1
290
     0
176
     1
 90
        1
176
     1
 40
0.0
176
     1
 90
        0
176
     1
290
     1
176
     1
290
     1
176
     1
290
     0
176
     1
290
     0
176
     1
290
     0
176
     1
290
     0
176
     1
290
     0
176
     1
290
     0
176
     1
290
     0
176
     1
 90
       50
176
     1
 40
0.0
176
     1
 40
1.0
176
     1
 90
        0
176
     1
 62
    18
420
        0
176
     1
 90
       50
176
     1
 90
        3
176
     1
 62
     5
420
      255
176
     1
290
     0
176
     1
 90
       50
176
     1
 90
       50
176
     1
 90
       50
176
     1
290
     0
176
     1
 90
       50
176
     1
 62
   256
176
     0
 40
1.0
176
     0
 90
        2
176
     1
  1
strokes_ogs.tif
176
     1
290
     0
176
     1
 40
1.0
176
     1
 40
1.0
176
     1
  0
VISUALSTYLE
  5
1A64
102
{ACAD_REACTORS
330
2F
102
}
330
2F
100
AcDbVisualStyle
  2
3D Hidden
 70
     6
177
     3
291
     0
 70
    58
 90
        1
176
     1
 90
        2
176
     1
 90
        2
176
     1
 90
        0
176
     1
 40
0.6
176
     1
 40
30.0
176
     1
 62
     7
176
     1
 90
        2
176
     1
 90
        2
176
     1
 62
     7
176
     1
 62
   257
176
     1
 90
        2
176
     1
 90
        1
176
     1
 40
40.0
176
     1
 90
        0
176
     1
 62
   257
176
     1
 40
1.0
176
     1
 90
        1
176
     1
 90
        6
176
     1
 90
        2
176
     1
 62
     7
176
     1
 90
        3
176
     1
 90
        0
176
     1
 90
        0
176
     1
290
     0
176
     1
 90
        1
176
     1
 40
0.0
176
     1
 90
        0
176
     1
290
     0
176
     1
290
     1
176
     1
290
     1
176
     1
290
     0
176
     1
290
     0
176
     1
290
     0
176
     1
290
     0
176
     1
290
     0
176
     1
290
     0
176
     1
 90
       50
176
     1
 40
0.0
176
     1
 40
1.0
176
     1
 90
        0
176
     1
 62
    18
420
        0
176
     1
 90
       50
176
     1
 90
        3
176
     1
 62
     5
420
      255
176
     1
290
     0
176
     1
 90
       50
176
     1
 90
       50
176
     1
 90
       50
176
     1
290
     0
176
     1
 90
       50
176
     1
 62
   256
176
     0
 40
1.0
176
     0
 90
        2
176
     1
  1
strokes_ogs.tif
176
     1
290
     0
176
     1
 40
1.0
176
     1
 40
1.0
176
     1
  0
VISUALSTYLE
  5
47
102
{ACAD_REACTORS
330
2F
102
}
330
2F
100
AcDbVisualStyle
  2
3dWireframe
 70
     5
177
     3
291
     0
 70
    58
 90
        0
176
     1
 90
        2
176
     1
 90
        1
176
     1
 90
        0
176
     1
 40
0.6
176
     1
 40
30.0
176
     1
 62
     7
176
     1
 90
        1
176
     1
 90
        4
176
     1
 62
     7
176
     1
 62
   257
176
     1
 90
        1
176
     1
 90
        1
176
     1
 40
1.0
176
     1
 90
        0
176
     1
 62
   257
176
     1
 40
1.0
176
     1
 90
        1
176
     1
 90
        6
176
     1
 90
        2
176
     1
 62
     7
176
     1
 90
        5
176
     1
 90
        0
176
     1
 90
        0
176
     1
290
     0
176
     1
 90
        1
176
     1
 40
0.0
176
     1
 90
        0
176
     1
290
     0
176
     1
290
     1
176
     1
290
     1
176
     1
290
     0
176
     1
290
     0
176
     1
290
     0
176
     1
290
     0
176
     1
290
     0
176
     1
290
     0
176
     1
 90
       50
176
     1
 40
0.0
176
     1
 40
1.0
176
     1
 90
        0
176
     1
 62
    18
420
        0
176
     1
 90
       50
176
     1
 90
        3
176
     1
 62
     5
420
      255
176
     1
290
     0
176
     1
 90
       50
176
     1
 90
       50
176
     1
 90
       50
176
     1
290
     0
176
     1
 90
       50
176
     1
 62
   256
176
     0
 40
1.0
176
     0
 90
        2
176
     1
  1
strokes_ogs.tif
176
     1
290
     0
176
     1
 40
1.0
176
     1
 40
1.0
176
     1
  0
VISUALSTYLE
  5
BC7
102
{ACAD_REACTORS
330
2F
102
}
330
2F
100
AcDbVisualStyle
  2
Basic
 70
     7
177
     3
291
     1
 70
    58
 90
        1
176
     1
 90
        0
176
     1
 90
        1
176
     1
 90
        0
176
     1
 40
0.6
176
     1
 40
30.0
176
     1
 62
     7
176
     1
 90
        0
176
     1
 90
        4
176
     1
 62
     7
176
     1
 62
   257
176
     1
 90
        1
176
     1
 90
        1
176
     1
 40
1.0
176
     1
 90
        8
176
     1
 62
     7
176
     1
 40
1.0
176
     1
 90
        1
176
     1
 90
        6
176
     1
 90
        2
176
     1
 62
     7
176
     1
 90
        5
176
     1
 90
        0
176
     1
 90
        0
176
     1
290
     0
176
     1
 90
        1
176
     1
 40
0.0
176
     1
 90
        0
176
     1
290
     0
176
     1
290
     1
176
     1
290
     1
176
     1
290
     0
176
     1
290
     0
176
     1
290
     0
176
     1
290
     0
176
     1
290
     0
176
     1
290
     0
176
     1
 90
       50
176
     1
 40
0.0
176
     1
 40
1.0
176
     1
 90
        0
176
     1
 62
    18
420
        0
176
     1
 90
       50
176
     1
 90
        3
176
     1
 62
     5
420
      255
176
     1
290
     0
176
     1
 90
       50
176
     1
 90
       50
176
     1
 90
       50
176
     1
290
     0
176
     1
 90
       50
176
     1
 62
   256
176
     0
 40
1.0
176
     0
 90
        2
176
     1
  1
strokes_ogs.tif
176
     1
290
     0
176
     1
 40
1.0
176
     1
 40
1.0
176
     1
  0
VISUALSTYLE
  5
BCC
102
{ACAD_REACTORS
330
2F
102
}
330
2F
100
AcDbVisualStyle
  2
Brighten
 70
    12
177
     3
291
     1
 70
    58
 90
        2
176
     1
 90
        2
176
     1
 90
        0
176
     1
 90
        0
176
     1
 40
0.6
176
     1
 40
30.0
176
     1
 62
     7
176
     1
 90
        1
176
     1
 90
        4
176
     1
 62
     7
176
     1
 62
   257
176
     1
 90
        1
176
     1
 90
        1
176
     1
 40
1.0
176
     1
 90
        8
176
     1
 62
     7
176
     1
 40
1.0
176
     1
 90
        1
176
     1
 90
        6
176
     1
 90
        2
176
     1
 62
     7
176
     1
 90
        5
176
     1
 90
        0
176
     1
 90
        0
176
     1
290
     0
176
     1
 90
        1
176
     1
 40
50.0
176
     1
 90
        0
176
     1
290
     0
176
     1
290
     1
176
     1
290
     1
176
     1
290
     0
176
     1
290
     0
176
     1
290
     0
176
     1
290
     0
176
     1
290
     0
176
     1
290
     0
176
     1
 90
       50
176
     1
 40
0.0
176
     1
 40
1.0
176
     1
 90
        0
176
     1
 62
    18
420
        0
176
     1
 90
       50
176
     1
 90
        3
176
     1
 62
     5
420
      255
176
     1
290
     0
176
     1
 90
       50
176
     1
 90
       50
176
     1
 90
       50
176
     1
290
     0
176
     1
 90
       50
176
     1
 62
   256
176
     0
 40
1.0
176
     0
 90
        2
176
     1
  1
strokes_ogs.tif
176
     1
290
     0
176
     1
 40
1.0
176
     1
 40
1.0
176
     1
  0
VISUALSTYLE
  5
BD0
102
{ACAD_REACTORS
330
2F
102
}
330
2F
100
AcDbVisualStyle
  2
ColorChange
 70
    16
177
     3
291
     1
 70
    58
 90
        2
176
     1
 90
        2
176
     1
 90
        3
176
     1
 90
        0
176
     1
 40
0.6
176
     1
 40
30.0
176
     1
 62
     8
176
     1
 90
        1
176
     1
 90
        4
176
     1
 62
     7
176
     1
 62
   257
176
     1
 90
        1
176
     1
 90
        1
176
     1
 40
1.0
176
     1
 90
        8
176
     1
 62
     8
176
     1
 40
1.0
176
     1
 90
        1
176
     1
 90
        6
176
     1
 90
        2
176
     1
 62
     7
176
     1
 90
        5
176
     1
 90
        0
176
     1
 90
        0
176
     1
290
     0
176
     1
 90
        1
176
     1
 40
0.0
176
     1
 90
        0
176
     1
290
     0
176
     1
290
     1
176
     1
290
     1
176
     1
290
     0
176
     1
290
     0
176
     1
290
     0
176
     1
290
     0
176
     1
290
     0
176
     1
290
     0
176
     1
 90
       50
176
     1
 40
0.0
176
     1
 40
1.0
176
     1
 90
        0
176
     1
 62
    18
420
        0
176
     1
 90
       50
176
     1
 90
        3
176
     1
 62
     5
420
      255
176
     1
290
     0
176
     1
 90
       50
176
     1
 90
       50
176
     1
 90
       50
176
     1
290
     0
176
     1
 90
       50
176
     1
 62
   256
176
     0
 40
1.0
176
     0
 90
        2
176
     1
  1
strokes_ogs.tif
176
     1
290
     0
176
     1
 40
1.0
176
     1
 40
1.0
176
     1
  0
VISUALSTYLE
  5
BCA
102
{ACAD_REACTORS
330
2F
102
}
330
2F
100
AcDbVisualStyle
  2
Conceptual
 70
     9
177
     3
291
     0
 70
    58
 90
        3
176
     1
 90
        2
176
     1
 90
        0
176
     1
 90
        0
176
     1
 40
0.6
176
     1
 40
30.0
176
     1
 62
     7
176
     1
 90
        2
176
     1
 90
        2
176
     1
 62
     7
176
     1
 62
   257
176
     1
 90
        1
176
     1
 90
        1
176
     1
 40
179.0
176
     1
 90
        8
176
     1
 62
     7
176
     1
 40
1.0
176
     1
 90
        1
176
     1
 90
        6
176
     1
 90
        2
176
     1
 62
     7
176
     1
 90
        3
176
     1
 90
        0
176
     1
 90
        0
176
     1
290
     0
176
     1
 90
        1
176
     1
 40
0.0
176
     1
 90
        0
176
     1
290
     0
176
     1
290
     1
176
     1
290
     1
176
     1
290
     0
176
     1
290
     0
176
     1
290
     0
176
     1
290
     0
176
     1
290
     0
176
     1
290
     0
176
     1
 90
       50
176
     1
 40
0.0
176
     1
 40
1.0
176
     1
 90
        0
176
     1
 62
    18
420
        0
176
     1
 90
       50
176
     1
 90
        3
176
     1
 62
     5
420
      255
176
     1
290
     0
176
     1
 90
       50
176
     1
 90
       50
176
     1
 90
       50
176
     1
290
     0
176
     1
 90
       50
176
     1
 62
   256
176
     0
 40
1.0
176
     0
 90
        2
176
     1
  1
strokes_ogs.tif
176
     1
290
     0
176
     1
 40
1.0
176
     1
 40
1.0
176
     1
  0
VISUALSTYLE
  5
BCB
102
{ACAD_REACTORS
330
2F
102
}
330
2F
100
AcDbVisualStyle
  2
Dim
 70
    11
177
     3
291
     1
 70
    58
 90
        2
176
     1
 90
        2
176
     1
 90
        0
176
     1
 90
        0
176
     1
 40
0.6
176
     1
 40
30.0
176
     1
 62
     7
176
     1
 90
        1
176
     1
 90
        4
176
     1
 62
     7
176
     1
 62
   257
176
     1
 90
        1
176
     1
 90
        1
176
     1
 40
1.0
176
     1
 90
        8
176
     1
 62
     7
176
     1
 40
1.0
176
     1
 90
        1
176
     1
 90
        6
176
     1
 90
        2
176
     1
 62
     7
176
     1
 90
        5
176
     1
 90
        0
176
     1
 90
        0
176
     1
290
     0
176
     1
 90
        1
176
     1
 40
-50.0
176
     1
 90
        0
176
     1
290
     0
176
     1
290
     1
176
     1
290
     1
176
     1
290
     0
176
     1
290
     0
176
     1
290
     0
176
     1
290
     0
176
     1
290
     0
176
     1
290
     0
176
     1
 90
       50
176
     1
 40
0.0
176
     1
 40
1.0
176
     1
 90
        0
176
     1
 62
    18
420
        0
176
     1
 90
       50
176
     1
 90
        3
176
     1
 62
     5
420
      255
176
     1
290
     0
176
     1
 90
       50
176
     1
 90
       50
176
     1
 90
       50
176
     1
290
     0
176
     1
 90
       50
176
     1
 62
   256
176
     0
 40
1.0
176
     0
 90
        2
176
     1
  1
strokes_ogs.tif
176
     1
290
     0
176
     1
 40
1.0
176
     1
 40
1.0
176
     1
  0
VISUALSTYLE
  5
BD8
102
{ACAD_REACTORS
330
2F
102
}
330
2F
100
AcDbVisualStyle
  2
EdgeColorOff
 70
    22
177
     3
291
     1
 70
    58
 90
        2
176
     0
 90
        2
176
     0
 90
        0
176
     0
 90
        0
176
     0
 40
0.6
176
     0
 40
30.0
176
     0
 62
     7
176
     0
 90
        1
176
     0
 90
        4
176
     0
 62
     7
176
     0
 62
   257
176
     0
 90
        1
176
     0
 90
        1
176
     0
 40
1.0
176
     0
 90
        8
176
     2
 62
     7
176
     0
 40
1.0
176
     0
 90
        1
176
     0
 90
        6
176
     0
 90
        2
176
     0
 62
     7
176
     0
 90
        5
176
     0
 90
        0
176
     0
 90
        0
176
     0
290
     0
176
     0
 90
        1
176
     0
 40
0.0
176
     0
 90
        0
176
     0
290
     0
176
     0
290
     1
176
     0
290
     1
176
     0
290
     0
176
     0
290
     0
176
     0
290
     0
176
     0
290
     0
176
     0
290
     0
176
     0
290
     0
176
     0
 90
       50
176
     0
 40
0.0
176
     0
 40
1.0
176
     0
 90
        0
176
     0
 62
    18
420
        0
176
     0
 90
       50
176
     0
 90
        3
176
     0
 62
     5
420
      255
176
     0
290
     0
176
     0
 90
       50
176
     0
 90
       50
176
     0
 90
       50
176
     0
290
     0
176
     0
 90
       50
176
     0
 62
   256
176
     0
 40
1.0
176
     0
 90
        2
176
     0
  1
strokes_ogs.tif
176
     0
290
     0
176
     0
 40
1.0
176
     0
 40
1.0
176
     0
  0
VISUALSTYLE
  5
BCF
102
{ACAD_REACTORS
330
2F
102
}
330
2F
100
AcDbVisualStyle
  2
Facepattern
 70
    15
177
     3
291
     1
 70
    58
 90
        2
176
     1
 90
        2
176
     1
 90
        0
176
     1
 90
        0
176
     1
 40
0.6
176
     1
 40
30.0
176
     1
 62
     7
176
     1
 90
        1
176
     1
 90
        4
176
     1
 62
     7
176
     1
 62
   257
176
     1
 90
        1
176
     1
 90
        1
176
     1
 40
1.0
176
     1
 90
        8
176
     1
 62
     7
176
     1
 40
1.0
176
     1
 90
        1
176
     1
 90
        6
176
     1
 90
        2
176
     1
 62
     7
176
     1
 90
        5
176
     1
 90
        0
176
     1
 90
        0
176
     1
290
     0
176
     1
 90
        1
176
     1
 40
0.0
176
     1
 90
        0
176
     1
290
     0
176
     1
290
     1
176
     1
290
     1
176
     1
290
     0
176
     1
290
     0
176
     1
290
     0
176
     1
290
     0
176
     1
290
     0
176
     1
290
     0
176
     1
 90
       50
176
     1
 40
0.0
176
     1
 40
1.0
176
     1
 90
        0
176
     1
 62
    18
420
        0
176
     1
 90
       50
176
     1
 90
        3
176
     1
 62
     5
420
      255
176
     1
290
     0
176
     1
 90
       50
176
     1
 90
       50
176
     1
 90
       50
176
     1
290
     0
176
     1
 90
       50
176
     1
 62
   256
176
     0
 40
1.0
176
     0
 90
        2
176
     1
  1
strokes_ogs.tif
176
     1
290
     0
176
     1
 40
1.0
176
     1
 40
1.0
176
     1
  0
VISUALSTYLE
  5
BC3
102
{ACAD_REACTORS
330
2F
102
}
330
2F
100
AcDbVisualStyle
  2
Flat
 70
     0
177
     3
291
     1
 70
    58
 90
        2
176
     1
 90
        1
176
     1
 90
        1
176
     1
 90
        2
176
     1
 40
0.6
176
     1
 40
30.0
176
     1
 62
     7
176
     1
 90
        0
176
     1
 90
        0
176
     1
 62
     7
176
     1
 62
   257
176
     1
 90
        1
176
     1
 90
        1
176
     1
 40
1.0
176
     1
 90
        8
176
     1
 62
     7
176
     1
 40
1.0
176
     1
 90
        1
176
     1
 90
        6
176
     1
 90
        2
176
     1
 62
     7
176
     1
 90
        5
176
     1
 90
        0
176
     1
 90
        0
176
     1
290
     0
176
     1
 90
       13
176
     1
 40
0.0
176
     1
 90
        0
176
     1
290
     0
176
     1
290
     1
176
     1
290
     1
176
     1
290
     0
176
     1
290
     0
176
     1
290
     0
176
     1
290
     0
176
     1
290
     0
176
     1
290
     0
176
     1
 90
       50
176
     1
 40
0.0
176
     1
 40
1.0
176
     1
 90
        0
176
     1
 62
    18
420
        0
176
     1
 90
       50
176
     1
 90
        3
176
     1
 62
     5
420
      255
176
     1
290
     0
176
     1
 90
       50
176
     1
 90
       50
176
     1
 90
       50
176
     1
290
     0
176
     1
 90
       50
176
     1
 62
   256
176
     0
 40
1.0
176
     0
 90
        2
176
     1
  1
strokes_ogs.tif
176
     1
290
     0
176
     1
 40
1.0
176
     1
 40
1.0
176
     1
  0
VISUALSTYLE
  5
BC4
102
{ACAD_REACTORS
330
2F
102
}
330
2F
100
AcDbVisualStyle
  2
FlatWithEdges
 70
     1
177
     3
291
     1
 70
    58
 90
        2
176
     1
 90
        1
176
     1
 90
        1
176
     1
 90
        2
176
     1
 40
0.6
176
     1
 40
30.0
176
     1
 62
     7
176
     1
 90
        1
176
     1
 90
        0
176
     1
 62
     7
176
     1
 62
   257
176
     1
 90
        1
176
     1
 90
        1
176
     1
 40
1.0
176
     1
 90
        0
176
     1
 62
   257
176
     1
 40
1.0
176
     1
 90
        1
176
     1
 90
        6
176
     1
 90
        2
176
     1
 62
     7
176
     1
 90
        5
176
     1
 90
        0
176
     1
 90
        0
176
     1
290
     0
176
     1
 90
       13
176
     1
 40
0.0
176
     1
 90
        0
176
     1
290
     0
176
     1
290
     1
176
     1
290
     1
176
     1
290
     0
176
     1
290
     0
176
     1
290
     0
176
     1
290
     0
176
     1
290
     0
176
     1
290
     0
176
     1
 90
       50
176
     1
 40
0.0
176
     1
 40
1.0
176
     1
 90
        0
176
     1
 62
    18
420
        0
176
     1
 90
       50
176
     1
 90
        3
176
     1
 62
     5
420
      255
176
     1
290
     0
176
     1
 90
       50
176
     1
 90
       50
176
     1
 90
       50
176
     1
290
     0
176
     1
 90
       50
176
     1
 62
   256
176
     0
 40
1.0
176
     0
 90
        2
176
     1
  1
strokes_ogs.tif
176
     1
290
     0
176
     1
 40
1.0
176
     1
 40
1.0
176
     1
  0
VISUALSTYLE
  5
BC5
102
{ACAD_REACTORS
330
2F
102
}
330
2F
100
AcDbVisualStyle
  2
Gouraud
 70
     2
177
     3
291
     1
 70
    58
 90
        2
176
     1
 90
        2
176
     1
 90
        1
176
     1
 90
        2
176
     1
 40
0.6
176
     1
 40
30.0
176
     1
 62
     7
176
     1
 90
        0
176
     1
 90
        0
176
     1
 62
     7
176
     1
 62
   257
176
     1
 90
        1
176
     1
 90
        1
176
     1
 40
1.0
176
     1
 90
        0
176
     1
 62
     7
176
     1
 40
1.0
176
     1
 90
        1
176
     1
 90
        6
176
     1
 90
        2
176
     1
 62
     7
176
     1
 90
        5
176
     1
 90
        0
176
     1
 90
        0
176
     1
290
     0
176
     1
 90
       13
176
     1
 40
0.0
176
     1
 90
        0
176
     1
290
     0
176
     1
290
     1
176
     1
290
     1
176
     1
290
     0
176
     1
290
     0
176
     1
290
     0
176
     1
290
     0
176
     1
290
     0
176
     1
290
     0
176
     1
 90
       50
176
     1
 40
0.0
176
     1
 40
1.0
176
     1
 90
        0
176
     1
 62
    18
420
        0
176
     1
 90
       50
176
     1
 90
        3
176
     1
 62
     5
420
      255
176
     1
290
     0
176
     1
 90
       50
176
     1
 90
       50
176
     1
 90
       50
176
     1
290
     0
176
     1
 90
       50
176
     1
 62
   256
176
     0
 40
1.0
176
     0
 90
        2
176
     1
  1
strokes_ogs.tif
176
     1
290
     0
176
     1
 40
1.0
176
     1
 40
1.0
176
     1
  0
VISUALSTYLE
  5
BC6
102
{ACAD_REACTORS
330
2F
102
}
330
2F
100
AcDbVisualStyle
  2
GouraudWithEdges
 70
     3
177
     3
291
     1
 70
    58
 90
        2
176
     1
 90
        2
176
     1
 90
        1
176
     1
 90
        2
176
     1
 40
0.6
176
     1
 40
30.0
176
     1
 62
     7
176
     1
 90
        1
176
     1
 90
        0
176
     1
 62
     7
176
     1
 62
   257
176
     1
 90
        1
176
     1
 90
        1
176
     1
 40
1.0
176
     1
 90
        0
176
     1
 62
   257
176
     1
 40
1.0
176
     1
 90
        1
176
     1
 90
        6
176
     1
 90
        2
176
     1
 62
     7
176
     1
 90
        5
176
     1
 90
        0
176
     1
 90
        0
176
     1
290
     0
176
     1
 90
       13
176
     1
 40
0.0
176
     1
 90
        0
176
     1
290
     0
176
     1
290
     1
176
     1
290
     1
176
     1
290
     0
176
     1
290
     0
176
     1
290
     0
176
     1
290
     0
176
     1
290
     0
176
     1
290
     0
176
     1
 90
       50
176
     1
 40
0.0
176
     1
 40
1.0
176
     1
 90
        0
176
     1
 62
    18
420
        0
176
     1
 90
       50
176
     1
 90
        3
176
     1
 62
     5
420
      255
176
     1
290
     0
176
     1
 90
       50
176
     1
 90
       50
176
     1
 90
       50
176
     1
290
     0
176
     1
 90
       50
176
     1
 62
   256
176
     0
 40
1.0
176
     0
 90
        2
176
     1
  1
strokes_ogs.tif
176
     1
290
     0
176
     1
 40
1.0
176
     1
 40
1.0
176
     1
  0
VISUALSTYLE
  5
BC9
102
{ACAD_REACTORS
330
2F
102
}
330
2F
100
AcDbVisualStyle
  2
Hidden
 70
     6
177
     3
291
     0
 70
    58
 90
        1
176
     1
 90
        2
176
     1
 90
        2
176
     1
 90
        0
176
     1
 40
0.6
176
     1
 40
30.0
176
     1
 62
     7
176
     1
 90
        2
176
     1
 90
        2
176
     1
 62
     7
176
     1
 62
   257
176
     1
 90
        2
176
     1
 90
        1
176
     1
 40
40.0
176
     1
 90
        0
176
     1
 62
   257
176
     1
 40
1.0
176
     1
 90
        1
176
     1
 90
        6
176
     1
 90
        2
176
     1
 62
     7
176
     1
 90
        3
176
     1
 90
        0
176
     1
 90
        0
176
     1
290
     0
176
     1
 90
        1
176
     1
 40
0.0
176
     1
 90
        0
176
     1
290
     0
176
     1
290
     1
176
     1
290
     1
176
     1
290
     0
176
     1
290
     0
176
     1
290
     0
176
     1
290
     0
176
     1
290
     0
176
     1
290
     0
176
     1
 90
       50
176
     1
 40
0.0
176
     1
 40
1.0
176
     1
 90
        0
176
     1
 62
    18
420
        0
176
     1
 90
       50
176
     1
 90
        3
176
     1
 62
     5
420
      255
176
     1
290
     0
176
     1
 90
       50
176
     1
 90
       50
176
     1
 90
       50
176
     1
290
     0
176
     1
 90
       50
176
     1
 62
   256
176
     0
 40
1.0
176
     0
 90
        2
176
     1
  1
strokes_ogs.tif
176
     1
290
     0
176
     1
 40
1.0
176
     1
 40
1.0
176
     1
  0
VISUALSTYLE
  5
BD6
102
{ACAD_REACTORS
330
2F
102
}
330
2F
100
AcDbVisualStyle
  2
JitterOff
 70
    20
177
     3
291
     1
 70
    58
 90
        2
176
     0
 90
        2
176
     0
 90
        0
176
     0
 90
        0
176
     0
 40
0.6
176
     0
 40
30.0
176
     0
 62
     7
176
     0
 90
        1
176
     0
 90
        4
176
     0
 62
     7
176
     0
 62
   257
176
     0
 90
        1
176
     0
 90
        1
176
     0
 40
1.0
176
     0
 90
       10
176
     2
 62
     7
176
     0
 40
1.0
176
     0
 90
        1
176
     0
 90
        6
176
     0
 90
        2
176
     0
 62
     7
176
     0
 90
        5
176
     0
 90
        0
176
     0
 90
        0
176
     0
290
     0
176
     0
 90
        1
176
     0
 40
0.0
176
     0
 90
        0
176
     0
290
     0
176
     0
290
     1
176
     0
290
     1
176
     0
290
     0
176
     0
290
     0
176
     0
290
     0
176
     0
290
     0
176
     0
290
     0
176
     0
290
     0
176
     0
 90
       50
176
     0
 40
0.0
176
     0
 40
1.0
176
     0
 90
        0
176
     0
 62
    18
420
        0
176
     0
 90
       50
176
     0
 90
        3
176
     0
 62
     5
420
      255
176
     0
290
     0
176
     0
 90
       50
176
     0
 90
       50
176
     0
 90
       50
176
     0
290
     0
176
     0
 90
       50
176
     0
 62
   256
176
     0
 40
1.0
176
     0
 90
        2
176
     0
  1
strokes_ogs.tif
176
     0
290
     0
176
     0
 40
1.0
176
     0
 40
1.0
176
     0
  0
VISUALSTYLE
  5
BCE
102
{ACAD_REACTORS
330
2F
102
}
330
2F
100
AcDbVisualStyle
  2
Linepattern
 70
    14
177
     3
291
     1
 70
    58
 90
        2
176
     1
 90
        2
176
     1
 90
        0
176
     1
 90
        0
176
     1
 40
0.6
176
     1
 40
30.0
176
     1
 62
     7
176
     1
 90
        1
176
     1
 90
        4
176
     1
 62
     7
176
     1
 62
   257
176
     1
 90
        7
176
     1
 90
        7
176
     1
 40
1.0
176
     1
 90
        8
176
     1
 62
     7
176
     1
 40
1.0
176
     1
 90
        1
176
     1
 90
        6
176
     1
 90
        2
176
     1
 62
     7
176
     1
 90
        5
176
     1
 90
        0
176
     1
 90
        0
176
     1
290
     0
176
     1
 90
        1
176
     1
 40
0.0
176
     1
 90
        0
176
     1
290
     0
176
     1
290
     1
176
     1
290
     1
176
     1
290
     0
176
     1
290
     0
176
     1
290
     0
176
     1
290
     0
176
     1
290
     0
176
     1
290
     0
176
     1
 90
       50
176
     1
 40
0.0
176
     1
 40
1.0
176
     1
 90
        0
176
     1
 62
    18
420
        0
176
     1
 90
       50
176
     1
 90
        3
176
     1
 62
     5
420
      255
176
     1
290
     0
176
     1
 90
       50
176
     1
 90
       50
176
     1
 90
       50
176
     1
290
     0
176
     1
 90
       50
176
     1
 62
   256
176
     0
 40
1.0
176
     0
 90
        2
176
     1
  1
strokes_ogs.tif
176
     1
290
     0
176
     1
 40
1.0
176
     1
 40
1.0
176
     1
  0
VISUALSTYLE
  5
BD7
102
{ACAD_REACTORS
330
2F
102
}
330
2F
100
AcDbVisualStyle
  2
OverhangOff
 70
    21
177
     3
291
     1
 70
    58
 90
        2
176
     0
 90
        2
176
     0
 90
        0
176
     0
 90
        0
176
     0
 40
0.6
176
     0
 40
30.0
176
     0
 62
     7
176
     0
 90
        1
176
     0
 90
        4
176
     0
 62
     7
176
     0
 62
   257
176
     0
 90
        1
176
     0
 90
        1
176
     0
 40
1.0
176
     0
 90
        9
176
     2
 62
     7
176
     0
 40
1.0
176
     0
 90
        1
176
     0
 90
        6
176
     0
 90
        2
176
     0
 62
     7
176
     0
 90
        5
176
     0
 90
        0
176
     0
 90
        0
176
     0
290
     0
176
     0
 90
        1
176
     0
 40
0.0
176
     0
 90
        0
176
     0
290
     0
176
     0
290
     1
176
     0
290
     1
176
     0
290
     0
176
     0
290
     0
176
     0
290
     0
176
     0
290
     0
176
     0
290
     0
176
     0
290
     0
176
     0
 90
       50
176
     0
 40
0.0
176
     0
 40
1.0
176
     0
 90
        0
176
     0
 62
    18
420
        0
176
     0
 90
       50
176
     0
 90
        3
176
     0
 62
     5
420
      255
176
     0
290
     0
176
     0
 90
       50
176
     0
 90
       50
176
     0
 90
       50
176
     0
290
     0
176
     0
 90
       50
176
     0
 62
   256
176
     0
 40
1.0
176
     0
 90
        2
176
     0
  1
strokes_ogs.tif
176
     0
290
     0
176
     0
 40
1.0
176
     0
 40
1.0
176
     0
  0
VISUALSTYLE
  5
46
102
{ACAD_REACTORS
330
2F
102
}
330
2F
100
AcDbVisualStyle
  2
Realistic
 70
     8
177
     3
291
     0
 70
    58
 90
        2
176
     1
 90
        2
176
     1
 90
        1
176
     1
 90
        0
176
     1
 40
0.6
176
     1
 40
30.0
176
     1
 62
     7
176
     1
 90
        1
176
     1
 90
        0
176
     1
 62
     7
176
     1
 62
   257
176
     1
 90
        1
176
     1
 90
        1
176
     1
 40
1.0
176
     1
 90
        8
176
     1
 62
     8
176
     1
 40
1.0
176
     1
 90
        1
176
     1
 90
        6
176
     1
 90
        2
176
     1
 62
     7
176
     1
 90
        5
176
     1
 90
        0
176
     1
 90
        0
176
     1
290
     0
176
     1
 90
       13
176
     1
 40
0.0
176
     1
 90
        0
176
     1
290
     0
176
     1
290
     1
176
     1
290
     1
176
     1
290
     0
176
     1
290
     0
176
     1
290
     0
176
     1
290
     0
176
     1
290
     0
176
     1
290
     0
176
     1
 90
       50
176
     1
 40
0.0
176
     1
 40
1.0
176
     1
 90
        0
176
     1
 62
    18
420
        0
176
     1
 90
       50
176
     1
 90
        3
176
     1
 62
     5
420
      255
176
     1
290
     0
176
     1
 90
       50
176
     1
 90
       50
176
     1
 90
       50
176
     1
290
     0
176
     1
 90
       50
176
     1
 62
   256
176
     0
 40
1.0
176
     0
 90
        2
176
     1
  1
strokes_ogs.tif
176
     1
290
     0
176
     1
 40
1.0
176
     1
 40
1.0
176
     1
  0
VISUALSTYLE
  5
BD5
102
{ACAD_REACTORS
330
2F
102
}
330
2F
100
AcDbVisualStyle
  2
Shaded
 70
    27
177
     3
291
     0
 70
    58
 90
        2
176
     1
 90
        2
176
     1
 90
        1
176
     1
 90
        2
176
     1
 40
0.6
176
     1
 40
30.0
176
     1
 62
     7
176
     1
 90
        0
176
     1
 90
        4
176
     1
 62
     7
176
     1
 62
   257
176
     1
 90
        1
176
     1
 90
        1
176
     1
 40
1.0
176
     1
 90
        8
176
     1
 62
   257
176
     1
 40
1.0
176
     1
 90
        1
176
     1
 90
        6
176
     1
 90
        2
176
     1
 62
     8
176
     1
 90
        3
176
     1
 90
        0
176
     1
 90
        0
176
     1
290
     0
176
     1
 90
        5
176
     1
 40
0.0
176
     1
 90
        0
176
     1
290
     0
176
     1
290
     1
176
     1
290
     1
176
     1
290
     0
176
     1
290
     0
176
     1
290
     0
176
     1
290
     0
176
     1
290
     0
176
     1
290
     0
176
     1
 90
       50
176
     1
 40
0.0
176
     1
 40
1.0
176
     1
 90
        0
176
     1
 62
    18
420
        0
176
     1
 90
       50
176
     1
 90
        3
176
     1
 62
     5
420
      255
176
     1
290
     0
176
     1
 90
       50
176
     1
 90
       50
176
     1
 90
       50
176
     1
290
     0
176
     1
 90
       50
176
     1
 62
   256
176
     0
 40
1.0
176
     0
 90
        2
176
     1
  1
strokes_ogs.tif
176
     1
290
     0
176
     1
 40
1.0
176
     1
 40
1.0
176
     1
  0
VISUALSTYLE
  5
BD4
102
{ACAD_REACTORS
330
2F
102
}
330
2F
100
AcDbVisualStyle
  2
Shaded with edges
 70
    26
177
     3
291
     0
 70
    58
 90
        2
176
     1
 90
        2
176
     1
 90
        1
176
     1
 90
        2
176
     1
 40
0.6
176
     1
 40
30.0
176
     1
 62
     7
176
     1
 90
        1
176
     1
 90
       10
176
     1
 62
     7
176
     1
 62
   257
176
     1
 90
        2
176
     1
 90
        1
176
     1
 40
1.0
176
     1
 90
        8
176
     1
 62
   257
176
     1
 40
1.0
176
     1
 90
        1
176
     1
 90
        6
176
     1
 90
        2
176
     1
 62
     7
176
     1
 90
        3
176
     1
 90
        0
176
     1
 90
        0
176
     1
290
     0
176
     1
 90
        5
176
     1
 40
0.0
176
     1
 90
        0
176
     1
290
     0
176
     1
290
     1
176
     1
290
     1
176
     1
290
     0
176
     1
290
     0
176
     1
290
     0
176
     1
290
     0
176
     1
290
     0
176
     1
290
     0
176
     1
 90
       50
176
     1
 40
0.0
176
     1
 40
1.0
176
     1
 90
        0
176
     1
 62
    18
420
        0
176
     1
 90
       50
176
     1
 90
        3
176
     1
 62
     5
420
      255
176
     1
290
     0
176
     1
 90
       50
176
     1
 90
       50
176
     1
 90
       50
176
     1
290
     0
176
     1
 90
       50
176
     1
 62
   256
176
     0
 40
1.0
176
     0
 90
        2
176
     1
  1
strokes_ogs.tif
176
     1
290
     0
176
     1
 40
1.0
176
     1
 40
1.0
176
     1
  0
VISUALSTYLE
  5
BD1
102
{ACAD_REACTORS
330
2F
102
}
330
2F
100
AcDbVisualStyle
  2
Shades of Gray
 70
    23
177
     3
291
     0
 70
    58
 90
        2
176
     1
 90
        2
176
     1
 90
        3
176
     1
 90
        0
176
     1
 40
0.6
176
     1
 40
30.0
176
     1
 62
     7
176
     1
 90
        2
176
     1
 90
        2
176
     1
 62
     7
176
     1
 62
     7
176
     1
 90
        1
176
     1
 90
        1
176
     1
 40
40.0
176
     1
 90
        8
176
     1
 62
     7
176
     1
 40
1.0
176
     1
 90
        1
176
     1
 90
        6
176
     1
 90
        2
176
     1
 62
     7
176
     1
 90
        3
176
     1
 90
        0
176
     1
 90
        0
176
     1
290
     0
176
     1
 90
        1
176
     1
 40
0.0
176
     1
 90
        0
176
     1
290
     0
176
     1
290
     1
176
     1
290
     1
176
     1
290
     0
176
     1
290
     0
176
     1
290
     0
176
     1
290
     0
176
     1
290
     0
176
     1
290
     0
176
     1
 90
       50
176
     1
 40
0.0
176
     1
 40
1.0
176
     1
 90
        0
176
     1
 62
    18
420
        0
176
     1
 90
       50
176
     1
 90
        3
176
     1
 62
     5
420
      255
176
     1
290
     0
176
     1
 90
       50
176
     1
 90
       50
176
     1
 90
       50
176
     1
290
     0
176
     1
 90
       50
176
     1
 62
   256
176
     0
 40
1.0
176
     0
 90
        2
176
     1
  1
strokes_ogs.tif
176
     1
290
     0
176
     1
 40
1.0
176
     1
 40
1.0
176
     1
  0
VISUALSTYLE
  5
BD2
102
{ACAD_REACTORS
330
2F
102
}
330
2F
100
AcDbVisualStyle
  2
Sketchy
 70
    24
177
     3
291
     0
 70
    58
 90
        1
176
     1
 90
        2
176
     1
 90
        2
176
     1
 90
        0
176
     1
 40
0.6
176
     1
 40
30.0
176
     1
 62
     7
176
     1
 90
        2
176
     1
 90
        2
176
     1
 62
     7
176
     1
 62
     7
176
     1
 90
        1
176
     1
 90
        1
176
     1
 40
40.0
176
     1
 90
       11
176
     1
 62
     7
176
     1
 40
1.0
176
     1
 90
        1
176
     1
 90
        6
176
     1
 90
        2
176
     1
 62
     7
176
     1
 90
        6
176
     1
 90
        0
176
     1
 90
        0
176
     1
290
     0
176
     1
 90
        1
176
     1
 40
0.0
176
     1
 90
        0
176
     1
290
     0
176
     1
290
     1
176
     1
290
     1
176
     1
290
     0
176
     1
290
     0
176
     1
290
     0
176
     1
290
     0
176
     1
290
     0
176
     1
290
     0
176
     1
 90
       50
176
     1
 40
0.0
176
     1
 40
1.0
176
     1
 90
        0
176
     1
 62
    18
420
        0
176
     1
 90
       50
176
     1
 90
        3
176
     1
 62
     5
420
      255
176
     1
290
     0
176
     1
 90
       50
176
     1
 90
       50
176
     1
 90
       50
176
     1
290
     0
176
     1
 90
       50
176
     1
 62
   256
176
     0
 40
1.0
176
     0
 90
        2
176
     1
  1
strokes_ogs.tif
176
     1
290
     0
176
     1
 40
1.0
176
     1
 40
1.0
176
     1
  0
VISUALSTYLE
  5
BCD
102
{ACAD_REACTORS
330
2F
102
}
330
2F
100
AcDbVisualStyle
  2
Thicken
 70
    13
177
     3
291
     1
 70
    58
 90
        2
176
     1
 90
        2
176
     1
 90
        0
176
     1
 90
        0
176
     1
 40
0.6
176
     1
 40
30.0
176
     1
 62
     7
176
     1
 90
        1
176
     1
 90
        4
176
     1
 62
     7
176
     1
 62
   257
176
     1
 90
        1
176
     1
 90
        1
176
     1
 40
1.0
176
     1
 90
       12
176
     1
 62
     7
176
     1
 40
1.0
176
     1
 90
        1
176
     1
 90
        6
176
     1
 90
        2
176
     1
 62
     7
176
     1
 90
        5
176
     1
 90
        0
176
     1
 90
        0
176
     1
290
     0
176
     1
 90
        1
176
     1
 40
0.0
176
     1
 90
        0
176
     1
290
     0
176
     1
290
     1
176
     1
290
     1
176
     1
290
     0
176
     1
290
     0
176
     1
290
     0
176
     1
290
     0
176
     1
290
     0
176
     1
290
     0
176
     1
 90
       50
176
     1
 40
0.0
176
     1
 40
1.0
176
     1
 90
        0
176
     1
 62
    18
420
        0
176
     1
 90
       50
176
     1
 90
        3
176
     1
 62
     5
420
      255
176
     1
290
     0
176
     1
 90
       50
176
     1
 90
       50
176
     1
 90
       50
176
     1
290
     0
176
     1
 90
       50
176
     1
 62
   256
176
     0
 40
1.0
176
     0
 90
        2
176
     1
  1
strokes_ogs.tif
176
     1
290
     0
176
     1
 40
1.0
176
     1
 40
1.0
176
     1
  0
VISUALSTYLE
  5
BC8
102
{ACAD_REACTORS
330
2F
102
}
330
2F
100
AcDbVisualStyle
  2
Wireframe
 70
     5
177
     3
291
     0
 70
    58
 90
        0
176
     1
 90
        2
176
     1
 90
        0
176
     1
 90
        0
176
     1
 40
0.6
176
     1
 40
30.0
176
     1
 62
     7
176
     1
 90
        1
176
     1
 90
        4
176
     1
 62
     7
176
     1
 62
   257
176
     1
 90
        1
176
     1
 90
        1
176
     1
 40
1.0
176
     1
 90
        0
176
     1
 62
   257
176
     1
 40
1.0
176
     1
 90
        1
176
     1
 90
        6
176
     1
 90
        2
176
     1
 62
     7
176
     1
 90
        3
176
     1
 90
        0
176
     1
 90
        0
176
     1
290
     0
176
     1
 90
        1
176
     1
 40
0.0
176
     1
 90
        0
176
     1
290
     0
176
     1
290
     1
176
     1
290
     1
176
     1
290
     0
176
     1
290
     0
176
     1
290
     0
176
     1
290
     0
176
     1
290
     0
176
     1
290
     0
176
     1
 90
       50
176
     1
 40
0.0
176
     1
 40
1.0
176
     1
 90
        0
176
     1
 62
    18
420
        0
176
     1
 90
       50
176
     1
 90
        3
176
     1
 62
     5
420
      255
176
     1
290
     0
176
     1
 90
       50
176
     1
 90
       50
176
     1
 90
       50
176
     1
290
     0
176
     1
 90
       50
176
     1
 62
   256
176
     0
 40
1.0
176
     0
 90
        2
176
     1
  1
strokes_ogs.tif
176
     1
290
     0
176
     1
 40
1.0
176
     1
 40
1.0
176
     1
  0
VISUALSTYLE
  5
BD3
102
{ACAD_REACTORS
330
2F
102
}
330
2F
100
AcDbVisualStyle
  2
X-Ray
 70
    25
177
     3
291
     0
 70
    58
 90
        2
176
     1
 90
        2
176
     1
 90
        1
176
     1
 90
        1
176
     1
 40
0.5
176
     1
 40
30.0
176
     1
 62
     7
176
     1
 90
        1
176
     1
 90
        0
176
     1
 62
     7
176
     1
 62
   257
176
     1
 90
        1
176
     1
 90
        1
176
     1
 40
1.0
176
     1
 90
        8
176
     1
 62
     7
176
     1
 40
1.0
176
     1
 90
        1
176
     1
 90
        6
176
     1
 90
        2
176
     1
 62
     7
176
     1
 90
        3
176
     1
 90
        0
176
     1
 90
        0
176
     1
290
     0
176
     1
 90
       13
176
     1
 40
0.0
176
     1
 90
        0
176
     1
290
     0
176
     1
290
     1
176
     1
290
     1
176
     1
290
     0
176
     1
290
     0
176
     1
290
     0
176
     1
290
     0
176
     1
290
     0
176
     1
290
     0
176
     1
 90
       50
176
     1
 40
0.0
176
     1
 40
1.0
176
     1
 90
        0
176
     1
 62
    18
420
        0
176
     1
 90
       50
176
     1
 90
        3
176
     1
 62
     5
420
      255
176
     1
290
     0
176
     1
 90
       50
176
     1
 90
       50
176
     1
 90
       50
176
     1
290
     0
176
     1
 90
       50
176
     1
 62
   256
176
     0
 40
1.0
176
     0
 90
        2
176
     1
  1
strokes_ogs.tif
176
     1
290
     0
176
     1
 40
1.0
176
     1
 40
1.0
176
     1
  0
DICTIONARYVAR
  5
BBE
102
{ACAD_REACTORS
330
BB8
102
}
330
BB8
100
DictionaryVariables
280
     0
  1
1:1
  0
DICTIONARYVAR
  5
BBA
102
{ACAD_REACTORS
330
BB8
102
}
330
BB8
100
DictionaryVariables
280
     0
  1
STANDARD
  0
DICTIONARYVAR
  5
BB9
102
{ACAD_REACTORS
330
BB8
102
}
330
BB8
100
DictionaryVariables
280
     0
  1
STANDARD
  0
DICTIONARYVAR
  5
BBB
102
{ACAD_REACTORS
330
BB8
102
}
330
BB8
100
DictionaryVariables
280
     0
  1
Metric50
  0
DICTIONARYVAR
  5
BBC
102
{ACAD_REACTORS
330
BB8
102
}
330
BB8
100
DictionaryVariables
280
     0
  1
Metric50
  0
DICTIONARYVAR
  5
C3B
102
{ACAD_REACTORS
330
BB8
102
}
330
BB8
100
DictionaryVariables
280
     0
  1
1
  0
DICTIONARYVAR
  5
C39
102
{ACAD_REACTORS
330
BB8
102
}
330
BB8
100
DictionaryVariables
280
     0
  1
1
  0
DICTIONARYVAR
  5
FF3
102
{ACAD_REACTORS
330
BB8
102
}
330
BB8
100
DictionaryVariables
280
     0
  1
4
  0
DICTIONARYVAR
  5
C38
102
{ACAD_REACTORS
330
BB8
102
}
330
BB8
100
DictionaryVariables
280
     0
  1
0
  0
DICTIONARYVAR
  5
BC0
102
{ACAD_REACTORS
330
BB8
102
}
330
BB8
100
DictionaryVariables
280
     0
  1
1
  0
DICTIONARYVAR
  5
BC1
102
{ACAD_REACTORS
330
BB8
102
}
330
BB8
100
DictionaryVariables
280
     0
  1
15
  0
DICTIONARYVAR
  5
BBF
102
{ACAD_REACTORS
330
BB8
102
}
330
BB8
100
DictionaryVariables
280
     0
  1
0
  0
DICTIONARYVAR
  5
BBD
102
{ACAD_REACTORS
330
BB8
102
}
330
BB8
100
DictionaryVariables
280
     0
  1
0
  0
DICTIONARYVAR
  5
C3C
102
{ACAD_REACTORS
330
BB8
102
}
330
BB8
100
DictionaryVariables
280
     0
  1
1
  0
DICTIONARYVAR
  5
C37
102
{ACAD_REACTORS
330
BB8
102
}
330
BB8
100
DictionaryVariables
280
     0
  1
127
  0
XRECORD
  5
23A5D
102
{ACAD_REACTORS
330
23A5C
102
}
330
23A5C
100
AcDbXrecord
280
     1
  0
DICTIONARY
  5
27430
330
BDD
100
AcDbDictionary
280
     1
281
     1
  3
ACAD_XREC_ROUNDTRIP
360
27431
  0
DICTIONARY
  5
18
330
16
100
AcDbDictionary
280
     1
281
     1
  0
DICTIONARY
  5
1F
330
1E
100
AcDbDictionary
280
     1
281
     1
  0
DICTIONARY
  5
E
330
C
100
AcDbDictionary
280
     1
281
     1
  3
BUMPTILE
360
F
  3
DIFFUSETILE
360
10
  3
OPACITYTILE
360
11
  3
REFLECTIONTILE
360
12
  0
DICTIONARY
  5
2742E
330
BDB
100
AcDbDictionary
280
     1
281
     1
  3
ACAD_XREC_ROUNDTRIP
360
2742F
  0
DICTIONARY
  5
45
330
44
100
AcDbDictionary
280
     1
281
     1
  3
ACAD_ROUNDTRIP_2008_TABLESTYLE_CELLSTYLEMAP
360
2742D
  0
XRECORD
  5
27431
102
{ACAD_REACTORS
330
27430
102
}
330
27430
100
AcDbXrecord
280
     1
102
DISPLAYNAME
  1
Metric50
102
FLAGS
 90
        0
  0
XRECORD
  5
F
102
{ACAD_REACTORS
330
E
102
}
330
E
100
AcDbXrecord
280
     1
270
     1
271
     1
  0
XRECORD
  5
10
102
{ACAD_REACTORS
330
E
102
}
330
E
100
AcDbXrecord
280
     1
270
     1
271
     1
  0
XRECORD
  5
11
102
{ACAD_REACTORS
330
E
102
}
330
E
100
AcDbXrecord
280
     1
270
     1
271
     1
  0
XRECORD
  5
12
102
{ACAD_REACTORS
330
E
102
}
330
E
100
AcDbXrecord
280
     1
270
     1
271
     1
  0
XRECORD
  5
2742F
102
{ACAD_REACTORS
330
2742E
102
}
330
2742E
100
AcDbXrecord
280
     1
102
DISPLAYNAME
  1
Metric50
102
FLAGS
 90
        0
  0
CELLSTYLEMAP
  5
2742D
102
{ACAD_REACTORS
330
45
102
}
330
45
100
AcDbCellStyleMap
 90
        3
300
CELLSTYLE
  1
TABLEFORMAT_BEGIN
 90
        5
170
     1
 91
        0
 92
    32768
 62
   257
 93
        1
300
CONTENTFORMAT
  1
CONTENTFORMAT_BEGIN
 90
        0
 91
        0
 92
      512
 93
        0
300

 40
0.0
140
1.0
 94
        5
 62
     0
340
25
144
6.0
309
CONTENTFORMAT_END
171
     1
301
MARGIN
  1
CELLMARGIN_BEGIN
 40
1.5
 40
1.5
 40
1.5
 40
1.5
 40
0.18
 40
0.18
309
CELLMARGIN_END
 94
        6
 95
        1
302
GRIDFORMAT
  1
GRIDFORMAT_BEGIN
 90
        0
 91
        1
 62
     0
 92
       -2
340
28
 93
        0
 40
1.125
309
GRIDFORMAT_END
 95
        2
302
GRIDFORMAT
  1
GRIDFORMAT_BEGIN
 90
        0
 91
        1
 62
     0
 92
       -2
340
28
 93
        0
 40
1.125
309
GRIDFORMAT_END
 95
        4
302
GRIDFORMAT
  1
GRIDFORMAT_BEGIN
 90
        0
 91
        1
 62
     0
 92
       -2
340
28
 93
        0
 40
1.125
309
GRIDFORMAT_END
 95
        8
302
GRIDFORMAT
  1
GRIDFORMAT_BEGIN
 90
        0
 91
        1
 62
     0
 92
       -2
340
28
 93
        0
 40
1.125
309
GRIDFORMAT_END
 95
       16
302
GRIDFORMAT
  1
GRIDFORMAT_BEGIN
 90
        0
 91
        1
 62
     0
 92
       -2
340
28
 93
        0
 40
1.125
309
GRIDFORMAT_END
 95
       32
302
GRIDFORMAT
  1
GRIDFORMAT_BEGIN
 90
        0
 91
        1
 62
     0
 92
       -2
340
28
 93
        0
 40
1.125
309
GRIDFORMAT_END
309
TABLEFORMAT_END
  1
CELLSTYLE_BEGIN
 90
        1
 91
        1
300
_TITLE
309
CELLSTYLE_END
300
CELLSTYLE
  1
TABLEFORMAT_BEGIN
 90
        5
170
     1
 91
        0
 92
        0
 62
   257
 93
        1
300
CONTENTFORMAT
  1
CONTENTFORMAT_BEGIN
 90
        0
 91
        0
 92
      512
 93
        0
300

 40
0.0
140
1.0
 94
        5
 62
     0
340
25
144
4.5
309
CONTENTFORMAT_END
171
     1
301
MARGIN
  1
CELLMARGIN_BEGIN
 40
1.5
 40
1.5
 40
1.5
 40
1.5
 40
0.18
 40
0.18
309
CELLMARGIN_END
 94
        6
 95
        1
302
GRIDFORMAT
  1
GRIDFORMAT_BEGIN
 90
        0
 91
        1
 62
     0
 92
       -2
340
28
 93
        0
 40
1.125
309
GRIDFORMAT_END
 95
        2
302
GRIDFORMAT
  1
GRIDFORMAT_BEGIN
 90
        0
 91
        1
 62
     0
 92
       -2
340
28
 93
        0
 40
1.125
309
GRIDFORMAT_END
 95
        4
302
GRIDFORMAT
  1
GRIDFORMAT_BEGIN
 90
        0
 91
        1
 62
     0
 92
       -2
340
28
 93
        0
 40
1.125
309
GRIDFORMAT_END
 95
        8
302
GRIDFORMAT
  1
GRIDFORMAT_BEGIN
 90
        0
 91
        1
 62
     0
 92
       -2
340
28
 93
        0
 40
1.125
309
GRIDFORMAT_END
 95
       16
302
GRIDFORMAT
  1
GRIDFORMAT_BEGIN
 90
        0
 91
        1
 62
     0
 92
       -2
340
28
 93
        0
 40
1.125
309
GRIDFORMAT_END
 95
       32
302
GRIDFORMAT
  1
GRIDFORMAT_BEGIN
 90
        0
 91
        1
 62
     0
 92
       -2
340
28
 93
        0
 40
1.125
309
GRIDFORMAT_END
309
TABLEFORMAT_END
  1
CELLSTYLE_BEGIN
 90
        2
 91
        1
300
_HEADER
309
CELLSTYLE_END
300
CELLSTYLE
  1
TABLEFORMAT_BEGIN
 90
        5
170
     1
 91
        0
 92
        0
 62
   257
 93
        1
300
CONTENTFORMAT
  1
CONTENTFORMAT_BEGIN
 90
        0
 91
        0
 92
      512
 93
        0
300

 40
0.0
140
1.0
 94
        2
 62
     0
340
25
144
4.5
309
CONTENTFORMAT_END
171
     1
301
MARGIN
  1
CELLMARGIN_BEGIN
 40
1.5
 40
1.5
 40
1.5
 40
1.5
 40
0.18
 40
0.18
309
CELLMARGIN_END
 94
        6
 95
        1
302
GRIDFORMAT
  1
GRIDFORMAT_BEGIN
 90
        0
 91
        1
 62
     0
 92
       -2
340
28
 93
        0
 40
1.125
309
GRIDFORMAT_END
 95
        2
302
GRIDFORMAT
  1
GRIDFORMAT_BEGIN
 90
        0
 91
        1
 62
     0
 92
       -2
340
28
 93
        0
 40
1.125
309
GRIDFORMAT_END
 95
        4
302
GRIDFORMAT
  1
GRIDFORMAT_BEGIN
 90
        0
 91
        1
 62
     0
 92
       -2
340
28
 93
        0
 40
1.125
309
GRIDFORMAT_END
 95
        8
302
GRIDFORMAT
  1
GRIDFORMAT_BEGIN
 90
        0
 91
        1
 62
     0
 92
       -2
340
28
 93
        0
 40
1.125
309
GRIDFORMAT_END
 95
       16
302
GRIDFORMAT
  1
GRIDFORMAT_BEGIN
 90
        0
 91
        1
 62
     0
 92
       -2
340
28
 93
        0
 40
1.125
309
GRIDFORMAT_END
 95
       32
302
GRIDFORMAT
  1
GRIDFORMAT_BEGIN
 90
        0
 91
        1
 62
     0
 92
       -2
340
28
 93
        0
 40
1.125
309
GRIDFORMAT_END
309
TABLEFORMAT_END
  1
CELLSTYLE_BEGIN
 90
        3
 91
        2
300
_DATA
309
CELLSTYLE_END
  0
ENDSEC
  0
SECTION
  2
ACDSDATA
 70
     2
 71
     6
  0
ACDSSCHEMA
 90
        0
  1
AcDb_Thumbnail_Schema
  2
AcDbDs::ID
280
    10
 91
        8
  2
Thumbnail_Data
280
    15
 91
        0
101
ACDSRECORD
 95
        0
 90
        1
  2
AcDbDs::TreatedAsObjectData
280
     1
291
     1
101
ACDSRECORD
 95
        0
 90
        2
  2
AcDbDs::Legacy
280
     1
291
     1
101
ACDSRECORD
  1
AcDbDs::ID
 90
        3
  2
AcDs:Indexable
280
     1
291
     1
101
ACDSRECORD
  1
AcDbDs::ID
 90
        4
  2
AcDbDs::HandleAttribute
280
     7
282
     1
  0
ACDSSCHEMA
 90
        1
  1
AcDbDs::TreatedAsObjectDataSchema
  2
AcDbDs::TreatedAsObjectData
280
     1
 91
        0
  0
ACDSSCHEMA
 90
        2
  1
AcDbDs::LegacySchema
  2
AcDbDs::Legacy
280
     1
 91
        0
  0
ACDSSCHEMA
 90
        3
  1
AcDbDs::IndexedPropertySchema
  2
AcDs:Indexable
280
     1
 91
        0
  0
ACDSSCHEMA
 90
        4
  1
AcDbDs::HandleAttributeSchema
  2
AcDbDs::HandleAttribute
280
     7
 91
        1
284
     1
  0
ACDSRECORD
 90
        0
  2
AcDbDs::ID
280
    10
320
16
  2
Thumbnail_Data
280
    15
 94
     2068
310
89504E470D0A1A0A0000000D494844520000010000000076080300000010A0BD3C00000300504C5445000000000000C8C8C80000000000000000000000000000000000000000000000000000330000660000990000CC0000FF0033000033330033660033990033CC0033FF0066000066330066660066990066CC0066FF0099
310
000099330099660099990099CC0099FF00CC0000CC3300CC6600CC9900CCCC00CCFF00FF0000FF3300FF6600FF9900FFCC00FFFF3300003300333300663300993300CC3300FF3333003333333333663333993333CC3333FF3366003366333366663366993366CC3366FF3399003399333399663399993399CC3399FF33CC00
310
33CC3333CC6633CC9933CCCC33CCFF33FF0033FF3333FF6633FF9933FFCC33FFFF6600006600336600666600996600CC6600FF6633006633336633666633996633CC6633FF6666006666336666666666996666CC6666FF6699006699336699666699996699CC6699FF66CC0066CC3366CC6666CC9966CCCC66CCFF66FF0066
310
FF3366FF6666FF9966FFCC66FFFF9900009900339900669900999900CC9900FF9933009933339933669933999933CC9933FF9966009966339966669966999966CC9966FF9999009999339999669999999999CC9999FF99CC0099CC3399CC6699CC9999CCCC99CCFF99FF0099FF3399FF6699FF9999FFCC99FFFFCC0000CC00
310
33CC0066CC0099CC00CCCC00FFCC3300CC3333CC3366CC3399CC33CCCC33FFCC6600CC6633CC6666CC6699CC66CCCC66FFCC9900CC9933CC9966CC9999CC99CCCC99FFCCCC00CCCC33CCCC66CCCC99CCCCCCCCCCFFCCFF00CCFF33CCFF66CCFF99CCFFCCCCFFFFFF0000FF0033FF0066FF0099FF00CCFF00FFFF3300FF3333
310
FF3366FF3399FF33CCFF33FFFF6600FF6633FF6666FF6699FF66CCFF66FFFF9900FF9933FF9966FF9999FF99CCFF99FFFFCC00FFCC33FFCC66FFCC99FFCCCCFFCCFFFFFF00FFFF33FFFF66FFFF99FFFFCCFFFFFF0000000D0D0D1A1A1A2828283535354343435050505D5D5D6B6B6B787878868686939393A1A1A1AEAEAEBB
310
BBBBC9C9C9D6D6D6E4E4E4F1F1F1FFFFFF00000000000000000000000000000000000000000000000000000000000008F1915C000004CF4944415478DAED9D5BBAE32008805D0E2FEE6C96CC36781FEFC15B6A9B36EA09CE37A727694CE51701D1F428F59B42DFBE90D45E6558AECD0050A320D25819BDF0E20D6FEF58C4C1
310
CAA3175EBB212DA1D91B0C3E01200004800010000240000800012000048000182EC3F3B489E5A76D7C3C00B1010240000800012000048000F83442C1AC2877C29F7C0600EC020080670C0144A60799066C01E0FAC21B72020C80790B9669E424BCB0FB10C0A702C04CADD36FD308DC0D0020133BF375CF005028C0052D803D
310
8700602DFCB3002CE6073606F09D5B6D0D0076049013F09BB7FCF6AD134909EA726CF2BA14CC4D05E01B6E027B3C8E86959D0C16D2E623DC8F1D014481238013045D004ADBEED75B02A02328067CD19C130DD04A6DA601411A522D009DF69C6880957F590D68C736507C6E06E08C595B03F4350D98B0360885984510481F68
310
805E144057A1A9F08499233B0F1EF4B1CBD96980953F9DD45BD8003B1DE09ED0690023D048780123A5BDC81685D100D3FBF1846670C637824F021010D836C68950686F735A14CC0617D24A0ECA69FF41C0BFA423C642A7006A010036ABEB6576DDEDC4095A80FE3D75A201C447CE99FC3A578E8E35990180AC9446565241F7
310
41B988D8BEE13226553DE638926293FDFD4CFEE8220918B71500901B0380E4E600C92FB8C3381C4601D4F2574FA9E8CCEF2C02C00D754A5D1DE4B33CBCFA8F03A8E4D7C7206939DE6500B881809406333BD1A8D805C00CBE3E34607900A145517E0591807A1B807B491EA2A301B6FE3A00489500621F9A338A1A158DC1C801
310
0055001AFEBF05A07630730058C3ECA5A5E40502008AD2F501B8DAA506F0C0B2FE709803A0198BA588046DA2C734D7A5775CD287B019AE7800ADAC50CA0EC1EB421D00F44BF97FA001AEB6BD5EDB7F36D6F16AA0580059847B6ED07535E0F6C5514A83D2DB00152295680340BD06704C0A900180CEECF11CC0141BC001F889
310
5DF083A40600B8DAA6F711CD7F6A01A0EA13352CE5069D08A6C5791C001D00AD9B9990C9E78B9B00F28E5E13808B048947828E4830786737433674C701102C050043E03F3817E037F3D3E79D01B8981720CE06E39856E8A789D8980DF29B41041096471A5E204B322E0880E503303ED3AFD2B147F3DA06941AC085ABBD800E
310
EE65110D08398F232174A48410A193A76C0150A7001A1921BD4246080E6D8D085844E694E04300515CA87382D059979DB2490A09CAA43077F2D80D2CEB298F07A0A3D8FDA62C054011F4D7056070813003E0660FA7ABE5A03ACB0B5300E40B23B9D126F53E00E74A406F04806B6BBE3648F0218017A5ED03A63D3708FDD5E1
310
9B014C7A6E1054777FC0BB00E80D00718F1A5B7E99F4DC20305F56EC10F9A506F855870CC02C1BC07C5BB1476818C07B7B84E0DD26DE04A03E1A05002375048000581700DB24FE4400706C9A06A02702E04D1BD18062C6C00F07769A63D7DF4FB701BE613C9BD38DAAAE00C08501140F0B80BAB5CCB30171812C5902BE84F5
310
F701BC6FAD3604F0EB6F2CDDA091F2F4B8001000024000080001200004800010007707F845F95794897F60E1DE6E8DBBF02205F3C3BDDED3C4695FA9496D5D601D7F4F1B9703403703983F04A807809E66048B11408F31824F758302805BE2FA8BF904C0F322C17E111B2000FE248030D6B15304800C819B006C506EEF9DE1
310
3F7BD8BA90E8CB379C50AEB5773680FF8E9C5226849CB9CB0000000049454E44AE426082
  0
ACDSRECORD
 90
        0
  2
AcDbDs::ID
280
    10
320
1E
  2
Thumbnail_Data
280
    15
 94
     1014
310
89504E470D0A1A0A0000000D49484452000000B80000007F08030000006B00F8F900000300504C5445FFFFFF000000FFFFFF0000000000000000000000000000000000000000000000000000330000660000990000CC0000FF0033000033330033660033990033CC0033FF0066000066330066660066990066CC0066FF0099
310
000099330099660099990099CC0099FF00CC0000CC3300CC6600CC9900CCCC00CCFF00FF0000FF3300FF6600FF9900FFCC00FFFF3300003300333300663300993300CC3300FF3333003333333333663333993333CC3333FF3366003366333366663366993366CC3366FF3399003399333399663399993399CC3399FF33CC00
310
33CC3333CC6633CC9933CCCC33CCFF33FF0033FF3333FF6633FF9933FFCC33FFFF6600006600336600666600996600CC6600FF6633006633336633666633996633CC6633FF6666006666336666666666996666CC6666FF6699006699336699666699996699CC6699FF66CC0066CC3366CC6666CC9966CCCC66CCFF66FF0066
310
FF3366FF6666FF9966FFCC66FFFF9900009900339900669900999900CC9900FF9933009933339933669933999933CC9933FF9966009966339966669966999966CC9966FF9999009999339999669999999999CC9999FF99CC0099CC3399CC6699CC9999CCCC99CCFF99FF0099FF3399FF6699FF9999FFCC99FFFFCC0000CC00
310
33CC0066CC0099CC00CCCC00FFCC3300CC3333CC3366CC3399CC33CCCC33FFCC6600CC6633CC6666CC6699CC66CCCC66FFCC9900CC9933CC9966CC9999CC99CCCC99FFCCCC00CCCC33CCCC66CCCC99CCCCCCCCCCFFCCFF00CCFF33CCFF66CCFF99CCFFCCCCFFFFFF0000FF0033FF0066FF0099FF00CCFF00FFFF3300FF3333
310
FF3366FF3399FF33CCFF33FFFF6600FF6633FF6666FF6699FF66CCFF66FFFF9900FF9933FF9966FF9999FF99CCFF99FFFFCC00FFCC33FFCC66FFCC99FFCCCCFFCCFFFFFF00FFFF33FFFF66FFFF99FFFFCCFFFFFF0000000D0D0D1A1A1A2828283535354343435050505D5D5D6B6B6B787878868686939393A1A1A1AEAEAEBB
310
BBBBC9C9C9D6D6D6E4E4E4F1F1F1FFFFFF000000000000000000000000000000000000000000000000000000000000790CAC0F000000B14944415478DAEDDC3B0A80301004D0DCFF987B81ADEC258D4D8A547E46DE968AF01061B25338BAE2A6C79CAE236C72E105FE3EFCFAFED72BBB1B373FB2837FF62D838383833F0A97
310
9CE0E0E0E0E1E771C9090E0E0E0E0E0E0E0EAE9EB04880838383AB27443E3838383838383838B87A021C1C1C1C5CAF22F2C1C1C1C1C1C1C1C1C1F52A362070707070F5043838383838383838B87AC222010E0E0EAE9E909CE0E0E099F0D47F7A4A4EF05FC2F366BA4F0386279D40CB09810000000049454E44AE426082
  0
ENDSEC
  0
EOF
