  0
SECTION
  2
HEADER
  9
$ACADVER
  1
AC1027
  9
$ACADMAINTVER
 70
    55
  9
$DWGCODEPAGE
  3
ANSI_949
  9
$LASTSAVEDBY
  1
DESKTOP
  9
$REQUIREDVERSIONS
160
                 0
  9
$INSBASE
 10
0.0
 20
0.0
 30
0.0
  9
$EXTMIN
 10
-2.85736956639505
 20
-2.856502453919915
 30
-0.0000000000000135
  9
$EXTMAX
 10
278.701255145
 20
195.6583584790836
 30
0.0000000000000018
  9
$LIMMIN
 10
0.0
 20
0.0
  9
$LIMMAX
 10
420.0
 20
297.0
  9
$ORTHOMODE
 70
     0
  9
$REGENMODE
 70
     1
  9
$FILLMODE
 70
     1
  9
$QTEXTMODE
 70
     0
  9
$MIRRTEXT
 70
     0
  9
$LTSCALE
 40
5.0
  9
$ATTMODE
 70
     1
  9
$TEXTSIZE
 40
3.0
  9
$TRACEWID
 40
1.0
  9
$TEXTSTYLE
  7
Standard
  9
$CLAYER
  8
0
  9
$CELTYPE
  6
Continuous
  9
$CECOLOR
 62
     7
  9
$CELTSCALE
 40
1.0
  9
$DISPSILH
 70
     0
  9
$DIMSCALE
 40
1.0
  9
$DIMASZ
 40
2.5
  9
$DIMEXO
 40
0.625
  9
$DIMDLI
 40
3.75
  9
$DIMRND
 40
0.0
  9
$DIMDLE
 40
0.0
  9
$DIMEXE
 40
1.25
  9
$DIMTP
 40
0.0
  9
$DIMTM
 40
0.000000001
  9
$DIMTXT
 40
3.0
  9
$DIMCEN
 40
-0.5
  9
$DIMTSZ
 40
0.0
  9
$DIMTOL
 70
     0
  9
$DIMLIM
 70
     0
  9
$DIMTIH
 70
     0
  9
$DIMTOH
 70
     0
  9
$DIMSE1
 70
     0
  9
$DIMSE2
 70
     0
  9
$DIMTAD
 70
     1
  9
$DIMZIN
 70
     8
  9
$DIMBLK
  1

  9
$DIMASO
 70
     1
  9
$DIMSHO
 70
     1
  9
$DIMPOST
  1

  9
$DIMAPOST
  1

  9
$DIMALT
 70
     0
  9
$DIMALTD
 70
     3
  9
$DIMALTF
 40
0.03937007874016
  9
$DIMLFAC
 40
1.0
  9
$DIMTOFL
 70
     1
  9
$DIMTVP
 40
0.0
  9
$DIMTIX
 70
     0
  9
$DIMSOXD
 70
     0
  9
$DIMSAH
 70
     0
  9
$DIMBLK1
  1

  9
$DIMBLK2
  1

  9
$DIMSTYLE
  2
Standard
  9
$DIMCLRD
 70
     3
  9
$DIMCLRE
 70
     3
  9
$DIMCLRT
 70
     2
  9
$DIMTFAC
 40
0.7
  9
$DIMGAP
 40
0.625
  9
$DIMJUST
 70
     0
  9
$DIMSD1
 70
     0
  9
$DIMSD2
 70
     0
  9
$DIMTOLJ
 70
     0
  9
$DIMTZIN
 70
     8
  9
$DIMALTZ
 70
     0
  9
$DIMALTTZ
 70
     0
  9
$DIMUPT
 70
     0
  9
$DIMDEC
 70
     8
  9
$DIMTDEC
 70
     8
  9
$DIMALTU
 70
     2
  9
$DIMALTTD
 70
     3
  9
$DIMTXSTY
  7
Standard
  9
$DIMAUNIT
 70
     1
  9
$DIMADEC
 70
     0
  9
$DIMALTRND
 40
0.0
  9
$DIMAZIN
 70
     0
  9
$DIMDSEP
 70
    46
  9
$DIMATFIT
 70
     3
  9
$DIMFRAC
 70
     0
  9
$DIMLDRBLK
  1

  9
$DIMLUNIT
 70
     2
  9
$DIMLWD
 70
    -1
  9
$DIMLWE
 70
    -1
  9
$DIMTMOVE
 70
     0
  9
$DIMFXL
 40
1.0
  9
$DIMFXLON
 70
     0
  9
$DIMJOGANG
 40
0.7853981633974483
  9
$DIMTFILL
 70
     0
  9
$DIMTFILLCLR
 70
     0
  9
$DIMARCSYM
 70
     1
  9
$DIMLTYPE
  6

  9
$DIMLTEX1
  6

  9
$DIMLTEX2
  6

  9
$DIMTXTDIRECTION
 70
     0
  9
$LUNITS
 70
     2
  9
$LUPREC
 70
     4
  9
$SKETCHINC
 40
0.0
  9
$FILLETRAD
 40
0.0
  9
$AUNITS
 70
     0
  9
$AUPREC
 70
     0
  9
$MENU
  1
.
  9
$ELEVATION
 40
0.0
  9
$PELEVATION
 40
0.0
  9
$THICKNESS
 40
0.0
  9
$LIMCHECK
 70
     0
  9
$CHAMFERA
 40
1.5
  9
$CHAMFERB
 40
1.5
  9
$CHAMFERC
 40
0.0
  9
$CHAMFERD
 40
0.0087266462599716
  9
$SKPOLY
 70
     0
  9
$TDCREATE
 40
2455072.745932974
  9
$TDUCREATE
 40
2455072.370932974
  9
$TDUPDATE
 40
2460950.387426747
  9
$TDUUPDATE
 40
2460950.012426748
  9
$TDINDWG
 40
132.0342416319
  9
$TDUSRTIMER
 40
132.0342414468
  9
$USRTIMER
 70
     1
  9
$ANGBASE
 50
0.0
  9
$ANGDIR
 70
     0
  9
$PDMODE
 70
     0
  9
$PDSIZE
 40
0.0
  9
$PLINEWID
 40
0.0
  9
$SPLFRAME
 70
     0
  9
$SPLINETYPE
 70
     6
  9
$SPLINESEGS
 70
     8
  9
$HANDSEED
  5
3873A
  9
$SURFTAB1
 70
     6
  9
$SURFTAB2
 70
     6
  9
$SURFTYPE
 70
     6
  9
$SURFU
 70
     6
  9
$SURFV
 70
     6
  9
$UCSBASE
  2

  9
$UCSNAME
  2

  9
$UCSORG
 10
0.0
 20
0.0
 30
0.0
  9
$UCSXDIR
 10
1.0
 20
0.0
 30
0.0
  9
$UCSYDIR
 10
0.0
 20
1.0
 30
0.0
  9
$UCSORTHOREF
  2

  9
$UCSORTHOVIEW
 70
     0
  9
$UCSORGTOP
 10
0.0
 20
0.0
 30
0.0
  9
$UCSORGBOTTOM
 10
0.0
 20
0.0
 30
0.0
  9
$UCSORGLEFT
 10
0.0
 20
0.0
 30
0.0
  9
$UCSORGRIGHT
 10
0.0
 20
0.0
 30
0.0
  9
$UCSORGFRONT
 10
0.0
 20
0.0
 30
0.0
  9
$UCSORGBACK
 10
0.0
 20
0.0
 30
0.0
  9
$PUCSBASE
  2

  9
$PUCSNAME
  2

  9
$PUCSORG
 10
0.0
 20
0.0
 30
0.0
  9
$PUCSXDIR
 10
1.0
 20
0.0
 30
0.0
  9
$PUCSYDIR
 10
0.0
 20
1.0
 30
0.0
  9
$PUCSORTHOREF
  2

  9
$PUCSORTHOVIEW
 70
     0
  9
$PUCSORGTOP
 10
0.0
 20
0.0
 30
0.0
  9
$PUCSORGBOTTOM
 10
0.0
 20
0.0
 30
0.0
  9
$PUCSORGLEFT
 10
0.0
 20
0.0
 30
0.0
  9
$PUCSORGRIGHT
 10
0.0
 20
0.0
 30
0.0
  9
$PUCSORGFRONT
 10
0.0
 20
0.0
 30
0.0
  9
$PUCSORGBACK
 10
0.0
 20
0.0
 30
0.0
  9
$USERI1
 70
     0
  9
$USERI2
 70
     0
  9
$USERI3
 70
     0
  9
$USERI4
 70
     0
  9
$USERI5
 70
     0
  9
$USERR1
 40
0.0
  9
$USERR2
 40
0.0
  9
$USERR3
 40
0.0
  9
$USERR4
 40
0.0
  9
$USERR5
 40
0.0
  9
$WORLDVIEW
 70
     1
  9
$SHADEDGE
 70
     3
  9
$SHADEDIF
 70
    70
  9
$TILEMODE
 70
     1
  9
$MAXACTVP
 70
    64
  9
$PINSBASE
 10
0.0
 20
0.0
 30
0.0
  9
$PLIMCHECK
 70
     0
  9
$PEXTMIN
 10
1.000000000000000E+20
 20
1.000000000000000E+20
 30
1.000000000000000E+20
  9
$PEXTMAX
 10
-1.000000000000000E+20
 20
-1.000000000000000E+20
 30
-1.000000000000000E+20
  9
$PLIMMIN
 10
-20.0
 20
-7.5
  9
$PLIMMAX
 10
277.0
 20
202.5
  9
$UNITMODE
 70
     0
  9
$VISRETAIN
 70
     1
  9
$PLINEGEN
 70
     0
  9
$PSLTSCALE
 70
     1
  9
$TREEDEPTH
 70
  3020
  9
$CMLSTYLE
  2
Standard
  9
$CMLJUST
 70
     0
  9
$CMLSCALE
 40
20.0
  9
$PROXYGRAPHICS
 70
     1
  9
$MEASUREMENT
 70
     1
  9
$CELWEIGHT
370
    -1
  9
$ENDCAPS
280
     0
  9
$JOINSTYLE
280
     0
  9
$LWDISPLAY
290
     0
  9
$INSUNITS
 70
     4
  9
$HYPERLINKBASE
  1

  9
$STYLESHEET
  1
ksm0910.ctb
  9
$XEDIT
290
     1
  9
$CEPSNTYPE
380
     0
  9
$PSTYLEMODE
290
     1
  9
$FINGERPRINTGUID
  2
{D2C70C36-9B4F-4E20-9CCB-531AA1EE4AC8}
  9
$VERSIONGUID
  2
{CF128262-BBD5-41A2-B58C-16CF60BA027C}
  9
$EXTNAMES
290
     1
  9
$PSVPSCALE
 40
0.0
  9
$OLESTARTUP
290
     0
  9
$SORTENTS
280
   127
  9
$INDEXCTL
280
     0
  9
$HIDETEXT
280
     1
  9
$XCLIPFRAME
280
     2
  9
$HALOGAP
280
     0
  9
$OBSCOLOR
 70
   257
  9
$OBSLTYPE
280
     0
  9
$INTERSECTIONDISPLAY
280
     0
  9
$INTERSECTIONCOLOR
 70
   257
  9
$DIMASSOC
280
     1
  9
$PROJECTNAME
  1

  9
$CAMERADISPLAY
290
     0
  9
$LENSLENGTH
 40
50.0
  9
$CAMERAHEIGHT
 40
0.0
  9
$STEPSPERSEC
 40
2.0
  9
$STEPSIZE
 40
6.0
  9
$3DDWFPREC
 40
2.0
  9
$PSOLWIDTH
 40
5.0
  9
$PSOLHEIGHT
 40
80.0
  9
$LOFTANG1
 40
1.570796326794896
  9
$LOFTANG2
 40
1.570796326794896
  9
$LOFTMAG1
 40
0.0
  9
$LOFTMAG2
 40
0.0
  9
$LOFTPARAM
 70
     7
  9
$LOFTNORMALS
280
     1
  9
$LATITUDE
 40
37.795
  9
$LONGITUDE
 40
-122.394
  9
$NORTHDIRECTION
 40
0.0
  9
$TIMEZONE
 70
 -8000
  9
$LIGHTGLYPHDISPLAY
280
     1
  9
$TILEMODELIGHTSYNCH
280
     1
  9
$CMATERIAL
347
3D
  9
$SOLIDHIST
280
     1
  9
$SHOWHIST
280
     1
  9
$DWFFRAME
280
     2
  9
$DGNFRAME
280
     0
  9
$REALWORLDSCALE
290
     1
  9
$INTERFERECOLOR
 62
     1
  9
$INTERFEREOBJVS
345
46
  9
$INTERFEREVPVS
346
47
  9
$CSHADOW
280
     0
  9
$SHADOWPLANELOCATION
 40
0.0
  0
ENDSEC
  0
SECTION
  2
CLASSES
  0
CLASS
  1
ACDBDICTIONARYWDFLT
  2
AcDbDictionaryWithDefault
  3
ObjectDBX Classes
 90
        0
 91
        1
280
     0
281
     0
  0
CLASS
  1
DICTIONARYVAR
  2
AcDbDictionaryVar
  3
ObjectDBX Classes
 90
        0
 91
       18
280
     0
281
     0
  0
CLASS
  1
TABLESTYLE
  2
AcDbTableStyle
  3
ObjectDBX Classes
 90
     4095
 91
        1
280
     0
281
     0
  0
CLASS
  1
MATERIAL
  2
AcDbMaterial
  3
ObjectDBX Classes
 90
     1153
 91
        3
280
     0
281
     0
  0
CLASS
  1
VISUALSTYLE
  2
AcDbVisualStyle
  3
ObjectDBX Classes
 90
     4095
 91
       26
280
     0
281
     0
  0
CLASS
  1
SCALE
  2
AcDbScale
  3
ObjectDBX Classes
 90
     1153
 91
       17
280
     0
281
     0
  0
CLASS
  1
MLEADERSTYLE
  2
AcDbMLeaderStyle
  3
ACDB_MLEADERSTYLE_CLASS
 90
     4095
 91
        1
280
     0
281
     0
  0
CLASS
  1
CELLSTYLEMAP
  2
AcDbCellStyleMap
  3
ObjectDBX Classes
 90
     1152
 91
        2
280
     0
281
     0
  0
CLASS
  1
SORTENTSTABLE
  2
AcDbSortentsTable
  3
ObjectDBX Classes
 90
        0
 91
        1
280
     0
281
     0
  0
CLASS
  1
DIMASSOC
  2
AcDbDimAssoc
  3
"AcDbDimAssoc|Product Desc:     AcDim ARX App For Dimension|Company:          Autodesk, Inc.|WEB Address:      www.autodesk.com"
 90
        0
 91
        0
280
     0
281
     0
  0
CLASS
  1
SOLID_BACKGROUND
  2
AcDbSolidBackground
  3
SCENEOE
 90
     4095
 91
        0
280
     0
281
     0
  0
CLASS
  1
NPOCOLLECTION
  2
AcDbImpNonPersistentObjectsCollection
  3
ObjectDBX Classes
 90
     1153
 91
        0
280
     0
281
     0
  0
CLASS
  1
ACAD_EVALUATION_GRAPH
  2
AcDbEvalGraph
  3
ObjectDBX Classes
 90
     1153
 91
        0
280
     0
281
     0
  0
CLASS
  1
ACAECUSTOBJ
  2
AcAeEditorObj
  3
AcAeEditorObj
 90
     1024
 91
        0
280
     1
281
     0
  0
CLASS
  1
ACDB_DYNAMICBLOCKPURGEPREVENTER_VERSION
  2
AcDbDynamicBlockPurgePreventer
  3
ObjectDBX Classes
 90
     1153
 91
        0
280
     0
281
     0
  0
CLASS
  1
HELIX
  2
AcDbHelix
  3
ObjectDBX Classes
 90
     4095
 91
        0
280
     0
281
     1
  0
CLASS
  1
MULTILEADER
  2
AcDbMLeader
  3
ACDB_MLEADER_CLASS
 90
     1025
 91
        3
280
     0
281
     1
  0
CLASS
  1
ACMDIMBREAKPERSREACTOR
  2
AcmDimBreakPersReactor
  3
amgDimApp().moduleName()
 90
     1023
 91
        0
280
     1
281
     0
  0
CLASS
  1
ACDB_MTEXTOBJECTCONTEXTDATA_CLASS
  2
AcDbMTextObjectContextData
  3
ObjectDBX Classes
 90
     1153
 91
        0
280
     0
281
     0
  0
CLASS
  1
BREAKDATA
  2
AcDbBreakData
  3
ObjectDBX Classes
 90
     1024
 91
        0
280
     0
281
     0
  0
CLASS
  1
EXACXREFPANELOBJECT
  2
ExAcXREFPanelObject
  3
EXAC_ESW
 90
     1025
 91
        0
280
     1
281
     0
  0
CLASS
  1
ACDBSECTIONVIEWSTYLE
  2
AcDbSectionViewStyle
  3
ObjectDBX Classes
 90
     1025
 91
        2
280
     0
281
     0
  0
CLASS
  1
ACDBDETAILVIEWSTYLE
  2
AcDbDetailViewStyle
  3
ObjectDBX Classes
 90
     1025
 91
        2
280
     0
281
     0
  0
CLASS
  1
ACDBASSOCACTION
  2
AcDbAssocAction
  3
ObjectDBX Classes
 90
     1025
 91
        0
280
     0
281
     0
  0
CLASS
  1
ACDBASSOCARRAYACTIONBODY
  2
AcDbAssocArrayActionBody
  3
ObjectDBX Classes
 90
     1025
 91
        0
280
     0
281
     0
  0
CLASS
  1
ACDBASSOCDEPENDENCY
  2
AcDbAssocDependency
  3
ObjectDBX Classes
 90
     1025
 91
        0
280
     0
281
     0
  0
CLASS
  1
ACDBASSOCVERTEXACTIONPARAM
  2
AcDbAssocVertexActionParam
  3
ObjectDBX Classes
 90
     1025
 91
        0
280
     0
281
     0
  0
CLASS
  1
ACDBASSOCARRAYPOLARPARAMETERS
  2
AcDbAssocArrayPolarParameters
  3
ObjectDBX Classes
 90
     1025
 91
        0
280
     0
281
     0
  0
CLASS
  1
ACDBASSOCNETWORK
  2
AcDbAssocNetwork
  3
ObjectDBX Classes
 90
     1025
 91
        0
280
     0
281
     0
  0
CLASS
  1
ACARRAYJIGENTITY
  2
AcArrayJigEntity
  3
ACAD_ARRAY
 90
      129
 91
        0
280
     0
281
     1
  0
ENDSEC
  0
SECTION
  2
TABLES
  0
TABLE
  2
VPORT
  5
2C
102
{ACAD_XDICTIONARY
360
31
102
}
330
0
100
AcDbSymbolTable
 70
     1
  0
VPORT
  5
2D
330
2C
100
AcDbSymbolTableRecord
100
AcDbViewportTableRecord
  2
*Active
 70
     0
 10
0.0
 20
0.0
 11
1.0
 21
1.0
 12
170.3658803294277
 22
99.74069669620428
 13
0.0
 23
0.0
 14
2.0
 24
2.0
 15
2.0
 25
2.0
 16
0.0
 26
0.0
 36
1.0
 17
0.0
 27
0.0
 37
0.0
 40
319.8229372200854
 41
2.15871121718377
 42
50.0
 43
0.0
 44
0.0
 50
0.0
 51
0.0
 71
     0
 72
  1000
 73
     1
 74
     3
 75
     0
 76
     0
 77
     0
 78
     1
281
     0
 65
     1
110
0.0
120
0.0
130
0.0
111
1.0
121
0.0
131
0.0
112
0.0
122
1.0
132
0.0
 79
     0
146
0.0
348
2E
 60
     3
 61
     5
292
     1
282
     1
141
0.0
142
0.0
 63
   250
421
  3355443
1001
ACAD_NAV_VCDISPLAY
1070
     3
  0
ENDTAB
  0
TABLE
  2
LTYPE
  5
27
330
0
100
AcDbSymbolTable
 70
     2
  0
LTYPE
  5
28
330
27
100
AcDbSymbolTableRecord
100
AcDbLinetypeTableRecord
  2
ByBlock
 70
     0
  3

 72
    65
 73
     0
 40
0.0
  0
LTYPE
  5
29
330
27
100
AcDbSymbolTableRecord
100
AcDbLinetypeTableRecord
  2
ByLayer
 70
     0
  3

 72
    65
 73
     0
 40
0.0
  0
LTYPE
  5
14
330
27
100
AcDbSymbolTableRecord
100
AcDbLinetypeTableRecord
  2
Continuous
 70
     0
  3
Solid line
 72
    65
 73
     0
 40
0.0
  0
LTYPE
  5
36DF9
330
27
100
AcDbSymbolTableRecord
100
AcDbLinetypeTableRecord
  2
CENTER2
 70
     0
  3
Center (.5x) ___ _ ___ _ ___ _ ___ _ ___ _ ___
 72
    65
 73
     4
 40
1.125
 49
0.75
 74
     0
 49
-0.125
 74
     0
 49
0.125
 74
     0
 49
-0.125
 74
     0
  0
ENDTAB
  0
TABLE
  2
LAYER
  5
21
102
{ACAD_XDICTIONARY
360
22
102
}
330
0
100
AcDbSymbolTable
 70
     9
  0
LAYER
  5
6
102
{ACAD_XDICTIONARY
360
7
102
}
330
21
100
AcDbSymbolTableRecord
100
AcDbLayerTableRecord
  2
0
 70
     0
 62
     7
  6
Continuous
370
    -3
390
9
347
C
348
0
  0
LAYER
  5
1A4
330
21
100
AcDbSymbolTableRecord
100
AcDbLayerTableRecord
  2
DEFPOINTS
 70
     0
 62
     7
  6
Continuous
290
     0
370
    -3
390
9
347
C
348
0
  0
LAYER
  5
283CB
330
21
100
AcDbSymbolTableRecord
100
AcDbLayerTableRecord
  2
Layer 1
 70
     0
 62
     7
  6
Continuous
370
     0
390
9
347
C
348
0
  0
LAYER
  5
36DFC
330
21
100
AcDbSymbolTableRecord
100
AcDbLayerTableRecord
  2
06-D06-75
 70
     0
 62
     7
  6
Continuous
370
    -3
390
9
347
C
348
0
1001
AcAecLayerStandard
1000

1000

  0
LAYER
  5
36DFD
330
21
100
AcDbSymbolTableRecord
100
AcDbLayerTableRecord
  2
26-D06-105
 70
     0
 62
     7
  6
Continuous
370
    -3
390
9
347
C
348
0
1001
AcAecLayerStandard
1000

1000

  0
LAYER
  5
36DFE
330
21
100
AcDbSymbolTableRecord
100
AcDbLayerTableRecord
  2
32-D12-105
 70
     0
 62
     7
  6
Continuous
370
    -3
390
9
347
C
348
0
1001
AcAecLayerStandard
1000

1000

  0
LAYER
  5
36DFF
330
21
100
AcDbSymbolTableRecord
100
AcDbLayerTableRecord
  2
28-D08-105
 70
     0
 62
     7
  6
Continuous
370
    -3
390
9
347
C
348
0
1001
AcAecLayerStandard
1000

1000

  0
LAYER
  5
36E00
330
21
100
AcDbSymbolTableRecord
100
AcDbLayerTableRecord
  2
30-D10-105
 70
     0
 62
     7
  6
Continuous
370
    -3
390
9
347
C
348
0
1001
AcAecLayerStandard
1000

1000

  0
LAYER
  5
36E01
330
21
100
AcDbSymbolTableRecord
100
AcDbLayerTableRecord
  2
36-D16-105
 70
     0
 62
     7
  6
Continuous
370
    -3
390
9
347
C
348
0
1001
AcAecLayerStandard
1000

1000

  0
ENDTAB
  0
TABLE
  2
STYLE
  5
24
330
0
100
AcDbSymbolTable
 70
     4
  0
STYLE
  5
25
330
24
100
AcDbSymbolTableRecord
100
AcDbTextStyleTableRecord
  2
Standard
 70
     0
 40
3.0
 41
1.0
 50
0.0
 71
     0
 42
3.0
  3
isocp.shx
  4
whgtxt.shx
  0
STYLE
  5
35
330
24
100
AcDbSymbolTableRecord
100
AcDbTextStyleTableRecord
  2
ROMANS
 70
     0
 40
2.5
 41
1.0
 50
0.0
 71
     0
 42
2.5
  3
romans.shx
  4

  0
STYLE
  5
5C
330
24
100
AcDbSymbolTableRecord
100
AcDbTextStyleTableRecord
  2
굴림
 70
     0
 40
3.0
 41
1.0
 50
0.0
 71
     0
 42
3.0
  3

  4

1001
ACAD
1000
Gulim
1071
    33074
  0
ENDTAB
  0
TABLE
  2
VIEW
  5
2A
330
0
100
AcDbSymbolTable
 70
     0
  0
ENDTAB
  0
TABLE
  2
UCS
  5
2B
330
0
100
AcDbSymbolTable
 70
     0
  0
ENDTAB
  0
TABLE
  2
APPID
  5
32
330
0
100
AcDbSymbolTable
 70
    45
  0
APPID
  5
13
330
32
100
AcDbSymbolTableRecord
100
AcDbRegAppTableRecord
  2
ACAD
 70
     0
  0
APPID
  5
1A
330
32
100
AcDbSymbolTableRecord
100
AcDbRegAppTableRecord
  2
ACAD_PSEXT
 70
     0
  0
APPID
  5
37
330
32
100
AcDbSymbolTableRecord
100
AcDbRegAppTableRecord
  2
ACAD_DSTYLE_DIMJAG
 70
     0
  0
APPID
  5
38
330
32
100
AcDbSymbolTableRecord
100
AcDbRegAppTableRecord
  2
ACAD_DSTYLE_DIMTALN
 70
     0
  0
APPID
  5
36
330
32
100
AcDbSymbolTableRecord
100
AcDbRegAppTableRecord
  2
ACAD_DSTYLE_DIMJOGGED_JOGANGLE_SYMBOL
 70
     0
  0
APPID
  5
183
330
32
100
AcDbSymbolTableRecord
100
AcDbRegAppTableRecord
  2
AcAecLayerStandard
 70
     0
  0
APPID
  5
3DE
330
32
100
AcDbSymbolTableRecord
100
AcDbRegAppTableRecord
  2
ACAD_DSTYLE_DIMRADIAL_EXTENSION
 70
     0
  0
APPID
  5
530
330
32
100
AcDbSymbolTableRecord
100
AcDbRegAppTableRecord
  2
GRADIENTCOLOR1ACI
 70
     0
  0
APPID
  5
531
330
32
100
AcDbSymbolTableRecord
100
AcDbRegAppTableRecord
  2
GRADIENTCOLOR2ACI
 70
     0
  0
APPID
  5
30
330
32
100
AcDbSymbolTableRecord
100
AcDbRegAppTableRecord
  2
ACAD_NAV_VCDISPLAY
 70
     0
  0
APPID
  5
C34
330
32
100
AcDbSymbolTableRecord
100
AcDbRegAppTableRecord
  2
ACAD_MLEADERVER
 70
     0
  0
APPID
  5
C97
330
32
100
AcDbSymbolTableRecord
100
AcDbRegAppTableRecord
  2
ACAD_EXEMPT_FROM_CAD_STANDARDS
 70
     0
  0
APPID
  5
D79
330
32
100
AcDbSymbolTableRecord
100
AcDbRegAppTableRecord
  2
AcadAnnoMonitorAlertIconDisabled
 70
     0
  0
APPID
  5
1A45
330
32
100
AcDbSymbolTableRecord
100
AcDbRegAppTableRecord
  2
GENIUS_GENODEF_13
 70
     0
  0
APPID
  5
1A46
330
32
100
AcDbSymbolTableRecord
100
AcDbRegAppTableRecord
  2
GENIUS_GENOBJ-N-FIL_13
 70
     0
  0
APPID
  5
1A47
330
32
100
AcDbSymbolTableRecord
100
AcDbRegAppTableRecord
  2
ACAD_DSTYLE_DIMBREAK
 70
     0
  0
APPID
  5
1A48
330
32
100
AcDbSymbolTableRecord
100
AcDbRegAppTableRecord
  2
GENIUS_GENOBJ-N-HTC_13
 70
     0
  0
APPID
  5
1A49
330
32
100
AcDbSymbolTableRecord
100
AcDbRegAppTableRecord
  2
GENIUS_GENHATCH_13
 70
     0
  0
APPID
  5
1A4A
330
32
100
AcDbSymbolTableRecord
100
AcDbRegAppTableRecord
  2
GENIUS_GENREC_14
 70
     0
  0
APPID
  5
1A4B
330
32
100
AcDbSymbolTableRecord
100
AcDbRegAppTableRecord
  2
GENIUS_GENOBJ-N-REC_13
 70
     0
  0
APPID
  5
1A4C
330
32
100
AcDbSymbolTableRecord
100
AcDbRegAppTableRecord
  2
ACAUTHENVIRON
 70
     0
  0
APPID
  5
1A4D
330
32
100
AcDbSymbolTableRecord
100
AcDbRegAppTableRecord
  2
AcDbDynamicBlockTrueName
 70
     0
  0
APPID
  5
1A4E
330
32
100
AcDbSymbolTableRecord
100
AcDbRegAppTableRecord
  2
AcDbDynamicBlockGUID
 70
     0
  0
APPID
  5
1A4F
330
32
100
AcDbSymbolTableRecord
100
AcDbRegAppTableRecord
  2
AcDbBlockRepETag
 70
     0
  0
APPID
  5
1A50
330
32
100
AcDbSymbolTableRecord
100
AcDbRegAppTableRecord
  2
DCO15
 70
     0
  0
APPID
  5
1A51
330
32
100
AcDbSymbolTableRecord
100
AcDbRegAppTableRecord
  2
ACAD_DSTYLE_DIMTEXT_FILL
 70
     0
  0
APPID
  5
1A52
330
32
100
AcDbSymbolTableRecord
100
AcDbRegAppTableRecord
  2
ACAD_DSTYLE_DIM_LINETYPE
 70
     0
  0
APPID
  5
1A53
330
32
100
AcDbSymbolTableRecord
100
AcDbRegAppTableRecord
  2
ACAD_DSTYLE_DIM_EXT1_LINETYPE
 70
     0
  0
APPID
  5
1A54
330
32
100
AcDbSymbolTableRecord
100
AcDbRegAppTableRecord
  2
ACAD_DSTYLE_DIM_EXT2_LINETYPE
 70
     0
  0
APPID
  5
1A55
330
32
100
AcDbSymbolTableRecord
100
AcDbRegAppTableRecord
  2
ACAD_DSTYLE_DIMINSPECT
 70
     0
  0
APPID
  5
1A56
330
32
100
AcDbSymbolTableRecord
100
AcDbRegAppTableRecord
  2
AcadAnnotative
 70
     0
  0
APPID
  5
1A57
330
32
100
AcDbSymbolTableRecord
100
AcDbRegAppTableRecord
  2
GENIUS_GENDTOL_13
 70
     0
  0
APPID
  5
1A58
330
32
100
AcDbSymbolTableRecord
100
AcDbRegAppTableRecord
  2
GENIUS_GENFIL_13
 70
     0
  0
APPID
  5
1A59
330
32
100
AcDbSymbolTableRecord
100
AcDbRegAppTableRecord
  2
GENIUS_GENOBJ-N-CHA_13
 70
     0
  0
APPID
  5
1A5A
330
32
100
AcDbSymbolTableRecord
100
AcDbRegAppTableRecord
  2
AcadAnnotativeDecomposition
 70
     0
  0
APPID
  5
1A5B
330
32
100
AcDbSymbolTableRecord
100
AcDbRegAppTableRecord
  2
MCAD_NO_VIS
 70
     0
  0
APPID
  5
1A5C
330
32
100
AcDbSymbolTableRecord
100
AcDbRegAppTableRecord
  2
ACAD_TEMP_GRAPHIC
 70
     0
  0
APPID
  5
1A5D
330
32
100
AcDbSymbolTableRecord
100
AcDbRegAppTableRecord
  2
ACATTRIBSERVICES
 70
     0
  0
APPID
  5
1A5E
330
32
100
AcDbSymbolTableRecord
100
AcDbRegAppTableRecord
  2
DESIGNERASSEMBLIES
 70
     0
  0
APPID
  5
1A5F
330
32
100
AcDbSymbolTableRecord
100
AcDbRegAppTableRecord
  2
GENIUS_GENDIMSH_14
 70
     0
  0
APPID
  5
1A60
330
32
100
AcDbSymbolTableRecord
100
AcDbRegAppTableRecord
  2
ACAD_DSTYLE_DIMARC_LENGTH_SYMBOL
 70
     0
  0
APPID
  5
1A61
330
32
100
AcDbSymbolTableRecord
100
AcDbRegAppTableRecord
  2
ACAD_SPLINE_DATA
 70
     0
  0
APPID
  5
1A62
330
32
100
AcDbSymbolTableRecord
100
AcDbRegAppTableRecord
  2
GENIUS_GENOREF_13
 70
     0
  0
APPID
  5
1A63
330
32
100
AcDbSymbolTableRecord
100
AcDbRegAppTableRecord
  2
ACAD_DSTYLE_DIMANGULAR_EXTENSION
 70
     0
  0
APPID
  5
318CC
330
32
100
AcDbSymbolTableRecord
100
AcDbRegAppTableRecord
  2
HATCHBACKGROUNDCOLOR
 70
     0
  0
ENDTAB
  0
TABLE
  2
DIMSTYLE
  5
33
330
0
100
AcDbSymbolTable
 70
     3
100
AcDbDimStyleTable
 71
     1
340
34
  0
DIMSTYLE
105
34
330
33
100
AcDbSymbolTableRecord
100
AcDbDimStyleTableRecord
  2
Standard
 70
     0
 41
2.5
 73
     0
 77
     3
 78
     8
140
2.5
141
-1.0
147
1.0
175
     1
176
     3
177
     3
178
     2
179
     8
271
     8
272
     8
275
     1
340
35
1001
ACAD_DSTYLE_DIMJOGGED_JOGANGLE_SYMBOL
1070
   384
1040
0.7853981633974483
1001
ACAD_DSTYLE_DIMJAG
1070
   388
1040
1.5
1001
ACAD_DSTYLE_DIMTALN
1070
   392
1070
     0
  0
DIMSTYLE
105
1A8
102
{ACAD_REACTORS
330
37320
330
3830D
330
384B9
330
384BB
330
384BC
330
384BD
102
}
330
33
100
AcDbSymbolTableRecord
100
AcDbDimStyleTableRecord
  2
Standard$0
 70
     0
 41
2.5
 73
     0
 77
     3
 78
     8
140
2.5
141
-1.0
147
1.0
175
     1
176
     3
177
     3
178
     2
179
     8
271
     8
272
     8
275
     1
340
35
  0
ENDTAB
  0
TABLE
  2
BLOCK_RECORD
  5
1
330
0
100
AcDbSymbolTable
 70
     7
  0
BLOCK_RECORD
  5
2
102
{ACAD_XDICTIONARY
360
3
102
}
330
1
100
AcDbSymbolTableRecord
100
AcDbBlockTableRecord
  2
*Model_Space
340
16
 70
     0
280
     1
281
     0
  0
BLOCK_RECORD
  5
1B
330
1
100
AcDbSymbolTableRecord
100
AcDbBlockTableRecord
  2
*Paper_Space
340
1E
 70
     0
280
     1
281
     0
  0
BLOCK_RECORD
  5
373A6
330
1
100
AcDbSymbolTableRecord
100
AcDbBlockTableRecord
  2
*D0
340
0
 70
     0
280
     1
281
     0
  0
BLOCK_RECORD
  5
38449
330
1
100
AcDbSymbolTableRecord
100
AcDbBlockTableRecord
  2
*D1
340
0
 70
     0
280
     1
281
     0
  0
BLOCK_RECORD
  5
38525
330
1
100
AcDbSymbolTableRecord
100
AcDbBlockTableRecord
  2
*D2
340
0
 70
     0
280
     1
281
     0
  0
BLOCK_RECORD
  5
3852F
330
1
100
AcDbSymbolTableRecord
100
AcDbBlockTableRecord
  2
*D3
340
0
 70
     0
280
     1
281
     0
  0
BLOCK_RECORD
  5
38539
330
1
100
AcDbSymbolTableRecord
100
AcDbBlockTableRecord
  2
*D4
340
0
 70
     0
280
     1
281
     0
  0
BLOCK_RECORD
  5
38545
330
1
100
AcDbSymbolTableRecord
100
AcDbBlockTableRecord
  2
*D5
340
0
 70
     0
280
     1
281
     0
  0
ENDTAB
  0
ENDSEC
  0
SECTION
  2
BLOCKS
  0
BLOCK
  5
5
330
2
100
AcDbEntity
  8
0
100
AcDbBlockBegin
  2
*Model_Space
 70
     0
 10
0.0
 20
0.0
 30
0.0
  3
*Model_Space
  1

  0
ENDBLK
  5
15
330
2
100
AcDbEntity
  8
0
100
AcDbBlockEnd
  0
BLOCK
  5
1C
330
1B
100
AcDbEntity
 67
     1
  8
0
100
AcDbBlockBegin
  2
*Paper_Space
 70
     0
 10
0.0
 20
0.0
 30
0.0
  3
*Paper_Space
  1

  0
ENDBLK
  5
1D
330
1B
100
AcDbEntity
 67
     1
  8
0
100
AcDbBlockEnd
  0
BLOCK
  5
373A7
330
373A6
100
AcDbEntity
  8
0
 62
     7
100
AcDbBlockBegin
  2
*D0
 70
     1
 10
0.0
 20
0.0
 30
0.0
  3
*D0
  1

  0
LINE
  5
3868E
330
373A6
100
AcDbEntity
  8
0
  6
Continuous
 62
     3
440
 16777216
100
AcDbLine
 10
90.66634274978616
 20
82.3377562803625
 30
0.0
 11
78.48477636548899
 21
82.3377562803625
 31
0.0
  0
LINE
  5
3868F
330
373A6
100
AcDbEntity
  8
0
  6
Continuous
 62
     3
440
 16777216
100
AcDbLine
 10
79.73477636548899
 20
84.8377562803625
 30
0.0
 11
79.73477636548901
 21
101.487461004771
 31
0.0
  0
SOLID
  5
38690
330
373A6
100
AcDbEntity
  8
0
  6
Continuous
 62
     3
440
 16777216
100
AcDbTrace
 10
79.31810969882232
 20
84.8377562803625
 30
0.0
 11
80.15144303215567
 21
84.8377562803625
 31
0.0
 12
79.73477636548899
 22
82.3377562803625
 32
0.0
 13
79.73477636548899
 23
82.3377562803625
 33
0.0
  0
MTEXT
  5
38691
330
373A6
100
AcDbEntity
  8
0
  6
Continuous
 62
     2
440
 16777216
100
AcDbMText
 10
77.60977636548898
 20
95.91246100477105
 30
0.0
 40
3.0
 41
0.0
 46
0.0
 71
     5
 72
     1
  1
%%c1.551
 11
0.0000000000000001
 21
1.0
 31
0.0
 73
     1
 44
1.0
  0
POINT
  5
38692
330
373A6
100
AcDbEntity
  8
DEFPOINTS
  6
Continuous
 62
     0
440
 16777216
100
AcDbPoint
 10
91.29134274978616
 20
121.8377562803625
 30
0.0
  0
POINT
  5
38693
330
373A6
100
AcDbEntity
  8
DEFPOINTS
  6
Continuous
 62
     0
440
 16777216
100
AcDbPoint
 10
91.29134274978616
 20
82.3377562803625
 30
0.0
  0
POINT
  5
38694
330
373A6
100
AcDbEntity
  8
DEFPOINTS
  6
Continuous
 62
     0
440
 16777216
100
AcDbPoint
 10
79.73477636548899
 20
82.3377562803625
 30
0.0
  0
ENDBLK
  5
373A8
330
373A6
100
AcDbEntity
  8
0
 62
     7
100
AcDbBlockEnd
  0
BLOCK
  5
3844A
330
38449
100
AcDbEntity
  8
0
 62
     7
100
AcDbBlockBegin
  2
*D1
 70
     1
 10
0.0
 20
0.0
 30
0.0
  3
*D1
  1

  0
LINE
  5
38695
330
38449
100
AcDbEntity
  8
0
  6
Continuous
 62
     3
440
 16777216
100
AcDbLine
 10
211.3373171346402
 20
96.44706014223714
 30
0.0
 11
211.3373171346402
 21
77.45645287528095
 31
0.0
  0
LINE
  5
38696
330
38449
100
AcDbEntity
  8
0
  6
Continuous
 62
     3
440
 16777216
100
AcDbLine
 10
233.5623171346401
 20
96.44706014223714
 30
0.0
 11
233.5623171346401
 21
77.45645287528095
 31
0.0
  0
LINE
  5
38697
330
38449
100
AcDbEntity
  8
0
  6
Continuous
 62
     3
440
 16777216
100
AcDbLine
 10
213.8373171346402
 20
78.70645287528095
 30
0.0
 11
231.0623171346401
 21
78.70645287528095
 31
0.0
  0
SOLID
  5
38698
330
38449
100
AcDbEntity
  8
0
  6
Continuous
 62
     3
440
 16777216
100
AcDbTrace
 10
213.8373171346402
 20
79.12311954194762
 30
0.0
 11
213.8373171346402
 21
78.28978620861427
 31
0.0
 12
211.3373171346402
 22
78.70645287528095
 32
0.0
 13
211.3373171346402
 23
78.70645287528095
 33
0.0
  0
SOLID
  5
38699
330
38449
100
AcDbEntity
  8
0
  6
Continuous
 62
     3
440
 16777216
100
AcDbTrace
 10
231.0623171346401
 20
79.12311954194762
 30
0.0
 11
231.0623171346401
 21
78.28978620861427
 31
0.0
 12
233.5623171346401
 22
78.70645287528095
 32
0.0
 13
233.5623171346401
 23
78.70645287528095
 33
0.0
  0
MTEXT
  5
3869A
330
38449
100
AcDbEntity
  8
0
  6
Continuous
 62
     2
440
 16777216
100
AcDbMText
 10
222.4498171346402
 20
80.83145287528095
 30
0.0
 40
3.0
 41
0.0
 46
0.0
 71
     5
 72
     1
  1
.875
 73
     1
 44
1.0
  0
POINT
  5
3869B
330
38449
100
AcDbEntity
  8
DEFPOINTS
  6
Continuous
 62
     0
440
 16777216
100
AcDbPoint
 10
211.3373171346402
 20
97.07206014223714
 30
0.0
  0
POINT
  5
3869C
330
38449
100
AcDbEntity
  8
DEFPOINTS
  6
Continuous
 62
     0
440
 16777216
100
AcDbPoint
 10
233.5623171346401
 20
97.07206014223714
 30
0.0
  0
POINT
  5
3869D
330
38449
100
AcDbEntity
  8
DEFPOINTS
  6
Continuous
 62
     0
440
 16777216
100
AcDbPoint
 10
233.5623171346401
 20
78.70645287528095
 30
0.0
  0
ENDBLK
  5
3844B
330
38449
100
AcDbEntity
  8
0
 62
     7
100
AcDbBlockEnd
  0
BLOCK
  5
38526
330
38525
100
AcDbEntity
  8
0
 62
     7
100
AcDbBlockBegin
  2
*D2
 70
     1
 10
0.0
 20
0.0
 30
0.0
  3
*D2
  1

  0
LINE
  5
3869E
330
38525
100
AcDbEntity
  8
0
  6
Continuous
 62
     3
440
 16777216
100
AcDbLine
 10
167.1163427497862
 20
114.279756280362
 30
0.0
 11
198.6473658177627
 21
114.279756280362
 31
0.0
  0
LINE
  5
3869F
330
38525
100
AcDbEntity
  8
0
  6
Continuous
 62
     3
440
 16777216
100
AcDbLine
 10
197.3973658177627
 20
111.779756280362
 30
0.0
 11
197.3973658177627
 21
96.95633368225843
 31
0.0
  0
SOLID
  5
386A0
330
38525
100
AcDbEntity
  8
0
  6
Continuous
 62
     3
440
 16777216
100
AcDbTrace
 10
196.9806991510961
 20
111.779756280362
 30
0.0
 11
197.8140324844294
 21
111.779756280362
 31
0.0
 12
197.3973658177627
 22
114.279756280362
 32
0.0
 13
197.3973658177627
 23
114.279756280362
 33
0.0
  0
MTEXT
  5
386A1
330
38525
100
AcDbEntity
  8
0
  6
Continuous
 62
     2
440
 16777216
100
AcDbMText
 10
195.2723658177627
 20
102.087756280362
 30
0.0
 40
3.0
 41
0.0
 46
0.0
 71
     5
 72
     1
  1
%%C.960
 11
0.0000000000000001
 21
1.0
 31
0.0
 73
     1
 44
1.0
  0
POINT
  5
386A2
330
38525
100
AcDbEntity
  8
DEFPOINTS
  6
Continuous
 62
     0
440
 16777216
100
AcDbPoint
 10
166.4913427497862
 20
114.279756280362
 30
0.0
  0
POINT
  5
386A3
330
38525
100
AcDbEntity
  8
DEFPOINTS
  6
Continuous
 62
     0
440
 16777216
100
AcDbPoint
 10
166.4913427497862
 20
89.89575628036204
 30
0.0
  0
POINT
  5
386A4
330
38525
100
AcDbEntity
  8
DEFPOINTS
  6
Continuous
 62
     0
440
 16777216
100
AcDbPoint
 10
197.3973658177627
 20
89.89575628036204
 30
0.0
  0
ENDBLK
  5
38527
330
38525
100
AcDbEntity
  8
0
 62
     7
100
AcDbBlockEnd
  0
BLOCK
  5
38530
330
3852F
100
AcDbEntity
  8
0
 62
     7
100
AcDbBlockBegin
  2
*D3
 70
     1
 10
0.0
 20
0.0
 30
0.0
  3
*D3
  1

  0
LINE
  5
386A5
330
3852F
100
AcDbEntity
  8
0
  6
Continuous
 62
     3
440
 16777216
100
AcDbLine
 10
166.6163427497862
 20
108.3377562803625
 30
0.0
 11
190.647365817763
 21
108.3377562803625
 31
0.0
  0
LINE
  5
386A6
330
3852F
100
AcDbEntity
  8
0
  6
Continuous
 62
     3
440
 16777216
100
AcDbLine
 10
189.397365817763
 20
105.8377562803625
 30
0.0
 11
189.397365817763
 21
88.54357988648459
 31
0.0
  0
SOLID
  5
386A7
330
3852F
100
AcDbEntity
  8
0
  6
Continuous
 62
     3
440
 16777216
100
AcDbTrace
 10
188.9806991510963
 20
105.8377562803625
 30
0.0
 11
189.8140324844296
 21
105.8377562803625
 31
0.0
 12
189.397365817763
 22
108.3377562803625
 32
0.0
 13
189.397365817763
 23
108.3377562803625
 33
0.0
  0
MTEXT
  5
386A8
330
3852F
100
AcDbEntity
  8
0
  6
Continuous
 62
     2
440
 16777216
100
AcDbMText
 10
187.2720705421724
 20
96.12294541654609
 30
0.0
 40
3.0
 41
0.0
 46
0.0
 71
     5
 72
     1
  1
%%C12.5{\H1x;mm}
 11
0.0000000000000001
 21
1.0
 31
0.0
 73
     1
 44
1.0
  0
POINT
  5
386A9
330
3852F
100
AcDbEntity
  8
DEFPOINTS
  6
Continuous
 62
     0
440
 16777216
100
AcDbPoint
 10
165.9913427497862
 20
95.83775628036159
 30
0.0
  0
POINT
  5
386AA
330
3852F
100
AcDbEntity
  8
DEFPOINTS
  6
Continuous
 62
     0
440
 16777216
100
AcDbPoint
 10
165.9913427497862
 20
108.3377562803625
 30
0.0
  0
POINT
  5
386AB
330
3852F
100
AcDbEntity
  8
DEFPOINTS
  6
Continuous
 62
     0
440
 16777216
100
AcDbPoint
 10
189.397365817763
 20
108.3377562803625
 30
0.0
  0
ENDBLK
  5
38531
330
3852F
100
AcDbEntity
  8
0
 62
     7
100
AcDbBlockEnd
  0
BLOCK
  5
3853A
330
38539
100
AcDbEntity
  8
0
 62
     7
100
AcDbBlockBegin
  2
*D4
 70
     1
 10
0.0
 20
0.0
 30
0.0
  3
*D4
  1

  0
LINE
  5
386AC
330
38539
100
AcDbEntity
  8
0
  6
Continuous
 62
     3
440
 16777216
100
AcDbLine
 10
141.5913427497861
 20
108.7127562803611
 30
0.0
 11
141.5913427497861
 21
137.5008095041411
 31
0.0
  0
LINE
  5
386AD
330
38539
100
AcDbEntity
  8
0
  6
Continuous
 62
     3
440
 16777216
100
AcDbLine
 10
166.9913427497862
 20
114.404756280362
 30
0.0
 11
166.9913427497862
 21
137.5008095041411
 31
0.0
  0
LINE
  5
386AE
330
38539
100
AcDbEntity
  8
0
  6
Continuous
 62
     3
440
 16777216
100
AcDbLine
 10
144.0913427497861
 20
136.2508095041411
 30
0.0
 11
164.4913427497862
 21
136.2508095041411
 31
0.0
  0
SOLID
  5
386AF
330
38539
100
AcDbEntity
  8
0
  6
Continuous
 62
     3
440
 16777216
100
AcDbTrace
 10
144.0913427497861
 20
136.6674761708077
 30
0.0
 11
144.0913427497861
 21
135.8341428374744
 31
0.0
 12
141.5913427497861
 22
136.2508095041411
 32
0.0
 13
141.5913427497861
 23
136.2508095041411
 33
0.0
  0
SOLID
  5
386B0
330
38539
100
AcDbEntity
  8
0
  6
Continuous
 62
     3
440
 16777216
100
AcDbTrace
 10
164.4913427497862
 20
136.6674761708077
 30
0.0
 11
164.4913427497862
 21
135.8341428374744
 31
0.0
 12
166.9913427497862
 22
136.2508095041411
 32
0.0
 13
166.9913427497862
 23
136.2508095041411
 33
0.0
  0
MTEXT
  5
386B1
330
38539
100
AcDbEntity
  8
0
  6
Continuous
 62
     2
440
 16777216
100
AcDbMText
 10
154.2913427497861
 20
138.3758095041411
 30
0.0
 40
3.0
 41
0.0
 46
0.0
 71
     5
 72
     1
  1
1.0min
 73
     1
 44
1.0
  0
POINT
  5
386B2
330
38539
100
AcDbEntity
  8
DEFPOINTS
  6
Continuous
 62
     0
440
 16777216
100
AcDbPoint
 10
141.5913427497861
 20
108.0877562803611
 30
0.0
  0
POINT
  5
386B3
330
38539
100
AcDbEntity
  8
DEFPOINTS
  6
Continuous
 62
     0
440
 16777216
100
AcDbPoint
 10
166.9913427497862
 20
113.779756280362
 30
0.0
  0
POINT
  5
386B4
330
38539
100
AcDbEntity
  8
DEFPOINTS
  6
Continuous
 62
     0
440
 16777216
100
AcDbPoint
 10
166.9913427497862
 20
136.2508095041411
 30
0.0
  0
ENDBLK
  5
3853B
330
38539
100
AcDbEntity
  8
0
 62
     7
100
AcDbBlockEnd
  0
BLOCK
  5
38546
330
38545
100
AcDbEntity
  8
0
 62
     7
100
AcDbBlockBegin
  2
*D5
 70
     1
 10
0.0
 20
0.0
 30
0.0
  3
*D5
  1

  0
LINE
  5
386B5
330
38545
100
AcDbEntity
  8
0
  6
Continuous
 62
     3
440
 16777216
100
AcDbLine
 10
158.3553427497862
 20
109.0897562803624
 30
0.0
 11
158.3553427497862
 21
129.5008095041411
 31
0.0
  0
LINE
  5
386B6
330
38545
100
AcDbEntity
  8
0
  6
Continuous
 62
     3
440
 16777216
100
AcDbLine
 10
166.9913427497862
 20
114.404756280362
 30
0.0
 11
166.9913427497862
 21
129.5008095041411
 31
0.0
  0
LINE
  5
386B7
330
38545
100
AcDbEntity
  8
0
  6
Continuous
 62
     3
440
 16777216
100
AcDbLine
 10
160.8553427497862
 20
128.2508095041411
 30
0.0
 11
164.4913427497862
 21
128.2508095041411
 31
0.0
  0
SOLID
  5
386B8
330
38545
100
AcDbEntity
  8
0
  6
Continuous
 62
     3
440
 16777216
100
AcDbTrace
 10
160.8553427497862
 20
128.6674761708077
 30
0.0
 11
160.8553427497862
 21
127.8341428374744
 31
0.0
 12
158.3553427497862
 22
128.2508095041411
 32
0.0
 13
158.3553427497862
 23
128.2508095041411
 33
0.0
  0
SOLID
  5
386B9
330
38545
100
AcDbEntity
  8
0
  6
Continuous
 62
     3
440
 16777216
100
AcDbTrace
 10
164.4913427497862
 20
128.6674761708077
 30
0.0
 11
164.4913427497862
 21
127.8341428374744
 31
0.0
 12
166.9913427497862
 22
128.2508095041411
 32
0.0
 13
166.9913427497862
 23
128.2508095041411
 33
0.0
  0
MTEXT
  5
386BA
330
38545
100
AcDbEntity
  8
0
  6
Continuous
 62
     2
440
 16777216
100
AcDbMText
 10
162.6733427497862
 20
130.3758095041411
 30
0.0
 40
3.0
 41
0.0
 46
0.0
 71
     5
 72
     1
  1
.34
 73
     1
 44
1.0
  0
POINT
  5
386BB
330
38545
100
AcDbEntity
  8
DEFPOINTS
  6
Continuous
 62
     0
440
 16777216
100
AcDbPoint
 10
158.3553427497862
 20
108.4647562803624
 30
0.0
  0
POINT
  5
386BC
330
38545
100
AcDbEntity
  8
DEFPOINTS
  6
Continuous
 62
     0
440
 16777216
100
AcDbPoint
 10
166.9913427497862
 20
113.779756280362
 30
0.0
  0
POINT
  5
386BD
330
38545
100
AcDbEntity
  8
DEFPOINTS
  6
Continuous
 62
     0
440
 16777216
100
AcDbPoint
 10
166.9913427497862
 20
128.2508095041411
 30
0.0
  0
ENDBLK
  5
38547
330
38545
100
AcDbEntity
  8
0
 62
     7
100
AcDbBlockEnd
  0
ENDSEC
  0
SECTION
  2
ENTITIES
  0
LWPOLYLINE
  5
1DEB1
330
2
100
AcDbEntity
  8
0
 62
     0
100
AcDbPolyline
 90
        4
 70
     1
 43
0.0
 10
0.5
 20
0.5
 10
0.5
 20
192.2869634307123
 10
275.3311999999998
 20
192.2869634307123
 10
275.3311999999998
 20
0.5
  0
LINE
  5
28352
330
2
100
AcDbEntity
  8
0
  6
Continuous
 62
     7
100
AcDbLine
 10
206.6234
 20
-2.851599999999999
 30
0.0
 11
206.6234
 21
0.5
 31
0.0
  0
LINE
  5
28355
330
2
100
AcDbEntity
  8
0
  6
Continuous
 62
     7
100
AcDbLine
 10
69.20779999999999
 20
-2.851599999999999
 30
0.0
 11
69.20779999999999
 21
0.5
 31
0.0
  0
LINE
  5
28356
330
2
100
AcDbEntity
  8
0
  6
Continuous
 62
     7
100
AcDbLine
 10
206.6234
 20
195.6385634307123
 30
0.0
 11
206.6234
 21
192.2869634307123
 31
0.0
  0
LINE
  5
28357
330
2
100
AcDbEntity
  8
0
  6
Continuous
 62
     7
100
AcDbLine
 10
69.20779999999999
 20
195.6385634307123
 30
0.0
 11
69.20779999999999
 21
192.2869634307123
 31
0.0
  0
LINE
  5
2835B
330
2
100
AcDbEntity
  8
0
  6
Continuous
 62
     7
100
AcDbLine
 10
-2.851599999999999
 20
48.44674085767808
 30
0.0
 11
0.5
 21
48.44674085767808
 31
0.0
  0
LINE
  5
2835C
330
2
100
AcDbEntity
  8
0
  6
Continuous
 62
     7
100
AcDbLine
 10
-2.851599999999999
 20
144.3402225730342
 30
0.0
 11
0.5
 21
144.3402225730342
 31
0.0
  0
LINE
  5
2835D
330
2
100
AcDbEntity
  8
0
  6
Continuous
 62
     7
100
AcDbLine
 10
278.6827999999999
 20
48.44674085767808
 30
0.0
 11
275.3311999999998
 21
48.44674085767808
 31
0.0
  0
LINE
  5
2835E
330
2
100
AcDbEntity
  8
0
  6
Continuous
 62
     7
100
AcDbLine
 10
278.6827999999999
 20
144.3402225730342
 30
0.0
 11
275.3311999999998
 21
144.3402225730342
 31
0.0
  0
LINE
  5
28361
330
2
100
AcDbEntity
  8
0
  6
Continuous
 62
     7
100
AcDbLine
 10
203.2718
 20
0.4999999999999993
 30
0.0
 11
203.2718
 21
27.47004173244392
 31
0.0
  0
LINE
  5
28365
330
2
100
AcDbEntity
  8
0
  6
Continuous
 62
     7
100
AcDbLine
 10
275.3311999999998
 20
27.47004173244392
 30
0.0
 11
203.2718
 21
27.47004173244392
 31
0.0
  0
LINE
  5
28366
330
2
100
AcDbEntity
  8
0
  6
Continuous
 62
     7
100
AcDbLine
 10
203.2718
 20
9.490013910814644
 30
0.0
 11
275.3311999999998
 21
9.490013910814644
 31
0.0
  0
LINE
  5
28368
330
2
100
AcDbEntity
  8
0
  6
Continuous
 62
     7
100
AcDbLine
 10
203.2718
 20
18.48002782162928
 30
0.0
 11
275.3311999999998
 21
18.48002782162928
 31
0.0
  0
LINE
  5
28369
330
2
100
AcDbEntity
  8
0
  6
Continuous
 62
     7
100
AcDbLine
 10
203.2718
 20
0.4999999999999988
 30
0.0
 11
275.3311999999998
 21
0.5000000000000036
 31
0.0
  0
LINE
  5
2836B
330
2
100
AcDbEntity
  8
0
  6
Continuous
 62
     7
100
AcDbLine
 10
275.3311999999998
 20
96.39348171535619
 30
0.0
 11
278.6827999999999
 21
96.39348171535619
 31
0.0
  0
LINE
  5
2836C
330
2
100
AcDbEntity
  8
0
  6
Continuous
 62
     7
100
AcDbLine
 10
277.0069999999999
 20
95.25393771535616
 30
0.0
 11
277.0069999999999
 21
97.5330257153562
 31
0.0
  0
LINE
  5
2836F
330
2
100
AcDbEntity
  8
0
  6
Continuous
 62
     7
100
AcDbLine
 10
277.0069999999999
 20
95.25393771535616
 30
0.0
 11
275.3311999999998
 21
96.39348171535619
 31
0.0
  0
LINE
  5
28370
330
2
100
AcDbEntity
  8
0
  6
Continuous
 62
     7
100
AcDbLine
 10
275.3311999999998
 20
96.39348171535619
 30
0.0
 11
277.0069999999999
 21
97.5330257153562
 31
0.0
  0
LINE
  5
28371
330
2
100
AcDbEntity
  8
0
  6
Continuous
 62
     7
100
AcDbLine
 10
0.5
 20
96.39348171535619
 30
0.0
 11
-2.851599999999999
 21
96.39348171535619
 31
0.0
  0
LINE
  5
28372
330
2
100
AcDbEntity
  8
0
  6
Continuous
 62
     7
100
AcDbLine
 10
-1.175799999999999
 20
95.25393771535616
 30
0.0
 11
-1.175799999999999
 21
97.5330257153562
 31
0.0
  0
LINE
  5
28373
330
2
100
AcDbEntity
  8
0
  6
Continuous
 62
     7
100
AcDbLine
 10
-1.175799999999999
 20
95.25393771535616
 30
0.0
 11
0.5
 21
96.39348171535619
 31
0.0
  0
LINE
  5
28374
330
2
100
AcDbEntity
  8
0
  6
Continuous
 62
     7
100
AcDbLine
 10
0.5
 20
96.39348171535619
 30
0.0
 11
-1.175799999999999
 21
97.5330257153562
 31
0.0
  0
LINE
  5
28375
330
2
100
AcDbEntity
  8
0
  6
Continuous
 62
     7
100
AcDbLine
 10
137.9156
 20
192.2869634307123
 30
0.0
 11
137.9156
 21
195.6385634307123
 31
0.0
  0
LINE
  5
28376
330
2
100
AcDbEntity
  8
0
  6
Continuous
 62
     7
100
AcDbLine
 10
136.7760559999999
 20
193.9627634307123
 30
0.0
 11
139.055144
 21
193.9627634307123
 31
0.0
  0
LINE
  5
28377
330
2
100
AcDbEntity
  8
0
  6
Continuous
 62
     7
100
AcDbLine
 10
136.7760559999999
 20
193.9627634307123
 30
0.0
 11
137.9156
 21
192.2869634307123
 31
0.0
  0
LINE
  5
28378
330
2
100
AcDbEntity
  8
0
  6
Continuous
 62
     7
100
AcDbLine
 10
137.9156
 20
192.2869634307123
 30
0.0
 11
139.055144
 21
193.9627634307123
 31
0.0
  0
LINE
  5
28379
330
2
100
AcDbEntity
  8
0
  6
Continuous
 62
     7
100
AcDbLine
 10
137.9156
 20
0.5
 30
0.0
 11
137.9156
 21
-2.851599999999999
 31
0.0
  0
LINE
  5
2837A
330
2
100
AcDbEntity
  8
0
  6
Continuous
 62
     7
100
AcDbLine
 10
136.7760559999999
 20
-1.175799999999999
 30
0.0
 11
139.055144
 21
-1.175799999999999
 31
0.0
  0
LINE
  5
2837B
330
2
100
AcDbEntity
  8
0
  6
Continuous
 62
     7
100
AcDbLine
 10
136.7760559999999
 20
-1.175799999999999
 30
0.0
 11
137.9156
 21
0.5
 31
0.0
  0
LINE
  5
2837C
330
2
100
AcDbEntity
  8
0
  6
Continuous
 62
     7
100
AcDbLine
 10
137.9156
 20
0.5
 30
0.0
 11
139.055144
 21
-1.175799999999999
 31
0.0
  0
TEXT
  5
2837D
330
2
100
AcDbEntity
  8
0
 62
     2
100
AcDbText
 10
34.1520456690476
 20
-2.215594408868794
 30
0.0
 40
1.876895999999999
  1
4
  7
굴림
100
AcDbText
  0
TEXT
  5
2837E
330
2
100
AcDbEntity
  8
0
 62
     2
100
AcDbText
 10
102.9235469072265
 20
-2.215594408868794
 30
0.0
 40
1.876895999999999
  1
3
  7
굴림
100
AcDbText
  0
TEXT
  5
2837F
330
2
100
AcDbEntity
  8
0
 62
     2
100
AcDbText
 10
171.5424706990155
 20
-2.215594408868794
 30
0.0
 40
1.876895999999999
  1
2
  7
굴림
100
AcDbText
  0
TEXT
  5
28380
330
2
100
AcDbEntity
  8
0
 62
     2
100
AcDbText
 10
240.4598218923343
 20
-2.215594408868794
 30
0.0
 40
1.876895999999999
  1
1
  7
굴림
100
AcDbText
  0
TEXT
  5
28392
330
2
100
AcDbEntity
  8
0
 62
     2
100
AcDbText
 10
34.1520456690476
 20
193.3555764790025
 30
0.0
 40
1.876895999999999
  1
4
  7
굴림
100
AcDbText
  0
TEXT
  5
28393
330
2
100
AcDbEntity
  8
0
 62
     2
100
AcDbText
 10
102.9235469072265
 20
193.3555764790025
 30
0.0
 40
1.876895999999999
  1
3
  7
굴림
100
AcDbText
  0
TEXT
  5
28394
330
2
100
AcDbEntity
  8
0
 62
     2
100
AcDbText
 10
171.5424706990155
 20
193.3555764790025
 30
0.0
 40
1.876895999999999
  1
2
  7
굴림
100
AcDbText
  0
TEXT
  5
28395
330
2
100
AcDbEntity
  8
0
 62
     2
100
AcDbText
 10
240.4598218923343
 20
193.3555764790025
 30
0.0
 40
1.876895999999999
  1
1
  7
굴림
100
AcDbText
  0
TEXT
  5
28396
330
2
100
AcDbEntity
  8
0
 62
     2
100
AcDbText
 10
-2.209557947343677
 20
23.84841253728
 30
0.0
 40
1.876895999999999
  1
A
  7
굴림
100
AcDbText
  0
TEXT
  5
283A7
330
2
100
AcDbEntity
  8
0
 62
     2
100
AcDbText
 10
-2.209557947343677
 20
71.39738603855146
 30
0.0
 40
1.876895999999999
  1
B
  7
굴림
100
AcDbText
  0
TEXT
  5
283A9
330
2
100
AcDbEntity
  8
0
 62
     2
100
AcDbText
 10
-2.209557947343677
 20
119.4000867432917
 30
0.0
 40
1.876895999999999
  1
C
  7
굴림
100
AcDbText
  0
TEXT
  5
283AA
330
2
100
AcDbEntity
  8
0
 62
     2
100
AcDbText
 10
-2.209557947343677
 20
167.6983781703912
 30
0.0
 40
1.876895999999999
  1
D
  7
굴림
100
AcDbText
  0
TEXT
  5
283AB
330
2
100
AcDbEntity
  8
0
 62
     2
100
AcDbText
 10
276.3352207099705
 20
23.84841253728
 30
0.0
 40
1.876895999999999
  1
A
  7
굴림
100
AcDbText
  0
TEXT
  5
283AC
330
2
100
AcDbEntity
  8
0
 62
     2
100
AcDbText
 10
276.3352207099705
 20
71.39738603855146
 30
0.0
 40
1.876895999999999
  1
B
  7
굴림
100
AcDbText
  0
TEXT
  5
283AD
330
2
100
AcDbEntity
  8
0
 62
     2
100
AcDbText
 10
276.3352207099705
 20
119.4000867432917
 30
0.0
 40
1.876895999999999
  1
C
  7
굴림
100
AcDbText
  0
TEXT
  5
283AE
330
2
100
AcDbEntity
  8
0
 62
     2
100
AcDbText
 10
276.3352207099705
 20
167.6983781703912
 30
0.0
 40
1.876895999999999
  1
D
  7
굴림
100
AcDbText
  0
SPLINE
  5
283D6
330
2
100
AcDbEntity
  8
Layer 1
100
AcDbSpline
210
0.0
220
0.0
230
1.0
 70
    11
 71
     3
 72
    41
 73
    37
 74
     0
 42
0.000000001
 43
0.0000000001
 40
0.0
 40
0.0
 40
0.0
 40
0.0
 40
1.0
 40
1.0
 40
1.0
 40
2.0
 40
2.0
 40
2.0
 40
3.0
 40
3.0
 40
3.0
 40
4.0
 40
4.0
 40
4.0
 40
5.0
 40
5.0
 40
5.0
 40
6.0
 40
6.0
 40
6.0
 40
7.0
 40
7.0
 40
7.0
 40
8.0
 40
8.0
 40
8.0
 40
9.0
 40
9.0
 40
9.0
 40
10.0
 40
10.0
 40
10.0
 40
11.0
 40
11.0
 40
11.0
 40
12.0
 40
12.0
 40
12.0
 40
12.0
 10
227.5923346505039
 20
19.29998155526998
 30
0.0
 10
227.5923346505039
 20
19.29998155526998
 30
0.0
 10
225.8380287348576
 20
19.29998155526998
 30
0.0
 10
225.8380287348576
 20
19.29998155526998
 30
0.0
 10
225.8380287348576
 20
19.29998155526998
 30
0.0
 10
229.3467603710779
 20
24.71622163900658
 30
0.0
 10
229.3467603710779
 20
24.71622163900658
 30
0.0
 10
229.3467603710779
 20
24.71622163900658
 30
0.0
 10
231.1548881490208
 20
24.71622163900658
 30
0.0
 10
231.1548881490208
 20
24.71622163900658
 30
0.0
 10
231.1548881490208
 20
24.71622163900658
 30
0.0
 10
231.5610620891428
 20
19.29998155526998
 30
0.0
 10
231.5610620891428
 20
19.29998155526998
 30
0.0
 10
231.5610620891428
 20
19.29998155526998
 30
0.0
 10
229.9291109051489
 20
19.29998155526998
 30
0.0
 10
229.9291109051489
 20
19.29998155526998
 30
0.0
 10
229.9291109051489
 20
19.29998155526998
 30
0.0
 10
229.8754079660923
 20
20.17343444894676
 30
0.0
 10
229.8754079660923
 20
20.17343444894676
 30
0.0
 10
229.8754079660923
 20
20.17343444894676
 30
0.0
 10
228.6924276179193
 20
20.17343444894676
 30
0.0
 10
228.6924276179193
 20
20.17343444894676
 30
0.0
 10
228.6924276179193
 20
20.17343444894676
 30
0.0
 10
229.2797124982168
 20
21.29935356691016
 30
0.0
 10
229.2797124982168
 20
21.29935356691016
 30
0.0
 10
229.2797124982168
 20
21.29935356691016
 30
0.0
 10
229.8218536239894
 20
21.29935356691016
 30
0.0
 10
229.8218536239894
 20
21.29935356691016
 30
0.0
 10
229.8218536239894
 20
21.29935356691016
 30
0.0
 10
229.7527857599232
 20
22.8853288534383
 30
0.0
 10
229.7527857599232
 20
22.8853288534383
 30
0.0
 10
229.7527857599232
 20
22.8853288534383
 30
0.0
 10
227.6010433152532
 20
19.31216650547106
 30
0.0
 10
227.6010433152532
 20
19.31216650547106
 30
0.0
 10
227.6010433152532
 20
19.31216650547106
 30
0.0
 10
227.5923346505039
 20
19.29998155526998
 30
0.0
 10
227.5923346505039
 20
19.29998155526998
 30
0.0
  0
SPLINE
  5
283D7
102
{ACAD_REACTORS
330
2923A
102
}
330
2
100
AcDbEntity
  8
Layer 1
100
AcDbSpline
210
0.0
220
0.0
230
1.0
 70
    11
 71
     3
 72
    17
 73
    13
 74
     0
 42
0.000000001
 43
0.0000000001
 40
0.0
 40
0.0
 40
0.0
 40
0.0
 40
1.0
 40
1.0
 40
1.0
 40
2.0
 40
2.0
 40
2.0
 40
3.0
 40
3.0
 40
3.0
 40
4.0
 40
4.0
 40
4.0
 40
4.0
 10
239.0302296986123
 20
19.29998155526998
 30
0.0
 10
239.0302296986123
 20
19.29998155526998
 30
0.0
 10
237.360117644926
 20
19.29998155526998
 30
0.0
 10
237.360117644926
 20
19.29998155526998
 30
0.0
 10
237.360117644926
 20
19.29998155526998
 30
0.0
 10
238.8081949584476
 20
24.70867624437805
 30
0.0
 10
238.8081949584476
 20
24.70867624437805
 30
0.0
 10
238.8081949584476
 20
24.70867624437805
 30
0.0
 10
240.478186962581
 20
24.70867624437805
 30
0.0
 10
240.478186962581
 20
24.70867624437805
 30
0.0
 10
240.478186962581
 20
24.70867624437805
 30
0.0
 10
239.0302296986123
 20
19.29998155526998
 30
0.0
 10
239.0302296986123
 20
19.29998155526998
 30
0.0
  0
LWPOLYLINE
  5
283DB
102
{ACAD_REACTORS
330
28498
102
}
330
2
100
AcDbEntity
  8
Layer 1
 62
   103
100
AcDbPolyline
 90
        8
 70
     1
 43
0.0
 10
259.6059731911617
 20
26.47109222307688
 10
233.9049412781733
 20
26.47210268236184
 10
233.5215611377028
 20
25.21107921412096
 10
242.4282247856024
 20
25.21063676655853
 10
240.7236988494358
 20
19.29998155527
 10
242.3939880474768
 20
19.29998155527
 10
244.0981870703452
 20
25.21063676655853
 10
259.2206926917282
 20
25.20989043849159
  0
SPLINE
  5
283DD
102
{ACAD_REACTORS
330
2924F
102
}
330
2
100
AcDbEntity
  8
Layer 1
100
AcDbSpline
210
0.0
220
0.0
230
1.0
 70
     9
 71
     3
 72
    17
 73
    13
 74
     0
 42
0.000000001
 43
0.0000000001
 40
0.0
 40
0.0
 40
0.0
 40
0.0
 40
1.0
 40
1.0
 40
1.0
 40
2.0
 40
2.0
 40
2.0
 40
3.0
 40
3.0
 40
3.0
 40
4.0
 40
4.0
 40
4.0
 40
4.0
 10
248.5061968234257
 20
22.32357292978132
 30
0.0
 10
248.5061968234257
 20
23.10837288089808
 30
0.0
 10
248.0338368270969
 20
23.48158898973764
 30
0.0
 10
247.4853060323167
 20
23.48158898973764
 30
0.0
 10
246.4416515471238
 20
23.48158898973764
 30
0.0
 10
245.8700571459155
 20
22.30081114626944
 30
0.0
 10
245.8700571459155
 20
21.47799682461318
 30
0.0
 10
245.8700571459155
 20
20.68567786764069
 30
0.0
 10
246.3577820672537
 20
20.31231316184737
 30
0.0
 10
246.9215291900898
 20
20.31231316184737
 30
0.0
 10
248.0492314714974
 20
20.31231316184737
 30
0.0
 10
248.5061968234257
 20
21.53895129500892
 30
0.0
 10
248.5061968234257
 20
22.32357292978132
 30
0.0
  0
SPLINE
  5
283DE
102
{ACAD_REACTORS
330
2924F
102
}
330
2
100
AcDbEntity
  8
Layer 1
100
AcDbSpline
210
0.0
220
0.0
230
1.0
 70
     9
 71
     3
 72
    17
 73
    13
 74
     0
 42
0.000000001
 43
0.0000000001
 40
0.0
 40
0.0
 40
0.0
 40
0.0
 40
1.0
 40
1.0
 40
1.0
 40
2.0
 40
2.0
 40
2.0
 40
3.0
 40
3.0
 40
3.0
 40
4.0
 40
4.0
 40
4.0
 40
4.0
 10
246.8222961444286
 20
19.01714211365301
 30
0.0
 10
245.1616063095947
 20
19.01714211365301
 30
0.0
 10
244.2016699888815
 20
20.09143864991123
 30
0.0
 10
244.2016699888815
 20
21.49309427510605
 30
0.0
 10
244.2016699888815
 20
23.02432644390192
 30
0.0
 10
245.3444400013912
 20
24.7157758481455
 30
0.0
 10
247.47005998487
 20
24.7157758481455
 30
0.0
 10
249.1994016122998
 20
24.7157758481455
 30
0.0
 10
250.1591893360593
 20
23.58825518539628
 30
0.0
 10
250.1591893360593
 20
22.22445876168296
 30
0.0
 10
250.1591893360593
 20
20.70077531813356
 30
0.0
 10
249.0240869263591
 20
19.01714211365301
 30
0.0
 10
246.8222961444286
 20
19.01714211365301
 30
0.0
  0
SPLINE
  5
283E0
102
{ACAD_REACTORS
330
29296
102
}
330
2
100
AcDbEntity
  8
Layer 1
100
AcDbSpline
210
0.0
220
0.0
230
1.0
 70
     9
 71
     3
 72
    17
 73
    13
 74
     0
 42
0.000000001
 43
0.0000000001
 40
0.0
 40
0.0
 40
0.0
 40
0.0
 40
1.0
 40
1.0
 40
1.0
 40
2.0
 40
2.0
 40
2.0
 40
3.0
 40
3.0
 40
3.0
 40
4.0
 40
4.0
 40
4.0
 40
4.0
 10
254.6496109596456
 20
22.32357292978132
 30
0.0
 10
254.6496109596456
 20
23.10837288089808
 30
0.0
 10
254.1772509633169
 20
23.48158898973764
 30
0.0
 10
253.6284229746292
 20
23.48158898973764
 30
0.0
 10
252.5850643241252
 20
23.48158898973764
 30
0.0
 10
252.0137402566331
 20
22.30081114626944
 30
0.0
 10
252.0137402566331
 20
21.47799682461318
 30
0.0
 10
252.0137402566331
 20
20.68567786764069
 30
0.0
 10
252.5010476065198
 20
20.31231316184737
 30
0.0
 10
253.0647947293561
 20
20.31231316184737
 30
0.0
 10
254.1923484138098
 20
20.31231316184737
 30
0.0
 10
254.6496109596456
 20
21.53895129500892
 30
0.0
 10
254.6496109596456
 20
22.32357292978132
 30
0.0
  0
SPLINE
  5
283E1
102
{ACAD_REACTORS
330
29296
102
}
330
2
100
AcDbEntity
  8
Layer 1
100
AcDbSpline
210
0.0
220
0.0
230
1.0
 70
     9
 71
     3
 72
    17
 73
    13
 74
     0
 42
0.000000001
 43
0.0000000001
 40
0.0
 40
0.0
 40
0.0
 40
0.0
 40
1.0
 40
1.0
 40
1.0
 40
2.0
 40
2.0
 40
2.0
 40
3.0
 40
3.0
 40
3.0
 40
4.0
 40
4.0
 40
4.0
 40
4.0
 10
252.9658291582113
 20
19.01714211365301
 30
0.0
 10
251.3052879203311
 20
19.01714211365301
 30
0.0
 10
250.3452327220549
 20
20.09143864991123
 30
0.0
 10
250.3452327220549
 20
21.49309427510605
 30
0.0
 10
250.3452327220549
 20
23.02432644390192
 30
0.0
 10
251.487854137611
 20
24.7157758481455
 30
0.0
 10
253.6136227180437
 20
24.7157758481455
 30
0.0
 10
255.3428157485197
 20
24.7157758481455
 30
0.0
 10
256.3027520692327
 20
23.58825518539628
 30
0.0
 10
256.3027520692327
 20
22.22445876168296
 30
0.0
 10
256.3027520692327
 20
20.70077531813356
 30
0.0
 10
255.1676496595326
 20
19.01714211365301
 30
0.0
 10
252.9658291582113
 20
19.01714211365301
 30
0.0
  0
TEXT
  5
2844E
330
2
100
AcDbEntity
  8
0
 62
     2
100
AcDbText
 10
223.9425025859367
 20
12.85347561407977
 30
0.0
 40
2.627654399999999
  1
www.maritool.com
  7
굴림
100
AcDbText
  0
TEXT
  5
28454
330
2
100
AcDbEntity
  8
0
 62
     2
100
AcDbText
 10
205.9775128786343
 20
4.051806774398166
 30
0.0
 40
2.102123519999999
  1
ITEM#
  7
굴림
100
AcDbText
  0
TEXT
  5
28455
330
2
100
AcDbEntity
  8
0
 62
     2
100
AcDbText
 10
223.0295816888257
 20
3.552348089474925
 30
0.0
 40
3.153185279999998
  1
DSF16-TB12-3.0
  7
굴림
100
AcDbText
  0
HATCH
  5
28498
330
2
100
AcDbEntity
  8
0
  6
Continuous
 62
    93
100
AcDbHatch
 10
0.0
 20
0.0
 30
0.0
210
0.0
220
0.0
230
0.9999999999999998
  2
SOLID
 70
     1
 71
     1
 91
        1
 92
        7
 72
     0
 73
     1
 93
        8
 10
233.9049412781733
 20
26.47210268236184
 10
233.5215611377028
 20
25.21107921412096
 10
242.4282247856024
 20
25.21063676655853
 10
240.7236988494358
 20
19.29998155527
 10
242.3939880474768
 20
19.29998155527
 10
244.0981870703452
 20
25.21063676655853
 10
259.2206926917282
 20
25.20989043849159
 10
259.6059731911617
 20
26.47109222307688
 97
        1
330
283DB
 75
     1
 76
     1
 47
0.0428322549537331
 98
        1
 10
245.2145526953313
 20
25.84900527075732
450
        0
451
        0
460
0.0
461
0.0
452
        0
462
1.0
453
        2
463
0.0
 63
     5
421
      255
463
1.0
 63
     2
421
 16776960
470
LINEAR
1001
GRADIENTCOLOR1ACI
1070
     5
1001
GRADIENTCOLOR2ACI
1070
     2
1001
ACAD
1010
0.0
1020
0.0
1030
0.0
  0
SPLINE
  5
2910D
102
{ACAD_REACTORS
330
29214
102
}
330
2
100
AcDbEntity
  8
Layer 1
100
AcDbSpline
210
0.0
220
0.0
230
1.0
 70
    24
 71
     3
 72
     8
 73
     4
 74
     0
 42
0.000000001
 43
0.0000000001
 40
0.0
 40
0.0
 40
0.0
 40
0.0
 40
1.0
 40
1.0
 40
1.0
 40
1.0
 10
259.8197150493218
 20
20.42649506104808
 30
0.0
 10
259.8197150493218
 20
20.42649506104808
 30
0.0
 10
259.406438888509
 20
19.1772107521471
 30
0.0
 10
259.406438888509
 20
19.1772107521471
 30
0.0
  0
SPLINE
  5
2910E
102
{ACAD_REACTORS
330
29214
102
}
330
2
100
AcDbEntity
  8
Layer 1
100
AcDbSpline
210
0.0
220
0.0
230
1.0
 70
    24
 71
     3
 72
     8
 73
     4
 74
     0
 42
0.000000001
 43
0.0000000001
 40
1.0
 40
1.0
 40
1.0
 40
1.0
 40
2.0
 40
2.0
 40
2.0
 40
2.0
 10
259.406438888509
 20
19.1772107521471
 30
0.0
 10
259.406438888509
 20
19.1772107521471
 30
0.0
 10
255.9245728221407
 20
19.1772107521471
 30
0.0
 10
255.9245728221407
 20
19.1772107521471
 30
0.0
  0
SPLINE
  5
2910F
102
{ACAD_REACTORS
330
29214
102
}
330
2
100
AcDbEntity
  8
Layer 1
100
AcDbSpline
210
0.0
220
0.0
230
1.0
 70
    24
 71
     3
 72
     8
 73
     4
 74
     0
 42
0.000000001
 43
0.0000000001
 40
2.0
 40
2.0
 40
2.0
 40
2.0
 40
3.0
 40
3.0
 40
3.0
 40
3.0
 10
255.9245728221407
 20
19.1772107521471
 30
0.0
 10
255.9245728221407
 20
19.1772107521471
 30
0.0
 10
257.3642395480845
 20
24.55588552599577
 30
0.0
 10
257.3642395480845
 20
24.55588552599577
 30
0.0
  0
SPLINE
  5
29110
102
{ACAD_REACTORS
330
29214
102
}
330
2
100
AcDbEntity
  8
Layer 1
100
AcDbSpline
210
0.0
220
0.0
230
1.0
 70
    24
 71
     3
 72
     8
 73
     4
 74
     0
 42
0.000000001
 43
0.0000000001
 40
3.0
 40
3.0
 40
3.0
 40
3.0
 40
4.0
 40
4.0
 40
4.0
 40
4.0
 10
257.3642395480845
 20
24.55588552599577
 30
0.0
 10
257.3642395480845
 20
24.55588552599577
 30
0.0
 10
259.0558375492818
 20
24.55588552599577
 30
0.0
 10
259.0558375492818
 20
24.55588552599577
 30
0.0
  0
SPLINE
  5
29111
102
{ACAD_REACTORS
330
29214
102
}
330
2
100
AcDbEntity
  8
Layer 1
100
AcDbSpline
210
0.0
220
0.0
230
1.0
 70
    24
 71
     3
 72
     8
 73
     4
 74
     0
 42
0.000000001
 43
0.0000000001
 40
4.0
 40
4.0
 40
4.0
 40
4.0
 40
5.0
 40
5.0
 40
5.0
 40
5.0
 10
259.0558375492818
 20
24.55588552599577
 30
0.0
 10
259.0558375492818
 20
24.55588552599577
 30
0.0
 10
257.9510802874918
 20
20.42649506104808
 30
0.0
 10
257.9510802874918
 20
20.42649506104808
 30
0.0
  0
SPLINE
  5
29112
102
{ACAD_REACTORS
330
29214
102
}
330
2
100
AcDbEntity
  8
Layer 1
100
AcDbSpline
210
0.0
220
0.0
230
1.0
 70
    24
 71
     3
 72
     8
 73
     4
 74
     0
 42
0.000000001
 43
0.0000000001
 40
5.0
 40
5.0
 40
5.0
 40
5.0
 40
6.0
 40
6.0
 40
6.0
 40
6.0
 10
257.9510802874918
 20
20.42649506104808
 30
0.0
 10
257.9510802874918
 20
20.42649506104808
 30
0.0
 10
259.8197150493218
 20
20.42649506104808
 30
0.0
 10
259.8197150493218
 20
20.42649506104808
 30
0.0
  0
HATCH
  5
29214
330
2
100
AcDbEntity
  8
0
  6
Continuous
 62
     0
100
AcDbHatch
 10
0.0
 20
0.0
 30
0.0
210
0.0
220
0.0
230
0.9999999999999998
  2
SOLID
 70
     1
 71
     1
 91
        1
 92
        5
 93
        6
 72
     4
 94
        3
 73
     0
 74
     0
 95
        8
 96
        4
 40
4.0
 40
4.0
 40
4.0
 40
4.0
 40
5.0
 40
5.0
 40
5.0
 40
5.0
 10
257.9510802874918
 20
20.42649506104808
 10
257.9510802874918
 20
20.42649506104808
 10
259.0558375492818
 20
24.55588552599577
 10
259.0558375492818
 20
24.55588552599577
 97
        0
 72
     4
 94
        3
 73
     0
 74
     0
 95
        8
 96
        4
 40
3.0
 40
3.0
 40
3.0
 40
3.0
 40
4.0
 40
4.0
 40
4.0
 40
4.0
 10
259.0558375492818
 20
24.55588552599577
 10
259.0558375492818
 20
24.55588552599577
 10
257.3642395480845
 20
24.55588552599577
 10
257.3642395480845
 20
24.55588552599577
 97
        0
 72
     4
 94
        3
 73
     0
 74
     0
 95
        8
 96
        4
 40
2.0
 40
2.0
 40
2.0
 40
2.0
 40
3.0
 40
3.0
 40
3.0
 40
3.0
 10
257.3642395480845
 20
24.55588552599577
 10
257.3642395480845
 20
24.55588552599577
 10
255.9245728221407
 20
19.1772107521471
 10
255.9245728221407
 20
19.1772107521471
 97
        0
 72
     4
 94
        3
 73
     0
 74
     0
 95
        8
 96
        4
 40
1.0
 40
1.0
 40
1.0
 40
1.0
 40
2.0
 40
2.0
 40
2.0
 40
2.0
 10
255.9245728221407
 20
19.1772107521471
 10
255.9245728221407
 20
19.1772107521471
 10
259.406438888509
 20
19.1772107521471
 10
259.406438888509
 20
19.1772107521471
 97
        0
 72
     4
 94
        3
 73
     0
 74
     0
 95
        8
 96
        4
 40
0.0
 40
0.0
 40
0.0
 40
0.0
 40
1.0
 40
1.0
 40
1.0
 40
1.0
 10
259.406438888509
 20
19.1772107521471
 10
259.406438888509
 20
19.1772107521471
 10
259.8197150493218
 20
20.42649506104808
 10
259.8197150493218
 20
20.42649506104808
 97
        0
 72
     4
 94
        3
 73
     0
 74
     0
 95
        8
 96
        4
 40
5.0
 40
5.0
 40
5.0
 40
5.0
 40
6.0
 40
6.0
 40
6.0
 40
6.0
 10
259.8197150493218
 20
20.42649506104808
 10
259.8197150493218
 20
20.42649506104808
 10
257.9510802874918
 20
20.42649506104808
 10
257.9510802874918
 20
20.42649506104808
 97
        0
 97
        6
330
29111
330
29110
330
2910F
330
2910E
330
2910D
330
29112
 75
     1
 76
     1
 47
0.0168242271866721
 98
        1
 10
257.4330670291712
 20
20.77735750736971
450
        0
451
        0
460
0.0
461
0.0
452
        0
462
1.0
453
        2
463
0.0
 63
     5
421
      255
463
1.0
 63
     2
421
 16776960
470
LINEAR
1001
GRADIENTCOLOR1ACI
1070
     5
1001
GRADIENTCOLOR2ACI
1070
     2
1001
ACAD
1010
0.0
1020
0.0
1030
0.0
  0
SPLINE
  5
29215
102
{ACAD_REACTORS
330
29234
102
}
330
2
100
AcDbEntity
  8
Layer 1
100
AcDbSpline
210
0.0
220
0.0
230
1.0
 70
     8
 71
     3
 72
     8
 73
     4
 74
     0
 42
0.000000001
 43
0.0000000001
 40
0.0
 40
0.0
 40
0.0
 40
0.0
 40
1.0
 40
1.0
 40
1.0
 40
1.0
 10
237.4978373015881
 20
23.24838093064673
 30
0.0
 10
237.4978373015881
 20
24.33617007029818
 30
0.0
 10
236.5402190933521
 20
24.71928273625215
 30
0.0
 10
235.7052241792785
 20
24.71928273625215
 30
0.0
  0
SPLINE
  5
29216
102
{ACAD_REACTORS
330
29234
102
}
330
2
100
AcDbEntity
  8
Layer 1
100
AcDbSpline
210
0.0
220
0.0
230
1.0
 70
    24
 71
     3
 72
     8
 73
     4
 74
     0
 42
0.000000001
 43
0.0000000001
 40
1.0
 40
1.0
 40
1.0
 40
1.0
 40
2.0
 40
2.0
 40
2.0
 40
2.0
 10
235.7052241792785
 20
24.71928273625215
 30
0.0
 10
235.7052241792785
 20
24.71928273625215
 30
0.0
 10
233.3148935221454
 20
24.71928273625215
 30
0.0
 10
233.3148935221454
 20
24.71928273625215
 30
0.0
  0
SPLINE
  5
29217
102
{ACAD_REACTORS
330
29234
102
}
330
2
100
AcDbEntity
  8
Layer 1
100
AcDbSpline
210
0.0
220
0.0
230
1.0
 70
    24
 71
     3
 72
     8
 73
     4
 74
     0
 42
0.000000001
 43
0.0000000001
 40
2.0
 40
2.0
 40
2.0
 40
2.0
 40
3.0
 40
3.0
 40
3.0
 40
3.0
 10
233.3148935221454
 20
24.71928273625215
 30
0.0
 10
233.3148935221454
 20
24.71928273625215
 30
0.0
 10
231.8592664557693
 20
19.31044597505541
 30
0.0
 10
231.8592664557693
 20
19.31044597505541
 30
0.0
  0
SPLINE
  5
29218
102
{ACAD_REACTORS
330
29234
102
}
330
2
100
AcDbEntity
  8
Layer 1
100
AcDbSpline
210
0.0
220
0.0
230
1.0
 70
    24
 71
     3
 72
     8
 73
     4
 74
     0
 42
0.000000001
 43
0.0000000001
 40
3.0
 40
3.0
 40
3.0
 40
3.0
 40
4.0
 40
4.0
 40
4.0
 40
4.0
 10
231.8592664557693
 20
19.31044597505541
 30
0.0
 10
231.8592664557693
 20
19.31044597505541
 30
0.0
 10
233.5756801482296
 20
19.31044597505541
 30
0.0
 10
233.5756801482296
 20
19.31044597505541
 30
0.0
  0
SPLINE
  5
29219
102
{ACAD_REACTORS
330
29234
102
}
330
2
100
AcDbEntity
  8
Layer 1
100
AcDbSpline
210
0.0
220
0.0
230
1.0
 70
    24
 71
     3
 72
     8
 73
     4
 74
     0
 42
0.000000001
 43
0.0000000001
 40
4.0
 40
4.0
 40
4.0
 40
4.0
 40
5.0
 40
5.0
 40
5.0
 40
5.0
 10
233.5756801482296
 20
19.31044597505541
 30
0.0
 10
233.5756801482296
 20
19.31044597505541
 30
0.0
 10
234.7014803886299
 20
23.50872279347789
 30
0.0
 10
234.7014803886299
 20
23.50872279347789
 30
0.0
  0
SPLINE
  5
2921A
102
{ACAD_REACTORS
330
29234
102
}
330
2
100
AcDbEntity
  8
Layer 1
100
AcDbSpline
210
0.0
220
0.0
230
1.0
 70
    24
 71
     3
 72
     8
 73
     4
 74
     0
 42
0.000000001
 43
0.0000000001
 40
5.0
 40
5.0
 40
5.0
 40
5.0
 40
6.0
 40
6.0
 40
6.0
 40
6.0
 10
234.7014803886299
 20
23.50872279347789
 30
0.0
 10
234.7014803886299
 20
23.50872279347789
 30
0.0
 10
235.2071855413623
 20
23.50872279347789
 30
0.0
 10
235.2071855413623
 20
23.50872279347789
 30
0.0
  0
SPLINE
  5
2921B
102
{ACAD_REACTORS
330
29234
102
}
330
2
100
AcDbEntity
  8
Layer 1
100
AcDbSpline
210
0.0
220
0.0
230
1.0
 70
     8
 71
     3
 72
    11
 73
     7
 74
     0
 42
0.000000001
 43
0.0000000001
 40
6.0
 40
6.0
 40
6.0
 40
6.0
 40
7.0
 40
7.0
 40
7.0
 40
8.0
 40
8.0
 40
8.0
 40
8.0
 10
235.2071855413623
 20
23.50872279347789
 30
0.0
 10
235.5058356988499
 20
23.50872279347789
 30
0.0
 10
235.812480372445
 20
23.43980352636535
 30
0.0
 10
235.812480372445
 20
23.07223410176534
 30
0.0
 10
235.812480372445
 20
22.8731439032373
 30
0.0
 10
235.6593660713825
 20
22.55113430463269
 30
0.0
 10
235.1536609186504
 20
22.56664782659588
 30
0.0
  0
SPLINE
  5
2921C
102
{ACAD_REACTORS
330
29234
102
}
330
2
100
AcDbEntity
  8
Layer 1
100
AcDbSpline
210
0.0
220
0.0
230
1.0
 70
    24
 71
     3
 72
     8
 73
     4
 74
     0
 42
0.000000001
 43
0.0000000001
 40
8.0
 40
8.0
 40
8.0
 40
8.0
 40
9.0
 40
9.0
 40
9.0
 40
9.0
 10
235.1536609186504
 20
22.56664782659588
 30
0.0
 10
235.1536609186504
 20
22.56664782659588
 30
0.0
 10
234.8297492790387
 20
21.38093329447545
 30
0.0
 10
234.8297492790387
 20
21.38093329447545
 30
0.0
  0
SPLINE
  5
2921D
102
{ACAD_REACTORS
330
29234
102
}
330
2
100
AcDbEntity
  8
Layer 1
100
AcDbSpline
210
0.0
220
0.0
230
1.0
 70
    24
 71
     3
 72
     8
 73
     4
 74
     0
 42
0.000000001
 43
0.0000000001
 40
9.0
 40
9.0
 40
9.0
 40
9.0
 40
10.0
 40
10.0
 40
10.0
 40
10.0
 10
234.8297492790387
 20
21.38093329447545
 30
0.0
 10
234.8297492790387
 20
21.38093329447545
 30
0.0
 10
235.4483881165608
 20
19.22713932858048
 30
0.0
 10
235.4483881165608
 20
19.22713932858048
 30
0.0
  0
SPLINE
  5
2921E
102
{ACAD_REACTORS
330
29234
102
}
330
2
100
AcDbEntity
  8
Layer 1
100
AcDbSpline
210
0.0
220
0.0
230
1.0
 70
    24
 71
     3
 72
     8
 73
     4
 74
     0
 42
0.000000001
 43
0.0000000001
 40
10.0
 40
10.0
 40
10.0
 40
10.0
 40
11.0
 40
11.0
 40
11.0
 40
11.0
 10
235.4483881165608
 20
19.22713932858048
 30
0.0
 10
235.4483881165608
 20
19.22713932858048
 30
0.0
 10
236.8636860593611
 20
19.22713932858048
 30
0.0
 10
236.8636860593611
 20
19.22713932858048
 30
0.0
  0
SPLINE
  5
2921F
102
{ACAD_REACTORS
330
29234
102
}
330
2
100
AcDbEntity
  8
Layer 1
100
AcDbSpline
210
0.0
220
0.0
230
1.0
 70
    24
 71
     3
 72
     8
 73
     4
 74
     0
 42
0.000000001
 43
0.0000000001
 40
11.0
 40
11.0
 40
11.0
 40
11.0
 40
12.0
 40
12.0
 40
12.0
 40
12.0
 10
236.8636860593611
 20
19.22713932858048
 30
0.0
 10
236.8636860593611
 20
19.22713932858048
 30
0.0
 10
236.0934177730549
 20
21.52676634480784
 30
0.0
 10
236.0934177730549
 20
21.52676634480784
 30
0.0
  0
SPLINE
  5
29220
102
{ACAD_REACTORS
330
29234
102
}
330
2
100
AcDbEntity
  8
Layer 1
100
AcDbSpline
210
0.0
220
0.0
230
1.0
 70
     8
 71
     3
 72
     8
 73
     4
 74
     0
 42
0.000000001
 43
0.0000000001
 40
12.0
 40
12.0
 40
12.0
 40
12.0
 40
13.0
 40
13.0
 40
13.0
 40
13.0
 10
236.0934177730549
 20
21.52676634480784
 30
0.0
 10
236.3344420319088
 20
21.60005436235835
 30
0.0
 10
236.5735939691466
 20
21.70772771498819
 30
0.0
 10
236.785166311783
 20
21.86937148119124
 30
0.0
  0
SPLINE
  5
29221
102
{ACAD_REACTORS
330
29234
102
}
330
2
100
AcDbEntity
  8
Layer 1
100
AcDbSpline
210
0.0
220
0.0
230
1.0
 70
     8
 71
     3
 72
     8
 73
     4
 74
     0
 42
0.000000001
 43
0.0000000001
 40
13.0
 40
13.0
 40
13.0
 40
13.0
 40
14.0
 40
14.0
 40
14.0
 40
14.0
 10
236.785166311783
 20
21.86937148119124
 30
0.0
 10
237.2525928892498
 20
22.2295407774984
 30
0.0
 10
237.4978373015881
 20
22.74297297182171
 30
0.0
 10
237.4978373015881
 20
23.24838093064673
 30
0.0
  0
HATCH
  5
29234
330
2
100
AcDbEntity
  8
0
  6
Continuous
 62
     0
100
AcDbHatch
 10
0.0
 20
0.0
 30
0.0
210
0.0
220
0.0
230
0.9999999999999998
  2
SOLID
 70
     1
 71
     1
 91
        1
 92
        5
 93
       14
 72
     4
 94
        3
 73
     0
 74
     0
 95
        8
 96
        4
 40
11.0
 40
11.0
 40
11.0
 40
11.0
 40
12.0
 40
12.0
 40
12.0
 40
12.0
 10
236.8636860593611
 20
19.22713932858048
 10
236.8636860593611
 20
19.22713932858048
 10
236.0934177730549
 20
21.52676634480784
 10
236.0934177730549
 20
21.52676634480784
 97
        0
 72
     4
 94
        3
 73
     0
 74
     0
 95
        8
 96
        4
 40
12.0
 40
12.0
 40
12.0
 40
12.0
 40
13.0
 40
13.0
 40
13.0
 40
13.0
 10
236.0934177730549
 20
21.52676634480784
 10
236.3344420319088
 20
21.60005436235835
 10
236.5735939691466
 20
21.70772771498819
 10
236.785166311783
 20
21.86937148119124
 97
        0
 72
     4
 94
        3
 73
     0
 74
     0
 95
        8
 96
        4
 40
13.0
 40
13.0
 40
13.0
 40
13.0
 40
14.0
 40
14.0
 40
14.0
 40
14.0
 10
236.785166311783
 20
21.86937148119124
 10
237.2525928892498
 20
22.2295407774984
 10
237.4978373015881
 20
22.74297297182171
 10
237.4978373015881
 20
23.24838093064673
 97
        0
 72
     4
 94
        3
 73
     0
 74
     0
 95
        8
 96
        4
 40
0.0
 40
0.0
 40
0.0
 40
0.0
 40
1.0
 40
1.0
 40
1.0
 40
1.0
 10
237.4978373015881
 20
23.24838093064673
 10
237.4978373015881
 20
24.33617007029818
 10
236.5402190933521
 20
24.71928273625215
 10
235.7052241792785
 20
24.71928273625215
 97
        0
 72
     4
 94
        3
 73
     0
 74
     0
 95
        8
 96
        4
 40
1.0
 40
1.0
 40
1.0
 40
1.0
 40
2.0
 40
2.0
 40
2.0
 40
2.0
 10
235.7052241792785
 20
24.71928273625215
 10
235.7052241792785
 20
24.71928273625215
 10
233.3148935221454
 20
24.71928273625215
 10
233.3148935221454
 20
24.71928273625215
 97
        0
 72
     4
 94
        3
 73
     0
 74
     0
 95
        8
 96
        4
 40
2.0
 40
2.0
 40
2.0
 40
2.0
 40
3.0
 40
3.0
 40
3.0
 40
3.0
 10
233.3148935221454
 20
24.71928273625215
 10
233.3148935221454
 20
24.71928273625215
 10
231.8592664557693
 20
19.31044597505541
 10
231.8592664557693
 20
19.31044597505541
 97
        0
 72
     4
 94
        3
 73
     0
 74
     0
 95
        8
 96
        4
 40
3.0
 40
3.0
 40
3.0
 40
3.0
 40
4.0
 40
4.0
 40
4.0
 40
4.0
 10
231.8592664557693
 20
19.31044597505541
 10
231.8592664557693
 20
19.31044597505541
 10
233.5756801482296
 20
19.31044597505541
 10
233.5756801482296
 20
19.31044597505541
 97
        0
 72
     4
 94
        3
 73
     0
 74
     0
 95
        8
 96
        4
 40
4.0
 40
4.0
 40
4.0
 40
4.0
 40
5.0
 40
5.0
 40
5.0
 40
5.0
 10
233.5756801482296
 20
19.31044597505541
 10
233.5756801482296
 20
19.31044597505541
 10
234.7014803886299
 20
23.50872279347789
 10
234.7014803886299
 20
23.50872279347789
 97
        0
 72
     4
 94
        3
 73
     0
 74
     0
 95
        8
 96
        4
 40
5.0
 40
5.0
 40
5.0
 40
5.0
 40
6.0
 40
6.0
 40
6.0
 40
6.0
 10
234.7014803886299
 20
23.50872279347789
 10
234.7014803886299
 20
23.50872279347789
 10
235.2071855413623
 20
23.50872279347789
 10
235.2071855413623
 20
23.50872279347789
 97
        0
 72
     4
 94
        3
 73
     0
 74
     0
 95
        8
 96
        4
 40
6.0
 40
6.0
 40
6.0
 40
6.0
 40
7.0
 40
7.0
 40
7.0
 40
7.0
 10
235.812480372445
 20
23.07223410176534
 10
235.812480372445
 20
23.43980352636535
 10
235.5058356988499
 20
23.50872279347789
 10
235.2071855413623
 20
23.50872279347789
 97
        0
 72
     4
 94
        3
 73
     0
 74
     0
 95
        8
 96
        4
 40
7.0
 40
7.0
 40
7.0
 40
7.0
 40
8.0
 40
8.0
 40
8.0
 40
8.0
 10
235.812480372445
 20
23.07223410176534
 10
235.812480372445
 20
22.8731439032373
 10
235.6593660713825
 20
22.55113430463269
 10
235.1536609186504
 20
22.56664782659588
 97
        0
 72
     4
 94
        3
 73
     0
 74
     0
 95
        8
 96
        4
 40
8.0
 40
8.0
 40
8.0
 40
8.0
 40
9.0
 40
9.0
 40
9.0
 40
9.0
 10
235.1536609186504
 20
22.56664782659588
 10
235.1536609186504
 20
22.56664782659588
 10
234.8297492790387
 20
21.38093329447545
 10
234.8297492790387
 20
21.38093329447545
 97
        0
 72
     4
 94
        3
 73
     0
 74
     0
 95
        8
 96
        4
 40
9.0
 40
9.0
 40
9.0
 40
9.0
 40
10.0
 40
10.0
 40
10.0
 40
10.0
 10
234.8297492790387
 20
21.38093329447545
 10
234.8297492790387
 20
21.38093329447545
 10
235.4483881165608
 20
19.22713932858048
 10
235.4483881165608
 20
19.22713932858048
 97
        0
 72
     4
 94
        3
 73
     0
 74
     0
 95
        8
 96
        4
 40
10.0
 40
10.0
 40
10.0
 40
10.0
 40
11.0
 40
11.0
 40
11.0
 40
11.0
 10
235.4483881165608
 20
19.22713932858048
 10
235.4483881165608
 20
19.22713932858048
 10
236.8636860593611
 20
19.22713932858048
 10
236.8636860593611
 20
19.22713932858048
 97
        0
 97
       13
330
2921F
330
29220
330
29221
330
29215
330
29216
330
29217
330
29218
330
29219
330
2921A
330
2921B
330
2921C
330
2921D
330
2921E
 75
     1
 76
     1
 47
0.0269459378258844
 98
        1
 10
235.7150328296965
 20
21.24708010342791
450
        0
451
        0
460
0.0
461
0.0
452
        0
462
1.0
453
        2
463
0.0
 63
     5
421
      255
463
1.0
 63
     2
421
 16776960
470
LINEAR
1001
GRADIENTCOLOR1ACI
1070
     5
1001
GRADIENTCOLOR2ACI
1070
     2
1001
ACAD
1010
0.0
1020
0.0
1030
0.0
  0
HATCH
  5
2923A
330
2
100
AcDbEntity
  8
0
  6
Continuous
 62
     0
100
AcDbHatch
 10
0.0
 20
0.0
 30
0.0
210
0.0
220
0.0
230
0.9999999999999998
  2
SOLID
 70
     1
 71
     1
 91
        1
 92
        5
 93
        1
 72
     4
 94
        3
 73
     0
 74
     0
 95
       17
 96
       13
 40
0.0
 40
0.0
 40
0.0
 40
0.0
 40
1.0
 40
1.0
 40
1.0
 40
2.0
 40
2.0
 40
2.0
 40
3.0
 40
3.0
 40
3.0
 40
4.0
 40
4.0
 40
4.0
 40
4.0
 10
239.0302296986123
 20
19.29998155526998
 10
239.0302296986123
 20
19.29998155526998
 10
237.360117644926
 20
19.29998155526998
 10
237.360117644926
 20
19.29998155526998
 10
237.360117644926
 20
19.29998155526998
 10
238.8081949584476
 20
24.70867624437805
 10
238.8081949584476
 20
24.70867624437805
 10
238.8081949584476
 20
24.70867624437805
 10
240.478186962581
 20
24.70867624437805
 10
240.478186962581
 20
24.70867624437805
 10
240.478186962581
 20
24.70867624437805
 10
239.0302296986123
 20
19.29998155526998
 10
239.0302296986123
 20
19.29998155526998
 97
        0
 97
        1
330
283D7
 75
     1
 76
     1
 47
0.0269459378258844
 98
        1
 10
238.335837961352
 20
20.77745769381764
450
        0
451
        0
460
0.0
461
0.0
452
        0
462
1.0
453
        2
463
0.0
 63
     5
421
      255
463
1.0
 63
     2
421
 16776960
470
LINEAR
1001
GRADIENTCOLOR1ACI
1070
     5
1001
GRADIENTCOLOR2ACI
1070
     2
1001
ACAD
1010
0.0
1020
0.0
1030
0.0
  0
HATCH
  5
2924F
330
2
100
AcDbEntity
  8
0
  6
Continuous
 62
     0
100
AcDbHatch
 10
0.0
 20
0.0
 30
0.0
210
0.0
220
0.0
230
0.9999999999999998
  2
SOLID
 70
     1
 71
     1
 91
        2
 92
        5
 93
        4
 72
     4
 94
        3
 73
     0
 74
     0
 95
        8
 96
        4
 40
0.0
 40
0.0
 40
0.0
 40
0.0
 40
1.0
 40
1.0
 40
1.0
 40
1.0
 10
244.2016699888815
 20
21.49309427510605
 10
244.2016699888815
 20
20.09143864991123
 10
245.1616063095947
 20
19.01714211365301
 10
246.8222961444286
 20
19.01714211365301
 97
        0
 72
     4
 94
        3
 73
     0
 74
     0
 95
        8
 96
        4
 40
3.0
 40
3.0
 40
3.0
 40
3.0
 40
4.0
 40
4.0
 40
4.0
 40
4.0
 10
246.8222961444286
 20
19.01714211365301
 10
249.0240869263591
 20
19.01714211365301
 10
250.1591893360593
 20
20.70077531813356
 10
250.1591893360593
 20
22.22445876168296
 97
        0
 72
     4
 94
        3
 73
     0
 74
     0
 95
        8
 96
        4
 40
2.0
 40
2.0
 40
2.0
 40
2.0
 40
3.0
 40
3.0
 40
3.0
 40
3.0
 10
250.1591893360593
 20
22.22445876168296
 10
250.1591893360593
 20
23.58825518539628
 10
249.1994016122998
 20
24.7157758481455
 10
247.47005998487
 20
24.7157758481455
 97
        0
 72
     4
 94
        3
 73
     0
 74
     0
 95
        8
 96
        4
 40
1.0
 40
1.0
 40
1.0
 40
1.0
 40
2.0
 40
2.0
 40
2.0
 40
2.0
 10
247.47005998487
 20
24.7157758481455
 10
245.3444400013912
 20
24.7157758481455
 10
244.2016699888815
 20
23.02432644390192
 10
244.2016699888815
 20
21.49309427510605
 97
        0
 97
        1
330
283DE
 92
       20
 93
        4
 72
     4
 94
        3
 73
     0
 74
     0
 95
        8
 96
        4
 40
2.0
 40
2.0
 40
2.0
 40
2.0
 40
3.0
 40
3.0
 40
3.0
 40
3.0
 10
246.9215291900898
 20
20.31231316184737
 10
246.3577820672537
 20
20.31231316184737
 10
245.8700571459155
 20
20.68567786764069
 10
245.8700571459155
 20
21.47799682461318
 97
        0
 72
     4
 94
        3
 73
     0
 74
     0
 95
        8
 96
        4
 40
1.0
 40
1.0
 40
1.0
 40
1.0
 40
2.0
 40
2.0
 40
2.0
 40
2.0
 10
245.8700571459155
 20
21.47799682461318
 10
245.8700571459155
 20
22.30081114626944
 10
246.4416515471238
 20
23.48158898973764
 10
247.4853060323167
 20
23.48158898973764
 97
        0
 72
     4
 94
        3
 73
     0
 74
     0
 95
        8
 96
        4
 40
0.0
 40
0.0
 40
0.0
 40
0.0
 40
1.0
 40
1.0
 40
1.0
 40
1.0
 10
247.4853060323167
 20
23.48158898973764
 10
248.0338368270969
 20
23.48158898973764
 10
248.5061968234257
 20
23.10837288089808
 10
248.5061968234257
 20
22.32357292978132
 97
        0
 72
     4
 94
        3
 73
     0
 74
     0
 95
        8
 96
        4
 40
3.0
 40
3.0
 40
3.0
 40
3.0
 40
4.0
 40
4.0
 40
4.0
 40
4.0
 10
248.5061968234257
 20
22.32357292978132
 10
248.5061968234257
 20
21.53895129500892
 10
248.0492314714974
 20
20.31231316184737
 10
246.9215291900898
 20
20.31231316184737
 97
        0
 97
        1
330
283DD
 75
     1
 76
     1
 47
0.0269459378258844
 98
        2
 10
245.3487519412343
 20
20.66908413451475
 10
245.3487519412343
 20
20.66908413451475
450
        0
451
        0
460
0.0
461
0.0
452
        0
462
1.0
453
        2
463
0.0
 63
     5
421
      255
463
1.0
 63
     2
421
 16776960
470
LINEAR
1001
GRADIENTCOLOR1ACI
1070
     5
1001
GRADIENTCOLOR2ACI
1070
     2
1001
ACAD
1010
0.0
1020
0.0
1030
0.0
  0
HATCH
  5
29296
330
2
100
AcDbEntity
  8
0
  6
Continuous
 62
     0
100
AcDbHatch
 10
0.0
 20
0.0
 30
0.0
210
0.0
220
0.0
230
0.9999999999999998
  2
SOLID
 70
     1
 71
     1
 91
        2
 92
        5
 93
        4
 72
     4
 94
        3
 73
     0
 74
     0
 95
        8
 96
        4
 40
0.0
 40
0.0
 40
0.0
 40
0.0
 40
1.0
 40
1.0
 40
1.0
 40
1.0
 10
250.3452327220549
 20
21.49309427510605
 10
250.3452327220549
 20
20.09143864991123
 10
251.3052879203311
 20
19.01714211365301
 10
252.9658291582113
 20
19.01714211365301
 97
        0
 72
     4
 94
        3
 73
     0
 74
     0
 95
        8
 96
        4
 40
3.0
 40
3.0
 40
3.0
 40
3.0
 40
4.0
 40
4.0
 40
4.0
 40
4.0
 10
252.9658291582113
 20
19.01714211365301
 10
255.1676496595326
 20
19.01714211365301
 10
256.3027520692327
 20
20.70077531813356
 10
256.3027520692327
 20
22.22445876168296
 97
        0
 72
     4
 94
        3
 73
     0
 74
     0
 95
        8
 96
        4
 40
2.0
 40
2.0
 40
2.0
 40
2.0
 40
3.0
 40
3.0
 40
3.0
 40
3.0
 10
256.3027520692327
 20
22.22445876168296
 10
256.3027520692327
 20
23.58825518539628
 10
255.3428157485197
 20
24.7157758481455
 10
253.6136227180437
 20
24.7157758481455
 97
        0
 72
     4
 94
        3
 73
     0
 74
     0
 95
        8
 96
        4
 40
1.0
 40
1.0
 40
1.0
 40
1.0
 40
2.0
 40
2.0
 40
2.0
 40
2.0
 10
253.6136227180437
 20
24.7157758481455
 10
251.487854137611
 20
24.7157758481455
 10
250.3452327220549
 20
23.02432644390192
 10
250.3452327220549
 20
21.49309427510605
 97
        0
 97
        1
330
283E1
 92
       20
 93
        4
 72
     4
 94
        3
 73
     0
 74
     0
 95
        8
 96
        4
 40
2.0
 40
2.0
 40
2.0
 40
2.0
 40
3.0
 40
3.0
 40
3.0
 40
3.0
 10
253.0647947293561
 20
20.31231316184737
 10
252.5010476065198
 20
20.31231316184737
 10
252.0137402566331
 20
20.68567786764069
 10
252.0137402566331
 20
21.47799682461318
 97
        0
 72
     4
 94
        3
 73
     0
 74
     0
 95
        8
 96
        4
 40
1.0
 40
1.0
 40
1.0
 40
1.0
 40
2.0
 40
2.0
 40
2.0
 40
2.0
 10
252.0137402566331
 20
21.47799682461318
 10
252.0137402566331
 20
22.30081114626944
 10
252.5850643241252
 20
23.48158898973764
 10
253.6284229746292
 20
23.48158898973764
 97
        0
 72
     4
 94
        3
 73
     0
 74
     0
 95
        8
 96
        4
 40
0.0
 40
0.0
 40
0.0
 40
0.0
 40
1.0
 40
1.0
 40
1.0
 40
1.0
 10
253.6284229746292
 20
23.48158898973764
 10
254.1772509633169
 20
23.48158898973764
 10
254.6496109596456
 20
23.10837288089808
 10
254.6496109596456
 20
22.32357292978132
 97
        0
 72
     4
 94
        3
 73
     0
 74
     0
 95
        8
 96
        4
 40
3.0
 40
3.0
 40
3.0
 40
3.0
 40
4.0
 40
4.0
 40
4.0
 40
4.0
 10
254.6496109596456
 20
22.32357292978132
 10
254.6496109596456
 20
21.53895129500892
 10
254.1923484138098
 20
20.31231316184737
 10
253.0647947293561
 20
20.31231316184737
 97
        0
 97
        1
330
283E0
 75
     1
 76
     1
 47
0.0269459378258844
 98
        2
 10
251.9098027589528
 20
21.10258150255277
 10
251.9098027589528
 20
21.10258150255277
450
        0
451
        0
460
0.0
461
0.0
452
        0
462
1.0
453
        2
463
0.0
 63
     5
421
      255
463
1.0
 63
     2
421
 16776960
470
LINEAR
1001
GRADIENTCOLOR1ACI
1070
     5
1001
GRADIENTCOLOR2ACI
1070
     2
1001
ACAD
1010
0.0
1020
0.0
1030
0.0
  0
HATCH
  5
2929D
330
2
100
AcDbEntity
  8
0
  6
Continuous
 62
     0
100
AcDbHatch
 10
0.0
 20
0.0
 30
0.0
210
0.0
220
0.0
230
0.9999999999999998
  2
SOLID
 70
     1
 71
     0
 91
        1
 92
        5
 93
        1
 72
     4
 94
        3
 73
     0
 74
     0
 95
       41
 96
       37
 40
0.0
 40
0.0
 40
0.0
 40
0.0
 40
1.0
 40
1.0
 40
1.0
 40
2.0
 40
2.0
 40
2.0
 40
3.0
 40
3.0
 40
3.0
 40
4.0
 40
4.0
 40
4.0
 40
5.0
 40
5.0
 40
5.0
 40
6.0
 40
6.0
 40
6.0
 40
7.0
 40
7.0
 40
7.0
 40
8.0
 40
8.0
 40
8.0
 40
9.0
 40
9.0
 40
9.0
 40
10.0
 40
10.0
 40
10.0
 40
11.0
 40
11.0
 40
11.0
 40
12.0
 40
12.0
 40
12.0
 40
12.0
 10
227.5923346505039
 20
19.29998155526998
 10
227.5923346505039
 20
19.29998155526998
 10
225.8380287348576
 20
19.29998155526998
 10
225.8380287348576
 20
19.29998155526998
 10
225.8380287348576
 20
19.29998155526998
 10
229.3467603710779
 20
24.71622163900658
 10
229.3467603710779
 20
24.71622163900658
 10
229.3467603710779
 20
24.71622163900658
 10
231.1548881490208
 20
24.71622163900658
 10
231.1548881490208
 20
24.71622163900658
 10
231.1548881490208
 20
24.71622163900658
 10
231.5610620891428
 20
19.29998155526998
 10
231.5610620891428
 20
19.29998155526998
 10
231.5610620891428
 20
19.29998155526998
 10
229.9291109051489
 20
19.29998155526998
 10
229.9291109051489
 20
19.29998155526998
 10
229.9291109051489
 20
19.29998155526998
 10
229.8754079660923
 20
20.17343444894676
 10
229.8754079660923
 20
20.17343444894676
 10
229.8754079660923
 20
20.17343444894676
 10
228.6924276179193
 20
20.17343444894676
 10
228.6924276179193
 20
20.17343444894676
 10
228.6924276179193
 20
20.17343444894676
 10
229.2797124982168
 20
21.29935356691016
 10
229.2797124982168
 20
21.29935356691016
 10
229.2797124982168
 20
21.29935356691016
 10
229.8218536239894
 20
21.29935356691016
 10
229.8218536239894
 20
21.29935356691016
 10
229.8218536239894
 20
21.29935356691016
 10
229.7527857599232
 20
22.88532885343829
 10
229.7527857599232
 20
22.88532885343829
 10
229.7527857599232
 20
22.88532885343829
 10
227.6010433152532
 20
19.31216650547105
 10
227.6010433152532
 20
19.31216650547105
 10
227.6010433152532
 20
19.31216650547105
 10
227.5923346505039
 20
19.29998155526998
 10
227.5923346505039
 20
19.29998155526998
 97
        0
 97
        0
 75
     1
 76
     1
 47
0.0269459378258844
 98
        1
 10
230.8891337742314
 20
21.5360788705908
450
        0
451
        0
460
0.0
461
0.0
452
        0
462
1.0
453
        2
463
0.0
 63
     5
421
      255
463
1.0
 63
     2
421
 16776960
470
LINEAR
1001
GRADIENTCOLOR1ACI
1070
     5
1001
GRADIENTCOLOR2ACI
1070
     2
1001
ACAD
1010
0.0
1020
0.0
1030
0.0
  0
SPLINE
  5
2942D
102
{ACAD_REACTORS
330
2944B
102
}
330
2
100
AcDbEntity
  8
Layer 1
100
AcDbSpline
210
0.0
220
0.0
230
1.0
 70
    24
 71
     3
 72
     8
 73
     4
 74
     0
 42
0.000000001
 43
0.0000000001
 40
0.0
 40
0.0
 40
0.0
 40
0.0
 40
1.0
 40
1.0
 40
1.0
 40
1.0
 10
225.6696981057393
 20
19.29998155526998
 30
0.0
 10
225.6696981057393
 20
19.29998155526998
 30
0.0
 10
223.9843411765961
 20
19.29998155526998
 30
0.0
 10
223.9843411765961
 20
19.29998155526998
 30
0.0
  0
SPLINE
  5
2942E
102
{ACAD_REACTORS
330
2944B
102
}
330
2
100
AcDbEntity
  8
Layer 1
100
AcDbSpline
210
0.0
220
0.0
230
1.0
 70
    24
 71
     3
 72
     8
 73
     4
 74
     0
 42
0.000000001
 43
0.0000000001
 40
1.0
 40
1.0
 40
1.0
 40
1.0
 40
2.0
 40
2.0
 40
2.0
 40
2.0
 10
223.9843411765961
 20
19.29998155526998
 30
0.0
 10
223.9843411765961
 20
19.29998155526998
 30
0.0
 10
224.7505665085042
 20
22.80883114168853
 30
0.0
 10
224.7505665085042
 20
22.80883114168853
 30
0.0
  0
SPLINE
  5
2942F
102
{ACAD_REACTORS
330
2944B
102
}
330
2
100
AcDbEntity
  8
Layer 1
100
AcDbSpline
210
0.0
220
0.0
230
1.0
 70
    24
 71
     3
 72
     8
 73
     4
 74
     0
 42
0.000000001
 43
0.0000000001
 40
2.0
 40
2.0
 40
2.0
 40
2.0
 40
3.0
 40
3.0
 40
3.0
 40
3.0
 10
224.7505665085042
 20
22.80883114168853
 30
0.0
 10
224.7505665085042
 20
22.80883114168853
 30
0.0
 10
222.4828581179253
 20
19.29998155526998
 30
0.0
 10
222.4828581179253
 20
19.29998155526998
 30
0.0
  0
SPLINE
  5
29430
102
{ACAD_REACTORS
330
2944B
102
}
330
2
100
AcDbEntity
  8
Layer 1
100
AcDbSpline
210
0.0
220
0.0
230
1.0
 70
    24
 71
     3
 72
     8
 73
     4
 74
     0
 42
0.000000001
 43
0.0000000001
 40
3.0
 40
3.0
 40
3.0
 40
3.0
 40
4.0
 40
4.0
 40
4.0
 40
4.0
 10
222.4828581179253
 20
19.29998155526998
 30
0.0
 10
222.4828581179253
 20
19.29998155526998
 30
0.0
 10
221.9465130137648
 20
19.29998155526998
 30
0.0
 10
221.9465130137648
 20
19.29998155526998
 30
0.0
  0
SPLINE
  5
29431
102
{ACAD_REACTORS
330
2944B
102
}
330
2
100
AcDbEntity
  8
Layer 1
100
AcDbSpline
210
0.0
220
0.0
230
1.0
 70
    24
 71
     3
 72
     8
 73
     4
 74
     0
 42
0.000000001
 43
0.0000000001
 40
4.0
 40
4.0
 40
4.0
 40
4.0
 40
5.0
 40
5.0
 40
5.0
 40
5.0
 10
221.9465130137648
 20
19.29998155526998
 30
0.0
 10
221.9465130137648
 20
19.29998155526998
 30
0.0
 10
221.5404866872975
 20
22.8853288534383
 30
0.0
 10
221.5404866872975
 20
22.8853288534383
 30
0.0
  0
SPLINE
  5
29432
102
{ACAD_REACTORS
330
2944B
102
}
330
2
100
AcDbEntity
  8
Layer 1
100
AcDbSpline
210
0.0
220
0.0
230
1.0
 70
    24
 71
     3
 72
     8
 73
     4
 74
     0
 42
0.000000001
 43
0.0000000001
 40
5.0
 40
5.0
 40
5.0
 40
5.0
 40
6.0
 40
6.0
 40
6.0
 40
6.0
 10
221.5404866872975
 20
22.8853288534383
 30
0.0
 10
221.5404866872975
 20
22.8853288534383
 30
0.0
 10
220.4294866754165
 20
19.29998155526998
 30
0.0
 10
220.4294866754165
 20
19.29998155526998
 30
0.0
  0
SPLINE
  5
29433
102
{ACAD_REACTORS
330
2944B
102
}
330
2
100
AcDbEntity
  8
Layer 1
100
AcDbSpline
210
0.0
220
0.0
230
1.0
 70
    24
 71
     3
 72
     8
 73
     4
 74
     0
 42
0.000000001
 43
0.0000000001
 40
6.0
 40
6.0
 40
6.0
 40
6.0
 40
7.0
 40
7.0
 40
7.0
 40
7.0
 10
220.4294866754165
 20
19.29998155526998
 30
0.0
 10
220.4294866754165
 20
19.29998155526998
 30
0.0
 10
218.7824379993219
 20
19.29998155526998
 30
0.0
 10
218.7824379993219
 20
19.29998155526998
 30
0.0
  0
SPLINE
  5
29434
102
{ACAD_REACTORS
330
2944B
102
}
330
2
100
AcDbEntity
  8
Layer 1
100
AcDbSpline
210
0.0
220
0.0
230
1.0
 70
    24
 71
     3
 72
     8
 73
     4
 74
     0
 42
0.000000001
 43
0.0000000001
 40
7.0
 40
7.0
 40
7.0
 40
7.0
 40
8.0
 40
8.0
 40
8.0
 40
8.0
 10
218.7824379993219
 20
19.29998155526998
 30
0.0
 10
218.7824379993219
 20
19.29998155526998
 30
0.0
 10
220.7511990882409
 20
24.70867624437805
 30
0.0
 10
220.7511990882409
 20
24.70867624437805
 30
0.0
  0
SPLINE
  5
29435
102
{ACAD_REACTORS
330
2944B
102
}
330
2
100
AcDbEntity
  8
Layer 1
100
AcDbSpline
210
0.0
220
0.0
230
1.0
 70
    24
 71
     3
 72
     8
 73
     4
 74
     0
 42
0.000000001
 43
0.0000000001
 40
8.0
 40
8.0
 40
8.0
 40
8.0
 40
9.0
 40
9.0
 40
9.0
 40
9.0
 10
220.7511990882409
 20
24.70867624437805
 30
0.0
 10
220.7511990882409
 20
24.70867624437805
 30
0.0
 10
222.5365618123065
 20
24.70867624437805
 30
0.0
 10
222.5365618123065
 20
24.70867624437805
 30
0.0
  0
SPLINE
  5
29436
102
{ACAD_REACTORS
330
2944B
102
}
330
2
100
AcDbEntity
  8
Layer 1
100
AcDbSpline
210
0.0
220
0.0
230
1.0
 70
    24
 71
     3
 72
     8
 73
     4
 74
     0
 42
0.000000001
 43
0.0000000001
 40
9.0
 40
9.0
 40
9.0
 40
9.0
 40
10.0
 40
10.0
 40
10.0
 40
10.0
 10
222.5365618123065
 20
24.70867624437805
 30
0.0
 10
222.5365618123065
 20
24.70867624437805
 30
0.0
 10
222.8656735899718
 20
21.73631776887439
 30
0.0
 10
222.8656735899718
 20
21.73631776887439
 30
0.0
  0
SPLINE
  5
29437
102
{ACAD_REACTORS
330
2944B
102
}
330
2
100
AcDbEntity
  8
Layer 1
100
AcDbSpline
210
0.0
220
0.0
230
1.0
 70
    24
 71
     3
 72
     8
 73
     4
 74
     0
 42
0.000000001
 43
0.0000000001
 40
10.0
 40
10.0
 40
10.0
 40
10.0
 40
11.0
 40
11.0
 40
11.0
 40
11.0
 10
222.8656735899718
 20
21.73631776887439
 30
0.0
 10
222.8656735899718
 20
21.73631776887439
 30
0.0
 10
224.7350232671501
 20
24.70867624437805
 30
0.0
 10
224.7350232671501
 20
24.70867624437805
 30
0.0
  0
SPLINE
  5
29438
102
{ACAD_REACTORS
330
2944B
102
}
330
2
100
AcDbEntity
  8
Layer 1
100
AcDbSpline
210
0.0
220
0.0
230
1.0
 70
    24
 71
     3
 72
     8
 73
     4
 74
     0
 42
0.000000001
 43
0.0000000001
 40
11.0
 40
11.0
 40
11.0
 40
11.0
 40
12.0
 40
12.0
 40
12.0
 40
12.0
 10
224.7350232671501
 20
24.70867624437805
 30
0.0
 10
224.7350232671501
 20
24.70867624437805
 30
0.0
 10
226.55099691857
 20
24.70867624437805
 30
0.0
 10
226.55099691857
 20
24.70867624437805
 30
0.0
  0
SPLINE
  5
29439
102
{ACAD_REACTORS
330
2944B
102
}
330
2
100
AcDbEntity
  8
Layer 1
100
AcDbSpline
210
0.0
220
0.0
230
1.0
 70
    24
 71
     3
 72
     8
 73
     4
 74
     0
 42
0.000000001
 43
0.0000000001
 40
12.0
 40
12.0
 40
12.0
 40
12.0
 40
13.0
 40
13.0
 40
13.0
 40
13.0
 10
226.55099691857
 20
24.70867624437805
 30
0.0
 10
226.55099691857
 20
24.70867624437805
 30
0.0
 10
225.6696981057393
 20
19.29998155526998
 30
0.0
 10
225.6696981057393
 20
19.29998155526998
 30
0.0
  0
HATCH
  5
2944B
330
2
100
AcDbEntity
  8
0
  6
Continuous
 62
     0
100
AcDbHatch
 10
0.0
 20
0.0
 30
0.0
210
0.0
220
0.0
230
0.9999999999999998
  2
SOLID
 70
     1
 71
     1
 91
        1
 92
        5
 93
       13
 72
     4
 94
        3
 73
     0
 74
     0
 95
        8
 96
        4
 40
1.0
 40
1.0
 40
1.0
 40
1.0
 40
2.0
 40
2.0
 40
2.0
 40
2.0
 10
224.7505665085042
 20
22.80883114168853
 10
224.7505665085042
 20
22.80883114168853
 10
223.9843411765961
 20
19.29998155526998
 10
223.9843411765961
 20
19.29998155526998
 97
        0
 72
     4
 94
        3
 73
     0
 74
     0
 95
        8
 96
        4
 40
0.0
 40
0.0
 40
0.0
 40
0.0
 40
1.0
 40
1.0
 40
1.0
 40
1.0
 10
223.9843411765961
 20
19.29998155526998
 10
223.9843411765961
 20
19.29998155526998
 10
225.6696981057393
 20
19.29998155526998
 10
225.6696981057393
 20
19.29998155526998
 97
        0
 72
     4
 94
        3
 73
     0
 74
     0
 95
        8
 96
        4
 40
12.0
 40
12.0
 40
12.0
 40
12.0
 40
13.0
 40
13.0
 40
13.0
 40
13.0
 10
225.6696981057393
 20
19.29998155526998
 10
225.6696981057393
 20
19.29998155526998
 10
226.55099691857
 20
24.70867624437805
 10
226.55099691857
 20
24.70867624437805
 97
        0
 72
     4
 94
        3
 73
     0
 74
     0
 95
        8
 96
        4
 40
11.0
 40
11.0
 40
11.0
 40
11.0
 40
12.0
 40
12.0
 40
12.0
 40
12.0
 10
226.55099691857
 20
24.70867624437805
 10
226.55099691857
 20
24.70867624437805
 10
224.7350232671501
 20
24.70867624437805
 10
224.7350232671501
 20
24.70867624437805
 97
        0
 72
     4
 94
        3
 73
     0
 74
     0
 95
        8
 96
        4
 40
10.0
 40
10.0
 40
10.0
 40
10.0
 40
11.0
 40
11.0
 40
11.0
 40
11.0
 10
224.7350232671501
 20
24.70867624437805
 10
224.7350232671501
 20
24.70867624437805
 10
222.8656735899718
 20
21.73631776887439
 10
222.8656735899718
 20
21.73631776887439
 97
        0
 72
     4
 94
        3
 73
     0
 74
     0
 95
        8
 96
        4
 40
9.0
 40
9.0
 40
9.0
 40
9.0
 40
10.0
 40
10.0
 40
10.0
 40
10.0
 10
222.8656735899718
 20
21.73631776887439
 10
222.8656735899718
 20
21.73631776887439
 10
222.5365618123065
 20
24.70867624437805
 10
222.5365618123065
 20
24.70867624437805
 97
        0
 72
     4
 94
        3
 73
     0
 74
     0
 95
        8
 96
        4
 40
8.0
 40
8.0
 40
8.0
 40
8.0
 40
9.0
 40
9.0
 40
9.0
 40
9.0
 10
222.5365618123065
 20
24.70867624437805
 10
222.5365618123065
 20
24.70867624437805
 10
220.7511990882409
 20
24.70867624437805
 10
220.7511990882409
 20
24.70867624437805
 97
        0
 72
     4
 94
        3
 73
     0
 74
     0
 95
        8
 96
        4
 40
7.0
 40
7.0
 40
7.0
 40
7.0
 40
8.0
 40
8.0
 40
8.0
 40
8.0
 10
220.7511990882409
 20
24.70867624437805
 10
220.7511990882409
 20
24.70867624437805
 10
218.7824379993219
 20
19.29998155526998
 10
218.7824379993219
 20
19.29998155526998
 97
        0
 72
     4
 94
        3
 73
     0
 74
     0
 95
        8
 96
        4
 40
6.0
 40
6.0
 40
6.0
 40
6.0
 40
7.0
 40
7.0
 40
7.0
 40
7.0
 10
218.7824379993219
 20
19.29998155526998
 10
218.7824379993219
 20
19.29998155526998
 10
220.4294866754165
 20
19.29998155526998
 10
220.4294866754165
 20
19.29998155526998
 97
        0
 72
     4
 94
        3
 73
     0
 74
     0
 95
        8
 96
        4
 40
5.0
 40
5.0
 40
5.0
 40
5.0
 40
6.0
 40
6.0
 40
6.0
 40
6.0
 10
220.4294866754165
 20
19.29998155526998
 10
220.4294866754165
 20
19.29998155526998
 10
221.5404866872975
 20
22.8853288534383
 10
221.5404866872975
 20
22.8853288534383
 97
        0
 72
     4
 94
        3
 73
     0
 74
     0
 95
        8
 96
        4
 40
4.0
 40
4.0
 40
4.0
 40
4.0
 40
5.0
 40
5.0
 40
5.0
 40
5.0
 10
221.5404866872975
 20
22.8853288534383
 10
221.5404866872975
 20
22.8853288534383
 10
221.9465130137648
 20
19.29998155526998
 10
221.9465130137648
 20
19.29998155526998
 97
        0
 72
     4
 94
        3
 73
     0
 74
     0
 95
        8
 96
        4
 40
3.0
 40
3.0
 40
3.0
 40
3.0
 40
4.0
 40
4.0
 40
4.0
 40
4.0
 10
221.9465130137648
 20
19.29998155526998
 10
221.9465130137648
 20
19.29998155526998
 10
222.4828581179253
 20
19.29998155526998
 10
222.4828581179253
 20
19.29998155526998
 97
        0
 72
     4
 94
        3
 73
     0
 74
     0
 95
        8
 96
        4
 40
2.0
 40
2.0
 40
2.0
 40
2.0
 40
3.0
 40
3.0
 40
3.0
 40
3.0
 10
222.4828581179253
 20
19.29998155526998
 10
222.4828581179253
 20
19.29998155526998
 10
224.7505665085042
 20
22.80883114168853
 10
224.7505665085042
 20
22.80883114168853
 97
        0
 97
       13
330
29439
330
29438
330
29437
330
29436
330
29435
330
29434
330
29433
330
29432
330
29431
330
29430
330
2942F
330
2942E
330
2942D
 75
     1
 76
     1
 47
0.0269459378258844
 98
        1
 10
224.8483211240657
 20
21.13885995462337
450
        0
451
        0
460
0.0
461
0.0
452
        0
462
1.0
453
        2
463
0.0
 63
     5
421
      255
463
1.0
 63
     2
421
 16776960
470
LINEAR
1001
GRADIENTCOLOR1ACI
1070
     5
1001
GRADIENTCOLOR2ACI
1070
     2
1001
ACAD
1010
0.0
1020
0.0
1030
0.0
  0
MULTILEADER
  5
3731F
330
2
100
AcDbEntity
  8
0
  6
Continuous
 62
     7
160
               688
310
B0020000180000000C00000016000000020000C30C00000033000000000000000C00000013000000993A00000C00000016000000020000C3D40000002600000047532DC99E3E48401C78DFE5DB4C6140000000000000000000000000000000000000000000000000000000000000F03F000000000000F03F00000000000000
310
0000000000000000004400530046003100360020005400610070006500720000000B000000010000000000000000000440000000000000F03F0000000000000000000000000000F03F0000000000000000000000000000000000000000000000000000000001000000000000000000000072006F006D0061006E0073002E00
310
7300680078000000660000006B000C00000033000000000000000C00000010000000000000000C00000016000000030000C30C00000012000000000000000C00000013000000010000000C0000001400000001000000540000000700000003000000B884A8B72BA35240F2E4036E17895D40000000000000000028BAABA871
310
615240DCFABA2CCCF45C400000000000000000DA2D30CB856F5240FD19447664965D4000000000000000000C000000130000008913000054000000060000000300000049596CC15889524077FF23F2BD8F5D400000000000000000D82176C449E35340C6228A90866761400000000000000000C8F2288998715240C6228A90
310
8667614000000000000000000C00000013000000122700003C0000000600000002000000C8F2288998715240C6228A90866761400000000000000000C8F2288998515240C6228A908667614000000000000000000C00000016000000030000C30C00000012000000000000000C00000017000000000000000C000000130000
310
009A3A00000C00000016000000070000C30C00000012000000000000000C00000017000000FFFFFFFF0C0000003300000000000000
100
AcDbMLeader
270
     2
300
CONTEXT_DATA{
 40
1.0
 10
48.46541123570767
 20
139.2351763437238
 30
0.0
 41
2.5
140
2.5
145
0.5
174
     2
175
     2
176
     2
177
     1
290
     1
304
DSF16 Taper
 11
0.0
 21
0.0
 31
1.0
340
35
 12
72.77493504523147
 22
140.9018430103905
 32
0.0
 13
1.0
 23
0.0
 33
0.0
 42
0.0
 43
24.31071428571428
 44
0.0
 45
1.0
170
     1
 90
-1023410174
171
     3
172
     5
 91
-1073741824
141
0.0
 92
 14025060
291
     0
292
     0
173
     0
293
     0
142
0.0
143
0.0
294
     0
295
     0
296
     0
110
35.67910342957578
120
174.9987756962934
130
0.0
111
1.0
121
0.0
131
0.0
112
0.0
122
1.0
132
0.0
297
     0
302
LEADER{
290
     1
291
     1
 10
73.77493504523148
 20
139.2351763437238
 30
0.0
 11
-1.0
 21
0.0
 31
0.0
 90
        1
 40
0.5
304
LEADER_LINE{
 10
73.52256218691093
 20
115.8249618364311
 30
0.0
 10
79.55137740646694
 20
139.2351763437238
 30
0.0
 91
        0
305
}
271
     0
303
}
272
     9
273
     9
301
}
340
BD9
 90
   279552
170
     1
 91
-1023410173
341
28
171
    -1
290
     1
291
     1
 41
0.5
 42
2.5
172
     2
343
35
173
     2
 95
        2
174
     1
175
     0
 92
-1023410174
292
     0
 93
-1023410174
 10
1.0
 20
1.0
 30
1.0
 43
0.0
176
     1
293
     0
294
     0
178
     0
179
     1
 45
1.0
271
     0
272
     9
273
     9
295
     0
  0
DIMENSION
  5
37320
330
2
100
AcDbEntity
  8
0
  6
Continuous
 62
     7
100
AcDbDimension
280
     0
  2
*D0
 10
79.73477636548899
 20
82.3377562803625
 30
0.0
 11
79.73477636548898
 21
95.91246100477105
 31
0.0
 70
   160
  1
%%c1.551
 71
     5
 42
39.5
 73
     0
 74
     0
 75
     0
  3
Standard$0
100
AcDbAlignedDimension
 13
91.29134274978616
 23
121.8377562803625
 33
0.0
 14
91.29134274978616
 24
82.3377562803625
 34
0.0
 50
90.0
100
AcDbRotatedDimension
1001
ACAD
1000
DSTYLE
1002
{
1070
    42
1040
0.625
1070
    43
1040
3.75
1070
    44
1040
1.25
1070
    48
1040
0.000000001
1070
    74
1070
     0
1070
    75
1070
     1
1070
    77
1070
     1
1070
    90
1070
     1
1070
   140
1040
3.0
1070
   141
1040
-0.5
1070
   143
1040
0.03937007874016
1070
   146
1040
0.7
1070
   147
1040
0.625
1070
   171
1070
     3
1070
   172
1070
     1
1070
   175
1070
     0
1070
   274
1070
     3
1070
   281
1070
     1
1070
   283
1070
     0
1070
   284
1070
     8
1070
   340
1005
25
1070
   371
1070
    -1
1070
   372
1070
    -1
1002
}
  0
MULTILEADER
  5
37321
330
2
100
AcDbEntity
  8
0
  6
Continuous
 62
     7
160
               680
310
A8020000180000000C00000016000000020000C30C00000033000000000000000C00000013000000993A00000C00000016000000020000C3CC00000026000000B9DBECC0B92B4140C4B272D44A7C5F40000000000000000000000000000000000000000000000000000000000000F03F000000000000F03F00000000000000
310
0000000000000000004D0031003000780031002E003500000007000000010000000000000000000440000000000000F03F0000000000000000000000000000F03F0000000000000000000000000000000000000000000000000000000001000000000000000000000072006F006D0061006E0073002E007300680078000000
310
7300000078000C00000033000000000000000C00000010000000000000000C00000016000000030000C30C00000012000000000000000C00000013000000010000000C000000140000000100000054000000070000000300000054CCA1D2EB354C401C77C194AC665B400000000000000000B023D579785C4C40FC8A84CC9D
310
C55A40000000000000000044C2EBF888CF4B400CBD6991B7575B4000000000000000000C00000013000000891300005400000006000000030000004CC7C665BA024C40149A1513325F5B400000000000000000409B9E3D9D6C4940C4B272D44ACC5F400000000000000000A0558BA8334A4940C4B272D44ACC5F4000000000
310
000000000C00000013000000112700003C0000000600000002000000A0558BA8334A4940C4B272D44ACC5F400000000000000000A0558BA8330A4940C4B272D44ACC5F4000000000000000000C00000016000000030000C30C00000012000000000000000C00000017000000000000000C000000130000009A3A00000C0000
310
0016000000070000C30C00000012000000000000000C00000017000000FFFFFFFF0C0000003300000000000000
100
AcDbMLeader
270
     2
300
CONTEXT_DATA{
 40
1.0
 10
34.31779672662293
 20
127.1920672531224
 30
0.0
 41
2.5
140
2.5
145
0.5
174
     2
175
     2
176
     2
177
     1
290
     1
304
M10x1.5
 11
0.0
 21
0.0
 31
1.0
340
35
 12
49.57970148852769
 22
128.4420672531224
 32
0.0
 13
1.0
 23
0.0
 33
0.0
 42
0.0
 43
16.19047619047619
 44
0.0
 45
1.0
170
     1
 90
-1023410174
171
     3
172
     5
 91
-939524096
141
1.5
 92
        0
291
     0
292
     0
173
     0
293
     0
142
0.0
143
0.0
294
     0
295
     0
296
     0
110
18.64753593033441
120
103.5478096625451
130
0.0
111
1.0
121
0.0
131
0.0
112
0.0
122
1.0
132
0.0
297
     0
302
LEADER{
290
     1
291
     1
 10
50.57970148852769
 20
127.1920672531224
 30
0.0
 11
-1.0
 21
0.0
 31
0.0
 90
        0
 40
0.5
304
LEADER_LINE{
 10
56.7224266329498
 20
107.0877562803616
 30
0.0
 10
50.84854860538917
 20
127.1920672531224
 30
0.0
 91
        0
305
}
271
     0
303
}
272
     9
273
     9
301
}
340
BD9
 90
   314368
170
     1
 91
-1023410173
341
28
171
    -1
290
     1
291
     1
 41
0.5
 42
2.5
172
     2
343
35
173
     2
 95
        2
174
     1
175
     0
 92
-1023410174
292
     0
 93
-1023410174
 10
1.0
 20
1.0
 30
1.0
 43
0.0
176
     1
293
     0
294
     0
178
     0
179
     1
 45
1.0
271
     0
272
     9
273
     9
295
     0
  0
LINE
  5
37322
330
2
100
AcDbEntity
  8
0
  6
Continuous
 62
     3
100
AcDbLine
 10
90.79134274978548
 20
82.21275628036204
 30
0.0
 11
90.79134274978548
 21
62.72061778660014
 31
0.0
  0
MTEXT
  5
37323
330
2
100
AcDbEntity
  8
0
  6
Continuous
 62
     2
100
AcDbMText
 10
90.79187691893309
 20
60.27180268280409
 30
0.0
 40
3.0
 41
0.0
 46
0.0
 71
     5
 72
     1
  1
0.00
 73
     1
 44
1.0
  0
LINE
  5
37324
330
2
100
AcDbEntity
  8
0
  6
Continuous
 62
     3
100
AcDbLine
 10
43.79134274978617
 20
89.63656987953555
 30
0.0
 11
43.79134274978617
 21
62.72061778660014
 31
0.0
  0
MTEXT
  5
37327
330
2
100
AcDbEntity
  8
0
  6
Continuous
 62
     2
100
AcDbMText
 10
43.70310942727281
 20
60.2074254798394
 30
0.0
 40
3.0
 41
0.0
 46
0.0
 71
     5
 72
     1
  1
1.85
 73
     1
 44
1.0
  0
LINE
  5
37328
330
2
100
AcDbEntity
  8
0
  6
Continuous
 62
     3
100
AcDbLine
 10
96.29134274978651
 20
82.21275628036204
 30
0.0
 11
96.29134274978651
 21
68.02443591587774
 31
0.0
  0
MTEXT
  5
37329
330
2
100
AcDbEntity
  8
0
  6
Continuous
 62
     2
100
AcDbMText
 10
96.29187691893413
 20
65.76402406889741
 30
0.0
 40
3.0
 41
0.0
 46
0.0
 71
     5
 72
     1
  1
0.216
 73
     1
 44
1.0
  0
LINE
  5
374FF
330
2
100
AcDbEntity
  8
0
  6
Continuous
 62
     3
100
AcDbLine
 10
166.991342749786
 20
89.54690074241609
 30
0.0
 11
166.991342749786
 21
62.72061778660014
 31
0.0
  0
MTEXT
  5
37500
330
2
100
AcDbEntity
  8
0
  6
Continuous
 62
     2
100
AcDbMText
 10
166.9918769189336
 20
60.27180268280409
 30
0.0
 40
3.0
 41
0.0
 46
0.0
 71
     5
 72
     1
  1
3.0
 73
     1
 44
1.0
  0
HATCH
  5
3829B
330
2
100
AcDbEntity
  8
0
  6
Continuous
 62
     4
100
AcDbHatch
 10
0.0
 20
0.0
 30
0.0
210
0.0
220
0.0
230
1.0
  2
ANSI31
 70
     0
 71
     0
 91
       16
 92
        7
 72
     1
 73
     1
 93
       40
 10
166.9913427497862
 20
109.1264314149575
 42
0.0
 10
166.9913427497862
 20
113.779756280362
 42
0.0
 10
166.4913427497862
 20
114.279756280362
 42
0.0
 10
98.83134274963788
 20
114.2797562803623
 42
0.0
 10
96.29134274963792
 20
116.8197562803622
 42
0.0
 10
96.29134274963611
 20
121.3377562803443
 42
0.4142135623730951
 10
95.7913427496361
 20
121.8377562803443
 42
0.0
 10
91.29134274978616
 20
121.8377562803625
 42
0.4142135623730951
 10
90.79134274978617
 20
121.3377562803625
 42
0.0
 10
90.79134274978617
 20
119.1073715226329
 42
0.0
 10
91.09134274978634
 20
118.5877562803625
 42
0.0
 10
91.09134274978634
 20
116.8377562803625
 42
0.0
 10
90.79134274978617
 20
116.8377562803625
 42
0.0
 10
89.24876465339105
 20
116.8377562803625
 42
0.0
 10
88.79134274978525
 20
117.2951781839683
 42
0.0
 10
58.2537816240366
 20
114.3547454888948
 42
0.0
 10
57.79134274978526
 20
114.0877562803625
 42
0.0
 10
55.29134274978616
 20
114.0877562803625
 42
0.0
 10
53.91760404005902
 20
114.5877562803625
 42
0.0
 10
44.79134274978616
 20
114.5877562803625
 42
0.4142135623730951
 10
43.79134274978617
 20
113.5877562803625
 42
0.0
 10
43.79134274978617
 20
108.876431414882
 42
0.0
 10
44.29134274963565
 20
108.5877562803752
 42
0.0
 10
47.79134274963564
 20
108.5877562803734
 42
0.0
 10
49.29134274963428
 20
107.0877562803734
 42
0.0
 10
67.79134274963564
 20
107.0877562803734
 42
0.0
 10
69.00377831499554
 20
106.3877562803372
 42
0.0
 10
78.79134274978617
 20
106.3877562803217
 42
0.0
 10
78.96454783051979
 20
106.087756280362
 42
0.0
 10
130.8985224267584
 20
106.087756280362
 42
0.0
 10
131.5913427497861
 20
107.2877562803623
 42
0.0
 10
140.2057021037329
 20
107.2877562803623
 42
0.0
 10
141.5913427497861
 20
108.0877562803611
 42
0.0
 10
158.1553427497862
 20
108.0877562803629
 42
0.0
 10
158.3553427497862
 20
108.2877562803632
 42
0.0
 10
158.3553427497862
 20
108.4647562803624
 42
0.0
 10
160.3353722972246
 20
108.4647562803624
 42
0.0
 10
160.555342749786
 20
108.3377562803625
 42
0.0
 10
165.9913427497862
 20
108.3377562803625
 42
0.0
 10
166.4913427497862
 20
108.6264314149575
 42
0.0
 97
        0
 92
        7
 72
     0
 73
     1
 93
        4
 10
67.79134274963564
 20
107.0877562803734
 10
49.29134274963349
 20
107.0877562803734
 10
49.99134274964001
 20
106.387756280367
 10
67.79134274963564
 20
106.387756280339
 97
        0
 92
        7
 72
     0
 73
     1
 93
        3
 10
69.00377831494336
 20
106.3877562803672
 10
67.79134274963564
 20
107.0877562803734
 10
67.79134274963564
 20
106.387756280339
 97
        0
 92
        7
 72
     0
 73
     1
 93
        4
 10
158.1553427497855
 20
108.0877562803629
 10
141.5913427497861
 20
108.0877562803611
 10
141.5913427497861
 20
107.2877562803623
 10
157.3553427497862
 20
107.2877562803623
 97
        0
 92
        7
 72
     0
 73
     1
 93
        3
 10
141.5913427497861
 20
108.0877562803611
 10
140.2057021037329
 20
107.2877562803623
 10
141.5913427497861
 20
107.2877562803623
 97
        0
 92
        9
 93
        4
 72
     1
 10
165.4303427497863
 20
134.933688489523
 11
183.3213510207215
 21
134.933688489523
 72
     1
 10
183.3213510207215
 20
134.933688489523
 11
183.3213510207215
 21
130.4315280490781
 72
     1
 10
183.3213510207215
 20
130.4315280490781
 11
165.4303427497863
 21
130.4315280490781
 72
     1
 10
165.4303427497863
 20
130.4315280490781
 11
165.4303427497863
 21
134.933688489523
 97
        0
 92
        9
 93
        4
 72
     1
 10
159.6733427497862
 20
142.9315280490781
 11
165.6733427497862
 21
142.9315280490781
 72
     1
 10
165.6733427497862
 20
142.9315280490781
 11
165.6733427497862
 21
138.4315280490781
 72
     1
 10
165.6733427497862
 20
138.4315280490781
 11
159.6733427497862
 21
138.4315280490781
 72
     1
 10
159.6733427497862
 20
138.4315280490781
 11
159.6733427497862
 21
142.9315280490781
 97
        0
 92
        9
 93
        4
 72
     1
 10
148.8369772197246
 20
150.9315280490781
 11
159.7457082798475
 21
150.9315280490781
 72
     1
 10
159.7457082798475
 20
150.9315280490781
 11
159.7457082798475
 21
146.4315280490781
 72
     1
 10
159.7457082798475
 20
146.4315280490781
 11
148.8369772197246
 21
146.4315280490781
 72
     1
 10
148.8369772197246
 20
146.4315280490781
 11
148.8369772197246
 21
150.9315280490781
 97
        0
 92
        9
 93
        4
 72
     1
 10
116.1736805301024
 20
93.18168201500652
 11
116.1736805301024
 21
104.0904130751295
 72
     1
 10
116.1736805301024
 20
104.0904130751295
 11
120.6736805301024
 21
104.0904130751295
 72
     1
 10
120.6736805301024
 20
104.0904130751295
 11
120.6736805301024
 21
93.18168201500652
 72
     1
 10
120.6736805301024
 20
93.18168201500652
 11
116.1736805301024
 21
93.18168201500652
 97
        0
 92
        9
 93
        4
 72
     1
 10
75.35977636548898
 20
90.2124610047719
 11
75.35977636548898
 21
101.612461004772
 72
     1
 10
75.35977636548898
 20
101.612461004772
 11
79.85977636548899
 21
101.612461004772
 72
     1
 10
79.85977636548899
 20
101.612461004772
 11
79.85977636548899
 21
90.2124610047719
 72
     1
 10
79.85977636548899
 20
90.2124610047719
 11
75.35977636548898
 21
90.2124610047719
 97
        0
 92
        9
 93
        4
 72
     1
 10
183.3307122744559
 20
84.58607988648457
 11
183.3307122744559
 21
107.6598109466076
 72
     1
 10
183.3307122744559
 20
107.6598109466076
 11
189.522365817763
 21
107.6598109466076
 72
     1
 10
189.522365817763
 20
107.6598109466076
 11
189.522365817763
 21
84.58607988648457
 72
     1
 10
189.522365817763
 20
84.58607988648457
 11
183.3307122744559
 21
84.58607988648457
 97
        0
 92
        9
 93
        4
 72
     1
 10
193.0223658177627
 20
96.83115962520965
 11
193.0223658177627
 21
107.3443529355149
 72
     1
 10
193.0223658177627
 20
107.3443529355149
 11
197.5223658177627
 21
107.3443529355149
 72
     1
 10
197.5223658177627
 20
107.3443529355149
 11
197.5223658177627
 21
96.83115962520965
 72
     1
 10
197.5223658177627
 20
96.83115962520965
 11
193.0223658177627
 21
96.83115962520965
 97
        0
 92
        9
 93
        4
 72
     1
 10
28.29168945925051
 20
98.57562424600468
 11
28.29168945925051
 21
105.5998883147166
 72
     1
 10
28.29168945925051
 20
105.5998883147166
 11
32.79168945925051
 21
105.5998883147166
 72
     1
 10
32.79168945925051
 20
105.5998883147166
 11
32.79168945925051
 21
98.57562424600468
 72
     1
 10
32.79168945925051
 20
98.57562424600468
 11
28.29168945925051
 21
98.57562424600468
 97
        0
 92
        9
 93
        4
 72
     1
 10
44.2913427497109
 20
128.3499540780166
 11
47.2913427497109
 21
128.3499540780166
 72
     1
 10
47.2913427497109
 20
128.3499540780166
 11
47.2913427497109
 21
123.8499540780166
 72
     1
 10
47.2913427497109
 20
123.8499540780166
 11
44.2913427497109
 21
123.8499540780166
 72
     1
 10
44.2913427497109
 20
123.8499540780166
 11
44.2913427497109
 21
128.3499540780166
 97
        0
 92
        9
 93
        4
 72
     1
 10
148.8369772197246
 20
150.9315280490781
 11
159.7457082798475
 21
150.9315280490781
 72
     1
 10
159.7457082798475
 20
150.9315280490781
 11
159.7457082798475
 21
146.4315280490781
 72
     1
 10
159.7457082798475
 20
146.4315280490781
 11
148.8369772197246
 21
146.4315280490781
 72
     1
 10
148.8369772197246
 20
146.4315280490781
 11
148.8369772197246
 21
150.9315280490781
 97
        0
 92
        9
 93
        4
 72
     1
 10
148.8369772197246
 20
150.9315280490781
 11
159.7457082798475
 21
150.9315280490781
 72
     1
 10
159.7457082798475
 20
150.9315280490781
 11
159.7457082798475
 21
146.4315280490781
 72
     1
 10
159.7457082798475
 20
146.4315280490781
 11
148.8369772197246
 21
146.4315280490781
 72
     1
 10
148.8369772197246
 20
146.4315280490781
 11
148.8369772197246
 21
150.9315280490781
 97
        0
 75
     1
 76
     1
 52
0.0
 41
1.0
 77
     0
 78
     1
 53
45.0
 43
-667.4355649225259
 44
1444.596592899181
 45
-2.245064030267288
 46
2.245064030267288
 79
     0
 47
0.0
 98
        5
 10
92.40411093794364
 20
112.5290432353337
 10
65.77153401081989
 20
106.9283822898832
 10
67.94223043071508
 20
106.71389156859
 10
143.2155161007948
 20
107.7331313480162
 10
141.3914014622273
 20
107.4815293289034
1001
ACAD
1010
0.0
1020
0.0
1030
0.0
1001
HATCHBACKGROUNDCOLOR
1071
-939524096
1000
없음
1000

  0
LINE
  5
3829E
330
2
100
AcDbEntity
  8
30-D10-105
  6
CENTER2
 62
     3
100
AcDbLine
 10
40.79134274978616
 20
102.0877562803625
 30
0.0
 11
168.9913427497862
 21
102.0877562803627
 31
0.0
  0
ARC
  5
3829F
330
2
100
AcDbEntity
  8
36-D16-105
  6
Continuous
 62
     7
100
AcDbCircle
 10
91.29134274978616
 20
121.3377562803625
 30
0.0
 40
0.5
100
AcDbArc
 50
90.0
 51
180.0
  0
ARC
  5
382A0
330
2
100
AcDbEntity
  8
06-D06-75
  6
Continuous
 62
     7
100
AcDbCircle
 10
44.79134274978616
 20
113.5877562803625
 30
0.0
 40
1.0
100
AcDbArc
 50
90.0
 51
180.0
  0
LINE
  5
382A1
330
2
100
AcDbEntity
  8
06-D06-75
  6
Continuous
 62
     7
100
AcDbLine
 10
43.79134274978617
 20
102.0877562803625
 30
0.0
 11
43.79134274978617
 21
113.5877562803625
 31
0.0
  0
LINE
  5
382A2
330
2
100
AcDbEntity
  8
06-D06-75
  6
Continuous
 62
     7
100
AcDbLine
 10
78.79134274978617
 20
102.0877562803625
 30
0.0
 11
78.79134274978617
 21
106.3877562803217
 31
0.0
  0
LINE
  5
382A3
330
2
100
AcDbEntity
  8
32-D12-105
  6
Continuous
 62
     7
100
AcDbLine
 10
44.79134274978616
 20
114.5877562803625
 30
0.0
 11
53.91760404005902
 21
114.5877562803625
 31
0.0
  0
LINE
  5
382A4
330
2
100
AcDbEntity
  8
32-D12-105
  6
Continuous
 62
     7
100
AcDbLine
 10
55.29134274978616
 20
114.0877562803625
 30
0.0
 11
57.79134274978526
 21
114.0877562803625
 31
0.0
  0
LINE
  5
382A5
330
2
100
AcDbEntity
  8
32-D12-105
  6
Continuous
 62
     7
100
AcDbLine
 10
53.91760404005811
 20
114.5877562803625
 30
0.0
 11
55.29134274978616
 21
114.0877562803625
 31
0.0
  0
LINE
  5
382A6
330
2
100
AcDbEntity
  8
32-D12-105
  6
Continuous
 62
     7
100
AcDbLine
 10
58.2537816240366
 20
114.3547454888948
 30
0.0
 11
57.79134274978616
 21
114.0877562803625
 31
0.0
  0
LINE
  5
382A7
330
2
100
AcDbEntity
  8
36-D16-105
  6
Continuous
 62
     7
100
AcDbLine
 10
90.79134274978617
 20
116.8377562803625
 30
0.0
 11
90.79134274978617
 21
121.3377562803625
 31
0.0
  0
LINE
  5
382A8
330
2
100
AcDbEntity
  8
28-D08-105
  6
Continuous
 62
     7
100
AcDbLine
 10
89.24876465339105
 20
116.8377562803625
 30
0.0
 11
88.79134274978616
 21
117.2951781839683
 31
0.0
  0
LINE
  5
382A9
330
2
100
AcDbEntity
  8
30-D10-105
  6
Continuous
 62
     7
100
AcDbLine
 10
89.24876465339105
 20
116.8377562803625
 30
0.0
 11
91.09134274978634
 21
116.8377562803625
 31
0.0
  0
LINE
  5
382AA
330
2
100
AcDbEntity
  8
30-D10-105
  6
Continuous
 62
     7
100
AcDbLine
 10
91.09134274978634
 20
116.8377562803625
 30
0.0
 11
91.09134274978634
 21
118.5877562803625
 31
0.0
  0
LINE
  5
382AB
330
2
100
AcDbEntity
  8
30-D10-105
  6
Continuous
 62
     7
100
AcDbLine
 10
90.79134274978617
 20
119.1073715226329
 30
0.0
 11
91.09134274978634
 21
118.5877562803625
 31
0.0
  0
LINE
  5
382AC
330
2
100
AcDbEntity
  8
06-D06-75
  6
Continuous
 62
     7
100
AcDbLine
 10
58.2537816240366
 20
114.3547454888948
 30
0.0
 11
88.79134274978525
 21
117.2951781839683
 31
0.0
  0
ARC
  5
382AD
330
2
100
AcDbEntity
  8
36-D16-105
  6
Continuous
 62
     7
100
AcDbCircle
 10
91.29134274978616
 20
82.8377562803625
 30
0.0
 40
0.5
100
AcDbArc
 50
180.0
 51
270.0
  0
ARC
  5
382AE
330
2
100
AcDbEntity
  8
06-D06-75
  6
Continuous
 62
     7
100
AcDbCircle
 10
44.79134274978616
 20
90.58775628036249
 30
0.0
 40
1.0
100
AcDbArc
 50
180.0
 51
270.0
  0
LINE
  5
382AF
330
2
100
AcDbEntity
  8
06-D06-75
  6
Continuous
 62
     7
100
AcDbLine
 10
43.79134274978617
 20
102.0877562803625
 30
0.0
 11
43.79134274978617
 21
90.58775628036249
 31
0.0
  0
LINE
  5
382B0
330
2
100
AcDbEntity
  8
32-D12-105
  6
Continuous
 62
     7
100
AcDbLine
 10
44.79134274978616
 20
89.58775628036249
 30
0.0
 11
53.91760404005902
 21
89.58775628036249
 31
0.0
  0
LINE
  5
382B1
330
2
100
AcDbEntity
  8
32-D12-105
  6
Continuous
 62
     7
100
AcDbLine
 10
55.29134274978616
 20
90.0877562803625
 30
0.0
 11
57.79134274978526
 21
90.0877562803625
 31
0.0
  0
LINE
  5
382B2
330
2
100
AcDbEntity
  8
32-D12-105
  6
Continuous
 62
     7
100
AcDbLine
 10
53.91760404005811
 20
89.58775628036249
 30
0.0
 11
55.29134274978616
 21
90.0877562803625
 31
0.0
  0
LINE
  5
382B3
330
2
100
AcDbEntity
  8
32-D12-105
  6
Continuous
 62
     7
100
AcDbLine
 10
58.2537816240366
 20
89.82076707183017
 30
0.0
 11
57.79134274978616
 21
90.0877562803625
 31
0.0
  0
LINE
  5
382B4
330
2
100
AcDbEntity
  8
28-D08-105
  6
Continuous
 62
     7
100
AcDbLine
 10
89.24876465339105
 20
87.3377562803625
 30
0.0
 11
88.79134274978616
 21
86.88033437675853
 31
0.0
  0
LINE
  5
382B5
330
2
100
AcDbEntity
  8
30-D10-105
  6
Continuous
 62
     7
100
AcDbLine
 10
89.24876465339105
 20
87.3377562803625
 30
0.0
 11
90.79134274978617
 21
87.3377562803625
 31
0.0
  0
LINE
  5
382B6
330
2
100
AcDbEntity
  8
06-D06-75
  6
Continuous
 62
     7
100
AcDbLine
 10
58.2537816240366
 20
89.82076707183017
 30
0.0
 11
88.79134274978525
 21
86.88033437675853
 31
0.0
  0
LINE
  5
382B7
330
2
100
AcDbEntity
  8
36-D16-105
  6
Continuous
 62
     7
100
AcDbLine
 10
90.79134274978617
 20
102.0877562803625
 30
0.0
 11
90.79134274978617
 21
82.8377562803625
 31
0.0
  0
LINE
  5
382B8
330
2
100
AcDbEntity
  8
0
  6
Continuous
 62
     7
100
AcDbLine
 10
88.79134274978616
 20
86.8803343767567
 30
0.0
 11
88.79134274978616
 21
102.0877562803625
 31
0.0
  0
LINE
  5
382B9
330
2
100
AcDbEntity
  8
0
  6
Continuous
 62
     7
100
AcDbLine
 10
89.24876465339014
 20
87.3377562803625
 30
0.0
 11
89.24876465339014
 21
102.0877562803625
 31
0.0
  0
LINE
  5
382BA
330
2
100
AcDbEntity
  8
0
  6
Continuous
 62
     7
100
AcDbLine
 10
53.91760404005811
 20
89.58775628036249
 30
0.0
 11
53.91760404005811
 21
102.0877562803625
 31
0.0
  0
LINE
  5
382BB
330
2
100
AcDbEntity
  8
0
  6
Continuous
 62
     7
100
AcDbLine
 10
55.29134274978616
 20
90.0877562803625
 30
0.0
 11
55.29134274978616
 21
102.0877562803625
 31
0.0
  0
LINE
  5
382BC
330
2
100
AcDbEntity
  8
0
  6
Continuous
 62
     7
100
AcDbLine
 10
57.79134274978616
 20
90.0877562803625
 30
0.0
 11
57.79134274978616
 21
102.0877562803625
 31
0.0
  0
LINE
  5
382BD
330
2
100
AcDbEntity
  8
0
  6
Continuous
 62
     7
100
AcDbLine
 10
58.2537816240366
 20
89.82076707183017
 30
0.0
 11
58.2537816240366
 21
102.0877562803625
 31
0.0
  0
LINE
  5
382BF
330
2
100
AcDbEntity
  8
36-D16-105
  6
Continuous
 62
     7
100
AcDbLine
 10
91.29134274963519
 20
82.3377562803734
 30
0.0
 11
95.7913427496361
 21
82.3377562803734
 31
0.0
  0
LINE
  5
382C0
330
2
100
AcDbEntity
  8
0
  6
Continuous
 62
     7
100
AcDbLine
 10
96.29134274963565
 20
82.83775628037501
 30
0.0
 11
96.29134274967043
 21
102.0877562803625
 31
0.0
  0
ARC
  5
382C1
330
2
100
AcDbEntity
  8
0
  6
Continuous
 62
     7
100
AcDbCircle
 10
95.7913427496361
 20
82.83775628037341
 30
0.0
 40
0.5000000000000004
100
AcDbArc
 50
270.0
 51
0.0
  0
LINE
  5
382C2
330
2
100
AcDbEntity
  8
36-D16-105
  6
Continuous
 62
     7
100
AcDbLine
 10
91.29134274963519
 20
121.8377562803443
 30
0.0
 11
95.7913427496361
 21
121.8377562803443
 31
0.0
  0
ARC
  5
382C3
330
2
100
AcDbEntity
  8
0
  6
Continuous
 62
     7
100
AcDbCircle
 10
95.7913427496361
 20
121.3377562803443
 30
0.0
 40
0.5000000000000004
100
AcDbArc
 50
0.0
 51
90.0
  0
LINE
  5
382C4
330
2
100
AcDbEntity
  8
0
  6
Continuous
 62
     7
100
AcDbLine
 10
78.79134274978617
 20
106.3877562803217
 30
0.0
 11
49.99134274964001
 21
106.387756280367
 31
0.0
  0
LINE
  5
382C5
330
2
100
AcDbEntity
  8
0
  6
Continuous
 62
     7
100
AcDbLine
 10
96.29134274963792
 20
121.3377562803441
 30
0.0
 11
96.29134274963792
 21
116.8197562803622
 31
0.0
  0
LINE
  5
382C8
330
2
100
AcDbEntity
  8
36-D16-105
  6
Continuous
 62
     7
100
AcDbLine
 10
47.7913427496361
 20
108.5877562803716
 30
0.0
 11
44.29134274963565
 21
108.5877562803752
 31
0.0
  0
LINE
  5
382C9
330
2
100
AcDbEntity
  8
26-D06-105
  6
Continuous
 62
     7
100
AcDbLine
 10
44.29134274963565
 20
108.5877562803734
 30
0.0
 11
43.79134274978617
 21
108.876431414882
 31
0.0
  0
LINE
  5
382CA
330
2
100
AcDbEntity
  8
0
  6
Continuous
 62
     7
100
AcDbLine
 10
49.99134274963864
 20
106.3877562803672
 30
0.0
 11
49.99134274963864
 21
102.0877562803734
 31
0.0
  0
LINE
  5
382CB
330
2
100
AcDbEntity
  8
0
  6
Continuous
 62
     7
100
AcDbLine
 10
47.79134274963564
 20
108.5877562803734
 30
0.0
 11
47.79134274963564
 21
102.0877562803607
 31
0.0
  0
LINE
  5
382CC
330
2
100
AcDbEntity
  8
0
  6
Continuous
 62
     7
100
AcDbLine
 10
47.79134274963564
 20
108.5877562803734
 30
0.0
 11
49.99134274963864
 21
106.3877562803672
 31
0.0
  0
LINE
  5
382CD
330
2
100
AcDbEntity
  8
36-D16-105
  6
Continuous
 62
     3
100
AcDbLine
 10
49.29134274963428
 20
107.0877562803734
 30
0.0
 11
67.79134274963564
 21
107.0877562803734
 31
0.0
  0
LINE
  5
382CE
330
2
100
AcDbEntity
  8
0
  6
Continuous
 62
     2
100
AcDbLine
 10
67.79134274963564
 20
107.0877562803734
 30
0.0
 11
67.79134274963564
 21
102.0877562803734
 31
0.0
  0
LINE
  5
382CF
330
2
100
AcDbEntity
  8
0
  6
Continuous
 62
     7
100
AcDbLine
 10
44.29134274963565
 20
108.5877562803734
 30
0.0
 11
44.29134274963565
 21
102.0877562803643
 31
0.0
  0
LINE
  5
382D0
330
2
100
AcDbEntity
  8
0
  6
Continuous
 62
     3
100
AcDbLine
 10
67.79134274963564
 20
107.0877562803734
 30
0.0
 11
69.00377831494336
 21
106.3877562803672
 31
0.0
  0
LINE
  5
382D2
330
2
100
AcDbEntity
  8
0
  6
Continuous
 62
     7
100
AcDbLine
 10
78.96454783051979
 20
106.087756280362
 30
0.0
 11
130.8985224267584
 21
106.087756280362
 31
0.0
  0
LINE
  5
382D4
330
2
100
AcDbEntity
  8
0
  6
Continuous
100
AcDbLine
 10
166.991342749786
 20
90.39575628036203
 30
0.0
 11
166.9913427497862
 21
102.0877562803625
 31
0.0
  0
LINE
  5
382D5
330
2
100
AcDbEntity
  8
0
  6
Continuous
 62
     7
100
AcDbLine
 10
166.4913427497862
 20
89.89575628036204
 30
0.0
 11
166.9913427497862
 21
90.39575628036203
 31
0.0
  0
LINE
  5
382D6
330
2
100
AcDbEntity
  8
0
  6
Continuous
 62
     7
100
AcDbLine
 10
166.4913427497862
 20
89.89575628036204
 30
0.0
 11
98.83134274964845
 21
89.89575628036204
 31
0.0
  0
LINE
  5
382D7
330
2
100
AcDbEntity
  8
0
  6
Continuous
 62
     7
100
AcDbLine
 10
96.29134274964384
 20
87.35575628036206
 30
0.0
 11
98.83134274964845
 21
89.89575628036204
 31
0.0
  0
LINE
  5
382D8
330
2
100
AcDbEntity
  8
0
  6
Continuous
100
AcDbLine
 10
166.9913427497862
 20
113.779756280362
 30
0.0
 11
166.9913427497862
 21
102.0877562803616
 31
0.0
  0
LINE
  5
382D9
330
2
100
AcDbEntity
  8
0
  6
Continuous
100
AcDbLine
 10
166.4913427497862
 20
108.6264314149575
 30
0.0
 11
166.4913427497862
 21
102.0877562803616
 31
0.0
  0
LINE
  5
382DA
330
2
100
AcDbEntity
  8
0
  6
Continuous
 62
     2
100
AcDbLine
 10
141.5913427497861
 20
108.0877562803611
 30
0.0
 11
141.5913427497861
 21
102.0877562803616
 31
0.0
  0
LINE
  5
382DB
330
2
100
AcDbEntity
  8
0
  6
Continuous
 62
     0
100
AcDbLine
 10
131.5913427497861
 20
107.2877562803623
 30
0.0
 11
131.5913427497861
 21
102.0877562803616
 31
0.0
  0
LINE
  5
382DC
330
2
100
AcDbEntity
  8
0
  6
Continuous
 62
     7
100
AcDbLine
 10
166.4913427497862
 20
114.279756280362
 30
0.0
 11
166.9913427497862
 21
113.779756280362
 31
0.0
  0
LINE
  5
382DD
330
2
100
AcDbEntity
  8
0
  6
Continuous
100
AcDbLine
 10
165.9913427497862
 20
108.3377562803625
 30
0.0
 11
165.9913427497862
 21
102.0877562803616
 31
0.0
  0
LINE
  5
382DE
330
2
100
AcDbEntity
  8
0
  6
Continuous
 62
     7
100
AcDbLine
 10
166.4913427497862
 20
114.279756280362
 30
0.0
 11
98.83134274963788
 21
114.2797562803623
 31
0.0
  0
LINE
  5
382DF
330
2
100
AcDbEntity
  8
0
  6
Continuous
 62
     7
100
AcDbLine
 10
96.29134274963792
 20
116.8197562803622
 30
0.0
 11
98.83134274963788
 21
114.2797562803623
 31
0.0
  0
LINE
  5
382E0
330
2
100
AcDbEntity
  8
0
  6
Continuous
 62
     7
100
AcDbLine
 10
165.9913427497862
 20
108.3377562803625
 30
0.0
 11
160.555342749786
 21
108.3377562803625
 31
0.0
  0
LINE
  5
382E1
330
2
100
AcDbEntity
  8
0
  6
Continuous
 62
     7
100
AcDbLine
 10
160.3353722972246
 20
108.4647562803624
 30
0.0
 11
158.3553427497862
 21
108.4647562803624
 31
0.0
  0
LINE
  5
382E2
330
2
100
AcDbEntity
  8
0
  6
Continuous
 62
     7
100
AcDbLine
 10
160.5553427497863
 20
108.3377562803625
 30
0.0
 11
160.3353722972246
 21
108.4647562803624
 31
0.0
  0
LINE
  5
382E3
330
2
100
AcDbEntity
  8
0
  6
Continuous
 62
     7
100
AcDbLine
 10
158.3553427497862
 20
108.4647562803624
 30
0.0
 11
158.3553427497862
 21
102.087756280362
 31
0.0
  0
LINE
  5
382E4
330
2
100
AcDbEntity
  8
0
  6
Continuous
 62
     7
100
AcDbLine
 10
160.3353722972246
 20
108.4647562803624
 30
0.0
 11
160.3353722972246
 21
102.087756280362
 31
0.0
  0
LINE
  5
382E5
330
2
100
AcDbEntity
  8
0
  6
Continuous
 62
     7
100
AcDbLine
 10
160.5553427497863
 20
108.3377562803625
 30
0.0
 11
160.5553427497863
 21
102.087756280362
 31
0.0
  0
LINE
  5
382E6
330
2
100
AcDbEntity
  8
0
  6
Continuous
 62
     7
100
AcDbLine
 10
157.3553427497858
 20
107.2877562803623
 30
0.0
 11
131.5913427497861
 21
107.2877562803623
 31
0.0
  0
LINE
  5
382E7
330
2
100
AcDbEntity
  8
0
  6
Continuous
 62
     3
100
AcDbLine
 10
158.1553427497855
 20
108.0877562803629
 30
0.0
 11
141.5913427497861
 21
108.0877562803611
 31
0.0
  0
LINE
  5
382E8
330
2
100
AcDbEntity
  8
0
  6
Continuous
 62
     7
100
AcDbLine
 10
158.3553427497862
 20
108.2877562803632
 30
0.0
 11
157.3553427497862
 21
107.2877562803623
 31
0.0
  0
LINE
  5
382E9
330
2
100
AcDbEntity
  8
0
  6
Continuous
 62
     7
100
AcDbLine
 10
157.3553427497862
 20
107.2877562803623
 30
0.0
 11
157.3553427497862
 21
102.087756280362
 31
0.0
  0
LINE
  5
382EA
330
2
100
AcDbEntity
  8
0
  6
Continuous
 62
     7
100
AcDbLine
 10
165.9913427497862
 20
108.3377562803625
 30
0.0
 11
166.4913427497862
 21
108.6264314149575
 31
0.0
  0
LINE
  5
382EB
330
2
100
AcDbEntity
  8
0
  6
Continuous
 62
     7
100
AcDbLine
 10
166.4913427497862
 20
89.89575628036204
 30
0.0
 11
166.4913427497862
 21
102.087756280362
 31
0.0
  0
LINE
  5
382EC
330
2
100
AcDbEntity
  8
0
  6
Continuous
 62
     3
100
AcDbLine
 10
141.5913427497861
 20
108.0877562803611
 30
0.0
 11
140.2057021037329
 21
107.2877562803623
 31
0.0
  0
LINE
  5
382ED
330
2
100
AcDbEntity
  8
0
  6
Continuous
 62
     7
100
AcDbLine
 10
166.4913427497862
 20
108.6264314149575
 30
0.0
 11
166.9913427497862
 21
109.1264314149575
 31
0.0
  0
LINE
  5
382EE
330
2
100
AcDbEntity
  8
0
  6
Continuous
 62
     7
100
AcDbLine
 10
131.5913427497861
 20
107.2877562803623
 30
0.0
 11
130.8985224267584
 21
106.087756280362
 31
0.0
  0
LINE
  5
382EF
330
2
100
AcDbEntity
  8
0
  6
Continuous
 62
     7
100
AcDbLine
 10
130.8985224267584
 20
106.087756280362
 30
0.0
 11
130.8985224267584
 21
102.087756280362
 31
0.0
  0
LINE
  5
382F6
330
2
100
AcDbEntity
  8
0
  6
Continuous
100
AcDbLine
 10
98.83134274964845
 20
89.89575628036204
 30
0.0
 11
98.83134274964845
 21
102.0877562803625
 31
0.0
  0
LINE
  5
382F7
330
2
100
AcDbEntity
  8
0
  6
Continuous
100
AcDbLine
 10
78.79134274978617
 20
106.3877562803217
 30
0.0
 11
78.96454783051979
 21
106.087756280362
 31
0.0
  0
LINE
  5
382F8
330
2
100
AcDbEntity
  8
0
  6
Continuous
100
AcDbLine
 10
78.96454783051979
 20
106.087756280362
 30
0.0
 11
78.96454783051979
 21
102.0877562803625
 31
0.0
  0
HATCH
  5
38300
330
2
100
AcDbEntity
  8
0
  6
Continuous
 62
     4
100
AcDbHatch
 10
0.0
 20
0.0
 30
0.0
210
0.0
220
0.0
230
1.0
  2
ANSI31
 70
     0
 71
     0
 91
       11
 92
        7
 72
     1
 73
     1
 93
        5
 10
222.4498171346402
 20
114.279756280362
 42
0.29482655450894
 10
211.3373171346402
 20
107.1034524184869
 42
0.0
 10
211.3373171346402
 20
102.087756280362
 42
0.0
 10
216.4498171346401
 20
102.087756280362
 42
-0.4142135623730951
 10
222.4498171346402
 20
108.087756280362
 42
0.0
 97
        0
 92
        7
 72
     1
 73
     1
 93
        4
 10
222.4498171346402
 20
108.087756280362
 42
0.4142135623730951
 10
216.4498171346401
 20
102.087756280362
 42
0.0
 10
217.1998171346402
 20
102.087756280362
 42
-0.4142135623730951
 10
222.4498171346402
 20
107.337756280362
 42
0.0
 97
        0
 92
        7
 72
     1
 73
     1
 93
        5
 10
211.3373171346403
 20
97.07206014223693
 42
0.29482655450894
 10
222.4498171346402
 20
89.89575628036204
 42
0.0
 10
222.4498171346402
 20
96.08775628036205
 42
-0.4142135623730992
 10
216.4498171346401
 20
102.087756280362
 42
0.0
 10
211.3373171346402
 20
102.087756280362
 42
0.0
 97
        0
 92
        7
 72
     1
 73
     1
 93
        4
 10
216.4498171346401
 20
102.087756280362
 42
0.4142135623730992
 10
222.4498171346402
 20
96.08775628036205
 42
0.0
 10
222.4498171346402
 20
96.83775628036205
 42
-0.4142135623730992
 10
217.1998171346402
 20
102.087756280362
 42
0.0
 97
        0
 92
        7
 72
     1
 73
     1
 93
        7
 10
222.4498171346404
 20
89.89575628036204
 42
0.2948265545089401
 10
233.5623171346401
 20
97.07206014223714
 42
0.0
 10
233.5623171346401
 20
102.087756280362
 42
0.0
 10
228.4498171346402
 20
102.087756280362
 42
0.0
 10
227.6998171346402
 20
102.087756280362
 42
-0.4142135623730951
 10
222.4498171346402
 20
96.83775628036205
 42
0.0
 10
222.4498171346402
 20
96.08775628036205
 42
0.0
 97
        0
 92
        7
 72
     1
 73
     1
 93
        4
 10
228.4498171346402
 20
102.087756280362
 42
0.4142135623730951
 10
222.4498171346402
 20
108.087756280362
 42
0.0
 10
222.4498171346403
 20
107.337756280362
 42
-0.4142135623730951
 10
227.6998171346402
 20
102.087756280362
 42
0.0
 97
        0
 92
        7
 72
     1
 73
     1
 93
        5
 10
233.5623171346401
 20
107.1034524184869
 42
0.29482655450894
 10
222.4498171346402
 20
114.279756280362
 42
0.0
 10
222.4498171346403
 20
108.087756280362
 42
-0.4142135623730951
 10
228.4498171346402
 20
102.087756280362
 42
0.0
 10
233.5623171346401
 20
102.087756280362
 42
0.0
 97
        0
 92
        9
 93
        4
 72
     1
 10
148.8369772197246
 20
150.9315280490781
 11
159.7457082798475
 21
150.9315280490781
 72
     1
 10
159.7457082798475
 20
150.9315280490781
 11
159.7457082798475
 21
146.4315280490781
 72
     1
 10
159.7457082798475
 20
146.4315280490781
 11
148.8369772197246
 21
146.4315280490781
 72
     1
 10
148.8369772197246
 20
146.4315280490781
 11
148.8369772197246
 21
150.9315280490781
 97
        0
 92
        9
 93
        4
 72
     1
 10
218.4876851002842
 20
83.08145287528095
 11
226.4119491689962
 21
83.08145287528095
 72
     1
 10
226.4119491689962
 20
83.08145287528095
 11
226.4119491689962
 21
78.58145287528095
 72
     1
 10
226.4119491689962
 20
78.58145287528095
 11
218.4876851002842
 21
78.58145287528095
 72
     1
 10
218.4876851002842
 20
78.58145287528095
 11
218.4876851002842
 21
83.08145287528095
 97
        0
 92
        9
 93
        4
 72
     1
 10
218.4876851002842
 20
83.08145287528095
 11
226.4119491689962
 21
83.08145287528095
 72
     1
 10
226.4119491689962
 20
83.08145287528095
 11
226.4119491689962
 21
78.58145287528095
 72
     1
 10
226.4119491689962
 20
78.58145287528095
 11
218.4876851002842
 21
78.58145287528095
 72
     1
 10
218.4876851002842
 20
78.58145287528095
 11
218.4876851002842
 21
83.08145287528095
 97
        0
 92
        9
 93
        4
 72
     1
 10
218.4876851002842
 20
83.08145287528095
 11
226.4119491689962
 21
83.08145287528095
 72
     1
 10
226.4119491689962
 20
83.08145287528095
 11
226.4119491689962
 21
78.58145287528095
 72
     1
 10
226.4119491689962
 20
78.58145287528095
 11
218.4876851002842
 21
78.58145287528095
 72
     1
 10
218.4876851002842
 20
78.58145287528095
 11
218.4876851002842
 21
83.08145287528095
 97
        0
 75
     1
 76
     1
 52
0.0
 41
1.0
 77
     0
 78
     1
 53
45.0
 43
-636.6806312779329
 44
1820.758935749843
 45
-2.245064030267288
 46
2.245064030267288
 79
     0
 47
0.0
 98
        7
 10
217.1098353954219
 20
106.6089886351082
 10
217.7057390525642
 20
105.4837772302573
 10
216.0624633652339
 20
100.2944855860566
 10
217.5327626644241
 20
99.34311545128634
 10
226.2680702654953
 20
97.3106428906412
 10
227.9113459528256
 20
103.624281057752
 10
228.6464956024207
 20
105.4837772302573
1001
ACAD
1010
0.0
1020
0.0
1030
0.0
1001
HATCHBACKGROUNDCOLOR
1071
-939524096
1000
없음
1000

  0
CIRCLE
  5
38301
330
2
100
AcDbEntity
  8
0
  6
Continuous
 62
     7
100
AcDbCircle
 10
222.4498171346402
 20
102.087756280362
 30
0.0
 40
12.192
  0
LINE
  5
38302
330
2
100
AcDbEntity
  8
0
  6
Continuous
 62
     7
100
AcDbLine
 10
211.3373171346402
 20
97.07206014223714
 30
0.0
 11
211.3373171346402
 21
107.1034524184869
 31
0.0
  0
LINE
  5
38303
330
2
100
AcDbEntity
  8
0
  6
Continuous
 62
     7
100
AcDbLine
 10
151.1163427497856
 20
97.07206014223714
 30
0.0
 11
151.1163427497856
 21
102.0877562803627
 31
0.0
  0
LINE
  5
38304
330
2
100
AcDbEntity
  8
0
  6
Continuous
 62
     7
100
AcDbLine
 10
157.4663427497861
 20
97.07206014223714
 30
0.0
 11
157.4663427497861
 21
102.0877562803627
 31
0.0
  0
LINE
  5
38305
330
2
100
AcDbEntity
  8
0
  6
Continuous
 62
     7
100
AcDbLine
 10
157.4663427497861
 20
97.07206014223714
 30
0.0
 11
151.1163427497856
 21
97.07206014223714
 31
0.0
  0
ARC
  5
38306
330
2
100
AcDbEntity
  8
0
  6
Continuous
 62
     7
100
AcDbCircle
 10
146.3538427497843
 20
102.0877562803627
 30
0.0
 40
12.19200000000191
100
AcDbArc
 50
335.7076667651188
 51
0.0
  0
ARC
  5
38307
330
2
100
AcDbEntity
  8
0
  6
Continuous
 62
     7
100
AcDbCircle
 10
162.2288427497873
 20
102.0877562803627
 30
0.0
 40
12.19200000000191
100
AcDbArc
 50
180.0
 51
204.2923332348812
  0
LINE
  5
38308
330
2
100
AcDbEntity
  8
0
  6
Continuous
 62
     2
100
AcDbLine
 10
157.4663427497862
 20
97.07206014223737
 30
0.0
 11
154.2913427497858
 21
102.0877562803627
 31
0.0
  0
LINE
  5
38309
330
2
100
AcDbEntity
  8
0
  6
Continuous
 62
     2
100
AcDbLine
 10
154.2913427497858
 20
102.0877562803627
 30
0.0
 11
151.1163427497856
 21
97.07206014223714
 31
0.0
  0
LINE
  5
3830A
330
2
100
AcDbEntity
  8
0
  6
Continuous
 62
     7
100
AcDbLine
 10
233.5623171346401
 20
97.07206014223714
 30
0.0
 11
233.5623171346401
 21
107.1034524184869
 31
0.0
  0
DIMENSION
  5
3830D
330
2
100
AcDbEntity
  8
0
  6
Continuous
 62
     7
100
AcDbDimension
280
     0
  2
*D1
 10
233.5623171346401
 20
78.70645287528095
 30
0.0
 11
222.4498171346402
 21
80.83145287528095
 31
0.0
 70
    32
  1
.875
 71
     5
 42
22.22499999999991
 73
     0
 74
     0
 75
     0
  3
Standard$0
100
AcDbAlignedDimension
 13
211.3373171346402
 23
97.07206014223714
 33
0.0
 14
233.5623171346401
 24
97.07206014223714
 34
0.0
100
AcDbRotatedDimension
1001
ACAD
1000
DSTYLE
1002
{
1070
   171
1070
     3
1070
   143
1040
0.03937007874016
1070
   274
1070
     3
1070
   141
1040
-0.5
1070
    43
1040
3.75
1070
    44
1040
1.25
1070
    42
1040
0.625
1070
   147
1040
0.625
1070
   371
1070
    -1
1070
   372
1070
    -1
1070
   175
1070
     0
1070
    77
1070
     1
1070
   146
1040
0.7
1070
    48
1040
0.000000001
1070
   172
1070
     1
1070
    74
1070
     0
1070
   283
1070
     0
1070
   340
1005
25
1070
   140
1040
3.0
1070
   284
1070
     8
1070
    90
1070
     1
1002
}
  0
ARC
  5
3830E
330
2
100
AcDbEntity
  8
0
  6
Continuous
 62
     3
100
AcDbCircle
 10
222.4498171346402
 20
102.087756280362
 30
0.0
 40
6.0
100
AcDbArc
 50
351.5255460793476
 51
281.8842567789328
  0
CIRCLE
  5
3830F
330
2
100
AcDbEntity
  8
0
  6
Continuous
 62
     7
100
AcDbCircle
 10
222.4498171346402
 20
102.087756280362
 30
0.0
 40
5.25
  0
LINE
  5
38310
330
2
100
AcDbEntity
  8
0
  6
Continuous
 62
     3
100
AcDbLine
 10
221.9498171346402
 20
102.087756280362
 30
0.0
 11
222.9498171346402
 21
102.087756280362
 31
0.0
  0
LINE
  5
38311
330
2
100
AcDbEntity
  8
0
  6
Continuous
 62
     3
100
AcDbLine
 10
222.4498171346402
 20
101.587756280362
 30
0.0
 11
222.4498171346402
 21
102.587756280362
 31
0.0
  0
LINE
  5
38312
330
2
100
AcDbEntity
  8
0
  6
Continuous
 62
     3
100
AcDbLine
 10
223.4498171346402
 20
102.087756280362
 30
0.0
 11
235.1418171346402
 21
102.087756280362
 31
0.0
  0
LINE
  5
38313
330
2
100
AcDbEntity
  8
0
  6
Continuous
 62
     3
100
AcDbLine
 10
221.4498171346402
 20
102.087756280362
 30
0.0
 11
209.7578171346401
 21
102.087756280362
 31
0.0
  0
LINE
  5
38314
330
2
100
AcDbEntity
  8
0
  6
Continuous
 62
     3
100
AcDbLine
 10
222.4498171346402
 20
103.087756280362
 30
0.0
 11
222.4498171346402
 21
114.779756280362
 31
0.0
  0
LINE
  5
38315
330
2
100
AcDbEntity
  8
0
  6
Continuous
 62
     3
100
AcDbLine
 10
222.4498171346402
 20
101.087756280362
 30
0.0
 11
222.4498171346402
 21
89.39575628036203
 31
0.0
  0
DIMENSION
  5
384B9
330
2
100
AcDbEntity
  8
0
  6
Continuous
 62
     7
100
AcDbDimension
280
     0
  2
*D2
 10
197.3973658177627
 20
89.89575628036204
 30
0.0
 11
195.2723658177627
 21
102.087756280362
 31
0.0
 70
    32
  1
%%C.960
 71
     5
 42
24.38400000000001
 73
     0
 74
     0
 75
     0
  3
Standard$0
100
AcDbAlignedDimension
 13
166.4913427497862
 23
114.279756280362
 33
0.0
 14
166.4913427497862
 24
89.89575628036204
 34
0.0
 50
90.0
100
AcDbRotatedDimension
1001
ACAD
1000
DSTYLE
1002
{
1070
    76
1070
     1
1070
   282
1070
     1
1070
    42
1040
0.625
1070
    43
1040
3.75
1070
    44
1040
1.25
1070
    48
1040
0.000000001
1070
    74
1070
     0
1070
    77
1070
     1
1070
    90
1070
     1
1070
   140
1040
3.0
1070
   141
1040
-0.5
1070
   143
1040
0.03937007874016
1070
   146
1040
0.7
1070
   147
1040
0.625
1070
   171
1070
     3
1070
   172
1070
     1
1070
   175
1070
     0
1070
   274
1070
     3
1070
   283
1070
     0
1070
   284
1070
     8
1070
   340
1005
25
1070
   371
1070
    -1
1070
   372
1070
    -1
1002
}
  0
DIMENSION
  5
384BB
330
2
100
AcDbEntity
  8
0
  6
Continuous
 62
     7
100
AcDbDimension
280
     0
  2
*D3
 10
189.397365817763
 20
108.3377562803625
 30
0.0
 11
189.397365817763
 21
96.12294541654609
 31
0.0
 70
   160
  1
%%C<>{\H1x;mm}
 71
     5
 42
12.50000000000091
 73
     0
 74
     0
 75
     0
  3
Standard$0
100
AcDbAlignedDimension
 13
165.9913427497862
 23
95.83775628036159
 33
0.0
 14
165.9913427497862
 24
108.3377562803625
 34
0.0
 50
90.0
100
AcDbRotatedDimension
1001
ACAD
1000
DSTYLE
1002
{
1070
    72
1070
     0
1070
    42
1040
0.625
1070
    43
1040
3.75
1070
    44
1040
1.25
1070
    47
1040
0.005
1070
    48
1040
0.003
1070
    71
1070
     0
1070
    74
1070
     0
1070
    75
1070
     1
1070
    77
1070
     1
1070
    90
1070
     1
1070
   140
1040
3.0
1070
   143
1040
0.03937007874016
1070
   146
1040
0.7
1070
   147
1040
0.625
1070
   171
1070
     3
1070
   172
1070
     1
1070
   175
1070
     0
1070
   179
1070
     0
1070
   274
1070
     3
1070
   281
1070
     1
1070
   283
1070
     0
1070
   284
1070
     8
1070
   340
1005
25
1070
   371
1070
    -1
1070
   372
1070
    -1
1002
}
  0
DIMENSION
  5
384BC
330
2
100
AcDbEntity
  8
0
  6
Continuous
 62
     7
100
AcDbDimension
280
     0
  2
*D4
 10
166.9913427497862
 20
136.2508095041411
 30
0.0
 11
154.2913427497861
 21
138.3758095041411
 31
0.0
 70
    32
  1
1.0min
 71
     5
 42
25.40000000000009
 73
     0
 74
     0
 75
     0
  3
Standard$0
100
AcDbAlignedDimension
 13
141.5913427497861
 23
108.0877562803611
 33
0.0
 14
166.9913427497862
 24
113.779756280362
 34
0.0
100
AcDbRotatedDimension
1001
ACAD
1000
DSTYLE
1002
{
1070
    42
1040
0.625
1070
    43
1040
3.75
1070
    44
1040
1.25
1070
    48
1040
0.000000001
1070
    74
1070
     0
1070
    77
1070
     1
1070
    90
1070
     1
1070
   140
1040
3.0
1070
   143
1040
0.03937007874016
1070
   146
1040
0.7
1070
   147
1040
0.625
1070
   171
1070
     3
1070
   172
1070
     1
1070
   175
1070
     0
1070
   179
1070
     0
1070
   274
1070
     3
1070
   283
1070
     0
1070
   284
1070
     8
1070
   340
1005
25
1070
   371
1070
    -1
1070
   372
1070
    -1
1002
}
  0
DIMENSION
  5
384BD
330
2
100
AcDbEntity
  8
0
  6
Continuous
 62
     7
100
AcDbDimension
280
     0
  2
*D5
 10
166.9913427497862
 20
128.2508095041411
 30
0.0
 11
162.6733427497862
 21
130.3758095041411
 31
0.0
 70
    32
  1
.34
 71
     5
 42
8.635999999999967
 73
     0
 74
     0
 75
     0
  3
Standard$0
100
AcDbAlignedDimension
 13
158.3553427497862
 23
108.4647562803624
 33
0.0
 14
166.9913427497862
 24
113.779756280362
 34
0.0
100
AcDbRotatedDimension
1001
ACAD
1000
DSTYLE
1002
{
1070
    42
1040
0.625
1070
    43
1040
3.75
1070
    44
1040
1.25
1070
    48
1040
0.000000001
1070
    74
1070
     0
1070
    77
1070
     1
1070
    90
1070
     1
1070
   140
1040
3.0
1070
   143
1040
0.03937007874016
1070
   146
1040
0.7
1070
   147
1040
0.625
1070
   171
1070
     3
1070
   172
1070
     1
1070
   175
1070
     0
1070
   179
1070
     0
1070
   274
1070
     3
1070
   283
1070
     0
1070
   284
1070
     8
1070
   340
1005
25
1070
   371
1070
    -1
1070
   372
1070
    -1
1002
}
  0
LEADER
  5
384C4
330
2
100
AcDbEntity
  8
0
  6
Continuous
 62
     7
100
AcDbLeader
  3
Standard
 73
     0
 40
3.000590551181101
 41
6.61997424265525
 76
     3
 10
166.7413427497861
 20
90.14575628036226
 30
0.0
 10
174.3357511550182
 20
76.96354266833686
 30
0.0
 10
176.6788520349344
 20
76.96354266833686
 30
0.0
340
384C5
213
0.0
223
-1.5
233
0.0
1001
ACAD
1000
DSTYLE
1002
{
1070
    42
1040
0.625
1070
    43
1040
3.75
1070
    44
1040
1.25
1070
    48
1040
0.000000001
1070
    74
1070
     0
1070
    77
1070
     0
1070
    90
1070
     1
1070
   140
1040
3.0
1070
   141
1040
-0.5
1070
   143
1040
0.03937007874016
1070
   146
1040
0.7
1070
   147
1040
0.625
1070
   171
1070
     3
1070
   172
1070
     1
1070
   175
1070
     0
1070
   179
1070
     0
1070
   274
1070
     3
1070
   283
1070
     0
1070
   284
1070
     8
1070
   340
1005
25
1070
   371
1070
    -1
1070
   372
1070
    -1
1002
}
  0
MTEXT
  5
384C5
102
{ACAD_REACTORS
330
384C4
102
}
330
2
100
AcDbEntity
  8
0
  6
Continuous
 62
     2
100
AcDbMText
 10
177.3038520349343
 20
78.46354266833685
 30
0.0
 40
3.0
 41
6.96017716535433
 46
0.0
 71
     1
 72
     1
  1
C.02
 73
     1
 44
1.0
  0
MULTILEADER
  5
384C6
330
2
100
AcDbEntity
  8
0
  6
Continuous
 62
     7
160
               684
310
AC020000180000000C00000016000000020000C30C00000033000000000000000C00000013000000993A00000C00000016000000020000C3D00000002600000054D32036B4756B40D046060F83D85E40000000000000000000000000000000000000000000000000000000000000F03F000000000000F03F00000000000000
310
0000000000000000004D0031003200780031002E00370035000000640008000000010000000000000000000440000000000000F03F0000000000000000000000000000F03F0000000000000000000000000000000000000000000000000000000001000000000000000000000072006F006D0061006E0073002E0073006800
310
780000003000000064000C00000033000000000000000C00000010000000000000000C00000016000000030000C30C00000012000000000000000C00000013000000010000000C00000014000000010000005400000007000000030000002F97C2C476586B40571EEFB8AE685B400000000000000000F0BAC0B0E9666B402C
310
2D7A0512C95A400000000000000000CAD993A65C3F6B40B51C36BCAE565B4000000000000000000C00000013000000891300005400000006000000030000007D38ABB5E94B6B40869D92BAAE5F5B400000000000000000F84CE09E3B9E6A40D046060F83285F4000000000000000004810F029F1646B40D046060F83285F40
310
00000000000000000C00000013000000112700003C00000006000000020000004810F029F1646B40D046060F83285F4000000000000000004810F029F1746B40D046060F83285F4000000000000000000C00000016000000030000C30C00000012000000000000000C00000017000000000000000C000000130000009A3A00
310
000C00000016000000070000C30C00000012000000000000000C00000017000000FFFFFFFF0C0000003300000000000000
100
AcDbMLeader
270
     2
300
CONTEXT_DATA{
 40
1.0
 10
219.6544389427893
 20
124.632999187593
 30
0.0
 41
2.5
140
2.5
145
0.5
174
     2
175
     2
176
     0
177
     1
290
     1
304
M12x1.75
 11
0.0
 21
0.0
 31
1.0
340
35
 12
220.1544389427893
 22
125.882999187593
 32
0.0
 13
1.0
 23
0.0
 33
0.0
 42
0.0
 43
0.0
 44
0.0
 45
1.0
170
     1
 90
-1023410174
171
     1
172
     5
 91
-939524096
141
1.5
 92
        0
291
     0
292
     0
173
     0
293
     0
142
0.0
143
0.0
294
     0
295
     0
296
     0
110
182.1644738436962
120
98.85280985066351
130
0.0
111
1.0
121
0.0
131
0.0
112
0.0
122
1.0
132
0.0
297
     0
302
LEADER{
290
     1
291
     1
 10
219.1544389427893
 20
124.632999187593
 30
0.0
 11
1.0
 21
0.0
 31
0.0
 90
        0
 40
0.5
304
LEADER_LINE{
 10
219.2160266651403
 20
107.1417249386911
 30
0.0
 10
212.944777906501
 20
124.632999187593
 30
0.0
 91
        0
305
}
271
     0
303
}
272
     9
273
     9
301
}
340
BD9
 90
   314368
170
     1
 91
-1023410173
341
28
171
    -1
290
     1
291
     1
 41
0.5
 42
2.5
172
     2
343
35
173
     2
 95
        2
174
     1
175
     0
 92
-1023410174
292
     0
 93
-1023410174
 10
1.0
 20
1.0
 30
1.0
 43
0.0
176
     1
293
     0
294
     0
178
     0
179
     1
 45
1.0
271
     0
272
     9
273
     9
295
     0
  0
LEADER
  5
384C7
330
2
100
AcDbEntity
  8
0
  6
Continuous
 62
     7
100
AcDbLeader
  3
Standard
 73
     0
 40
3.0
 41
5.84215928202533
 76
     3
 10
97.56134274964608
 20
88.62575628036205
 30
0.0
 10
105.1557511548782
 20
75.44354266833664
 30
0.0
 10
107.4988520347943
 20
75.44354266833664
 30
0.0
340
384C8
213
0.0
223
-1.5
233
0.0
1001
ACAD
1000
DSTYLE
1002
{
1070
    42
1040
0.625
1070
    43
1040
3.75
1070
    44
1040
1.25
1070
    48
1040
0.000000001
1070
    74
1070
     0
1070
    77
1070
     0
1070
    90
1070
     1
1070
   140
1040
3.0
1070
   141
1040
-0.5
1070
   143
1040
0.03937007874016
1070
   146
1040
0.7
1070
   147
1040
0.625
1070
   171
1070
     3
1070
   172
1070
     1
1070
   175
1070
     0
1070
   179
1070
     0
1070
   274
1070
     3
1070
   283
1070
     0
1070
   284
1070
     8
1070
   340
1005
25
1070
   371
1070
    -1
1070
   372
1070
    -1
1002
}
  0
MTEXT
  5
384C8
102
{ACAD_REACTORS
330
384C7
102
}
330
2
100
AcDbEntity
  8
0
  6
Continuous
 62
     2
100
AcDbMText
 10
108.1238520347943
 20
76.94354266833665
 30
0.0
 40
3.0
 41
6.96017716535433
 46
0.0
 71
     1
 72
     1
  1
C1.0
 73
     1
 44
1.0
  0
VIEWPORT
  5
2C7EC
102
{ACAD_XDICTIONARY
360
2C7ED
102
}
330
1B
100
AcDbEntity
 67
     1
  8
0
  6
Continuous
 62
     7
100
AcDbViewport
 10
212.4908200734394
 20
97.5
 30
0.0
 40
464.9816401468789
 41
210.0
 68
     1
 69
     1
 12
212.4908200734394
 22
97.5
 13
0.0
 23
0.0
 14
2.0
 24
2.0
 15
2.0
 25
2.0
 16
0.0
 26
0.0
 36
1.0
 17
0.0
 27
0.0
 37
0.0
 42
50.0
 43
0.0
 44
0.0
 45
210.0
 50
0.0
 51
0.0
 72
  1000
 90
   823328
  1

281
     0
 71
     1
 74
     0
110
0.0
120
0.0
130
0.0
111
1.0
121
0.0
131
0.0
112
0.0
122
1.0
132
0.0
 79
     0
146
0.0
170
     0
 61
     5
348
2E
292
     1
282
     1
141
0.0
142
0.0
 63
   250
421
  3355443
  0
ENDSEC
  0
SECTION
  2
OBJECTS
  0
DICTIONARY
  5
B
330
0
100
AcDbDictionary
281
     1
  3
ACAD_CIP_PREVIOUS_PRODUCT_INFO
350
BE4
  3
ACAD_COLOR
350
3F
  3
ACAD_DETAILVIEWSTYLE
350
BDC
  3
ACAD_GROUP
350
3A
  3
ACAD_LAYOUT
350
17
  3
ACAD_MATERIAL
350
D
  3
ACAD_MLEADERSTYLE
350
42
  3
ACAD_MLINESTYLE
350
3B
  3
ACAD_PLOTSETTINGS
350
3C
  3
ACAD_PLOTSTYLENAME
350
A
  3
ACAD_SCALELIST
350
40
  3
ACAD_SECTIONVIEWSTYLE
350
BDA
  3
ACAD_TABLESTYLE
350
41
  3
ACAD_VISUALSTYLE
350
2F
  3
ACDB_RECOMPOSE_DATA
350
38739
  3
AcDbVariableDictionary
350
BB8
  3
AEC_PROPERTY_SET_DEFS
350
24C9
  0
DICTIONARY
  5
31
330
2C
100
AcDbDictionary
280
     1
281
     1
  0
DICTIONARY
  5
22
330
21
100
AcDbDictionary
280
     1
281
     1
  3
ACAD_LAYERSTATES
360
23
  0
DICTIONARY
  5
7
330
6
100
AcDbDictionary
280
     1
281
     1
  3
ADSK_XREC_LAYER_RECONCILED
360
8
  0
DICTIONARY
  5
3
330
2
100
AcDbDictionary
280
     1
281
     1
  3
ACAD_SORTENTS
360
BB0
  0
DICTIONARY
  5
2C7ED
330
2C7EC
100
AcDbDictionary
280
     1
281
     1
  3
ASDK_XREC_ANNOTATION_SCALE_INFO
360
2C7EE
  0
XRECORD
  5
BE4
102
{ACAD_REACTORS
330
B
102
}
330
B
100
AcDbXrecord
280
     1
300
ACD
300
2014
300
ACD_F_S
  0
DICTIONARY
  5
3F
102
{ACAD_REACTORS
330
B
102
}
330
B
100
AcDbDictionary
281
     1
  0
DICTIONARY
  5
BDC
102
{ACAD_REACTORS
330
B
102
}
330
B
100
AcDbDictionary
281
     1
  3
Imperial24
350
283CD
  3
Metric50
350
BDD
  0
DICTIONARY
  5
3A
102
{ACAD_REACTORS
330
B
102
}
330
B
100
AcDbDictionary
281
     1
  0
DICTIONARY
  5
17
102
{ACAD_REACTORS
330
B
102
}
330
B
100
AcDbDictionary
281
     1
  3
Model
350
16
  3
배치1
350
1E
  0
DICTIONARY
  5
D
102
{ACAD_REACTORS
330
B
102
}
330
B
100
AcDbDictionary
281
     1
  3
ByBlock
350
3E
  3
ByLayer
350
3D
  3
Global
350
C
  0
DICTIONARY
  5
42
102
{ACAD_REACTORS
330
B
102
}
330
B
100
AcDbDictionary
281
     1
  3
Standard
350
BD9
  0
DICTIONARY
  5
3B
102
{ACAD_REACTORS
330
B
102
}
330
B
100
AcDbDictionary
281
     1
  3
Standard
350
43
  0
DICTIONARY
  5
3C
102
{ACAD_REACTORS
330
B
102
}
330
B
100
AcDbDictionary
281
     1
  0
ACDBDICTIONARYWDFLT
  5
A
102
{ACAD_REACTORS
330
B
102
}
330
B
100
AcDbDictionary
281
     1
  3
Normal
350
9
100
AcDbDictionaryWithDefault
340
9
  0
DICTIONARY
  5
40
102
{ACAD_REACTORS
330
B
102
}
330
B
100
AcDbDictionary
281
     1
  3
A0
350
48
  3
A1
350
49
  3
A2
350
4A
  3
A3
350
4B
  3
A4
350
4C
  3
A5
350
4D
  3
A6
350
4E
  3
A7
350
4F
  3
A8
350
50
  3
A9
350
51
  3
B0
350
52
  3
B1
350
53
  3
B2
350
54
  3
B3
350
55
  3
B4
350
56
  3
B5
350
57
  3
B6
350
58
  0
DICTIONARY
  5
BDA
102
{ACAD_REACTORS
330
B
102
}
330
B
100
AcDbDictionary
281
     1
  3
Imperial24
350
283CC
  3
Metric50
350
BDB
  0
DICTIONARY
  5
41
102
{ACAD_REACTORS
330
B
102
}
330
B
100
AcDbDictionary
281
     1
  3
Standard
350
44
  0
DICTIONARY
  5
2F
102
{ACAD_REACTORS
330
B
102
}
330
B
100
AcDbDictionary
281
     1
  3
2dWireframe
350
2E
  3
3D Hidden
350
1A64
  3
3dWireframe
350
47
  3
Basic
350
BC7
  3
Brighten
350
BCC
  3
ColorChange
350
BD0
  3
Conceptual
350
BCA
  3
Dim
350
BCB
  3
EdgeColorOff
350
BD8
  3
Facepattern
350
BCF
  3
Flat
350
BC3
  3
FlatWithEdges
350
BC4
  3
Gouraud
350
BC5
  3
GouraudWithEdges
350
BC6
  3
Hidden
350
BC9
  3
JitterOff
350
BD6
  3
Linepattern
350
BCE
  3
OverhangOff
350
BD7
  3
Realistic
350
46
  3
Shaded
350
BD5
  3
Shaded with edges
350
BD4
  3
Shades of Gray
350
BD1
  3
Sketchy
350
BD2
  3
Thicken
350
BCD
  3
Wireframe
350
BC8
  3
X-Ray
350
BD3
  0
XRECORD
  5
38739
102
{ACAD_REACTORS
330
B
102
}
330
B
100
AcDbXrecord
280
     1
 90
        1
330
44
330
BDB
330
BDD
330
283CC
330
283CD
  0
DICTIONARY
  5
BB8
102
{ACAD_REACTORS
330
B
102
}
330
B
100
AcDbDictionary
281
     1
  3
CANNOSCALE
350
BBE
  3
CMLEADERSTYLE
350
BBA
  3
CTABLESTYLE
350
BB9
  3
CVIEWDETAILSTYLE
350
BBB
  3
CVIEWSECTIONSTYLE
350
BBC
  3
DIMASSOC
350
C3B
  3
HIDETEXT
350
C39
  3
HPCOLOR
350
FF3
  3
INDEXCTL
350
C38
  3
LAYEREVAL
350
BC0
  3
LAYERNOTIFY
350
BC1
  3
LIGHTINGUNITS
350
BBF
  3
MSLTSCALE
350
BBD
  3
SOLIDHIST
350
C3C
  3
SORTENTS
350
C37
  0
DICTIONARY
  5
24C9
102
{ACAD_REACTORS
330
B
102
}
330
B
100
AcDbDictionary
281
     1
  0
DICTIONARY
  5
23
102
{ACAD_REACTORS
330
22
102
}
330
22
100
AcDbDictionary
281
     1
  0
XRECORD
  5
8
102
{ACAD_REACTORS
330
7
102
}
330
7
100
AcDbXrecord
280
     1
290
     1
  0
SORTENTSTABLE
  5
BB0
102
{ACAD_REACTORS
330
3
102
}
330
3
100
AcDbSortentsTable
330
2
331
28498
  5
29114
331
283E0
  5
29511
331
1DEB1
  5
28376
331
28379
  5
283D9
331
29430
  5
29220
331
283AA
  5
29116
331
29219
  5
29431
331
29438
  5
2923C
331
2835B
  5
2837C
331
28393
  5
2910E
331
2837C
  5
2845E
331
29433
  5
29224
331
2921C
  5
29434
331
283AD
  5
29217
331
28396
  5
29111
331
2837F
  5
2848D
331
29436
  5
29236
331
2921F
  5
29437
331
283D7
  5
29253
331
28370
  5
283A9
331
28361
  5
28378
331
28373
  5
283AC
331
28355
  5
28379
331
28352
  5
28377
331
2835E
  5
2837F
331
29112
  5
31D64
331
28455
  5
31D8B
331
283DD
  5
2943D
331
28376
  5
283D4
331
29296
  5
2948D
331
2910F
  5
2A377
331
283A7
  5
29112
331
29216
  5
2929F
331
2942D
  5
2921C
331
28368
  5
28393
331
29439
  5
2923D
331
29110
  5
2A8F1
331
283E1
  5
29513
331
2837A
  5
283DB
331
2836B
  5
28395
331
283AB
  5
29215
331
2835C
  5
2837D
331
28394
  5
2910F
331
29234
  5
29298
331
2837D
  5
28481
331
2921D
  5
29435
331
29434
  5
29225
331
283AE
  5
29218
331
28380
  5
28498
331
29437
  5
29237
331
29220
  5
29238
331
2923A
  5
29251
331
283DB
  5
2910D
331
28374
  5
283AD
331
29214
  5
2951B
331
28365
  5
28380
331
2910D
  5
2951C
331
28371
  5
283AA
331
283DE
  5
2943C
331
28377
  5
283D6
331
29217
  5
292A0
331
2942E
  5
2921D
331
28356
  5
2837A
331
2929D
  5
2923E
331
2921A
  5
29432
331
29431
  5
29221
331
28378
  5
283D7
331
29218
  5
29430
331
28369
  5
28394
331
28392
  5
29004
331
2837B
  5
2845A
331
2921B
  5
29433
331
29432
  5
29223
331
2836C
  5
28396
331
283AC
  5
29216
331
2835D
  5
2837E
331
29111
  5
2A92C
331
28395
  5
29110
331
283A9
  5
29115
331
283D6
  5
2924F
331
2844E
  5
31D66
331
2837E
  5
28482
331
29435
  5
2943B
331
2836F
  5
283A7
331
2924F
  5
29299
331
29221
  5
29438
331
28454
  5
31D68
331
2944B
  5
2921B
331
28375
  5
283AE
331
29215
  5
2929A
331
28366
  5
28392
331
28357
  5
2837B
331
2942F
  5
2921F
331
2910E
  5
295E3
331
28372
  5
283AB
331
2921E
  5
29436
  0
XRECORD
  5
2C7EE
102
{ACAD_REACTORS
330
2C7ED
102
}
330
2C7ED
100
AcDbXrecord
280
     1
 90
        1
340
48
  0
ACDBDETAILVIEWSTYLE
  5
283CD
102
{ACAD_XDICTIONARY
360
38737
102
}
102
{ACAD_REACTORS
330
BDC
102
}
330
BDC
100
AcDbModelDocViewStyle
 70
     0
  3
Imperial24
290
     0
100
AcDbDetailViewStyle
 70
     0
 71
     0
 90
        3
 71
     1
340
25
 62
   256
 40
0.24
340
0
 62
   256
 40
0.24
300

 40
0.36
280
     3
 71
     2
340
14
 90
       25
 62
   256
 71
     3
340
25
 62
   256
 40
0.24
 90
        1
 40
0.75
 90
        1
300
%<\AcVar ViewType \f "%tc1">% %<\AcVar ViewDetailId>%\PSCALE %<\AcVar ViewScale \f "%sn">%
 71
     4
340
14
 90
       25
 62
   256
340
14
 90
       25
 62
   256
280
     0
  0
ACDBDETAILVIEWSTYLE
  5
BDD
102
{ACAD_XDICTIONARY
360
38733
102
}
102
{ACAD_REACTORS
330
BDC
102
}
330
BDC
100
AcDbModelDocViewStyle
 70
     0
  3
Metric50
290
     0
100
AcDbDetailViewStyle
 70
     0
 71
     0
 90
        3
 71
     1
340
25
 62
   256
 40
5.0
340
0
 62
   256
 40
5.0
300

 40
0.0
280
     1
 71
     2
340
14
 90
       25
 62
   256
 71
     3
340
25
 62
   256
 40
5.0
 90
        0
 40
15.0
 90
        1
300
%<\AcVar ViewDetailId>% (%<\AcVar ViewScale \f "%sn">%)
 71
     4
340
14
 90
       25
 62
   256
340
14
 90
       25
 62
   256
280
     0
  0
LAYOUT
  5
16
102
{ACAD_XDICTIONARY
360
18
102
}
102
{ACAD_REACTORS
330
17
102
}
330
17
100
AcDbPlotSettings
  1

  2
DWG To PDF.pc3
  4
ISO_expand_A4_(297.00_x_210.00_MM)
  6

 40
5.793749809265136
 41
10.79374980926513
 42
5.79376220703125
 43
10.79374694824219
 44
297.0
 45
210.0
 46
10.74179700476176
 47
0.0
 48
214.2303289092835
 49
-5.650030662565313
140
426.8811481846322
141
146.1562857013982
142
1.0
143
0.8057125389846563
 70
 11956
 72
     1
 73
     0
 74
     4
  7
ksm0910.ctb
 75
     0
147
1.241137442468229
 76
     0
 77
     2
 78
   300
148
-214.2303289092835
149
5.650030662565313
100
AcDbLayout
  1
Model
 70
     1
 71
     0
 10
0.0
 20
0.0
 11
12.0
 21
9.0
 12
0.0
 22
0.0
 32
0.0
 14
0.0
 24
0.0
 34
0.0
 15
0.0
 25
0.0
 35
0.0
146
0.0
 13
0.0
 23
0.0
 33
0.0
 16
1.0
 26
0.0
 36
0.0
 17
0.0
 27
1.0
 37
0.0
 76
     0
330
2
331
2D
1001
ACAD_PSEXT
1000
DWG To PDF.pc3
1000
DWG To PDF
1000
파일
1000

1070
     0
  0
LAYOUT
  5
1E
102
{ACAD_XDICTIONARY
360
1F
102
}
102
{ACAD_REACTORS
330
17
102
}
330
17
100
AcDbPlotSettings
  1

  2
none_device
  4
ISO_A4_(210.00_x_297.00_MM)
  6

 40
7.5
 41
20.0
 42
7.5
 43
20.0
 44
210.0
 45
297.0
 46
0.0
 47
0.0
 48
0.0
 49
0.0
140
0.0
141
0.0
142
1.0
143
1.0
 70
   688
 72
     1
 73
     1
 74
     5
  7
ksm0910.ctb
 75
    16
147
1.0
 76
     0
 77
     2
 78
   300
148
0.0
149
0.0
100
AcDbLayout
  1
배치1
 70
     1
 71
     1
 10
-20.0
 20
-7.5
 11
277.0
 21
202.5
 12
0.0
 22
0.0
 32
0.0
 14
1.000000000000000E+20
 24
1.000000000000000E+20
 34
1.000000000000000E+20
 15
-1.000000000000000E+20
 25
-1.000000000000000E+20
 35
-1.000000000000000E+20
146
0.0
 13
0.0
 23
0.0
 33
0.0
 16
1.0
 26
0.0
 36
0.0
 17
0.0
 27
1.0
 37
0.0
 76
     0
330
1B
331
2C7EC
1001
ACAD_PSEXT
1000
없음
1000
없음
1000
해당 없음
1000
배치가 새로운 플로터 구성을 선택할 때까지 플롯되지 않습니다.
1070
     0
  0
MATERIAL
  5
3E
102
{ACAD_REACTORS
330
D
102
}
330
D
100
AcDbMaterial
  1
ByBlock
 94
       63
  0
MATERIAL
  5
3D
102
{ACAD_REACTORS
330
D
102
}
330
D
100
AcDbMaterial
  1
ByLayer
 94
       63
  0
MATERIAL
  5
C
102
{ACAD_XDICTIONARY
360
E
102
}
102
{ACAD_REACTORS
330
D
102
}
330
D
100
AcDbMaterial
  1
Global
 43
0.0007999999797903
 43
0.0
 43
0.0
 43
0.0
 43
0.0
 43
0.0007999999797903
 43
0.0
 43
0.0
 43
0.0
 43
0.0
 43
1.0
 43
0.0
 43
0.0
 43
0.0
 43
0.0
 43
1.0
 49
0.0007999999797903
 49
0.0
 49
0.0
 49
0.0
 49
0.0
 49
0.0007999999797903
 49
0.0
 49
0.0
 49
0.0
 49
0.0
 49
1.0
 49
0.0
 49
0.0
 49
0.0
 49
0.0
 49
1.0
142
0.0007999999797903
142
0.0
142
0.0
142
0.0
142
0.0
142
0.0007999999797903
142
0.0
142
0.0
142
0.0
142
0.0
142
1.0
142
0.0
142
0.0
142
0.0
142
0.0
142
1.0
144
0.0007999999797903
144
0.0
144
0.0
144
0.0
144
0.0
144
0.0007999999797903
144
0.0
144
0.0
144
0.0
144
0.0
144
1.0
144
0.0
144
0.0
144
0.0
144
0.0
144
1.0
 94
       63
1001
ACAD
1070
    -1
1070
     3
1070
     0
1000

1071
        0
1070
     0
  0
MLEADERSTYLE
  5
BD9
102
{ACAD_REACTORS
330
42
330
3731F
330
37321
330
384C6
102
}
330
42
100
AcDbMLeaderStyle
179
     2
170
     2
171
     1
172
     0
 90
        2
 40
0.0
 41
0.0
173
     1
 91
-1023410173
340
28
 92
       -2
290
     1
 42
2.0
291
     1
 43
0.36
  3
Standard
 44
4.0
300

342
25
174
     1
178
     6
175
     1
176
     0
 93
-1023410174
 45
3.0
292
     0
297
     0
 46
4.0
 94
-1056964608
 47
1.0
 49
1.0
140
1.0
293
     1
141
0.0
294
     1
177
     0
142
1.0
295
     0
296
     0
143
0.125
271
     0
272
     9
273
     9
298
     1
  0
MLINESTYLE
  5
43
102
{ACAD_REACTORS
330
3B
102
}
330
3B
100
AcDbMlineStyle
  2
STANDARD
 70
     0
  3

 62
   256
 51
90.0
 52
90.0
 71
     2
 49
0.5
 62
   256
  6
BYLAYER
 49
-0.5
 62
   256
  6
BYLAYER
  0
ACDBPLACEHOLDER
  5
9
102
{ACAD_REACTORS
330
A
102
}
330
A
  0
SCALE
  5
48
102
{ACAD_REACTORS
330
40
102
}
330
40
100
AcDbScale
 70
     0
300
1:1
140
1.0
141
1.0
290
     1
  0
SCALE
  5
49
102
{ACAD_REACTORS
330
40
102
}
330
40
100
AcDbScale
 70
     0
300
1:2
140
1.0
141
2.0
290
     0
  0
SCALE
  5
4A
102
{ACAD_REACTORS
330
40
102
}
330
40
100
AcDbScale
 70
     0
300
1:4
140
1.0
141
4.0
290
     0
  0
SCALE
  5
4B
102
{ACAD_REACTORS
330
40
102
}
330
40
100
AcDbScale
 70
     0
300
1:5
140
1.0
141
5.0
290
     0
  0
SCALE
  5
4C
102
{ACAD_REACTORS
330
40
102
}
330
40
100
AcDbScale
 70
     0
300
1:8
140
1.0
141
8.0
290
     0
  0
SCALE
  5
4D
102
{ACAD_REACTORS
330
40
102
}
330
40
100
AcDbScale
 70
     0
300
1:10
140
1.0
141
10.0
290
     0
  0
SCALE
  5
4E
102
{ACAD_REACTORS
330
40
102
}
330
40
100
AcDbScale
 70
     0
300
1:16
140
1.0
141
16.0
290
     0
  0
SCALE
  5
4F
102
{ACAD_REACTORS
330
40
102
}
330
40
100
AcDbScale
 70
     0
300
1:20
140
1.0
141
20.0
290
     0
  0
SCALE
  5
50
102
{ACAD_REACTORS
330
40
102
}
330
40
100
AcDbScale
 70
     0
300
1:30
140
1.0
141
30.0
290
     0
  0
SCALE
  5
51
102
{ACAD_REACTORS
330
40
102
}
330
40
100
AcDbScale
 70
     0
300
1:40
140
1.0
141
40.0
290
     0
  0
SCALE
  5
52
102
{ACAD_REACTORS
330
40
102
}
330
40
100
AcDbScale
 70
     0
300
1:50
140
1.0
141
50.0
290
     0
  0
SCALE
  5
53
102
{ACAD_REACTORS
330
40
102
}
330
40
100
AcDbScale
 70
     0
300
1:100
140
1.0
141
100.0
290
     0
  0
SCALE
  5
54
102
{ACAD_REACTORS
330
40
102
}
330
40
100
AcDbScale
 70
     0
300
2:1
140
2.0
141
1.0
290
     0
  0
SCALE
  5
55
102
{ACAD_REACTORS
330
40
102
}
330
40
100
AcDbScale
 70
     0
300
4:1
140
4.0
141
1.0
290
     0
  0
SCALE
  5
56
102
{ACAD_REACTORS
330
40
102
}
330
40
100
AcDbScale
 70
     0
300
8:1
140
8.0
141
1.0
290
     0
  0
SCALE
  5
57
102
{ACAD_REACTORS
330
40
102
}
330
40
100
AcDbScale
 70
     0
300
10:1
140
10.0
141
1.0
290
     0
  0
SCALE
  5
58
102
{ACAD_REACTORS
330
40
102
}
330
40
100
AcDbScale
 70
     0
300
100:1
140
100.0
141
1.0
290
     0
  0
ACDBSECTIONVIEWSTYLE
  5
283CC
102
{ACAD_XDICTIONARY
360
38735
102
}
102
{ACAD_REACTORS
330
BDA
102
}
330
BDA
100
AcDbModelDocViewStyle
 70
     0
  3
Imperial24
290
     0
100
AcDbSectionViewStyle
 70
     0
 71
     0
 90
       78
 71
     1
340
25
 62
   256
 40
0.24
340
0
340
0
 62
   256
 40
0.24
300
I, O, Q, S, X, Z
 40
0.48
 90
        3
 40
0.18
 90
        1
 71
     2
340
14
 90
       25
 62
   256
340
14
 90
       50
 62
   256
 40
0.24
 40
0.0
 40
0.24
 71
     3
340
25
 62
   256
 40
0.24
 90
        1
 40
0.75
 90
        1
300
%<\AcVar ViewType \f "%tc1">% %<\AcVar ViewSectionStartId>%-%<\AcVar ViewSectionEndId>%\PSCALE %<\AcVar ViewScale \f "%sn">%
 71
     4
 62
   256
 62
   257
300
ANSI31
 40
1.0
 90
        0
290
     0
290
     0
 90
        6
 40
0.0
 40
1.570796326794896
 40
0.2617993877991494
 40
1.308996938995747
 40
-0.2617993877991494
 40
1.832595714594046
  0
ACDBSECTIONVIEWSTYLE
  5
BDB
102
{ACAD_XDICTIONARY
360
38731
102
}
102
{ACAD_REACTORS
330
BDA
102
}
330
BDA
100
AcDbModelDocViewStyle
 70
     0
  3
Metric50
290
     0
100
AcDbSectionViewStyle
 70
     0
 71
     0
 90
      102
 71
     1
340
25
 62
   256
 40
5.0
340
0
340
0
 62
   256
 40
5.0
300
I, O, Q, S, X, Z
 40
10.0
 90
        0
 40
2.5
 90
        0
 71
     2
340
14
 90
       25
 62
   256
340
14
 90
       50
 62
   256
 40
5.0
 40
2.5
 40
5.0
 71
     3
340
25
 62
   256
 40
5.0
 90
        0
 40
15.0
 90
        1
300
%<\AcVar ViewSectionStartId>%-%<\AcVar ViewSectionEndId>% (%<\AcVar ViewScale \f "%sn">%)
 71
     4
 62
   256
 62
   257
300
ANSI31
 40
1.0
 90
        0
290
     0
290
     0
 90
        6
 40
0.0
 40
1.570796326794896
 40
0.2617993877991494
 40
1.308996938995747
 40
-0.2617993877991494
 40
1.832595714594046
  0
TABLESTYLE
  5
44
102
{ACAD_XDICTIONARY
360
45
102
}
102
{ACAD_REACTORS
330
41
102
}
330
41
100
AcDbTableStyle
280
     0
  3
Standard
 70
     0
 71
     0
 40
1.5
 41
1.5
280
     0
281
     0
  7
Standard
140
4.5
170
     2
 62
     0
 63
     7
283
     0
 90
      512
 91
        0
  1

274
    -2
284
     1
 64
     0
275
    -2
285
     1
 65
     0
276
    -2
286
     1
 66
     0
277
    -2
287
     1
 67
     0
278
    -2
288
     1
 68
     0
279
    -2
289
     1
 69
     0
  7
Standard
140
6.0
170
     5
 62
     0
 63
     7
283
     0
 90
      512
 91
        0
  1

274
    -2
284
     1
 64
     0
275
    -2
285
     1
 65
     0
276
    -2
286
     1
 66
     0
277
    -2
287
     1
 67
     0
278
    -2
288
     1
 68
     0
279
    -2
289
     1
 69
     0
  7
Standard
140
4.5
170
     5
 62
     0
 63
     7
283
     0
 90
      512
 91
        0
  1

274
    -2
284
     1
 64
     0
275
    -2
285
     1
 65
     0
276
    -2
286
     1
 66
     0
277
    -2
287
     1
 67
     0
278
    -2
288
     1
 68
     0
279
    -2
289
     1
 69
     0
  0
VISUALSTYLE
  5
2E
102
{ACAD_REACTORS
330
2F
102
}
330
2F
100
AcDbVisualStyle
  2
2dWireframe
 70
     4
177
     3
291
     0
 70
    58
 90
        0
176
     1
 90
        2
176
     1
 90
        1
176
     1
 90
        0
176
     1
 40
0.6
176
     1
 40
30.0
176
     1
 62
     7
176
     1
 90
        1
176
     1
 90
        4
176
     1
 62
     7
176
     1
 62
   257
176
     1
 90
        1
176
     1
 90
        1
176
     1
 40
1.0
176
     1
 90
        0
176
     1
 62
   257
176
     1
 40
1.0
176
     1
 90
        1
176
     1
 90
        6
176
     1
 90
        2
176
     1
 62
     7
176
     1
 90
        5
176
     1
 90
        0
176
     1
 90
        0
176
     1
290
     0
176
     1
 90
        1
176
     1
 40
0.0
176
     1
 90
        0
176
     1
290
     1
176
     1
290
     1
176
     1
290
     0
176
     1
290
     0
176
     1
290
     0
176
     1
290
     0
176
     1
290
     0
176
     1
290
     0
176
     1
290
     0
176
     1
 90
       50
176
     1
 40
0.0
176
     1
 40
1.0
176
     1
 90
        0
176
     1
 62
    18
420
        0
176
     1
 90
       50
176
     1
 90
        3
176
     1
 62
     5
420
      255
176
     1
290
     0
176
     1
 90
       50
176
     1
 90
       50
176
     1
 90
       50
176
     1
290
     0
176
     1
 90
       50
176
     1
 62
   256
176
     0
 40
1.0
176
     0
 90
        2
176
     1
  1
strokes_ogs.tif
176
     1
290
     0
176
     1
 40
1.0
176
     1
 40
1.0
176
     1
  0
VISUALSTYLE
  5
1A64
102
{ACAD_REACTORS
330
2F
102
}
330
2F
100
AcDbVisualStyle
  2
3D Hidden
 70
     6
177
     3
291
     0
 70
    58
 90
        1
176
     1
 90
        2
176
     1
 90
        2
176
     1
 90
        0
176
     1
 40
0.6
176
     1
 40
30.0
176
     1
 62
     7
176
     1
 90
        2
176
     1
 90
        2
176
     1
 62
     7
176
     1
 62
   257
176
     1
 90
        2
176
     1
 90
        1
176
     1
 40
40.0
176
     1
 90
        0
176
     1
 62
   257
176
     1
 40
1.0
176
     1
 90
        1
176
     1
 90
        6
176
     1
 90
        2
176
     1
 62
     7
176
     1
 90
        3
176
     1
 90
        0
176
     1
 90
        0
176
     1
290
     0
176
     1
 90
        1
176
     1
 40
0.0
176
     1
 90
        0
176
     1
290
     0
176
     1
290
     1
176
     1
290
     1
176
     1
290
     0
176
     1
290
     0
176
     1
290
     0
176
     1
290
     0
176
     1
290
     0
176
     1
290
     0
176
     1
 90
       50
176
     1
 40
0.0
176
     1
 40
1.0
176
     1
 90
        0
176
     1
 62
    18
420
        0
176
     1
 90
       50
176
     1
 90
        3
176
     1
 62
     5
420
      255
176
     1
290
     0
176
     1
 90
       50
176
     1
 90
       50
176
     1
 90
       50
176
     1
290
     0
176
     1
 90
       50
176
     1
 62
   256
176
     0
 40
1.0
176
     0
 90
        2
176
     1
  1
strokes_ogs.tif
176
     1
290
     0
176
     1
 40
1.0
176
     1
 40
1.0
176
     1
  0
VISUALSTYLE
  5
47
102
{ACAD_REACTORS
330
2F
102
}
330
2F
100
AcDbVisualStyle
  2
3dWireframe
 70
     5
177
     3
291
     0
 70
    58
 90
        0
176
     1
 90
        2
176
     1
 90
        1
176
     1
 90
        0
176
     1
 40
0.6
176
     1
 40
30.0
176
     1
 62
     7
176
     1
 90
        1
176
     1
 90
        4
176
     1
 62
     7
176
     1
 62
   257
176
     1
 90
        1
176
     1
 90
        1
176
     1
 40
1.0
176
     1
 90
        0
176
     1
 62
   257
176
     1
 40
1.0
176
     1
 90
        1
176
     1
 90
        6
176
     1
 90
        2
176
     1
 62
     7
176
     1
 90
        5
176
     1
 90
        0
176
     1
 90
        0
176
     1
290
     0
176
     1
 90
        1
176
     1
 40
0.0
176
     1
 90
        0
176
     1
290
     0
176
     1
290
     1
176
     1
290
     1
176
     1
290
     0
176
     1
290
     0
176
     1
290
     0
176
     1
290
     0
176
     1
290
     0
176
     1
290
     0
176
     1
 90
       50
176
     1
 40
0.0
176
     1
 40
1.0
176
     1
 90
        0
176
     1
 62
    18
420
        0
176
     1
 90
       50
176
     1
 90
        3
176
     1
 62
     5
420
      255
176
     1
290
     0
176
     1
 90
       50
176
     1
 90
       50
176
     1
 90
       50
176
     1
290
     0
176
     1
 90
       50
176
     1
 62
   256
176
     0
 40
1.0
176
     0
 90
        2
176
     1
  1
strokes_ogs.tif
176
     1
290
     0
176
     1
 40
1.0
176
     1
 40
1.0
176
     1
  0
VISUALSTYLE
  5
BC7
102
{ACAD_REACTORS
330
2F
102
}
330
2F
100
AcDbVisualStyle
  2
Basic
 70
     7
177
     3
291
     1
 70
    58
 90
        1
176
     1
 90
        0
176
     1
 90
        1
176
     1
 90
        0
176
     1
 40
0.6
176
     1
 40
30.0
176
     1
 62
     7
176
     1
 90
        0
176
     1
 90
        4
176
     1
 62
     7
176
     1
 62
   257
176
     1
 90
        1
176
     1
 90
        1
176
     1
 40
1.0
176
     1
 90
        8
176
     1
 62
     7
176
     1
 40
1.0
176
     1
 90
        1
176
     1
 90
        6
176
     1
 90
        2
176
     1
 62
     7
176
     1
 90
        5
176
     1
 90
        0
176
     1
 90
        0
176
     1
290
     0
176
     1
 90
        1
176
     1
 40
0.0
176
     1
 90
        0
176
     1
290
     0
176
     1
290
     1
176
     1
290
     1
176
     1
290
     0
176
     1
290
     0
176
     1
290
     0
176
     1
290
     0
176
     1
290
     0
176
     1
290
     0
176
     1
 90
       50
176
     1
 40
0.0
176
     1
 40
1.0
176
     1
 90
        0
176
     1
 62
    18
420
        0
176
     1
 90
       50
176
     1
 90
        3
176
     1
 62
     5
420
      255
176
     1
290
     0
176
     1
 90
       50
176
     1
 90
       50
176
     1
 90
       50
176
     1
290
     0
176
     1
 90
       50
176
     1
 62
   256
176
     0
 40
1.0
176
     0
 90
        2
176
     1
  1
strokes_ogs.tif
176
     1
290
     0
176
     1
 40
1.0
176
     1
 40
1.0
176
     1
  0
VISUALSTYLE
  5
BCC
102
{ACAD_REACTORS
330
2F
102
}
330
2F
100
AcDbVisualStyle
  2
Brighten
 70
    12
177
     3
291
     1
 70
    58
 90
        2
176
     1
 90
        2
176
     1
 90
        0
176
     1
 90
        0
176
     1
 40
0.6
176
     1
 40
30.0
176
     1
 62
     7
176
     1
 90
        1
176
     1
 90
        4
176
     1
 62
     7
176
     1
 62
   257
176
     1
 90
        1
176
     1
 90
        1
176
     1
 40
1.0
176
     1
 90
        8
176
     1
 62
     7
176
     1
 40
1.0
176
     1
 90
        1
176
     1
 90
        6
176
     1
 90
        2
176
     1
 62
     7
176
     1
 90
        5
176
     1
 90
        0
176
     1
 90
        0
176
     1
290
     0
176
     1
 90
        1
176
     1
 40
50.0
176
     1
 90
        0
176
     1
290
     0
176
     1
290
     1
176
     1
290
     1
176
     1
290
     0
176
     1
290
     0
176
     1
290
     0
176
     1
290
     0
176
     1
290
     0
176
     1
290
     0
176
     1
 90
       50
176
     1
 40
0.0
176
     1
 40
1.0
176
     1
 90
        0
176
     1
 62
    18
420
        0
176
     1
 90
       50
176
     1
 90
        3
176
     1
 62
     5
420
      255
176
     1
290
     0
176
     1
 90
       50
176
     1
 90
       50
176
     1
 90
       50
176
     1
290
     0
176
     1
 90
       50
176
     1
 62
   256
176
     0
 40
1.0
176
     0
 90
        2
176
     1
  1
strokes_ogs.tif
176
     1
290
     0
176
     1
 40
1.0
176
     1
 40
1.0
176
     1
  0
VISUALSTYLE
  5
BD0
102
{ACAD_REACTORS
330
2F
102
}
330
2F
100
AcDbVisualStyle
  2
ColorChange
 70
    16
177
     3
291
     1
 70
    58
 90
        2
176
     1
 90
        2
176
     1
 90
        3
176
     1
 90
        0
176
     1
 40
0.6
176
     1
 40
30.0
176
     1
 62
     8
176
     1
 90
        1
176
     1
 90
        4
176
     1
 62
     7
176
     1
 62
   257
176
     1
 90
        1
176
     1
 90
        1
176
     1
 40
1.0
176
     1
 90
        8
176
     1
 62
     8
176
     1
 40
1.0
176
     1
 90
        1
176
     1
 90
        6
176
     1
 90
        2
176
     1
 62
     7
176
     1
 90
        5
176
     1
 90
        0
176
     1
 90
        0
176
     1
290
     0
176
     1
 90
        1
176
     1
 40
0.0
176
     1
 90
        0
176
     1
290
     0
176
     1
290
     1
176
     1
290
     1
176
     1
290
     0
176
     1
290
     0
176
     1
290
     0
176
     1
290
     0
176
     1
290
     0
176
     1
290
     0
176
     1
 90
       50
176
     1
 40
0.0
176
     1
 40
1.0
176
     1
 90
        0
176
     1
 62
    18
420
        0
176
     1
 90
       50
176
     1
 90
        3
176
     1
 62
     5
420
      255
176
     1
290
     0
176
     1
 90
       50
176
     1
 90
       50
176
     1
 90
       50
176
     1
290
     0
176
     1
 90
       50
176
     1
 62
   256
176
     0
 40
1.0
176
     0
 90
        2
176
     1
  1
strokes_ogs.tif
176
     1
290
     0
176
     1
 40
1.0
176
     1
 40
1.0
176
     1
  0
VISUALSTYLE
  5
BCA
102
{ACAD_REACTORS
330
2F
102
}
330
2F
100
AcDbVisualStyle
  2
Conceptual
 70
     9
177
     3
291
     0
 70
    58
 90
        3
176
     1
 90
        2
176
     1
 90
        0
176
     1
 90
        0
176
     1
 40
0.6
176
     1
 40
30.0
176
     1
 62
     7
176
     1
 90
        2
176
     1
 90
        2
176
     1
 62
     7
176
     1
 62
   257
176
     1
 90
        1
176
     1
 90
        1
176
     1
 40
179.0
176
     1
 90
        8
176
     1
 62
     7
176
     1
 40
1.0
176
     1
 90
        1
176
     1
 90
        6
176
     1
 90
        2
176
     1
 62
     7
176
     1
 90
        3
176
     1
 90
        0
176
     1
 90
        0
176
     1
290
     0
176
     1
 90
        1
176
     1
 40
0.0
176
     1
 90
        0
176
     1
290
     0
176
     1
290
     1
176
     1
290
     1
176
     1
290
     0
176
     1
290
     0
176
     1
290
     0
176
     1
290
     0
176
     1
290
     0
176
     1
290
     0
176
     1
 90
       50
176
     1
 40
0.0
176
     1
 40
1.0
176
     1
 90
        0
176
     1
 62
    18
420
        0
176
     1
 90
       50
176
     1
 90
        3
176
     1
 62
     5
420
      255
176
     1
290
     0
176
     1
 90
       50
176
     1
 90
       50
176
     1
 90
       50
176
     1
290
     0
176
     1
 90
       50
176
     1
 62
   256
176
     0
 40
1.0
176
     0
 90
        2
176
     1
  1
strokes_ogs.tif
176
     1
290
     0
176
     1
 40
1.0
176
     1
 40
1.0
176
     1
  0
VISUALSTYLE
  5
BCB
102
{ACAD_REACTORS
330
2F
102
}
330
2F
100
AcDbVisualStyle
  2
Dim
 70
    11
177
     3
291
     1
 70
    58
 90
        2
176
     1
 90
        2
176
     1
 90
        0
176
     1
 90
        0
176
     1
 40
0.6
176
     1
 40
30.0
176
     1
 62
     7
176
     1
 90
        1
176
     1
 90
        4
176
     1
 62
     7
176
     1
 62
   257
176
     1
 90
        1
176
     1
 90
        1
176
     1
 40
1.0
176
     1
 90
        8
176
     1
 62
     7
176
     1
 40
1.0
176
     1
 90
        1
176
     1
 90
        6
176
     1
 90
        2
176
     1
 62
     7
176
     1
 90
        5
176
     1
 90
        0
176
     1
 90
        0
176
     1
290
     0
176
     1
 90
        1
176
     1
 40
-50.0
176
     1
 90
        0
176
     1
290
     0
176
     1
290
     1
176
     1
290
     1
176
     1
290
     0
176
     1
290
     0
176
     1
290
     0
176
     1
290
     0
176
     1
290
     0
176
     1
290
     0
176
     1
 90
       50
176
     1
 40
0.0
176
     1
 40
1.0
176
     1
 90
        0
176
     1
 62
    18
420
        0
176
     1
 90
       50
176
     1
 90
        3
176
     1
 62
     5
420
      255
176
     1
290
     0
176
     1
 90
       50
176
     1
 90
       50
176
     1
 90
       50
176
     1
290
     0
176
     1
 90
       50
176
     1
 62
   256
176
     0
 40
1.0
176
     0
 90
        2
176
     1
  1
strokes_ogs.tif
176
     1
290
     0
176
     1
 40
1.0
176
     1
 40
1.0
176
     1
  0
VISUALSTYLE
  5
BD8
102
{ACAD_REACTORS
330
2F
102
}
330
2F
100
AcDbVisualStyle
  2
EdgeColorOff
 70
    22
177
     3
291
     1
 70
    58
 90
        2
176
     0
 90
        2
176
     0
 90
        0
176
     0
 90
        0
176
     0
 40
0.6
176
     0
 40
30.0
176
     0
 62
     7
176
     0
 90
        1
176
     0
 90
        4
176
     0
 62
     7
176
     0
 62
   257
176
     0
 90
        1
176
     0
 90
        1
176
     0
 40
1.0
176
     0
 90
        8
176
     2
 62
     7
176
     0
 40
1.0
176
     0
 90
        1
176
     0
 90
        6
176
     0
 90
        2
176
     0
 62
     7
176
     0
 90
        5
176
     0
 90
        0
176
     0
 90
        0
176
     0
290
     0
176
     0
 90
        1
176
     0
 40
0.0
176
     0
 90
        0
176
     0
290
     0
176
     0
290
     1
176
     0
290
     1
176
     0
290
     0
176
     0
290
     0
176
     0
290
     0
176
     0
290
     0
176
     0
290
     0
176
     0
290
     0
176
     0
 90
       50
176
     0
 40
0.0
176
     0
 40
1.0
176
     0
 90
        0
176
     0
 62
    18
420
        0
176
     0
 90
       50
176
     0
 90
        3
176
     0
 62
     5
420
      255
176
     0
290
     0
176
     0
 90
       50
176
     0
 90
       50
176
     0
 90
       50
176
     0
290
     0
176
     0
 90
       50
176
     0
 62
   256
176
     0
 40
1.0
176
     0
 90
        2
176
     0
  1
strokes_ogs.tif
176
     0
290
     0
176
     0
 40
1.0
176
     0
 40
1.0
176
     0
  0
VISUALSTYLE
  5
BCF
102
{ACAD_REACTORS
330
2F
102
}
330
2F
100
AcDbVisualStyle
  2
Facepattern
 70
    15
177
     3
291
     1
 70
    58
 90
        2
176
     1
 90
        2
176
     1
 90
        0
176
     1
 90
        0
176
     1
 40
0.6
176
     1
 40
30.0
176
     1
 62
     7
176
     1
 90
        1
176
     1
 90
        4
176
     1
 62
     7
176
     1
 62
   257
176
     1
 90
        1
176
     1
 90
        1
176
     1
 40
1.0
176
     1
 90
        8
176
     1
 62
     7
176
     1
 40
1.0
176
     1
 90
        1
176
     1
 90
        6
176
     1
 90
        2
176
     1
 62
     7
176
     1
 90
        5
176
     1
 90
        0
176
     1
 90
        0
176
     1
290
     0
176
     1
 90
        1
176
     1
 40
0.0
176
     1
 90
        0
176
     1
290
     0
176
     1
290
     1
176
     1
290
     1
176
     1
290
     0
176
     1
290
     0
176
     1
290
     0
176
     1
290
     0
176
     1
290
     0
176
     1
290
     0
176
     1
 90
       50
176
     1
 40
0.0
176
     1
 40
1.0
176
     1
 90
        0
176
     1
 62
    18
420
        0
176
     1
 90
       50
176
     1
 90
        3
176
     1
 62
     5
420
      255
176
     1
290
     0
176
     1
 90
       50
176
     1
 90
       50
176
     1
 90
       50
176
     1
290
     0
176
     1
 90
       50
176
     1
 62
   256
176
     0
 40
1.0
176
     0
 90
        2
176
     1
  1
strokes_ogs.tif
176
     1
290
     0
176
     1
 40
1.0
176
     1
 40
1.0
176
     1
  0
VISUALSTYLE
  5
BC3
102
{ACAD_REACTORS
330
2F
102
}
330
2F
100
AcDbVisualStyle
  2
Flat
 70
     0
177
     3
291
     1
 70
    58
 90
        2
176
     1
 90
        1
176
     1
 90
        1
176
     1
 90
        2
176
     1
 40
0.6
176
     1
 40
30.0
176
     1
 62
     7
176
     1
 90
        0
176
     1
 90
        0
176
     1
 62
     7
176
     1
 62
   257
176
     1
 90
        1
176
     1
 90
        1
176
     1
 40
1.0
176
     1
 90
        8
176
     1
 62
     7
176
     1
 40
1.0
176
     1
 90
        1
176
     1
 90
        6
176
     1
 90
        2
176
     1
 62
     7
176
     1
 90
        5
176
     1
 90
        0
176
     1
 90
        0
176
     1
290
     0
176
     1
 90
       13
176
     1
 40
0.0
176
     1
 90
        0
176
     1
290
     0
176
     1
290
     1
176
     1
290
     1
176
     1
290
     0
176
     1
290
     0
176
     1
290
     0
176
     1
290
     0
176
     1
290
     0
176
     1
290
     0
176
     1
 90
       50
176
     1
 40
0.0
176
     1
 40
1.0
176
     1
 90
        0
176
     1
 62
    18
420
        0
176
     1
 90
       50
176
     1
 90
        3
176
     1
 62
     5
420
      255
176
     1
290
     0
176
     1
 90
       50
176
     1
 90
       50
176
     1
 90
       50
176
     1
290
     0
176
     1
 90
       50
176
     1
 62
   256
176
     0
 40
1.0
176
     0
 90
        2
176
     1
  1
strokes_ogs.tif
176
     1
290
     0
176
     1
 40
1.0
176
     1
 40
1.0
176
     1
  0
VISUALSTYLE
  5
BC4
102
{ACAD_REACTORS
330
2F
102
}
330
2F
100
AcDbVisualStyle
  2
FlatWithEdges
 70
     1
177
     3
291
     1
 70
    58
 90
        2
176
     1
 90
        1
176
     1
 90
        1
176
     1
 90
        2
176
     1
 40
0.6
176
     1
 40
30.0
176
     1
 62
     7
176
     1
 90
        1
176
     1
 90
        0
176
     1
 62
     7
176
     1
 62
   257
176
     1
 90
        1
176
     1
 90
        1
176
     1
 40
1.0
176
     1
 90
        0
176
     1
 62
   257
176
     1
 40
1.0
176
     1
 90
        1
176
     1
 90
        6
176
     1
 90
        2
176
     1
 62
     7
176
     1
 90
        5
176
     1
 90
        0
176
     1
 90
        0
176
     1
290
     0
176
     1
 90
       13
176
     1
 40
0.0
176
     1
 90
        0
176
     1
290
     0
176
     1
290
     1
176
     1
290
     1
176
     1
290
     0
176
     1
290
     0
176
     1
290
     0
176
     1
290
     0
176
     1
290
     0
176
     1
290
     0
176
     1
 90
       50
176
     1
 40
0.0
176
     1
 40
1.0
176
     1
 90
        0
176
     1
 62
    18
420
        0
176
     1
 90
       50
176
     1
 90
        3
176
     1
 62
     5
420
      255
176
     1
290
     0
176
     1
 90
       50
176
     1
 90
       50
176
     1
 90
       50
176
     1
290
     0
176
     1
 90
       50
176
     1
 62
   256
176
     0
 40
1.0
176
     0
 90
        2
176
     1
  1
strokes_ogs.tif
176
     1
290
     0
176
     1
 40
1.0
176
     1
 40
1.0
176
     1
  0
VISUALSTYLE
  5
BC5
102
{ACAD_REACTORS
330
2F
102
}
330
2F
100
AcDbVisualStyle
  2
Gouraud
 70
     2
177
     3
291
     1
 70
    58
 90
        2
176
     1
 90
        2
176
     1
 90
        1
176
     1
 90
        2
176
     1
 40
0.6
176
     1
 40
30.0
176
     1
 62
     7
176
     1
 90
        0
176
     1
 90
        0
176
     1
 62
     7
176
     1
 62
   257
176
     1
 90
        1
176
     1
 90
        1
176
     1
 40
1.0
176
     1
 90
        0
176
     1
 62
     7
176
     1
 40
1.0
176
     1
 90
        1
176
     1
 90
        6
176
     1
 90
        2
176
     1
 62
     7
176
     1
 90
        5
176
     1
 90
        0
176
     1
 90
        0
176
     1
290
     0
176
     1
 90
       13
176
     1
 40
0.0
176
     1
 90
        0
176
     1
290
     0
176
     1
290
     1
176
     1
290
     1
176
     1
290
     0
176
     1
290
     0
176
     1
290
     0
176
     1
290
     0
176
     1
290
     0
176
     1
290
     0
176
     1
 90
       50
176
     1
 40
0.0
176
     1
 40
1.0
176
     1
 90
        0
176
     1
 62
    18
420
        0
176
     1
 90
       50
176
     1
 90
        3
176
     1
 62
     5
420
      255
176
     1
290
     0
176
     1
 90
       50
176
     1
 90
       50
176
     1
 90
       50
176
     1
290
     0
176
     1
 90
       50
176
     1
 62
   256
176
     0
 40
1.0
176
     0
 90
        2
176
     1
  1
strokes_ogs.tif
176
     1
290
     0
176
     1
 40
1.0
176
     1
 40
1.0
176
     1
  0
VISUALSTYLE
  5
BC6
102
{ACAD_REACTORS
330
2F
102
}
330
2F
100
AcDbVisualStyle
  2
GouraudWithEdges
 70
     3
177
     3
291
     1
 70
    58
 90
        2
176
     1
 90
        2
176
     1
 90
        1
176
     1
 90
        2
176
     1
 40
0.6
176
     1
 40
30.0
176
     1
 62
     7
176
     1
 90
        1
176
     1
 90
        0
176
     1
 62
     7
176
     1
 62
   257
176
     1
 90
        1
176
     1
 90
        1
176
     1
 40
1.0
176
     1
 90
        0
176
     1
 62
   257
176
     1
 40
1.0
176
     1
 90
        1
176
     1
 90
        6
176
     1
 90
        2
176
     1
 62
     7
176
     1
 90
        5
176
     1
 90
        0
176
     1
 90
        0
176
     1
290
     0
176
     1
 90
       13
176
     1
 40
0.0
176
     1
 90
        0
176
     1
290
     0
176
     1
290
     1
176
     1
290
     1
176
     1
290
     0
176
     1
290
     0
176
     1
290
     0
176
     1
290
     0
176
     1
290
     0
176
     1
290
     0
176
     1
 90
       50
176
     1
 40
0.0
176
     1
 40
1.0
176
     1
 90
        0
176
     1
 62
    18
420
        0
176
     1
 90
       50
176
     1
 90
        3
176
     1
 62
     5
420
      255
176
     1
290
     0
176
     1
 90
       50
176
     1
 90
       50
176
     1
 90
       50
176
     1
290
     0
176
     1
 90
       50
176
     1
 62
   256
176
     0
 40
1.0
176
     0
 90
        2
176
     1
  1
strokes_ogs.tif
176
     1
290
     0
176
     1
 40
1.0
176
     1
 40
1.0
176
     1
  0
VISUALSTYLE
  5
BC9
102
{ACAD_REACTORS
330
2F
102
}
330
2F
100
AcDbVisualStyle
  2
Hidden
 70
     6
177
     3
291
     0
 70
    58
 90
        1
176
     1
 90
        2
176
     1
 90
        2
176
     1
 90
        0
176
     1
 40
0.6
176
     1
 40
30.0
176
     1
 62
     7
176
     1
 90
        2
176
     1
 90
        2
176
     1
 62
     7
176
     1
 62
   257
176
     1
 90
        2
176
     1
 90
        1
176
     1
 40
40.0
176
     1
 90
        0
176
     1
 62
   257
176
     1
 40
1.0
176
     1
 90
        1
176
     1
 90
        6
176
     1
 90
        2
176
     1
 62
     7
176
     1
 90
        3
176
     1
 90
        0
176
     1
 90
        0
176
     1
290
     0
176
     1
 90
        1
176
     1
 40
0.0
176
     1
 90
        0
176
     1
290
     0
176
     1
290
     1
176
     1
290
     1
176
     1
290
     0
176
     1
290
     0
176
     1
290
     0
176
     1
290
     0
176
     1
290
     0
176
     1
290
     0
176
     1
 90
       50
176
     1
 40
0.0
176
     1
 40
1.0
176
     1
 90
        0
176
     1
 62
    18
420
        0
176
     1
 90
       50
176
     1
 90
        3
176
     1
 62
     5
420
      255
176
     1
290
     0
176
     1
 90
       50
176
     1
 90
       50
176
     1
 90
       50
176
     1
290
     0
176
     1
 90
       50
176
     1
 62
   256
176
     0
 40
1.0
176
     0
 90
        2
176
     1
  1
strokes_ogs.tif
176
     1
290
     0
176
     1
 40
1.0
176
     1
 40
1.0
176
     1
  0
VISUALSTYLE
  5
BD6
102
{ACAD_REACTORS
330
2F
102
}
330
2F
100
AcDbVisualStyle
  2
JitterOff
 70
    20
177
     3
291
     1
 70
    58
 90
        2
176
     0
 90
        2
176
     0
 90
        0
176
     0
 90
        0
176
     0
 40
0.6
176
     0
 40
30.0
176
     0
 62
     7
176
     0
 90
        1
176
     0
 90
        4
176
     0
 62
     7
176
     0
 62
   257
176
     0
 90
        1
176
     0
 90
        1
176
     0
 40
1.0
176
     0
 90
       10
176
     2
 62
     7
176
     0
 40
1.0
176
     0
 90
        1
176
     0
 90
        6
176
     0
 90
        2
176
     0
 62
     7
176
     0
 90
        5
176
     0
 90
        0
176
     0
 90
        0
176
     0
290
     0
176
     0
 90
        1
176
     0
 40
0.0
176
     0
 90
        0
176
     0
290
     0
176
     0
290
     1
176
     0
290
     1
176
     0
290
     0
176
     0
290
     0
176
     0
290
     0
176
     0
290
     0
176
     0
290
     0
176
     0
290
     0
176
     0
 90
       50
176
     0
 40
0.0
176
     0
 40
1.0
176
     0
 90
        0
176
     0
 62
    18
420
        0
176
     0
 90
       50
176
     0
 90
        3
176
     0
 62
     5
420
      255
176
     0
290
     0
176
     0
 90
       50
176
     0
 90
       50
176
     0
 90
       50
176
     0
290
     0
176
     0
 90
       50
176
     0
 62
   256
176
     0
 40
1.0
176
     0
 90
        2
176
     0
  1
strokes_ogs.tif
176
     0
290
     0
176
     0
 40
1.0
176
     0
 40
1.0
176
     0
  0
VISUALSTYLE
  5
BCE
102
{ACAD_REACTORS
330
2F
102
}
330
2F
100
AcDbVisualStyle
  2
Linepattern
 70
    14
177
     3
291
     1
 70
    58
 90
        2
176
     1
 90
        2
176
     1
 90
        0
176
     1
 90
        0
176
     1
 40
0.6
176
     1
 40
30.0
176
     1
 62
     7
176
     1
 90
        1
176
     1
 90
        4
176
     1
 62
     7
176
     1
 62
   257
176
     1
 90
        7
176
     1
 90
        7
176
     1
 40
1.0
176
     1
 90
        8
176
     1
 62
     7
176
     1
 40
1.0
176
     1
 90
        1
176
     1
 90
        6
176
     1
 90
        2
176
     1
 62
     7
176
     1
 90
        5
176
     1
 90
        0
176
     1
 90
        0
176
     1
290
     0
176
     1
 90
        1
176
     1
 40
0.0
176
     1
 90
        0
176
     1
290
     0
176
     1
290
     1
176
     1
290
     1
176
     1
290
     0
176
     1
290
     0
176
     1
290
     0
176
     1
290
     0
176
     1
290
     0
176
     1
290
     0
176
     1
 90
       50
176
     1
 40
0.0
176
     1
 40
1.0
176
     1
 90
        0
176
     1
 62
    18
420
        0
176
     1
 90
       50
176
     1
 90
        3
176
     1
 62
     5
420
      255
176
     1
290
     0
176
     1
 90
       50
176
     1
 90
       50
176
     1
 90
       50
176
     1
290
     0
176
     1
 90
       50
176
     1
 62
   256
176
     0
 40
1.0
176
     0
 90
        2
176
     1
  1
strokes_ogs.tif
176
     1
290
     0
176
     1
 40
1.0
176
     1
 40
1.0
176
     1
  0
VISUALSTYLE
  5
BD7
102
{ACAD_REACTORS
330
2F
102
}
330
2F
100
AcDbVisualStyle
  2
OverhangOff
 70
    21
177
     3
291
     1
 70
    58
 90
        2
176
     0
 90
        2
176
     0
 90
        0
176
     0
 90
        0
176
     0
 40
0.6
176
     0
 40
30.0
176
     0
 62
     7
176
     0
 90
        1
176
     0
 90
        4
176
     0
 62
     7
176
     0
 62
   257
176
     0
 90
        1
176
     0
 90
        1
176
     0
 40
1.0
176
     0
 90
        9
176
     2
 62
     7
176
     0
 40
1.0
176
     0
 90
        1
176
     0
 90
        6
176
     0
 90
        2
176
     0
 62
     7
176
     0
 90
        5
176
     0
 90
        0
176
     0
 90
        0
176
     0
290
     0
176
     0
 90
        1
176
     0
 40
0.0
176
     0
 90
        0
176
     0
290
     0
176
     0
290
     1
176
     0
290
     1
176
     0
290
     0
176
     0
290
     0
176
     0
290
     0
176
     0
290
     0
176
     0
290
     0
176
     0
290
     0
176
     0
 90
       50
176
     0
 40
0.0
176
     0
 40
1.0
176
     0
 90
        0
176
     0
 62
    18
420
        0
176
     0
 90
       50
176
     0
 90
        3
176
     0
 62
     5
420
      255
176
     0
290
     0
176
     0
 90
       50
176
     0
 90
       50
176
     0
 90
       50
176
     0
290
     0
176
     0
 90
       50
176
     0
 62
   256
176
     0
 40
1.0
176
     0
 90
        2
176
     0
  1
strokes_ogs.tif
176
     0
290
     0
176
     0
 40
1.0
176
     0
 40
1.0
176
     0
  0
VISUALSTYLE
  5
46
102
{ACAD_REACTORS
330
2F
102
}
330
2F
100
AcDbVisualStyle
  2
Realistic
 70
     8
177
     3
291
     0
 70
    58
 90
        2
176
     1
 90
        2
176
     1
 90
        1
176
     1
 90
        0
176
     1
 40
0.6
176
     1
 40
30.0
176
     1
 62
     7
176
     1
 90
        1
176
     1
 90
        0
176
     1
 62
     7
176
     1
 62
   257
176
     1
 90
        1
176
     1
 90
        1
176
     1
 40
1.0
176
     1
 90
        8
176
     1
 62
     8
176
     1
 40
1.0
176
     1
 90
        1
176
     1
 90
        6
176
     1
 90
        2
176
     1
 62
     7
176
     1
 90
        5
176
     1
 90
        0
176
     1
 90
        0
176
     1
290
     0
176
     1
 90
       13
176
     1
 40
0.0
176
     1
 90
        0
176
     1
290
     0
176
     1
290
     1
176
     1
290
     1
176
     1
290
     0
176
     1
290
     0
176
     1
290
     0
176
     1
290
     0
176
     1
290
     0
176
     1
290
     0
176
     1
 90
       50
176
     1
 40
0.0
176
     1
 40
1.0
176
     1
 90
        0
176
     1
 62
    18
420
        0
176
     1
 90
       50
176
     1
 90
        3
176
     1
 62
     5
420
      255
176
     1
290
     0
176
     1
 90
       50
176
     1
 90
       50
176
     1
 90
       50
176
     1
290
     0
176
     1
 90
       50
176
     1
 62
   256
176
     0
 40
1.0
176
     0
 90
        2
176
     1
  1
strokes_ogs.tif
176
     1
290
     0
176
     1
 40
1.0
176
     1
 40
1.0
176
     1
  0
VISUALSTYLE
  5
BD5
102
{ACAD_REACTORS
330
2F
102
}
330
2F
100
AcDbVisualStyle
  2
Shaded
 70
    27
177
     3
291
     0
 70
    58
 90
        2
176
     1
 90
        2
176
     1
 90
        1
176
     1
 90
        2
176
     1
 40
0.6
176
     1
 40
30.0
176
     1
 62
     7
176
     1
 90
        0
176
     1
 90
        4
176
     1
 62
     7
176
     1
 62
   257
176
     1
 90
        1
176
     1
 90
        1
176
     1
 40
1.0
176
     1
 90
        8
176
     1
 62
   257
176
     1
 40
1.0
176
     1
 90
        1
176
     1
 90
        6
176
     1
 90
        2
176
     1
 62
     8
176
     1
 90
        3
176
     1
 90
        0
176
     1
 90
        0
176
     1
290
     0
176
     1
 90
        5
176
     1
 40
0.0
176
     1
 90
        0
176
     1
290
     0
176
     1
290
     1
176
     1
290
     1
176
     1
290
     0
176
     1
290
     0
176
     1
290
     0
176
     1
290
     0
176
     1
290
     0
176
     1
290
     0
176
     1
 90
       50
176
     1
 40
0.0
176
     1
 40
1.0
176
     1
 90
        0
176
     1
 62
    18
420
        0
176
     1
 90
       50
176
     1
 90
        3
176
     1
 62
     5
420
      255
176
     1
290
     0
176
     1
 90
       50
176
     1
 90
       50
176
     1
 90
       50
176
     1
290
     0
176
     1
 90
       50
176
     1
 62
   256
176
     0
 40
1.0
176
     0
 90
        2
176
     1
  1
strokes_ogs.tif
176
     1
290
     0
176
     1
 40
1.0
176
     1
 40
1.0
176
     1
  0
VISUALSTYLE
  5
BD4
102
{ACAD_REACTORS
330
2F
102
}
330
2F
100
AcDbVisualStyle
  2
Shaded with edges
 70
    26
177
     3
291
     0
 70
    58
 90
        2
176
     1
 90
        2
176
     1
 90
        1
176
     1
 90
        2
176
     1
 40
0.6
176
     1
 40
30.0
176
     1
 62
     7
176
     1
 90
        1
176
     1
 90
       10
176
     1
 62
     7
176
     1
 62
   257
176
     1
 90
        2
176
     1
 90
        1
176
     1
 40
1.0
176
     1
 90
        8
176
     1
 62
   257
176
     1
 40
1.0
176
     1
 90
        1
176
     1
 90
        6
176
     1
 90
        2
176
     1
 62
     7
176
     1
 90
        3
176
     1
 90
        0
176
     1
 90
        0
176
     1
290
     0
176
     1
 90
        5
176
     1
 40
0.0
176
     1
 90
        0
176
     1
290
     0
176
     1
290
     1
176
     1
290
     1
176
     1
290
     0
176
     1
290
     0
176
     1
290
     0
176
     1
290
     0
176
     1
290
     0
176
     1
290
     0
176
     1
 90
       50
176
     1
 40
0.0
176
     1
 40
1.0
176
     1
 90
        0
176
     1
 62
    18
420
        0
176
     1
 90
       50
176
     1
 90
        3
176
     1
 62
     5
420
      255
176
     1
290
     0
176
     1
 90
       50
176
     1
 90
       50
176
     1
 90
       50
176
     1
290
     0
176
     1
 90
       50
176
     1
 62
   256
176
     0
 40
1.0
176
     0
 90
        2
176
     1
  1
strokes_ogs.tif
176
     1
290
     0
176
     1
 40
1.0
176
     1
 40
1.0
176
     1
  0
VISUALSTYLE
  5
BD1
102
{ACAD_REACTORS
330
2F
102
}
330
2F
100
AcDbVisualStyle
  2
Shades of Gray
 70
    23
177
     3
291
     0
 70
    58
 90
        2
176
     1
 90
        2
176
     1
 90
        3
176
     1
 90
        0
176
     1
 40
0.6
176
     1
 40
30.0
176
     1
 62
     7
176
     1
 90
        2
176
     1
 90
        2
176
     1
 62
     7
176
     1
 62
     7
176
     1
 90
        1
176
     1
 90
        1
176
     1
 40
40.0
176
     1
 90
        8
176
     1
 62
     7
176
     1
 40
1.0
176
     1
 90
        1
176
     1
 90
        6
176
     1
 90
        2
176
     1
 62
     7
176
     1
 90
        3
176
     1
 90
        0
176
     1
 90
        0
176
     1
290
     0
176
     1
 90
        1
176
     1
 40
0.0
176
     1
 90
        0
176
     1
290
     0
176
     1
290
     1
176
     1
290
     1
176
     1
290
     0
176
     1
290
     0
176
     1
290
     0
176
     1
290
     0
176
     1
290
     0
176
     1
290
     0
176
     1
 90
       50
176
     1
 40
0.0
176
     1
 40
1.0
176
     1
 90
        0
176
     1
 62
    18
420
        0
176
     1
 90
       50
176
     1
 90
        3
176
     1
 62
     5
420
      255
176
     1
290
     0
176
     1
 90
       50
176
     1
 90
       50
176
     1
 90
       50
176
     1
290
     0
176
     1
 90
       50
176
     1
 62
   256
176
     0
 40
1.0
176
     0
 90
        2
176
     1
  1
strokes_ogs.tif
176
     1
290
     0
176
     1
 40
1.0
176
     1
 40
1.0
176
     1
  0
VISUALSTYLE
  5
BD2
102
{ACAD_REACTORS
330
2F
102
}
330
2F
100
AcDbVisualStyle
  2
Sketchy
 70
    24
177
     3
291
     0
 70
    58
 90
        1
176
     1
 90
        2
176
     1
 90
        2
176
     1
 90
        0
176
     1
 40
0.6
176
     1
 40
30.0
176
     1
 62
     7
176
     1
 90
        2
176
     1
 90
        2
176
     1
 62
     7
176
     1
 62
     7
176
     1
 90
        1
176
     1
 90
        1
176
     1
 40
40.0
176
     1
 90
       11
176
     1
 62
     7
176
     1
 40
1.0
176
     1
 90
        1
176
     1
 90
        6
176
     1
 90
        2
176
     1
 62
     7
176
     1
 90
        6
176
     1
 90
        0
176
     1
 90
        0
176
     1
290
     0
176
     1
 90
        1
176
     1
 40
0.0
176
     1
 90
        0
176
     1
290
     0
176
     1
290
     1
176
     1
290
     1
176
     1
290
     0
176
     1
290
     0
176
     1
290
     0
176
     1
290
     0
176
     1
290
     0
176
     1
290
     0
176
     1
 90
       50
176
     1
 40
0.0
176
     1
 40
1.0
176
     1
 90
        0
176
     1
 62
    18
420
        0
176
     1
 90
       50
176
     1
 90
        3
176
     1
 62
     5
420
      255
176
     1
290
     0
176
     1
 90
       50
176
     1
 90
       50
176
     1
 90
       50
176
     1
290
     0
176
     1
 90
       50
176
     1
 62
   256
176
     0
 40
1.0
176
     0
 90
        2
176
     1
  1
strokes_ogs.tif
176
     1
290
     0
176
     1
 40
1.0
176
     1
 40
1.0
176
     1
  0
VISUALSTYLE
  5
BCD
102
{ACAD_REACTORS
330
2F
102
}
330
2F
100
AcDbVisualStyle
  2
Thicken
 70
    13
177
     3
291
     1
 70
    58
 90
        2
176
     1
 90
        2
176
     1
 90
        0
176
     1
 90
        0
176
     1
 40
0.6
176
     1
 40
30.0
176
     1
 62
     7
176
     1
 90
        1
176
     1
 90
        4
176
     1
 62
     7
176
     1
 62
   257
176
     1
 90
        1
176
     1
 90
        1
176
     1
 40
1.0
176
     1
 90
       12
176
     1
 62
     7
176
     1
 40
1.0
176
     1
 90
        1
176
     1
 90
        6
176
     1
 90
        2
176
     1
 62
     7
176
     1
 90
        5
176
     1
 90
        0
176
     1
 90
        0
176
     1
290
     0
176
     1
 90
        1
176
     1
 40
0.0
176
     1
 90
        0
176
     1
290
     0
176
     1
290
     1
176
     1
290
     1
176
     1
290
     0
176
     1
290
     0
176
     1
290
     0
176
     1
290
     0
176
     1
290
     0
176
     1
290
     0
176
     1
 90
       50
176
     1
 40
0.0
176
     1
 40
1.0
176
     1
 90
        0
176
     1
 62
    18
420
        0
176
     1
 90
       50
176
     1
 90
        3
176
     1
 62
     5
420
      255
176
     1
290
     0
176
     1
 90
       50
176
     1
 90
       50
176
     1
 90
       50
176
     1
290
     0
176
     1
 90
       50
176
     1
 62
   256
176
     0
 40
1.0
176
     0
 90
        2
176
     1
  1
strokes_ogs.tif
176
     1
290
     0
176
     1
 40
1.0
176
     1
 40
1.0
176
     1
  0
VISUALSTYLE
  5
BC8
102
{ACAD_REACTORS
330
2F
102
}
330
2F
100
AcDbVisualStyle
  2
Wireframe
 70
     5
177
     3
291
     0
 70
    58
 90
        0
176
     1
 90
        2
176
     1
 90
        0
176
     1
 90
        0
176
     1
 40
0.6
176
     1
 40
30.0
176
     1
 62
     7
176
     1
 90
        1
176
     1
 90
        4
176
     1
 62
     7
176
     1
 62
   257
176
     1
 90
        1
176
     1
 90
        1
176
     1
 40
1.0
176
     1
 90
        0
176
     1
 62
   257
176
     1
 40
1.0
176
     1
 90
        1
176
     1
 90
        6
176
     1
 90
        2
176
     1
 62
     7
176
     1
 90
        3
176
     1
 90
        0
176
     1
 90
        0
176
     1
290
     0
176
     1
 90
        1
176
     1
 40
0.0
176
     1
 90
        0
176
     1
290
     0
176
     1
290
     1
176
     1
290
     1
176
     1
290
     0
176
     1
290
     0
176
     1
290
     0
176
     1
290
     0
176
     1
290
     0
176
     1
290
     0
176
     1
 90
       50
176
     1
 40
0.0
176
     1
 40
1.0
176
     1
 90
        0
176
     1
 62
    18
420
        0
176
     1
 90
       50
176
     1
 90
        3
176
     1
 62
     5
420
      255
176
     1
290
     0
176
     1
 90
       50
176
     1
 90
       50
176
     1
 90
       50
176
     1
290
     0
176
     1
 90
       50
176
     1
 62
   256
176
     0
 40
1.0
176
     0
 90
        2
176
     1
  1
strokes_ogs.tif
176
     1
290
     0
176
     1
 40
1.0
176
     1
 40
1.0
176
     1
  0
VISUALSTYLE
  5
BD3
102
{ACAD_REACTORS
330
2F
102
}
330
2F
100
AcDbVisualStyle
  2
X-Ray
 70
    25
177
     3
291
     0
 70
    58
 90
        2
176
     1
 90
        2
176
     1
 90
        1
176
     1
 90
        1
176
     1
 40
0.5
176
     1
 40
30.0
176
     1
 62
     7
176
     1
 90
        1
176
     1
 90
        0
176
     1
 62
     7
176
     1
 62
   257
176
     1
 90
        1
176
     1
 90
        1
176
     1
 40
1.0
176
     1
 90
        8
176
     1
 62
     7
176
     1
 40
1.0
176
     1
 90
        1
176
     1
 90
        6
176
     1
 90
        2
176
     1
 62
     7
176
     1
 90
        3
176
     1
 90
        0
176
     1
 90
        0
176
     1
290
     0
176
     1
 90
       13
176
     1
 40
0.0
176
     1
 90
        0
176
     1
290
     0
176
     1
290
     1
176
     1
290
     1
176
     1
290
     0
176
     1
290
     0
176
     1
290
     0
176
     1
290
     0
176
     1
290
     0
176
     1
290
     0
176
     1
 90
       50
176
     1
 40
0.0
176
     1
 40
1.0
176
     1
 90
        0
176
     1
 62
    18
420
        0
176
     1
 90
       50
176
     1
 90
        3
176
     1
 62
     5
420
      255
176
     1
290
     0
176
     1
 90
       50
176
     1
 90
       50
176
     1
 90
       50
176
     1
290
     0
176
     1
 90
       50
176
     1
 62
   256
176
     0
 40
1.0
176
     0
 90
        2
176
     1
  1
strokes_ogs.tif
176
     1
290
     0
176
     1
 40
1.0
176
     1
 40
1.0
176
     1
  0
DICTIONARYVAR
  5
BBE
102
{ACAD_REACTORS
330
BB8
102
}
330
BB8
100
DictionaryVariables
280
     0
  1
1:1
  0
DICTIONARYVAR
  5
BBA
102
{ACAD_REACTORS
330
BB8
102
}
330
BB8
100
DictionaryVariables
280
     0
  1
STANDARD
  0
DICTIONARYVAR
  5
BB9
102
{ACAD_REACTORS
330
BB8
102
}
330
BB8
100
DictionaryVariables
280
     0
  1
STANDARD
  0
DICTIONARYVAR
  5
BBB
102
{ACAD_REACTORS
330
BB8
102
}
330
BB8
100
DictionaryVariables
280
     0
  1
Metric50
  0
DICTIONARYVAR
  5
BBC
102
{ACAD_REACTORS
330
BB8
102
}
330
BB8
100
DictionaryVariables
280
     0
  1
Metric50
  0
DICTIONARYVAR
  5
C3B
102
{ACAD_REACTORS
330
BB8
102
}
330
BB8
100
DictionaryVariables
280
     0
  1
1
  0
DICTIONARYVAR
  5
C39
102
{ACAD_REACTORS
330
BB8
102
}
330
BB8
100
DictionaryVariables
280
     0
  1
1
  0
DICTIONARYVAR
  5
FF3
102
{ACAD_REACTORS
330
BB8
102
}
330
BB8
100
DictionaryVariables
280
     0
  1
4
  0
DICTIONARYVAR
  5
C38
102
{ACAD_REACTORS
330
BB8
102
}
330
BB8
100
DictionaryVariables
280
     0
  1
0
  0
DICTIONARYVAR
  5
BC0
102
{ACAD_REACTORS
330
BB8
102
}
330
BB8
100
DictionaryVariables
280
     0
  1
1
  0
DICTIONARYVAR
  5
BC1
102
{ACAD_REACTORS
330
BB8
102
}
330
BB8
100
DictionaryVariables
280
     0
  1
15
  0
DICTIONARYVAR
  5
BBF
102
{ACAD_REACTORS
330
BB8
102
}
330
BB8
100
DictionaryVariables
280
     0
  1
0
  0
DICTIONARYVAR
  5
BBD
102
{ACAD_REACTORS
330
BB8
102
}
330
BB8
100
DictionaryVariables
280
     0
  1
0
  0
DICTIONARYVAR
  5
C3C
102
{ACAD_REACTORS
330
BB8
102
}
330
BB8
100
DictionaryVariables
280
     0
  1
1
  0
DICTIONARYVAR
  5
C37
102
{ACAD_REACTORS
330
BB8
102
}
330
BB8
100
DictionaryVariables
280
     0
  1
127
  0
DICTIONARY
  5
38737
330
283CD
100
AcDbDictionary
280
     1
281
     1
  3
ACAD_XREC_ROUNDTRIP
360
38738
  0
DICTIONARY
  5
38733
330
BDD
100
AcDbDictionary
280
     1
281
     1
  3
ACAD_XREC_ROUNDTRIP
360
38734
  0
DICTIONARY
  5
18
330
16
100
AcDbDictionary
280
     1
281
     1
  0
DICTIONARY
  5
1F
330
1E
100
AcDbDictionary
280
     1
281
     1
  0
DICTIONARY
  5
E
330
C
100
AcDbDictionary
280
     1
281
     1
  3
BUMPTILE
360
F
  3
DIFFUSETILE
360
10
  3
OPACITYTILE
360
11
  3
REFLECTIONTILE
360
12
  0
DICTIONARY
  5
38735
330
283CC
100
AcDbDictionary
280
     1
281
     1
  3
ACAD_XREC_ROUNDTRIP
360
38736
  0
DICTIONARY
  5
38731
330
BDB
100
AcDbDictionary
280
     1
281
     1
  3
ACAD_XREC_ROUNDTRIP
360
38732
  0
DICTIONARY
  5
45
330
44
100
AcDbDictionary
280
     1
281
     1
  3
ACAD_ROUNDTRIP_2008_TABLESTYLE_CELLSTYLEMAP
360
38730
  0
XRECORD
  5
38738
102
{ACAD_REACTORS
330
38737
102
}
330
38737
100
AcDbXrecord
280
     1
102
DISPLAYNAME
  1
Imperial24
102
FLAGS
 90
        0
  0
XRECORD
  5
38734
102
{ACAD_REACTORS
330
38733
102
}
330
38733
100
AcDbXrecord
280
     1
102
DISPLAYNAME
  1
Metric50
102
FLAGS
 90
        0
  0
XRECORD
  5
F
102
{ACAD_REACTORS
330
E
102
}
330
E
100
AcDbXrecord
280
     1
270
     1
271
     1
  0
XRECORD
  5
10
102
{ACAD_REACTORS
330
E
102
}
330
E
100
AcDbXrecord
280
     1
270
     1
271
     1
  0
XRECORD
  5
11
102
{ACAD_REACTORS
330
E
102
}
330
E
100
AcDbXrecord
280
     1
270
     1
271
     1
  0
XRECORD
  5
12
102
{ACAD_REACTORS
330
E
102
}
330
E
100
AcDbXrecord
280
     1
270
     1
271
     1
  0
XRECORD
  5
38736
102
{ACAD_REACTORS
330
38735
102
}
330
38735
100
AcDbXrecord
280
     1
102
DISPLAYNAME
  1
Imperial24
102
FLAGS
 90
        0
  0
XRECORD
  5
38732
102
{ACAD_REACTORS
330
38731
102
}
330
38731
100
AcDbXrecord
280
     1
102
DISPLAYNAME
  1
Metric50
102
FLAGS
 90
        0
  0
CELLSTYLEMAP
  5
38730
102
{ACAD_REACTORS
330
45
102
}
330
45
100
AcDbCellStyleMap
 90
        3
300
CELLSTYLE
  1
TABLEFORMAT_BEGIN
 90
        5
170
     1
 91
        0
 92
    32768
 62
   257
 93
        1
300
CONTENTFORMAT
  1
CONTENTFORMAT_BEGIN
 90
        0
 91
        0
 92
      512
 93
        0
300

 40
0.0
140
1.0
 94
        5
 62
     0
340
25
144
6.0
309
CONTENTFORMAT_END
171
     1
301
MARGIN
  1
CELLMARGIN_BEGIN
 40
1.5
 40
1.5
 40
1.5
 40
1.5
 40
0.18
 40
0.18
309
CELLMARGIN_END
 94
        6
 95
        1
302
GRIDFORMAT
  1
GRIDFORMAT_BEGIN
 90
        0
 91
        1
 62
     0
 92
       -2
340
28
 93
        0
 40
1.125
309
GRIDFORMAT_END
 95
        2
302
GRIDFORMAT
  1
GRIDFORMAT_BEGIN
 90
        0
 91
        1
 62
     0
 92
       -2
340
28
 93
        0
 40
1.125
309
GRIDFORMAT_END
 95
        4
302
GRIDFORMAT
  1
GRIDFORMAT_BEGIN
 90
        0
 91
        1
 62
     0
 92
       -2
340
28
 93
        0
 40
1.125
309
GRIDFORMAT_END
 95
        8
302
GRIDFORMAT
  1
GRIDFORMAT_BEGIN
 90
        0
 91
        1
 62
     0
 92
       -2
340
28
 93
        0
 40
1.125
309
GRIDFORMAT_END
 95
       16
302
GRIDFORMAT
  1
GRIDFORMAT_BEGIN
 90
        0
 91
        1
 62
     0
 92
       -2
340
28
 93
        0
 40
1.125
309
GRIDFORMAT_END
 95
       32
302
GRIDFORMAT
  1
GRIDFORMAT_BEGIN
 90
        0
 91
        1
 62
     0
 92
       -2
340
28
 93
        0
 40
1.125
309
GRIDFORMAT_END
309
TABLEFORMAT_END
  1
CELLSTYLE_BEGIN
 90
        1
 91
        1
300
_TITLE
309
CELLSTYLE_END
300
CELLSTYLE
  1
TABLEFORMAT_BEGIN
 90
        5
170
     1
 91
        0
 92
        0
 62
   257
 93
        1
300
CONTENTFORMAT
  1
CONTENTFORMAT_BEGIN
 90
        0
 91
        0
 92
      512
 93
        0
300

 40
0.0
140
1.0
 94
        5
 62
     0
340
25
144
4.5
309
CONTENTFORMAT_END
171
     1
301
MARGIN
  1
CELLMARGIN_BEGIN
 40
1.5
 40
1.5
 40
1.5
 40
1.5
 40
0.18
 40
0.18
309
CELLMARGIN_END
 94
        6
 95
        1
302
GRIDFORMAT
  1
GRIDFORMAT_BEGIN
 90
        0
 91
        1
 62
     0
 92
       -2
340
28
 93
        0
 40
1.125
309
GRIDFORMAT_END
 95
        2
302
GRIDFORMAT
  1
GRIDFORMAT_BEGIN
 90
        0
 91
        1
 62
     0
 92
       -2
340
28
 93
        0
 40
1.125
309
GRIDFORMAT_END
 95
        4
302
GRIDFORMAT
  1
GRIDFORMAT_BEGIN
 90
        0
 91
        1
 62
     0
 92
       -2
340
28
 93
        0
 40
1.125
309
GRIDFORMAT_END
 95
        8
302
GRIDFORMAT
  1
GRIDFORMAT_BEGIN
 90
        0
 91
        1
 62
     0
 92
       -2
340
28
 93
        0
 40
1.125
309
GRIDFORMAT_END
 95
       16
302
GRIDFORMAT
  1
GRIDFORMAT_BEGIN
 90
        0
 91
        1
 62
     0
 92
       -2
340
28
 93
        0
 40
1.125
309
GRIDFORMAT_END
 95
       32
302
GRIDFORMAT
  1
GRIDFORMAT_BEGIN
 90
        0
 91
        1
 62
     0
 92
       -2
340
28
 93
        0
 40
1.125
309
GRIDFORMAT_END
309
TABLEFORMAT_END
  1
CELLSTYLE_BEGIN
 90
        2
 91
        1
300
_HEADER
309
CELLSTYLE_END
300
CELLSTYLE
  1
TABLEFORMAT_BEGIN
 90
        5
170
     1
 91
        0
 92
        0
 62
   257
 93
        1
300
CONTENTFORMAT
  1
CONTENTFORMAT_BEGIN
 90
        0
 91
        0
 92
      512
 93
        0
300

 40
0.0
140
1.0
 94
        2
 62
     0
340
25
144
4.5
309
CONTENTFORMAT_END
171
     1
301
MARGIN
  1
CELLMARGIN_BEGIN
 40
1.5
 40
1.5
 40
1.5
 40
1.5
 40
0.18
 40
0.18
309
CELLMARGIN_END
 94
        6
 95
        1
302
GRIDFORMAT
  1
GRIDFORMAT_BEGIN
 90
        0
 91
        1
 62
     0
 92
       -2
340
28
 93
        0
 40
1.125
309
GRIDFORMAT_END
 95
        2
302
GRIDFORMAT
  1
GRIDFORMAT_BEGIN
 90
        0
 91
        1
 62
     0
 92
       -2
340
28
 93
        0
 40
1.125
309
GRIDFORMAT_END
 95
        4
302
GRIDFORMAT
  1
GRIDFORMAT_BEGIN
 90
        0
 91
        1
 62
     0
 92
       -2
340
28
 93
        0
 40
1.125
309
GRIDFORMAT_END
 95
        8
302
GRIDFORMAT
  1
GRIDFORMAT_BEGIN
 90
        0
 91
        1
 62
     0
 92
       -2
340
28
 93
        0
 40
1.125
309
GRIDFORMAT_END
 95
       16
302
GRIDFORMAT
  1
GRIDFORMAT_BEGIN
 90
        0
 91
        1
 62
     0
 92
       -2
340
28
 93
        0
 40
1.125
309
GRIDFORMAT_END
 95
       32
302
GRIDFORMAT
  1
GRIDFORMAT_BEGIN
 90
        0
 91
        1
 62
     0
 92
       -2
340
28
 93
        0
 40
1.125
309
GRIDFORMAT_END
309
TABLEFORMAT_END
  1
CELLSTYLE_BEGIN
 90
        3
 91
        2
300
_DATA
309
CELLSTYLE_END
  0
ENDSEC
  0
SECTION
  2
ACDSDATA
 70
     2
 71
     6
  0
ACDSSCHEMA
 90
        0
  1
AcDb_Thumbnail_Schema
  2
AcDbDs::ID
280
    10
 91
        8
  2
Thumbnail_Data
280
    15
 91
        0
101
ACDSRECORD
 95
        0
 90
        1
  2
AcDbDs::TreatedAsObjectData
280
     1
291
     1
101
ACDSRECORD
 95
        0
 90
        2
  2
AcDbDs::Legacy
280
     1
291
     1
101
ACDSRECORD
  1
AcDbDs::ID
 90
        3
  2
AcDs:Indexable
280
     1
291
     1
101
ACDSRECORD
  1
AcDbDs::ID
 90
        4
  2
AcDbDs::HandleAttribute
280
     7
282
     1
  0
ACDSSCHEMA
 90
        1
  1
AcDbDs::TreatedAsObjectDataSchema
  2
AcDbDs::TreatedAsObjectData
280
     1
 91
        0
  0
ACDSSCHEMA
 90
        2
  1
AcDbDs::LegacySchema
  2
AcDbDs::Legacy
280
     1
 91
        0
  0
ACDSSCHEMA
 90
        3
  1
AcDbDs::IndexedPropertySchema
  2
AcDs:Indexable
280
     1
 91
        0
  0
ACDSSCHEMA
 90
        4
  1
AcDbDs::HandleAttributeSchema
  2
AcDbDs::HandleAttribute
280
     7
 91
        1
284
     1
  0
ACDSRECORD
 90
        0
  2
AcDbDs::ID
280
    10
320
16
  2
Thumbnail_Data
280
    15
 94
     1716
310
89504E470D0A1A0A0000000D494844520000010000000076080300000010A0BD3C00000300504C5445000000000000C8C8C80000000000000000000000000000000000000000000000000000330000660000990000CC0000FF0033000033330033660033990033CC0033FF0066000066330066660066990066CC0066FF0099
310
000099330099660099990099CC0099FF00CC0000CC3300CC6600CC9900CCCC00CCFF00FF0000FF3300FF6600FF9900FFCC00FFFF3300003300333300663300993300CC3300FF3333003333333333663333993333CC3333FF3366003366333366663366993366CC3366FF3399003399333399663399993399CC3399FF33CC00
310
33CC3333CC6633CC9933CCCC33CCFF33FF0033FF3333FF6633FF9933FFCC33FFFF6600006600336600666600996600CC6600FF6633006633336633666633996633CC6633FF6666006666336666666666996666CC6666FF6699006699336699666699996699CC6699FF66CC0066CC3366CC6666CC9966CCCC66CCFF66FF0066
310
FF3366FF6666FF9966FFCC66FFFF9900009900339900669900999900CC9900FF9933009933339933669933999933CC9933FF9966009966339966669966999966CC9966FF9999009999339999669999999999CC9999FF99CC0099CC3399CC6699CC9999CCCC99CCFF99FF0099FF3399FF6699FF9999FFCC99FFFFCC0000CC00
310
33CC0066CC0099CC00CCCC00FFCC3300CC3333CC3366CC3399CC33CCCC33FFCC6600CC6633CC6666CC6699CC66CCCC66FFCC9900CC9933CC9966CC9999CC99CCCC99FFCCCC00CCCC33CCCC66CCCC99CCCCCCCCCCFFCCFF00CCFF33CCFF66CCFF99CCFFCCCCFFFFFF0000FF0033FF0066FF0099FF00CCFF00FFFF3300FF3333
310
FF3366FF3399FF33CCFF33FFFF6600FF6633FF6666FF6699FF66CCFF66FFFF9900FF9933FF9966FF9999FF99CCFF99FFFFCC00FFCC33FFCC66FFCC99FFCCCCFFCCFFFFFF00FFFF33FFFF66FFFF99FFFFCCFFFFFF0000000D0D0D1A1A1A2828283535354343435050505D5D5D6B6B6B787878868686939393A1A1A1AEAEAEBB
310
BBBBC9C9C9D6D6D6E4E4E4F1F1F1FFFFFF00000000000000000000000000000000000000000000000000000000000008F1915C0000036F4944415478DAED9D5B8283200C45594E7ED8D92C996DE47F785805441ADB2A0F6F3A33752A5038248180B64A5D23FCEB84ACC61271BB0603C005318665224DF86581B777AC31C2CC
310
D284DF15C85D68F600C60700000000000000000000000000000000002016719CD6502EADE3E301C00700000000000000000000000000C033015CBDF13640256102D538CC4662561AC78C2D0104590EC8893C8675D96600A05600EE151100DAE089F38C320AC8003831ABD6F04400E8935404000F06E0DCC09301D0A000CC4B
310
3E53664ADD213F198020D732D752E668BAD5D404E85A00D18079BCFE3F358058DDFA07407180C63F31016AED03DE8539470094BE0F40DBBD41CA8EC3C5BBACD52400DEEA176D3A1FDAAEEDC3E9FF6F004808B4F201E905DB5A851FBD1EB158682711007BFACD924F33004ADBD6D2DAEEACFDD161F29CFC435E5FF683DFF626
310
E41355EF32680620B423FCB8F6149B586A3FA5AFF3B1DE33DBC4A416ABEACF0474E8C493EDDFB2685704D700B8C414FC8AEECF0412E315B53F33F9820F608A007897EA923953E10E01448ECE90C8DF85712B52A2DCBCC90D6BEBD0A2BD1354DEC9F609601B8C2595390DC0F63FBB972C047DE805DA0070CAEA1F8B069B9706
310
07CDF67ABB93382D93591346739A18C0F1E0D88906AC9D18AFEF943BB690DD06B83E4D5A40A601EE97D6A307027899806AE404992F03E0EE0034AA0AC00F7D7E26A8AA4EF0CABDC1EB0014DF225B6322F693CD3013A20FEAD8B309C800F879939F495400A87901F8931466C2FD01D8DFBEBBD47F0120961D004E16189668B0
310
3B0054A4B101102FF7534503A2F37D0388C2F785038BB7CA8F13926869A42F006B2E56002036019A0600F116E79ED826A802787B1D45571AB09DA333FB24342700F966314557D924DE210E25C70470BCA39514646364B7FF39BE13CCB4DAB74BB6B76204A8C60320D6806BAAF803A9D45E06E0DC4CF0D7750480F626700380
310
2E7DC019970600330238F3166302A88DEFA7AE9FFF78F86F0DA052EF53739A51017424000000000000007055D9B871122600000000000000000000000000000070F7043F93BF4C1A7EC1C2BDDD9A53B07FFCF33D556CF6F12847000AFD3EE7678AF602A0BD09F011007E9A130C2EA08B6F99E96C6C0380E90198BD00C00367
310
8292CBEDE103006022009BAD1B53F502000013E8C51BB792DB7B47FCB587A584A5FA7E556003F9AEBEAD01FC030C87194A4DC933D00000000049454E44AE426082
  0
ACDSRECORD
 90
        0
  2
AcDbDs::ID
280
    10
320
1E
  2
Thumbnail_Data
280
    15
 94
      882
310
89504E470D0A1A0A0000000D49484452000000B80000007F08030000006B00F8F900000300504C5445FFFFFF000000C8C8C80000000000000000000000000000000000000000000000000000330000660000990000CC0000FF0033000033330033660033990033CC0033FF0066000066330066660066990066CC0066FF0099
310
000099330099660099990099CC0099FF00CC0000CC3300CC6600CC9900CCCC00CCFF00FF0000FF3300FF6600FF9900FFCC00FFFF3300003300333300663300993300CC3300FF3333003333333333663333993333CC3333FF3366003366333366663366993366CC3366FF3399003399333399663399993399CC3399FF33CC00
310
33CC3333CC6633CC9933CCCC33CCFF33FF0033FF3333FF6633FF9933FFCC33FFFF6600006600336600666600996600CC6600FF6633006633336633666633996633CC6633FF6666006666336666666666996666CC6666FF6699006699336699666699996699CC6699FF66CC0066CC3366CC6666CC9966CCCC66CCFF66FF0066
310
FF3366FF6666FF9966FFCC66FFFF9900009900339900669900999900CC9900FF9933009933339933669933999933CC9933FF9966009966339966669966999966CC9966FF9999009999339999669999999999CC9999FF99CC0099CC3399CC6699CC9999CCCC99CCFF99FF0099FF3399FF6699FF9999FFCC99FFFFCC0000CC00
310
33CC0066CC0099CC00CCCC00FFCC3300CC3333CC3366CC3399CC33CCCC33FFCC6600CC6633CC6666CC6699CC66CCCC66FFCC9900CC9933CC9966CC9999CC99CCCC99FFCCCC00CCCC33CCCC66CCCC99CCCCCCCCCCFFCCFF00CCFF33CCFF66CCFF99CCFFCCCCFFFFFF0000FF0033FF0066FF0099FF00CCFF00FFFF3300FF3333
310
FF3366FF3399FF33CCFF33FFFF6600FF6633FF6666FF6699FF66CCFF66FFFF9900FF9933FF9966FF9999FF99CCFF99FFFFCC00FFCC33FFCC66FFCC99FFCCCCFFCCFFFFFF00FFFF33FFFF66FFFF99FFFFCCFFFFFF0000000D0D0D1A1A1A2828283535354343435050505D5D5D6B6B6B787878868686939393A1A1A1AEAEAEBB
310
BBBBC9C9C9D6D6D6E4E4E4F1F1F1FFFFFF000000000000000000000000000000000000000000000000000000000000B0E2D2350000002D4944415478DAEDC13101000000C2A0F54FED6F06A00000000000000000000000000000000000000000000080335BC70001E79522D80000000049454E44AE426082
  0
ENDSEC
  0
EOF
