  0
SECTION
  2
HEADER
  9
$ACADVER
  1
AC1027
  9
$ACADMAINTVER
 70
    55
  9
$DWGCODEPAGE
  3
ANSI_949
  9
$LASTSAVEDBY
  1
DESKTOP
  9
$REQUIREDVERSIONS
160
                 0
  9
$INSBASE
 10
0.0
 20
0.0
 30
0.0
  9
$EXTMIN
 10
418.4128
 20
-2.587199999999999
 30
0.0
  9
$EXTMAX
 10
635.7375999999999
 20
150.6332770342341
 30
0.0
  9
$LIMMIN
 10
0.0
 20
0.0
  9
$LIMMAX
 10
420.0
 20
297.0
  9
$ORTHOMODE
 70
     0
  9
$REGENMODE
 70
     1
  9
$FILLMODE
 70
     1
  9
$QTEXTMODE
 70
     0
  9
$MIRRTEXT
 70
     0
  9
$LTSCALE
 40
5.0
  9
$ATTMODE
 70
     1
  9
$TEXTSIZE
 40
3.0
  9
$TRACEWID
 40
1.0
  9
$TEXTSTYLE
  7
Standard
  9
$CLAYER
  8
0
  9
$CELTYPE
  6
Continuous
  9
$CECOLOR
 62
     7
  9
$CELTSCALE
 40
1.0
  9
$DISPSILH
 70
     0
  9
$DIMSCALE
 40
1.0
  9
$DIMASZ
 40
2.5
  9
$DIMEXO
 40
0.625
  9
$DIMDLI
 40
3.75
  9
$DIMRND
 40
0.0
  9
$DIMDLE
 40
0.0
  9
$DIMEXE
 40
1.25
  9
$DIMTP
 40
0.0
  9
$DIMTM
 40
0.000000001
  9
$DIMTXT
 40
3.0
  9
$DIMCEN
 40
-0.5
  9
$DIMTSZ
 40
0.0
  9
$DIMTOL
 70
     0
  9
$DIMLIM
 70
     0
  9
$DIMTIH
 70
     0
  9
$DIMTOH
 70
     0
  9
$DIMSE1
 70
     0
  9
$DIMSE2
 70
     0
  9
$DIMTAD
 70
     1
  9
$DIMZIN
 70
     8
  9
$DIMBLK
  1

  9
$DIMASO
 70
     1
  9
$DIMSHO
 70
     1
  9
$DIMPOST
  1

  9
$DIMAPOST
  1

  9
$DIMALT
 70
     0
  9
$DIMALTD
 70
     3
  9
$DIMALTF
 40
0.03937007874016
  9
$DIMLFAC
 40
1.0
  9
$DIMTOFL
 70
     1
  9
$DIMTVP
 40
0.0
  9
$DIMTIX
 70
     0
  9
$DIMSOXD
 70
     0
  9
$DIMSAH
 70
     0
  9
$DIMBLK1
  1

  9
$DIMBLK2
  1

  9
$DIMSTYLE
  2
Standard
  9
$DIMCLRD
 70
     3
  9
$DIMCLRE
 70
     3
  9
$DIMCLRT
 70
     2
  9
$DIMTFAC
 40
0.7
  9
$DIMGAP
 40
0.625
  9
$DIMJUST
 70
     0
  9
$DIMSD1
 70
     0
  9
$DIMSD2
 70
     0
  9
$DIMTOLJ
 70
     0
  9
$DIMTZIN
 70
     8
  9
$DIMALTZ
 70
     0
  9
$DIMALTTZ
 70
     0
  9
$DIMUPT
 70
     0
  9
$DIMDEC
 70
     8
  9
$DIMTDEC
 70
     8
  9
$DIMALTU
 70
     2
  9
$DIMALTTD
 70
     3
  9
$DIMTXSTY
  7
Standard
  9
$DIMAUNIT
 70
     1
  9
$DIMADEC
 70
     1
  9
$DIMALTRND
 40
0.0
  9
$DIMAZIN
 70
     0
  9
$DIMDSEP
 70
    46
  9
$DIMATFIT
 70
     3
  9
$DIMFRAC
 70
     0
  9
$DIMLDRBLK
  1

  9
$DIMLUNIT
 70
     2
  9
$DIMLWD
 70
    -1
  9
$DIMLWE
 70
    -1
  9
$DIMTMOVE
 70
     0
  9
$DIMFXL
 40
1.0
  9
$DIMFXLON
 70
     0
  9
$DIMJOGANG
 40
0.7853981633974483
  9
$DIMTFILL
 70
     0
  9
$DIMTFILLCLR
 70
     0
  9
$DIMARCSYM
 70
     1
  9
$DIMLTYPE
  6

  9
$DIMLTEX1
  6

  9
$DIMLTEX2
  6

  9
$DIMTXTDIRECTION
 70
     0
  9
$LUNITS
 70
     2
  9
$LUPREC
 70
     4
  9
$SKETCHINC
 40
0.0
  9
$FILLETRAD
 40
0.0
  9
$AUNITS
 70
     0
  9
$AUPREC
 70
     0
  9
$MENU
  1
.
  9
$ELEVATION
 40
0.0
  9
$PELEVATION
 40
0.0
  9
$THICKNESS
 40
0.0
  9
$LIMCHECK
 70
     0
  9
$CHAMFERA
 40
1.5
  9
$CHAMFERB
 40
1.5
  9
$CHAMFERC
 40
0.0
  9
$CHAMFERD
 40
0.0087266462599716
  9
$SKPOLY
 70
     0
  9
$TDCREATE
 40
2455072.745932974
  9
$TDUCREATE
 40
2455072.370932974
  9
$TDUPDATE
 40
2459977.377629676
  9
$TDUUPDATE
 40
2459977.002629676
  9
$TDINDWG
 40
131.6612533218
  9
$TDUSRTIMER
 40
131.6612531366
  9
$USRTIMER
 70
     1
  9
$ANGBASE
 50
0.0
  9
$ANGDIR
 70
     0
  9
$PDMODE
 70
     0
  9
$PDSIZE
 40
0.0
  9
$PLINEWID
 40
0.0
  9
$SPLFRAME
 70
     0
  9
$SPLINETYPE
 70
     6
  9
$SPLINESEGS
 70
     8
  9
$HANDSEED
  5
244F3
  9
$SURFTAB1
 70
     6
  9
$SURFTAB2
 70
     6
  9
$SURFTYPE
 70
     6
  9
$SURFU
 70
     6
  9
$SURFV
 70
     6
  9
$UCSBASE
  2

  9
$UCSNAME
  2

  9
$UCSORG
 10
0.0
 20
0.0
 30
0.0
  9
$UCSXDIR
 10
1.0
 20
0.0
 30
0.0
  9
$UCSYDIR
 10
0.0
 20
1.0
 30
0.0
  9
$UCSORTHOREF
  2

  9
$UCSORTHOVIEW
 70
     0
  9
$UCSORGTOP
 10
0.0
 20
0.0
 30
0.0
  9
$UCSORGBOTTOM
 10
0.0
 20
0.0
 30
0.0
  9
$UCSORGLEFT
 10
0.0
 20
0.0
 30
0.0
  9
$UCSORGRIGHT
 10
0.0
 20
0.0
 30
0.0
  9
$UCSORGFRONT
 10
0.0
 20
0.0
 30
0.0
  9
$UCSORGBACK
 10
0.0
 20
0.0
 30
0.0
  9
$PUCSBASE
  2

  9
$PUCSNAME
  2

  9
$PUCSORG
 10
0.0
 20
0.0
 30
0.0
  9
$PUCSXDIR
 10
1.0
 20
0.0
 30
0.0
  9
$PUCSYDIR
 10
0.0
 20
1.0
 30
0.0
  9
$PUCSORTHOREF
  2

  9
$PUCSORTHOVIEW
 70
     0
  9
$PUCSORGTOP
 10
0.0
 20
0.0
 30
0.0
  9
$PUCSORGBOTTOM
 10
0.0
 20
0.0
 30
0.0
  9
$PUCSORGLEFT
 10
0.0
 20
0.0
 30
0.0
  9
$PUCSORGRIGHT
 10
0.0
 20
0.0
 30
0.0
  9
$PUCSORGFRONT
 10
0.0
 20
0.0
 30
0.0
  9
$PUCSORGBACK
 10
0.0
 20
0.0
 30
0.0
  9
$USERI1
 70
     0
  9
$USERI2
 70
     0
  9
$USERI3
 70
     0
  9
$USERI4
 70
     0
  9
$USERI5
 70
     0
  9
$USERR1
 40
0.0
  9
$USERR2
 40
0.0
  9
$USERR3
 40
0.0
  9
$USERR4
 40
0.0
  9
$USERR5
 40
0.0
  9
$WORLDVIEW
 70
     1
  9
$SHADEDGE
 70
     3
  9
$SHADEDIF
 70
    70
  9
$TILEMODE
 70
     1
  9
$MAXACTVP
 70
    64
  9
$PINSBASE
 10
0.0
 20
0.0
 30
0.0
  9
$PLIMCHECK
 70
     0
  9
$PEXTMIN
 10
1.000000000000000E+20
 20
1.000000000000000E+20
 30
1.000000000000000E+20
  9
$PEXTMAX
 10
-1.000000000000000E+20
 20
-1.000000000000000E+20
 30
-1.000000000000000E+20
  9
$PLIMMIN
 10
-20.0
 20
-7.5
  9
$PLIMMAX
 10
277.0
 20
202.5
  9
$UNITMODE
 70
     0
  9
$VISRETAIN
 70
     1
  9
$PLINEGEN
 70
     0
  9
$PSLTSCALE
 70
     1
  9
$TREEDEPTH
 70
  3020
  9
$CMLSTYLE
  2
Standard
  9
$CMLJUST
 70
     0
  9
$CMLSCALE
 40
20.0
  9
$PROXYGRAPHICS
 70
     1
  9
$MEASUREMENT
 70
     1
  9
$CELWEIGHT
370
    -1
  9
$ENDCAPS
280
     0
  9
$JOINSTYLE
280
     0
  9
$LWDISPLAY
290
     0
  9
$INSUNITS
 70
     4
  9
$HYPERLINKBASE
  1

  9
$STYLESHEET
  1
ksm0910.ctb
  9
$XEDIT
290
     1
  9
$CEPSNTYPE
380
     0
  9
$PSTYLEMODE
290
     1
  9
$FINGERPRINTGUID
  2
{D2C70C36-9B4F-4E20-9CCB-531AA1EE4AC8}
  9
$VERSIONGUID
  2
{A91F4810-F138-46EA-8B60-FA8C5153AB6B}
  9
$EXTNAMES
290
     1
  9
$PSVPSCALE
 40
0.0
  9
$OLESTARTUP
290
     0
  9
$SORTENTS
280
   127
  9
$INDEXCTL
280
     0
  9
$HIDETEXT
280
     1
  9
$XCLIPFRAME
280
     2
  9
$HALOGAP
280
     0
  9
$OBSCOLOR
 70
   257
  9
$OBSLTYPE
280
     0
  9
$INTERSECTIONDISPLAY
280
     0
  9
$INTERSECTIONCOLOR
 70
   257
  9
$DIMASSOC
280
     1
  9
$PROJECTNAME
  1

  9
$CAMERADISPLAY
290
     0
  9
$LENSLENGTH
 40
50.0
  9
$CAMERAHEIGHT
 40
0.0
  9
$STEPSPERSEC
 40
2.0
  9
$STEPSIZE
 40
6.0
  9
$3DDWFPREC
 40
2.0
  9
$PSOLWIDTH
 40
5.0
  9
$PSOLHEIGHT
 40
80.0
  9
$LOFTANG1
 40
1.570796326794896
  9
$LOFTANG2
 40
1.570796326794896
  9
$LOFTMAG1
 40
0.0
  9
$LOFTMAG2
 40
0.0
  9
$LOFTPARAM
 70
     7
  9
$LOFTNORMALS
280
     1
  9
$LATITUDE
 40
37.795
  9
$LONGITUDE
 40
-122.394
  9
$NORTHDIRECTION
 40
0.0
  9
$TIMEZONE
 70
 -8000
  9
$LIGHTGLYPHDISPLAY
280
     1
  9
$TILEMODELIGHTSYNCH
280
     1
  9
$CMATERIAL
347
3D
  9
$SOLIDHIST
280
     1
  9
$SHOWHIST
280
     1
  9
$DWFFRAME
280
     2
  9
$DGNFRAME
280
     0
  9
$REALWORLDSCALE
290
     1
  9
$INTERFERECOLOR
 62
     1
  9
$INTERFEREOBJVS
345
46
  9
$INTERFEREVPVS
346
47
  9
$CSHADOW
280
     0
  9
$SHADOWPLANELOCATION
 40
0.0
  0
ENDSEC
  0
SECTION
  2
CLASSES
  0
CLASS
  1
ACDBDICTIONARYWDFLT
  2
AcDbDictionaryWithDefault
  3
ObjectDBX Classes
 90
        0
 91
        1
280
     0
281
     0
  0
CLASS
  1
DICTIONARYVAR
  2
AcDbDictionaryVar
  3
ObjectDBX Classes
 90
        0
 91
       18
280
     0
281
     0
  0
CLASS
  1
TABLESTYLE
  2
AcDbTableStyle
  3
ObjectDBX Classes
 90
     4095
 91
        1
280
     0
281
     0
  0
CLASS
  1
MATERIAL
  2
AcDbMaterial
  3
ObjectDBX Classes
 90
     1153
 91
        3
280
     0
281
     0
  0
CLASS
  1
VISUALSTYLE
  2
AcDbVisualStyle
  3
ObjectDBX Classes
 90
     4095
 91
       26
280
     0
281
     0
  0
CLASS
  1
SCALE
  2
AcDbScale
  3
ObjectDBX Classes
 90
     1153
 91
       17
280
     0
281
     0
  0
CLASS
  1
MLEADERSTYLE
  2
AcDbMLeaderStyle
  3
ACDB_MLEADERSTYLE_CLASS
 90
     4095
 91
        1
280
     0
281
     0
  0
CLASS
  1
CELLSTYLEMAP
  2
AcDbCellStyleMap
  3
ObjectDBX Classes
 90
     1152
 91
        2
280
     0
281
     0
  0
CLASS
  1
SORTENTSTABLE
  2
AcDbSortentsTable
  3
ObjectDBX Classes
 90
        0
 91
        1
280
     0
281
     0
  0
CLASS
  1
DIMASSOC
  2
AcDbDimAssoc
  3
"AcDbDimAssoc|Product Desc:     AcDim ARX App For Dimension|Company:          Autodesk, Inc.|WEB Address:      www.autodesk.com"
 90
        0
 91
        0
280
     0
281
     0
  0
CLASS
  1
SOLID_BACKGROUND
  2
AcDbSolidBackground
  3
SCENEOE
 90
     4095
 91
        0
280
     0
281
     0
  0
CLASS
  1
NPOCOLLECTION
  2
AcDbImpNonPersistentObjectsCollection
  3
ObjectDBX Classes
 90
     1153
 91
        0
280
     0
281
     0
  0
CLASS
  1
ACAD_EVALUATION_GRAPH
  2
AcDbEvalGraph
  3
ObjectDBX Classes
 90
     1153
 91
        0
280
     0
281
     0
  0
CLASS
  1
ACAECUSTOBJ
  2
AcAeEditorObj
  3
AcAeEditorObj
 90
     1024
 91
        0
280
     1
281
     0
  0
CLASS
  1
ACDB_DYNAMICBLOCKPURGEPREVENTER_VERSION
  2
AcDbDynamicBlockPurgePreventer
  3
ObjectDBX Classes
 90
     1153
 91
        0
280
     0
281
     0
  0
CLASS
  1
HELIX
  2
AcDbHelix
  3
ObjectDBX Classes
 90
     4095
 91
        0
280
     0
281
     1
  0
CLASS
  1
MULTILEADER
  2
AcDbMLeader
  3
ACDB_MLEADER_CLASS
 90
     1025
 91
        1
280
     0
281
     1
  0
CLASS
  1
ACMDIMBREAKPERSREACTOR
  2
AcmDimBreakPersReactor
  3
amgDimApp().moduleName()
 90
     1023
 91
        0
280
     1
281
     0
  0
CLASS
  1
ACDB_MTEXTOBJECTCONTEXTDATA_CLASS
  2
AcDbMTextObjectContextData
  3
ObjectDBX Classes
 90
     1153
 91
        0
280
     0
281
     0
  0
CLASS
  1
BREAKDATA
  2
AcDbBreakData
  3
ObjectDBX Classes
 90
     1024
 91
        0
280
     0
281
     0
  0
CLASS
  1
EXACXREFPANELOBJECT
  2
ExAcXREFPanelObject
  3
EXAC_ESW
 90
     1025
 91
        0
280
     1
281
     0
  0
CLASS
  1
ACDBSECTIONVIEWSTYLE
  2
AcDbSectionViewStyle
  3
ObjectDBX Classes
 90
     1025
 91
        1
280
     0
281
     0
  0
CLASS
  1
ACDBDETAILVIEWSTYLE
  2
AcDbDetailViewStyle
  3
ObjectDBX Classes
 90
     1025
 91
        1
280
     0
281
     0
  0
ENDSEC
  0
SECTION
  2
TABLES
  0
TABLE
  2
VPORT
  5
2C
102
{ACAD_XDICTIONARY
360
31
102
}
330
0
100
AcDbSymbolTable
 70
     1
  0
VPORT
  5
2D
330
2C
100
AcDbSymbolTableRecord
100
AcDbViewportTableRecord
  2
*Active
 70
     0
 10
0.0
 20
0.0
 11
1.0
 21
1.0
 12
527.0823121330363
 22
74.03182746762104
 13
0.0
 23
0.0
 14
2.0
 24
2.0
 15
2.0
 25
2.0
 16
0.0
 26
0.0
 36
1.0
 17
0.0
 27
0.0
 37
0.0
 40
154.372311029484
 41
2.214198286413708
 42
50.0
 43
0.0
 44
0.0
 50
0.0
 51
0.0
 71
     0
 72
  1000
 73
     1
 74
     3
 75
     0
 76
     0
 77
     0
 78
     1
281
     0
 65
     1
110
0.0
120
0.0
130
0.0
111
1.0
121
0.0
131
0.0
112
0.0
122
1.0
132
0.0
 79
     0
146
0.0
348
2E
 60
     3
 61
     5
292
     1
282
     1
141
0.0
142
0.0
 63
   250
421
  3355443
1001
ACAD_NAV_VCDISPLAY
1070
     3
  0
ENDTAB
  0
TABLE
  2
LTYPE
  5
27
330
0
100
AcDbSymbolTable
 70
     2
  0
LTYPE
  5
28
330
27
100
AcDbSymbolTableRecord
100
AcDbLinetypeTableRecord
  2
ByBlock
 70
     0
  3

 72
    65
 73
     0
 40
0.0
  0
LTYPE
  5
29
330
27
100
AcDbSymbolTableRecord
100
AcDbLinetypeTableRecord
  2
ByLayer
 70
     0
  3

 72
    65
 73
     0
 40
0.0
  0
LTYPE
  5
14
330
27
100
AcDbSymbolTableRecord
100
AcDbLinetypeTableRecord
  2
Continuous
 70
     0
  3
Solid line
 72
    65
 73
     0
 40
0.0
  0
LTYPE
  5
4DD
330
27
100
AcDbSymbolTableRecord
100
AcDbLinetypeTableRecord
  2
CENTER
 70
     0
  3
____ _ ____ _ ____ _ ____ _ ____ _ ____ _ ____ 
 72
    65
 73
     4
 40
2.0
 49
1.25
 74
     0
 49
-0.25
 74
     0
 49
0.25
 74
     0
 49
-0.25
 74
     0
  0
ENDTAB
  0
TABLE
  2
LAYER
  5
21
102
{ACAD_XDICTIONARY
360
22
102
}
330
0
100
AcDbSymbolTable
 70
     3
  0
LAYER
  5
6
102
{ACAD_XDICTIONARY
360
7
102
}
330
21
100
AcDbSymbolTableRecord
100
AcDbLayerTableRecord
  2
0
 70
     0
 62
     7
  6
Continuous
370
    -3
390
9
347
C
348
0
  0
LAYER
  5
1A4
330
21
100
AcDbSymbolTableRecord
100
AcDbLayerTableRecord
  2
DEFPOINTS
 70
     0
 62
     7
  6
Continuous
290
     0
370
    -3
390
9
347
C
348
0
  0
LAYER
  5
1DAC5
330
21
100
AcDbSymbolTableRecord
100
AcDbLayerTableRecord
  2
Layer 1
 70
     0
 62
     7
  6
Continuous
370
     0
390
9
347
C
348
0
  0
ENDTAB
  0
TABLE
  2
STYLE
  5
24
330
0
100
AcDbSymbolTable
 70
     3
  0
STYLE
  5
25
330
24
100
AcDbSymbolTableRecord
100
AcDbTextStyleTableRecord
  2
Standard
 70
     0
 40
3.0
 41
1.0
 50
0.0
 71
     0
 42
3.0
  3
isocp.shx
  4
whgtxt.shx
  0
STYLE
  5
35
330
24
100
AcDbSymbolTableRecord
100
AcDbTextStyleTableRecord
  2
ROMANS
 70
     0
 40
2.5
 41
1.0
 50
0.0
 71
     0
 42
2.5
  3
romans.shx
  4

  0
STYLE
  5
5C
330
24
100
AcDbSymbolTableRecord
100
AcDbTextStyleTableRecord
  2
굴림
 70
     0
 40
3.0
 41
1.0
 50
0.0
 71
     0
 42
3.0
  3

  4

1001
ACAD
1000
Gulim
1071
    33074
  0
ENDTAB
  0
TABLE
  2
VIEW
  5
2A
330
0
100
AcDbSymbolTable
 70
     0
  0
ENDTAB
  0
TABLE
  2
UCS
  5
2B
330
0
100
AcDbSymbolTable
 70
     0
  0
ENDTAB
  0
TABLE
  2
APPID
  5
32
330
0
100
AcDbSymbolTable
 70
    44
  0
APPID
  5
13
330
32
100
AcDbSymbolTableRecord
100
AcDbRegAppTableRecord
  2
ACAD
 70
     0
  0
APPID
  5
1A
330
32
100
AcDbSymbolTableRecord
100
AcDbRegAppTableRecord
  2
ACAD_PSEXT
 70
     0
  0
APPID
  5
37
330
32
100
AcDbSymbolTableRecord
100
AcDbRegAppTableRecord
  2
ACAD_DSTYLE_DIMJAG
 70
     0
  0
APPID
  5
38
330
32
100
AcDbSymbolTableRecord
100
AcDbRegAppTableRecord
  2
ACAD_DSTYLE_DIMTALN
 70
     0
  0
APPID
  5
36
330
32
100
AcDbSymbolTableRecord
100
AcDbRegAppTableRecord
  2
ACAD_DSTYLE_DIMJOGGED_JOGANGLE_SYMBOL
 70
     0
  0
APPID
  5
183
330
32
100
AcDbSymbolTableRecord
100
AcDbRegAppTableRecord
  2
AcAecLayerStandard
 70
     0
  0
APPID
  5
3DE
330
32
100
AcDbSymbolTableRecord
100
AcDbRegAppTableRecord
  2
ACAD_DSTYLE_DIMRADIAL_EXTENSION
 70
     0
  0
APPID
  5
530
330
32
100
AcDbSymbolTableRecord
100
AcDbRegAppTableRecord
  2
GRADIENTCOLOR1ACI
 70
     0
  0
APPID
  5
531
330
32
100
AcDbSymbolTableRecord
100
AcDbRegAppTableRecord
  2
GRADIENTCOLOR2ACI
 70
     0
  0
APPID
  5
30
330
32
100
AcDbSymbolTableRecord
100
AcDbRegAppTableRecord
  2
ACAD_NAV_VCDISPLAY
 70
     0
  0
APPID
  5
C34
330
32
100
AcDbSymbolTableRecord
100
AcDbRegAppTableRecord
  2
ACAD_MLEADERVER
 70
     0
  0
APPID
  5
C97
330
32
100
AcDbSymbolTableRecord
100
AcDbRegAppTableRecord
  2
ACAD_EXEMPT_FROM_CAD_STANDARDS
 70
     0
  0
APPID
  5
D79
330
32
100
AcDbSymbolTableRecord
100
AcDbRegAppTableRecord
  2
AcadAnnoMonitorAlertIconDisabled
 70
     0
  0
APPID
  5
1A45
330
32
100
AcDbSymbolTableRecord
100
AcDbRegAppTableRecord
  2
GENIUS_GENODEF_13
 70
     0
  0
APPID
  5
1A46
330
32
100
AcDbSymbolTableRecord
100
AcDbRegAppTableRecord
  2
GENIUS_GENOBJ-N-FIL_13
 70
     0
  0
APPID
  5
1A47
330
32
100
AcDbSymbolTableRecord
100
AcDbRegAppTableRecord
  2
ACAD_DSTYLE_DIMBREAK
 70
     0
  0
APPID
  5
1A48
330
32
100
AcDbSymbolTableRecord
100
AcDbRegAppTableRecord
  2
GENIUS_GENOBJ-N-HTC_13
 70
     0
  0
APPID
  5
1A49
330
32
100
AcDbSymbolTableRecord
100
AcDbRegAppTableRecord
  2
GENIUS_GENHATCH_13
 70
     0
  0
APPID
  5
1A4A
330
32
100
AcDbSymbolTableRecord
100
AcDbRegAppTableRecord
  2
GENIUS_GENREC_14
 70
     0
  0
APPID
  5
1A4B
330
32
100
AcDbSymbolTableRecord
100
AcDbRegAppTableRecord
  2
GENIUS_GENOBJ-N-REC_13
 70
     0
  0
APPID
  5
1A4C
330
32
100
AcDbSymbolTableRecord
100
AcDbRegAppTableRecord
  2
ACAUTHENVIRON
 70
     0
  0
APPID
  5
1A4D
330
32
100
AcDbSymbolTableRecord
100
AcDbRegAppTableRecord
  2
AcDbDynamicBlockTrueName
 70
     0
  0
APPID
  5
1A4E
330
32
100
AcDbSymbolTableRecord
100
AcDbRegAppTableRecord
  2
AcDbDynamicBlockGUID
 70
     0
  0
APPID
  5
1A4F
330
32
100
AcDbSymbolTableRecord
100
AcDbRegAppTableRecord
  2
AcDbBlockRepETag
 70
     0
  0
APPID
  5
1A50
330
32
100
AcDbSymbolTableRecord
100
AcDbRegAppTableRecord
  2
DCO15
 70
     0
  0
APPID
  5
1A51
330
32
100
AcDbSymbolTableRecord
100
AcDbRegAppTableRecord
  2
ACAD_DSTYLE_DIMTEXT_FILL
 70
     0
  0
APPID
  5
1A52
330
32
100
AcDbSymbolTableRecord
100
AcDbRegAppTableRecord
  2
ACAD_DSTYLE_DIM_LINETYPE
 70
     0
  0
APPID
  5
1A53
330
32
100
AcDbSymbolTableRecord
100
AcDbRegAppTableRecord
  2
ACAD_DSTYLE_DIM_EXT1_LINETYPE
 70
     0
  0
APPID
  5
1A54
330
32
100
AcDbSymbolTableRecord
100
AcDbRegAppTableRecord
  2
ACAD_DSTYLE_DIM_EXT2_LINETYPE
 70
     0
  0
APPID
  5
1A55
330
32
100
AcDbSymbolTableRecord
100
AcDbRegAppTableRecord
  2
ACAD_DSTYLE_DIMINSPECT
 70
     0
  0
APPID
  5
1A56
330
32
100
AcDbSymbolTableRecord
100
AcDbRegAppTableRecord
  2
AcadAnnotative
 70
     0
  0
APPID
  5
1A57
330
32
100
AcDbSymbolTableRecord
100
AcDbRegAppTableRecord
  2
GENIUS_GENDTOL_13
 70
     0
  0
APPID
  5
1A58
330
32
100
AcDbSymbolTableRecord
100
AcDbRegAppTableRecord
  2
GENIUS_GENFIL_13
 70
     0
  0
APPID
  5
1A59
330
32
100
AcDbSymbolTableRecord
100
AcDbRegAppTableRecord
  2
GENIUS_GENOBJ-N-CHA_13
 70
     0
  0
APPID
  5
1A5A
330
32
100
AcDbSymbolTableRecord
100
AcDbRegAppTableRecord
  2
AcadAnnotativeDecomposition
 70
     0
  0
APPID
  5
1A5B
330
32
100
AcDbSymbolTableRecord
100
AcDbRegAppTableRecord
  2
MCAD_NO_VIS
 70
     0
  0
APPID
  5
1A5C
330
32
100
AcDbSymbolTableRecord
100
AcDbRegAppTableRecord
  2
ACAD_TEMP_GRAPHIC
 70
     0
  0
APPID
  5
1A5D
330
32
100
AcDbSymbolTableRecord
100
AcDbRegAppTableRecord
  2
ACATTRIBSERVICES
 70
     0
  0
APPID
  5
1A5E
330
32
100
AcDbSymbolTableRecord
100
AcDbRegAppTableRecord
  2
DESIGNERASSEMBLIES
 70
     0
  0
APPID
  5
1A5F
330
32
100
AcDbSymbolTableRecord
100
AcDbRegAppTableRecord
  2
GENIUS_GENDIMSH_14
 70
     0
  0
APPID
  5
1A60
330
32
100
AcDbSymbolTableRecord
100
AcDbRegAppTableRecord
  2
ACAD_DSTYLE_DIMARC_LENGTH_SYMBOL
 70
     0
  0
APPID
  5
1A61
330
32
100
AcDbSymbolTableRecord
100
AcDbRegAppTableRecord
  2
ACAD_SPLINE_DATA
 70
     0
  0
APPID
  5
1A62
330
32
100
AcDbSymbolTableRecord
100
AcDbRegAppTableRecord
  2
GENIUS_GENOREF_13
 70
     0
  0
APPID
  5
1A63
330
32
100
AcDbSymbolTableRecord
100
AcDbRegAppTableRecord
  2
ACAD_DSTYLE_DIMANGULAR_EXTENSION
 70
     0
  0
ENDTAB
  0
TABLE
  2
DIMSTYLE
  5
33
330
0
100
AcDbSymbolTable
 70
     2
100
AcDbDimStyleTable
 71
     1
340
34
  0
DIMSTYLE
105
34
102
{ACAD_REACTORS
330
2438A
330
24394
330
2439D
102
}
330
33
100
AcDbSymbolTableRecord
100
AcDbDimStyleTableRecord
  2
Standard
 70
     0
 41
2.5
 73
     0
 77
     3
 78
     8
140
2.5
141
-1.0
147
1.0
175
     1
176
     3
177
     3
178
     2
179
     8
271
     8
272
     8
275
     1
340
35
1001
ACAD_DSTYLE_DIMJOGGED_JOGANGLE_SYMBOL
1070
   384
1040
0.7853981633974483
1001
ACAD_DSTYLE_DIMJAG
1070
   388
1040
1.5
1001
ACAD_DSTYLE_DIMTALN
1070
   392
1070
     0
  0
DIMSTYLE
105
1A8
102
{ACAD_REACTORS
330
22FAF
330
22FB0
330
22FB8
330
241B6
330
241BB
330
241BC
102
}
330
33
100
AcDbSymbolTableRecord
100
AcDbDimStyleTableRecord
  2
Standard$0
 70
     0
 41
2.5
 73
     0
 77
     3
 78
     8
140
2.5
141
-1.0
147
1.0
175
     1
176
     3
177
     3
178
     2
179
     8
271
     8
272
     8
275
     1
340
35
  0
ENDTAB
  0
TABLE
  2
BLOCK_RECORD
  5
1
330
0
100
AcDbSymbolTable
 70
     9
  0
BLOCK_RECORD
  5
2
102
{ACAD_XDICTIONARY
360
3
102
}
330
1
100
AcDbSymbolTableRecord
100
AcDbBlockTableRecord
  2
*Model_Space
340
16
 70
     0
280
     1
281
     0
  0
BLOCK_RECORD
  5
1B
330
1
100
AcDbSymbolTableRecord
100
AcDbBlockTableRecord
  2
*Paper_Space
340
1E
 70
     0
280
     1
281
     0
  0
BLOCK_RECORD
  5
23018
330
1
100
AcDbSymbolTableRecord
100
AcDbBlockTableRecord
  2
*D0
340
0
 70
     0
280
     1
281
     0
  0
BLOCK_RECORD
  5
23025
330
1
100
AcDbSymbolTableRecord
100
AcDbBlockTableRecord
  2
*D1
340
0
 70
     0
280
     1
281
     0
  0
BLOCK_RECORD
  5
23032
330
1
100
AcDbSymbolTableRecord
100
AcDbBlockTableRecord
  2
*D2
340
0
 70
     0
280
     1
281
     0
  0
BLOCK_RECORD
  5
24213
330
1
100
AcDbSymbolTableRecord
100
AcDbBlockTableRecord
  2
*D3
340
0
 70
     0
280
     1
281
     0
  0
BLOCK_RECORD
  5
2421D
330
1
100
AcDbSymbolTableRecord
100
AcDbBlockTableRecord
  2
*D4
340
0
 70
     0
280
     1
281
     0
  0
BLOCK_RECORD
  5
24227
330
1
100
AcDbSymbolTableRecord
100
AcDbBlockTableRecord
  2
*D5
340
0
 70
     0
280
     1
281
     0
  0
BLOCK_RECORD
  5
2438B
330
1
100
AcDbSymbolTableRecord
100
AcDbBlockTableRecord
  2
*D6
340
0
 70
     0
280
     1
281
     0
  0
BLOCK_RECORD
  5
24395
330
1
100
AcDbSymbolTableRecord
100
AcDbBlockTableRecord
  2
*D7
340
0
 70
     0
280
     1
281
     0
  0
BLOCK_RECORD
  5
2439E
330
1
100
AcDbSymbolTableRecord
100
AcDbBlockTableRecord
  2
*D8
340
0
 70
     0
280
     1
281
     0
  0
ENDTAB
  0
ENDSEC
  0
SECTION
  2
BLOCKS
  0
BLOCK
  5
5
330
2
100
AcDbEntity
  8
0
100
AcDbBlockBegin
  2
*Model_Space
 70
     0
 10
0.0
 20
0.0
 30
0.0
  3
*Model_Space
  1

  0
ENDBLK
  5
15
330
2
100
AcDbEntity
  8
0
100
AcDbBlockEnd
  0
BLOCK
  5
1C
330
1B
100
AcDbEntity
 67
     1
  8
0
100
AcDbBlockBegin
  2
*Paper_Space
 70
     0
 10
0.0
 20
0.0
 30
0.0
  3
*Paper_Space
  1

  0
ENDBLK
  5
1D
330
1B
100
AcDbEntity
 67
     1
  8
0
100
AcDbBlockEnd
  0
BLOCK
  5
23019
330
23018
100
AcDbEntity
  8
0
 62
     7
100
AcDbBlockBegin
  2
*D0
 70
     1
 10
0.0
 20
0.0
 30
0.0
  3
*D0
  1

  0
LINE
  5
2443F
330
23018
100
AcDbEntity
  8
0
  6
Continuous
 62
     3
440
 16777216
100
AcDbLine
 10
512.6666530865986
 20
61.20604863651948
 30
0.0
 11
499.2658503142136
 21
61.20604863651948
 31
0.0
  0
LINE
  5
24440
330
23018
100
AcDbEntity
  8
0
  6
Continuous
 62
     3
440
 16777216
100
AcDbLine
 10
512.6666530865986
 20
105.6560486365193
 30
0.0
 11
499.2658503142136
 21
105.6560486365193
 31
0.0
  0
LINE
  5
24441
330
23018
100
AcDbEntity
  8
0
  6
Continuous
 62
     3
440
 16777216
100
AcDbLine
 10
500.5158503142135
 20
63.70604863651948
 30
0.0
 11
500.5158503142135
 21
103.1560486365193
 31
0.0
  0
LINE
  5
24442
330
23018
100
AcDbEntity
  8
0
  6
Continuous
 62
     3
440
 16777216
100
AcDbLine
 10
500.5158503142135
 20
105.6560486365193
 30
0.0
 11
500.5158503142136
 21
131.0375328819753
 31
0.0
  0
SOLID
  5
24443
330
23018
100
AcDbEntity
  8
0
  6
Continuous
 62
     3
440
 16777216
100
AcDbTrace
 10
500.0991836475469
 20
63.70604863651948
 30
0.0
 11
500.9325169808803
 21
63.70604863651948
 31
0.0
 12
500.5158503142135
 22
61.20604863651948
 32
0.0
 13
500.5158503142135
 23
61.20604863651948
 33
0.0
  0
SOLID
  5
24444
330
23018
100
AcDbEntity
  8
0
  6
Continuous
 62
     3
440
 16777216
100
AcDbTrace
 10
500.0991836475469
 20
103.1560486365193
 30
0.0
 11
500.9325169808803
 21
103.1560486365193
 31
0.0
 12
500.5158503142135
 22
105.6560486365193
 32
0.0
 13
500.5158503142135
 23
105.6560486365193
 33
0.0
  0
MTEXT
  5
24445
330
23018
100
AcDbEntity
  8
0
  6
Continuous
 62
     2
440
 16777216
100
AcDbMText
 10
498.3908503142136
 20
124.1113517796132
 30
0.0
 40
3.0
 41
0.0
 46
0.0
 71
     5
 72
     1
  1
%%C1.7500
 11
0.0000000000000001
 21
1.0
 31
0.0
 73
     1
 44
1.0
  0
POINT
  5
24446
330
23018
100
AcDbEntity
  8
DEFPOINTS
  6
Continuous
 62
     0
440
 16777216
100
AcDbPoint
 10
513.2916530865986
 20
61.20604863651948
 30
0.0
  0
POINT
  5
24447
330
23018
100
AcDbEntity
  8
DEFPOINTS
  6
Continuous
 62
     0
440
 16777216
100
AcDbPoint
 10
513.2916530865986
 20
105.6560486365193
 30
0.0
  0
POINT
  5
24448
330
23018
100
AcDbEntity
  8
DEFPOINTS
  6
Continuous
 62
     0
440
 16777216
100
AcDbPoint
 10
500.5158503142135
 20
105.6560486365193
 30
0.0
  0
ENDBLK
  5
2301A
330
23018
100
AcDbEntity
  8
0
 62
     7
100
AcDbBlockEnd
  0
BLOCK
  5
23026
330
23025
100
AcDbEntity
  8
0
 62
     7
100
AcDbBlockBegin
  2
*D1
 70
     1
 10
0.0
 20
0.0
 30
0.0
  3
*D1
  1

  0
LINE
  5
24449
330
23025
100
AcDbEntity
  8
0
  6
Continuous
 62
     3
440
 16777216
100
AcDbLine
 10
516.3416530865986
 20
51.68104863651939
 30
0.0
 11
491.2658503142133
 21
51.6810486365194
 31
0.0
  0
LINE
  5
2444A
330
23025
100
AcDbEntity
  8
0
  6
Continuous
 62
     3
440
 16777216
100
AcDbLine
 10
516.3416530865986
 20
115.1810486365194
 30
0.0
 11
491.2658503142133
 21
115.1810486365194
 31
0.0
  0
LINE
  5
2444B
330
23025
100
AcDbEntity
  8
0
  6
Continuous
 62
     3
440
 16777216
100
AcDbLine
 10
492.5158503142133
 20
54.1810486365194
 30
0.0
 11
492.5158503142133
 21
112.6810486365194
 31
0.0
  0
LINE
  5
2444C
330
23025
100
AcDbEntity
  8
0
  6
Continuous
 62
     3
440
 16777216
100
AcDbLine
 10
492.5158503142133
 20
115.1810486365194
 30
0.0
 11
492.5158503142134
 21
130.0334108412438
 31
0.0
  0
SOLID
  5
2444D
330
23025
100
AcDbEntity
  8
0
  6
Continuous
 62
     3
440
 16777216
100
AcDbTrace
 10
492.0991836475466
 20
54.1810486365194
 30
0.0
 11
492.93251698088
 21
54.1810486365194
 31
0.0
 12
492.5158503142133
 22
51.6810486365194
 32
0.0
 13
492.5158503142133
 23
51.6810486365194
 33
0.0
  0
SOLID
  5
2444E
330
23025
100
AcDbEntity
  8
0
  6
Continuous
 62
     3
440
 16777216
100
AcDbTrace
 10
492.0991836475466
 20
112.6810486365194
 30
0.0
 11
492.93251698088
 21
112.6810486365194
 31
0.0
 12
492.5158503142133
 22
115.1810486365194
 32
0.0
 13
492.5158503142133
 23
115.1810486365194
 33
0.0
  0
MTEXT
  5
2444F
330
23025
100
AcDbEntity
  8
0
  6
Continuous
 62
     2
440
 16777216
100
AcDbMText
 10
490.3905550386228
 20
123.8572297388817
 30
0.0
 40
3.0
 41
0.0
 46
0.0
 71
     5
 72
     1
  1
%%C2.500
 11
0.0000000000000001
 21
1.0
 31
0.0
 73
     1
 44
1.0
  0
POINT
  5
24450
330
23025
100
AcDbEntity
  8
DEFPOINTS
  6
Continuous
 62
     0
440
 16777216
100
AcDbPoint
 10
516.9666530865986
 20
51.68104863651939
 30
0.0
  0
POINT
  5
24451
330
23025
100
AcDbEntity
  8
DEFPOINTS
  6
Continuous
 62
     0
440
 16777216
100
AcDbPoint
 10
516.9666530865986
 20
115.1810486365194
 30
0.0
  0
POINT
  5
24452
330
23025
100
AcDbEntity
  8
DEFPOINTS
  6
Continuous
 62
     0
440
 16777216
100
AcDbPoint
 10
492.5158503142133
 20
115.1810486365194
 30
0.0
  0
ENDBLK
  5
23027
330
23025
100
AcDbEntity
  8
0
 62
     7
100
AcDbBlockEnd
  0
BLOCK
  5
23033
330
23032
100
AcDbEntity
  8
0
 62
     7
100
AcDbBlockBegin
  2
*D2
 70
     1
 10
0.0
 20
0.0
 30
0.0
  3
*D2
  1

  0
LINE
  5
24453
330
23032
100
AcDbEntity
  8
0
  6
Continuous
 62
     3
440
 16777216
100
AcDbLine
 10
452.4416530865992
 20
92.20604863651947
 30
0.0
 11
452.4416530865992
 21
105.8968266642542
 31
0.0
  0
LINE
  5
24454
330
23032
100
AcDbEntity
  8
0
  6
Continuous
 62
     3
440
 16777216
100
AcDbLine
 10
445.0416530865986
 20
94.79040872261663
 30
0.0
 11
445.0416530865986
 21
105.8968266642542
 31
0.0
  0
LINE
  5
24455
330
23032
100
AcDbEntity
  8
0
  6
Continuous
 62
     3
440
 16777216
100
AcDbLine
 10
449.9416530865992
 20
104.6468266642542
 30
0.0
 11
447.5416530865986
 21
104.6468266642542
 31
0.0
  0
LINE
  5
24456
330
23032
100
AcDbEntity
  8
0
  6
Continuous
 62
     3
440
 16777216
100
AcDbLine
 10
445.0416530865986
 20
104.6468266642542
 30
0.0
 11
434.774510444869
 21
104.6468266642542
 31
0.0
  0
SOLID
  5
24457
330
23032
100
AcDbEntity
  8
0
  6
Continuous
 62
     3
440
 16777216
100
AcDbTrace
 10
449.9416530865992
 20
105.0634933309209
 30
0.0
 11
449.9416530865992
 21
104.2301599975875
 31
0.0
 12
452.4416530865992
 22
104.6468266642542
 32
0.0
 13
452.4416530865992
 23
104.6468266642542
 33
0.0
  0
SOLID
  5
24458
330
23032
100
AcDbEntity
  8
0
  6
Continuous
 62
     3
440
 16777216
100
AcDbTrace
 10
447.5416530865986
 20
105.0634933309209
 30
0.0
 11
447.5416530865986
 21
104.2301599975875
 31
0.0
 12
445.0416530865986
 22
104.6468266642542
 32
0.0
 13
445.0416530865986
 23
104.6468266642542
 33
0.0
  0
MTEXT
  5
24459
330
23032
100
AcDbEntity
  8
0
  6
Continuous
 62
     2
440
 16777216
100
AcDbMText
 10
438.6580817657338
 20
106.7721219398447
 30
0.0
 40
3.0
 41
0.0
 46
0.0
 71
     5
 72
     1
  1
0.29
 73
     1
 44
1.0
  0
POINT
  5
2445A
330
23032
100
AcDbEntity
  8
DEFPOINTS
  6
Continuous
 62
     0
440
 16777216
100
AcDbPoint
 10
452.4416530865992
 20
91.58104863651947
 30
0.0
  0
POINT
  5
2445B
330
23032
100
AcDbEntity
  8
DEFPOINTS
  6
Continuous
 62
     0
440
 16777216
100
AcDbPoint
 10
445.0416530865986
 20
94.16540872261663
 30
0.0
  0
POINT
  5
2445C
330
23032
100
AcDbEntity
  8
DEFPOINTS
  6
Continuous
 62
     0
440
 16777216
100
AcDbPoint
 10
445.0416530865986
 20
104.6468266642542
 30
0.0
  0
ENDBLK
  5
23034
330
23032
100
AcDbEntity
  8
0
 62
     7
100
AcDbBlockEnd
  0
BLOCK
  5
24214
330
24213
100
AcDbEntity
  8
0
 62
     7
100
AcDbBlockBegin
  2
*D3
 70
     1
 10
0.0
 20
0.0
 30
0.0
  3
*D3
  1

  0
LINE
  5
2445D
330
24213
100
AcDbEntity
  8
0
  6
Continuous
 62
     3
440
 16777216
100
AcDbLine
 10
577.4166530865968
 20
95.93104863658941
 30
0.0
 11
598.6892456225477
 21
95.93104863658941
 31
0.0
  0
LINE
  5
2445E
330
24213
100
AcDbEntity
  8
0
  6
Continuous
 62
     3
440
 16777216
100
AcDbLine
 10
597.4392456225477
 20
93.43104863658941
 30
0.0
 11
597.4392456225477
 21
79.35080714083959
 31
0.0
  0
SOLID
  5
2445F
330
24213
100
AcDbEntity
  8
0
  6
Continuous
 62
     3
440
 16777216
100
AcDbTrace
 10
597.0225789558811
 20
93.43104863658941
 30
0.0
 11
597.8559122892144
 21
93.43104863658941
 31
0.0
 12
597.4392456225477
 22
95.93104863658941
 32
0.0
 13
597.4392456225477
 23
95.93104863658941
 33
0.0
  0
MTEXT
  5
24460
330
24213
100
AcDbEntity
  8
0
  6
Continuous
 62
     2
440
 16777216
100
AcDbMText
 10
595.3142456225477
 20
83.4310486365811
 30
0.0
 40
3.0
 41
0.0
 46
0.0
 71
     5
 72
     1
  1
%%C.98
 11
0.0000000000000001
 21
1.0
 31
0.0
 73
     1
 44
1.0
  0
POINT
  5
24461
330
24213
100
AcDbEntity
  8
DEFPOINTS
  6
Continuous
 62
     0
440
 16777216
100
AcDbPoint
 10
576.7916530865968
 20
70.93104863657259
 30
0.0
  0
POINT
  5
24462
330
24213
100
AcDbEntity
  8
DEFPOINTS
  6
Continuous
 62
     0
440
 16777216
100
AcDbPoint
 10
576.7916530865968
 20
95.93104863658941
 30
0.0
  0
POINT
  5
24463
330
24213
100
AcDbEntity
  8
DEFPOINTS
  6
Continuous
 62
     0
440
 16777216
100
AcDbPoint
 10
597.4392456225477
 20
95.93104863658941
 30
0.0
  0
ENDBLK
  5
24215
330
24213
100
AcDbEntity
  8
0
 62
     7
100
AcDbBlockEnd
  0
BLOCK
  5
2421E
330
2421D
100
AcDbEntity
  8
0
 62
     7
100
AcDbBlockBegin
  2
*D4
 70
     1
 10
0.0
 20
0.0
 30
0.0
  3
*D4
  1

  0
LINE
  5
24464
330
2421D
100
AcDbEntity
  8
0
  6
Continuous
 62
     3
440
 16777216
100
AcDbLine
 10
549.4766530866018
 20
98.12997432526897
 30
0.0
 11
606.6892456225478
 21
98.12997432526897
 31
0.0
  0
LINE
  5
24465
330
2421D
100
AcDbEntity
  8
0
  6
Continuous
 62
     3
440
 16777216
100
AcDbLine
 10
605.4392456225477
 20
95.62997432526897
 30
0.0
 11
605.4392456225477
 21
78.84391660222551
 31
0.0
  0
SOLID
  5
24466
330
2421D
100
AcDbEntity
  8
0
  6
Continuous
 62
     3
440
 16777216
100
AcDbTrace
 10
605.0225789558811
 20
95.62997432526897
 30
0.0
 11
605.8559122892144
 21
95.62997432526897
 31
0.0
 12
605.4392456225477
 22
98.12997432526897
 32
0.0
 13
605.4392456225477
 23
98.12997432526897
 33
0.0
  0
MTEXT
  5
24467
330
2421D
100
AcDbEntity
  8
0
  6
Continuous
 62
     2
440
 16777216
100
AcDbMText
 10
603.3142456225477
 20
83.43104863658155
 30
0.0
 40
3.0
 41
0.0
 46
0.0
 71
     5
 72
     1
  1
%%C1.15
 11
0.0000000000000001
 21
1.0
 31
0.0
 73
     1
 44
1.0
  0
POINT
  5
24468
330
2421D
100
AcDbEntity
  8
DEFPOINTS
  6
Continuous
 62
     0
440
 16777216
100
AcDbPoint
 10
548.8516530866008
 20
68.73212294789396
 30
0.0
  0
POINT
  5
24469
330
2421D
100
AcDbEntity
  8
DEFPOINTS
  6
Continuous
 62
     0
440
 16777216
100
AcDbPoint
 10
548.8516530866018
 20
98.12997432526897
 30
0.0
  0
POINT
  5
2446A
330
2421D
100
AcDbEntity
  8
DEFPOINTS
  6
Continuous
 62
     0
440
 16777216
100
AcDbPoint
 10
605.4392456225477
 20
98.12997432526897
 30
0.0
  0
ENDBLK
  5
2421F
330
2421D
100
AcDbEntity
  8
0
 62
     7
100
AcDbBlockEnd
  0
BLOCK
  5
24228
330
24227
100
AcDbEntity
  8
0
 62
     7
100
AcDbBlockBegin
  2
*D5
 70
     1
 10
0.0
 20
0.0
 30
0.0
  3
*D5
  1

  0
LINE
  5
2446B
330
24227
100
AcDbEntity
  8
0
  6
Continuous
 62
     3
440
 16777216
100
AcDbLine
 10
547.386361524781
 20
105.6560486365702
 30
0.0
 11
614.6892456225478
 21
105.6560486365702
 31
0.0
  0
LINE
  5
2446C
330
24227
100
AcDbEntity
  8
0
  6
Continuous
 62
     3
440
 16777216
100
AcDbLine
 10
613.4392456225477
 20
103.1560486365702
 30
0.0
 11
613.4392456225477
 21
78.54391660223047
 31
0.0
  0
SOLID
  5
2446D
330
24227
100
AcDbEntity
  8
0
  6
Continuous
 62
     3
440
 16777216
100
AcDbTrace
 10
613.0225789558811
 20
103.1560486365702
 30
0.0
 11
613.8559122892144
 21
103.1560486365702
 31
0.0
 12
613.4392456225477
 22
105.6560486365702
 32
0.0
 13
613.4392456225477
 23
105.6560486365702
 33
0.0
  0
MTEXT
  5
2446E
330
24227
100
AcDbEntity
  8
0
  6
Continuous
 62
     2
440
 16777216
100
AcDbMText
 10
611.3142456225477
 20
83.43104863658654
 30
0.0
 40
3.0
 41
0.0
 46
0.0
 71
     5
 72
     1
  1
%%C1.75
 11
0.0000000000000001
 21
1.0
 31
0.0
 73
     1
 44
1.0
  0
POINT
  5
2446F
330
24227
100
AcDbEntity
  8
DEFPOINTS
  6
Continuous
 62
     0
440
 16777216
100
AcDbPoint
 10
546.6123828474492
 20
61.2060486366027
 30
0.0
  0
POINT
  5
24470
330
24227
100
AcDbEntity
  8
DEFPOINTS
  6
Continuous
 62
     0
440
 16777216
100
AcDbPoint
 10
546.761361524781
 20
105.6560486365702
 30
0.0
  0
POINT
  5
24471
330
24227
100
AcDbEntity
  8
DEFPOINTS
  6
Continuous
 62
     0
440
 16777216
100
AcDbPoint
 10
613.4392456225477
 20
105.6560486365702
 30
0.0
  0
ENDBLK
  5
24229
330
24227
100
AcDbEntity
  8
0
 62
     7
100
AcDbBlockEnd
  0
BLOCK
  5
2438C
330
2438B
100
AcDbEntity
  8
0
 62
     7
100
AcDbBlockBegin
  2
*D6
 70
     1
 10
0.0
 20
0.0
 30
0.0
  3
*D6
  1

  0
LINE
  5
24472
330
2438B
100
AcDbEntity
  8
0
  6
Continuous
 62
     3
440
 16777216
100
AcDbLine
 10
555.7529984574116
 20
117.3521544313789
 30
0.0
 11
548.1104806491305
 21
107.3360594255605
 31
0.0
  0
MTEXT
  5
24473
330
2438B
100
AcDbEntity
  8
0
  6
Continuous
 62
     2
440
 16777216
100
AcDbMText
 10
551.000616189857
 20
114.6268978260564
 30
0.0
 40
3.0
 41
0.0
 46
0.0
 71
     5
 72
     1
  1
R0.06
 11
0.60660589459811
 21
0.7950026972525482
 31
0.0
 73
     1
 44
1.0
  0
LINE
  5
24474
330
2438B
100
AcDbEntity
  8
0
  6
Continuous
 62
     3
440
 16777216
100
AcDbLine
 10
545.684057070738
 20
104.1560486365504
 30
0.0
 11
546.5939659126353
 21
105.3485526824291
 31
0.0
  0
SOLID
  5
24475
330
2438B
100
AcDbEntity
  8
0
  6
Continuous
 62
     3
440
 16777216
100
AcDbTrace
 10
547.7792295252752
 20
107.588811881643
 30
0.0
 11
548.4417317729858
 21
107.083306969478
 31
0.0
 12
546.5939659126353
 22
105.3485526824291
 32
0.0
 13
546.5939659126353
 23
105.3485526824291
 33
0.0
  0
POINT
  5
24476
330
2438B
100
AcDbEntity
  8
DEFPOINTS
  6
Continuous
 62
     0
440
 16777216
100
AcDbPoint
 10
546.5939659126353
 20
105.3485526824291
 30
0.0
  0
POINT
  5
24477
330
2438B
100
AcDbEntity
  8
DEFPOINTS
  6
Continuous
 62
     0
440
 16777216
100
AcDbPoint
 10
545.684057070738
 20
104.1560486365504
 30
0.0
  0
ENDBLK
  5
2438D
330
2438B
100
AcDbEntity
  8
0
 62
     7
100
AcDbBlockEnd
  0
BLOCK
  5
24396
330
24395
100
AcDbEntity
  8
0
 62
     7
100
AcDbBlockBegin
  2
*D7
 70
     1
 10
0.0
 20
0.0
 30
0.0
  3
*D7
  1

  0
LINE
  5
24478
330
24395
100
AcDbEntity
  8
0
  6
Continuous
 62
     3
440
 16777216
100
AcDbLine
 10
559.8693631612077
 20
108.8654848208205
 30
0.0
 11
550.7826043775508
 21
100.3547084280563
 31
0.0
  0
MTEXT
  5
24479
330
24395
100
AcDbEntity
  8
0
  6
Continuous
 62
     2
440
 16777216
100
AcDbMText
 10
554.7856663914633
 20
107.0155450506413
 30
0.0
 40
3.0
 41
0.0
 46
0.0
 71
     5
 72
     1
  1
R0.08
 11
0.7298601432656165
 21
0.6835964974107853
 31
0.0
 73
     1
 44
1.0
  0
SOLID
  5
2447A
330
24395
100
AcDbEntity
  8
0
  6
Continuous
 62
     3
440
 16777216
100
AcDbTrace
 10
550.4977725036297
 20
100.6588168210836
 30
0.0
 11
551.067436251472
 21
100.0506000350289
 31
0.0
 12
548.9579540193867
 22
98.64571718452934
 32
0.0
 13
548.9579540193867
 23
98.64571718452934
 33
0.0
  0
POINT
  5
2447B
330
24395
100
AcDbEntity
  8
DEFPOINTS
  6
Continuous
 62
     0
440
 16777216
100
AcDbPoint
 10
548.9579540193867
 20
98.64571718452934
 30
0.0
  0
POINT
  5
2447C
330
24395
100
AcDbEntity
  8
DEFPOINTS
  6
Continuous
 62
     0
440
 16777216
100
AcDbPoint
 10
550.4176743059182
 20
100.012910179351
 30
0.0
  0
ENDBLK
  5
24397
330
24395
100
AcDbEntity
  8
0
 62
     7
100
AcDbBlockEnd
  0
BLOCK
  5
2439F
330
2439E
100
AcDbEntity
  8
0
 62
     7
100
AcDbBlockBegin
  2
*D8
 70
     1
 10
0.0
 20
0.0
 30
0.0
  3
*D8
  1

  0
LINE
  5
2447D
330
2439E
100
AcDbEntity
  8
0
  6
Continuous
 62
     3
440
 16777216
100
AcDbLine
 10
588.3540388099929
 20
61.54772527226009
 30
0.0
 11
578.4973977039444
 21
69.63531614387028
 31
0.0
  0
MTEXT
  5
2447E
330
2439E
100
AcDbEntity
  8
0
  6
Continuous
 62
     2
440
 16777216
100
AcDbMText
 10
585.7399874322418
 20
66.44139315989582
 30
0.0
 40
3.0
 41
0.0
 46
0.0
 71
     5
 72
     1
  1
R0.04
 11
0.7730698906704811
 21
-0.6343208526753087
 31
0.0
 73
     1
 44
1.0
  0
LINE
  5
2447F
330
2439E
100
AcDbEntity
  8
0
  6
Continuous
 62
     3
440
 16777216
100
AcDbLine
 10
575.7916530865973
 20
71.85543912823414
 30
0.0
 11
576.5647229772681
 21
71.22111827555855
 31
0.0
  0
SOLID
  5
24480
330
2439E
100
AcDbEntity
  8
0
  6
Continuous
 62
     3
440
 16777216
100
AcDbTrace
 10
578.7616980592258
 20
69.95742859831631
 30
0.0
 11
578.2330973486629
 21
69.31320368942426
 31
0.0
 12
576.5647229772681
 22
71.22111827555855
 32
0.0
 13
576.5647229772681
 23
71.22111827555855
 33
0.0
  0
POINT
  5
24481
330
2439E
100
AcDbEntity
  8
DEFPOINTS
  6
Continuous
 62
     0
440
 16777216
100
AcDbPoint
 10
576.5647229772681
 20
71.22111827555855
 30
0.0
  0
POINT
  5
24482
330
2439E
100
AcDbEntity
  8
DEFPOINTS
  6
Continuous
 62
     0
440
 16777216
100
AcDbPoint
 10
575.7916530865973
 20
71.85543912823414
 30
0.0
  0
ENDBLK
  5
243A0
330
2439E
100
AcDbEntity
  8
0
 62
     7
100
AcDbBlockEnd
  0
ENDSEC
  0
SECTION
  2
ENTITIES
  0
LWPOLYLINE
  5
1DBC8
330
2
100
AcDbEntity
  8
0
 62
     0
100
AcDbPolyline
 90
        4
 70
     1
 43
0.0
 10
421.0
 20
0.0
 10
421.0
 20
148.0460770342341
 10
633.1503999999999
 20
148.0460770342341
 10
633.1503999999999
 20
0.0
  0
LINE
  5
1DC5A
330
2
100
AcDbEntity
  8
0
  6
Continuous
 62
     7
100
AcDbLine
 10
580.1128
 20
-2.587199999999999
 30
0.0
 11
580.1128
 21
0.0
 31
0.0
  0
LINE
  5
1DC5B
330
2
100
AcDbEntity
  8
0
  6
Continuous
 62
     7
100
AcDbLine
 10
577.5256
 20
-0.0000000000000005
 30
0.0
 11
577.5256
 21
20.81897958293918
 31
0.0
  0
LINE
  5
1DC5C
330
2
100
AcDbEntity
  8
0
  6
Continuous
 62
     7
100
AcDbLine
 10
474.0376
 20
-2.587199999999999
 30
0.0
 11
474.0376
 21
0.0
 31
0.0
  0
LINE
  5
1DC5D
330
2
100
AcDbEntity
  8
0
  6
Continuous
 62
     7
100
AcDbLine
 10
580.1128
 20
150.6332770342341
 30
0.0
 11
580.1128
 21
148.0460770342341
 31
0.0
  0
LINE
  5
1DC5E
330
2
100
AcDbEntity
  8
0
  6
Continuous
 62
     7
100
AcDbLine
 10
474.0376
 20
150.6332770342341
 30
0.0
 11
474.0376
 21
148.0460770342341
 31
0.0
  0
LINE
  5
1DC5F
330
2
100
AcDbEntity
  8
0
  6
Continuous
 62
     7
100
AcDbLine
 10
418.4128
 20
37.01151925855853
 30
0.0
 11
421.0
 21
37.01151925855853
 31
0.0
  0
LINE
  5
1DC60
330
2
100
AcDbEntity
  8
0
  6
Continuous
 62
     7
100
AcDbLine
 10
418.4128
 20
111.0345577756756
 30
0.0
 11
421.0
 21
111.0345577756756
 31
0.0
  0
LINE
  5
1DC61
330
2
100
AcDbEntity
  8
0
  6
Continuous
 62
     7
100
AcDbLine
 10
635.7375999999999
 20
37.01151925855853
 30
0.0
 11
633.1503999999999
 21
37.01151925855853
 31
0.0
  0
LINE
  5
1DC62
330
2
100
AcDbEntity
  8
0
  6
Continuous
 62
     7
100
AcDbLine
 10
635.7375999999999
 20
111.0345577756756
 30
0.0
 11
633.1503999999999
 21
111.0345577756756
 31
0.0
  0
LINE
  5
1DC63
330
2
100
AcDbEntity
  8
0
  6
Continuous
 62
     7
100
AcDbLine
 10
633.1503999999999
 20
20.81897958293918
 30
0.0
 11
577.5255999999999
 21
20.81897958293918
 31
0.0
  0
LINE
  5
1DC64
330
2
100
AcDbEntity
  8
0
  6
Continuous
 62
     7
100
AcDbLine
 10
577.5256
 20
6.939659860979727
 30
0.0
 11
633.1503999999999
 21
6.939659860979727
 31
0.0
  0
LINE
  5
1DC65
330
2
100
AcDbEntity
  8
0
  6
Continuous
 62
     7
100
AcDbLine
 10
577.5256
 20
13.87931972195945
 30
0.0
 11
633.1503999999999
 21
13.87931972195945
 31
0.0
  0
LINE
  5
1DC66
330
2
100
AcDbEntity
  8
0
  6
Continuous
 62
     7
100
AcDbLine
 10
577.5256
 20
-0.0000000000000009
 30
0.0
 11
633.1503999999999
 21
0.0000000000000028
 31
0.0
  0
LINE
  5
1DC67
330
2
100
AcDbEntity
  8
0
  6
Continuous
 62
     7
100
AcDbLine
 10
633.1503999999999
 20
74.02303851711706
 30
0.0
 11
635.7375999999999
 21
74.02303851711706
 31
0.0
  0
LINE
  5
1DC68
330
2
100
AcDbEntity
  8
0
  6
Continuous
 62
     7
100
AcDbLine
 10
634.4439999999999
 20
73.14339051711704
 30
0.0
 11
634.4439999999999
 21
74.90268651711706
 31
0.0
  0
LINE
  5
1DC69
330
2
100
AcDbEntity
  8
0
  6
Continuous
 62
     7
100
AcDbLine
 10
634.4439999999999
 20
73.14339051711704
 30
0.0
 11
633.1503999999999
 21
74.02303851711706
 31
0.0
  0
LINE
  5
1DC6A
330
2
100
AcDbEntity
  8
0
  6
Continuous
 62
     7
100
AcDbLine
 10
633.1503999999999
 20
74.02303851711706
 30
0.0
 11
634.4439999999999
 21
74.90268651711706
 31
0.0
  0
LINE
  5
1DC6B
330
2
100
AcDbEntity
  8
0
  6
Continuous
 62
     7
100
AcDbLine
 10
421.0
 20
74.02303851711706
 30
0.0
 11
418.4128
 21
74.02303851711706
 31
0.0
  0
LINE
  5
1DC6C
330
2
100
AcDbEntity
  8
0
  6
Continuous
 62
     7
100
AcDbLine
 10
419.7064
 20
73.14339051711704
 30
0.0
 11
419.7064
 21
74.90268651711706
 31
0.0
  0
LINE
  5
1DC6D
330
2
100
AcDbEntity
  8
0
  6
Continuous
 62
     7
100
AcDbLine
 10
419.7064
 20
73.14339051711704
 30
0.0
 11
421.0
 21
74.02303851711706
 31
0.0
  0
LINE
  5
1DC6E
330
2
100
AcDbEntity
  8
0
  6
Continuous
 62
     7
100
AcDbLine
 10
421.0
 20
74.02303851711706
 30
0.0
 11
419.7064
 21
74.90268651711706
 31
0.0
  0
LINE
  5
1DC6F
330
2
100
AcDbEntity
  8
0
  6
Continuous
 62
     7
100
AcDbLine
 10
527.0752
 20
148.0460770342341
 30
0.0
 11
527.0752
 21
150.6332770342341
 31
0.0
  0
LINE
  5
1DC70
330
2
100
AcDbEntity
  8
0
  6
Continuous
 62
     7
100
AcDbLine
 10
526.1955519999999
 20
149.3396770342341
 30
0.0
 11
527.9548479999999
 21
149.3396770342341
 31
0.0
  0
LINE
  5
1DC71
330
2
100
AcDbEntity
  8
0
  6
Continuous
 62
     7
100
AcDbLine
 10
526.1955519999999
 20
149.3396770342341
 30
0.0
 11
527.0752
 21
148.0460770342341
 31
0.0
  0
LINE
  5
1DC72
330
2
100
AcDbEntity
  8
0
  6
Continuous
 62
     7
100
AcDbLine
 10
527.0752
 20
148.0460770342341
 30
0.0
 11
527.9548479999999
 21
149.3396770342341
 31
0.0
  0
LINE
  5
1DC73
330
2
100
AcDbEntity
  8
0
  6
Continuous
 62
     7
100
AcDbLine
 10
527.0752
 20
0.0
 30
0.0
 11
527.0752
 21
-2.587199999999999
 31
0.0
  0
LINE
  5
1DC74
330
2
100
AcDbEntity
  8
0
  6
Continuous
 62
     7
100
AcDbLine
 10
526.1955519999999
 20
-1.2936
 30
0.0
 11
527.9548479999999
 21
-1.2936
 31
0.0
  0
LINE
  5
1DC75
330
2
100
AcDbEntity
  8
0
  6
Continuous
 62
     7
100
AcDbLine
 10
526.1955519999999
 20
-1.2936
 30
0.0
 11
527.0752
 21
0.0
 31
0.0
  0
LINE
  5
1DC76
330
2
100
AcDbEntity
  8
0
  6
Continuous
 62
     7
100
AcDbLine
 10
527.0752
 20
0.0
 30
0.0
 11
527.9548479999999
 21
-1.2936
 31
0.0
  0
TEXT
  5
1DC77
330
2
100
AcDbEntity
  8
0
 62
     2
100
AcDbText
 10
446.9770177094402
 20
-2.096248315618017
 30
0.0
 40
1.448832
  1
4
  7
굴림
100
AcDbText
  0
TEXT
  5
1DC78
330
2
100
AcDbEntity
  8
0
 62
     2
100
AcDbText
 10
500.063790595052
 20
-2.096248315618017
 30
0.0
 40
1.448832
  1
3
  7
굴림
100
AcDbText
  0
TEXT
  5
1DC79
330
2
100
AcDbEntity
  8
0
 62
     2
100
AcDbText
 10
553.0327843992401
 20
-2.096248315618017
 30
0.0
 40
1.448832
  1
2
  7
굴림
100
AcDbText
  0
TEXT
  5
1DC7A
330
2
100
AcDbEntity
  8
0
 62
     2
100
AcDbText
 10
606.2321432151352
 20
-2.096248315618017
 30
0.0
 40
1.448832
  1
1
  7
굴림
100
AcDbText
  0
TEXT
  5
1DC7B
330
2
100
AcDbEntity
  8
0
 62
     2
100
AcDbText
 10
446.9770177094402
 20
148.8709713171248
 30
0.0
 40
1.448832
  1
4
  7
굴림
100
AcDbText
  0
LWPOLYLINE
  5
1DC7C
102
{ACAD_REACTORS
330
1DC82
102
}
330
2
100
AcDbEntity
  8
Layer 1
 62
   103
100
AcDbPolyline
 90
        8
 70
     1
 43
0.0
 10
621.0116284282652
 20
20.04786066342777
 10
601.1722353726249
 20
20.04864066708634
 10
600.8762928080514
 20
19.07521904247934
 10
607.7516121152018
 20
19.07487750401009
 10
606.4358377083364
 20
14.5122664637172
 10
607.725183755947
 20
14.5122664637172
 10
609.0407058086875
 20
19.07487750401009
 10
620.7142189199307
 20
19.07430139111632
  0
TEXT
  5
1DC7D
330
2
100
AcDbEntity
  8
0
 62
     2
100
AcDbText
 10
500.063790595052
 20
148.8709713171248
 30
0.0
 40
1.448832
  1
3
  7
굴림
100
AcDbText
  0
TEXT
  5
1DC7E
330
2
100
AcDbEntity
  8
0
 62
     2
100
AcDbText
 10
553.0327843992401
 20
148.8709713171248
 30
0.0
 40
1.448832
  1
2
  7
굴림
100
AcDbText
  0
TEXT
  5
1DC7F
330
2
100
AcDbEntity
  8
0
 62
     2
100
AcDbText
 10
606.2321432151352
 20
148.8709713171248
 30
0.0
 40
1.448832
  1
1
  7
굴림
100
AcDbText
  0
TEXT
  5
1DC80
330
2
100
AcDbEntity
  8
0
 62
     2
100
AcDbText
 10
418.908411409068
 20
18.02333599368982
 30
0.0
 40
1.448832
  1
A
  7
굴림
100
AcDbText
  0
TEXT
  5
1DC81
330
2
100
AcDbEntity
  8
0
 62
     2
100
AcDbText
 10
418.908411409068
 20
54.72780676660113
 30
0.0
 40
1.448832
  1
B
  7
굴림
100
AcDbText
  0
HATCH
  5
1DC82
330
2
100
AcDbEntity
  8
0
  6
Continuous
 62
    93
100
AcDbHatch
 10
0.0
 20
0.0
 30
0.0
210
0.0
220
0.0
230
1.0
  2
SOLID
 70
     1
 71
     1
 91
        1
 92
        7
 72
     0
 73
     1
 93
        8
 10
601.1722353726249
 20
20.04864066708634
 10
600.8762928080514
 20
19.07521904247934
 10
607.7516121152018
 20
19.07487750401009
 10
606.4358377083364
 20
14.5122664637172
 10
607.725183755947
 20
14.5122664637172
 10
609.0407058086875
 20
19.07487750401009
 10
620.7142189199307
 20
19.07430139111632
 10
621.0116284282652
 20
20.04786066342777
 97
        1
330
1DC7C
 75
     1
 76
     1
 47
0.0428322549537331
 98
        1
 10
609.9024617297295
 20
19.56765319146179
450
        0
451
        0
460
0.0
461
0.0
452
        0
462
1.0
453
        2
463
0.0
 63
     5
421
      255
463
1.0
 63
     2
421
 16776960
470
LINEAR
1001
GRADIENTCOLOR1ACI
1070
     5
1001
GRADIENTCOLOR2ACI
1070
     2
1001
ACAD
1010
0.0
1020
0.0
1030
0.0
  0
TEXT
  5
1DC83
330
2
100
AcDbEntity
  8
0
 62
     2
100
AcDbText
 10
418.908411409068
 20
91.78252310008479
 30
0.0
 40
1.448832
  1
C
  7
굴림
100
AcDbText
  0
TEXT
  5
1DC84
330
2
100
AcDbEntity
  8
0
 62
     2
100
AcDbText
 10
418.908411409068
 20
129.0654147280213
 30
0.0
 40
1.448832
  1
D
  7
굴림
100
AcDbText
  0
TEXT
  5
1DC85
330
2
100
AcDbEntity
  8
0
 62
     2
100
AcDbText
 10
633.9254335305035
 20
18.02333599368982
 30
0.0
 40
1.448832
  1
A
  7
굴림
100
AcDbText
  0
TEXT
  5
1DC86
330
2
100
AcDbEntity
  8
0
 62
     2
100
AcDbText
 10
633.9254335305035
 20
54.72780676660113
 30
0.0
 40
1.448832
  1
B
  7
굴림
100
AcDbText
  0
TEXT
  5
1DC87
330
2
100
AcDbEntity
  8
0
 62
     2
100
AcDbText
 10
633.9254335305035
 20
91.78252310008479
 30
0.0
 40
1.448832
  1
C
  7
굴림
100
AcDbText
  0
TEXT
  5
1DC88
330
2
100
AcDbEntity
  8
0
 62
     2
100
AcDbText
 10
633.9254335305035
 20
129.0654147280213
 30
0.0
 40
1.448832
  1
D
  7
굴림
100
AcDbText
  0
HATCH
  5
1DC89
330
2
100
AcDbEntity
  8
0
  6
Continuous
 62
     0
100
AcDbHatch
 10
0.0
 20
0.0
 30
0.0
210
0.0
220
0.0
230
1.0
  2
SOLID
 70
     1
 71
     1
 91
        1
 92
        5
 93
       13
 72
     4
 94
        3
 73
     0
 74
     0
 95
        8
 96
        4
 40
1.0
 40
1.0
 40
1.0
 40
1.0
 40
2.0
 40
2.0
 40
2.0
 40
2.0
 10
594.1057004627049
 20
17.2208521093736
 10
594.1057004627049
 20
17.2208521093736
 10
593.5142282766706
 20
14.51226646371718
 10
593.5142282766706
 20
14.51226646371718
 97
        0
 72
     4
 94
        3
 73
     0
 74
     0
 95
        8
 96
        4
 40
0.0
 40
0.0
 40
0.0
 40
0.0
 40
1.0
 40
1.0
 40
1.0
 40
1.0
 10
593.5142282766706
 20
14.51226646371718
 10
593.5142282766706
 20
14.51226646371718
 10
594.8152055553075
 20
14.51226646371718
 10
594.8152055553075
 20
14.51226646371718
 97
        0
 72
     4
 94
        3
 73
     0
 74
     0
 95
        8
 96
        4
 40
12.0
 40
12.0
 40
12.0
 40
12.0
 40
13.0
 40
13.0
 40
13.0
 40
13.0
 10
594.8152055553075
 20
14.51226646371718
 10
594.8152055553075
 20
14.51226646371718
 10
595.4955063932821
 20
18.68739920618656
 10
595.4955063932821
 20
18.68739920618656
 97
        0
 72
     4
 94
        3
 73
     0
 74
     0
 95
        8
 96
        4
 40
11.0
 40
11.0
 40
11.0
 40
11.0
 40
12.0
 40
12.0
 40
12.0
 40
12.0
 10
595.4955063932821
 20
18.68739920618656
 10
595.4955063932821
 20
18.68739920618656
 10
594.0937021711334
 20
18.68739920618656
 10
594.0937021711334
 20
18.68739920618656
 97
        0
 72
     4
 94
        3
 73
     0
 74
     0
 95
        8
 96
        4
 40
10.0
 40
10.0
 40
10.0
 40
10.0
 40
11.0
 40
11.0
 40
11.0
 40
11.0
 10
594.0937021711334
 20
18.68739920618656
 10
594.0937021711334
 20
18.68739920618656
 10
592.6506954027852
 20
16.39294704965743
 10
592.6506954027852
 20
16.39294704965743
 97
        0
 72
     4
 94
        3
 73
     0
 74
     0
 95
        8
 96
        4
 40
9.0
 40
9.0
 40
9.0
 40
9.0
 40
10.0
 40
10.0
 40
10.0
 40
10.0
 10
592.6506954027852
 20
16.39294704965743
 10
592.6506954027852
 20
16.39294704965743
 10
592.396644205991
 20
18.68739920618656
 10
592.396644205991
 20
18.68739920618656
 97
        0
 72
     4
 94
        3
 73
     0
 74
     0
 95
        8
 96
        4
 40
8.0
 40
8.0
 40
8.0
 40
8.0
 40
9.0
 40
9.0
 40
9.0
 40
9.0
 10
592.396644205991
 20
18.68739920618656
 10
592.396644205991
 20
18.68739920618656
 10
591.0184694716246
 20
18.68739920618656
 10
591.0184694716246
 20
18.68739920618656
 97
        0
 72
     4
 94
        3
 73
     0
 74
     0
 95
        8
 96
        4
 40
7.0
 40
7.0
 40
7.0
 40
7.0
 40
8.0
 40
8.0
 40
8.0
 40
8.0
 10
591.0184694716246
 20
18.68739920618656
 10
591.0184694716246
 20
18.68739920618656
 10
589.498724069652
 20
14.51226646371718
 10
589.498724069652
 20
14.51226646371718
 97
        0
 72
     4
 94
        3
 73
     0
 74
     0
 95
        8
 96
        4
 40
6.0
 40
6.0
 40
6.0
 40
6.0
 40
7.0
 40
7.0
 40
7.0
 40
7.0
 10
589.498724069652
 20
14.51226646371718
 10
589.498724069652
 20
14.51226646371718
 10
590.7701300652338
 20
14.51226646371718
 10
590.7701300652338
 20
14.51226646371718
 97
        0
 72
     4
 94
        3
 73
     0
 74
     0
 95
        8
 96
        4
 40
5.0
 40
5.0
 40
5.0
 40
5.0
 40
6.0
 40
6.0
 40
6.0
 40
6.0
 10
590.7701300652338
 20
14.51226646371718
 10
590.7701300652338
 20
14.51226646371718
 10
591.6277441094926
 20
17.27990297458395
 10
591.6277441094926
 20
17.27990297458395
 97
        0
 72
     4
 94
        3
 73
     0
 74
     0
 95
        8
 96
        4
 40
4.0
 40
4.0
 40
4.0
 40
4.0
 40
5.0
 40
5.0
 40
5.0
 40
5.0
 10
591.6277441094926
 20
17.27990297458395
 10
591.6277441094926
 20
17.27990297458395
 10
591.94116794045
 20
14.51226646371718
 10
591.94116794045
 20
14.51226646371718
 97
        0
 72
     4
 94
        3
 73
     0
 74
     0
 95
        8
 96
        4
 40
3.0
 40
3.0
 40
3.0
 40
3.0
 40
4.0
 40
4.0
 40
4.0
 40
4.0
 10
591.94116794045
 20
14.51226646371718
 10
591.94116794045
 20
14.51226646371718
 10
592.3551887226091
 20
14.51226646371718
 10
592.3551887226091
 20
14.51226646371718
 97
        0
 72
     4
 94
        3
 73
     0
 74
     0
 95
        8
 96
        4
 40
2.0
 40
2.0
 40
2.0
 40
2.0
 40
3.0
 40
3.0
 40
3.0
 40
3.0
 10
592.3551887226091
 20
14.51226646371718
 10
592.3551887226091
 20
14.51226646371718
 10
594.1057004627049
 20
17.2208521093736
 10
594.1057004627049
 20
17.2208521093736
 97
        0
 97
       13
330
1DC97
330
1DC95
330
1DC94
330
1DC93
330
1DC92
330
1DC91
330
1DC90
330
1DC8F
330
1DC8E
330
1DC8D
330
1DC8C
330
1DC8B
330
1DC8A
 75
     1
 76
     1
 47
0.0269459378258844
 98
        1
 10
594.1811601659455
 20
15.93175154391979
450
        0
451
        0
460
0.0
461
0.0
452
        0
462
1.0
453
        2
463
0.0
 63
     5
421
      255
463
1.0
 63
     2
421
 16776960
470
LINEAR
1001
GRADIENTCOLOR1ACI
1070
     5
1001
GRADIENTCOLOR2ACI
1070
     2
1001
ACAD
1010
0.0
1020
0.0
1030
0.0
  0
SPLINE
  5
1DC8A
102
{ACAD_REACTORS
330
1DC89
102
}
330
2
100
AcDbEntity
  8
Layer 1
100
AcDbSpline
210
0.0
220
0.0
230
1.0
 70
    24
 71
     3
 72
     8
 73
     4
 74
     0
 42
0.000000001
 43
0.0000000001
 40
0.0
 40
0.0
 40
0.0
 40
0.0
 40
1.0
 40
1.0
 40
1.0
 40
1.0
 10
594.8152055553075
 20
14.51226646371718
 30
0.0
 10
594.8152055553075
 20
14.51226646371718
 30
0.0
 10
593.5142282766706
 20
14.51226646371718
 30
0.0
 10
593.5142282766706
 20
14.51226646371718
 30
0.0
  0
SPLINE
  5
1DC8B
102
{ACAD_REACTORS
330
1DC89
102
}
330
2
100
AcDbEntity
  8
Layer 1
100
AcDbSpline
210
0.0
220
0.0
230
1.0
 70
    24
 71
     3
 72
     8
 73
     4
 74
     0
 42
0.000000001
 43
0.0000000001
 40
1.0
 40
1.0
 40
1.0
 40
1.0
 40
2.0
 40
2.0
 40
2.0
 40
2.0
 10
593.5142282766706
 20
14.51226646371718
 30
0.0
 10
593.5142282766706
 20
14.51226646371718
 30
0.0
 10
594.1057004627049
 20
17.2208521093736
 30
0.0
 10
594.1057004627049
 20
17.2208521093736
 30
0.0
  0
SPLINE
  5
1DC8C
102
{ACAD_REACTORS
330
1DC89
102
}
330
2
100
AcDbEntity
  8
Layer 1
100
AcDbSpline
210
0.0
220
0.0
230
1.0
 70
    24
 71
     3
 72
     8
 73
     4
 74
     0
 42
0.000000001
 43
0.0000000001
 40
2.0
 40
2.0
 40
2.0
 40
2.0
 40
3.0
 40
3.0
 40
3.0
 40
3.0
 10
594.1057004627049
 20
17.2208521093736
 30
0.0
 10
594.1057004627049
 20
17.2208521093736
 30
0.0
 10
592.3551887226091
 20
14.51226646371718
 30
0.0
 10
592.3551887226091
 20
14.51226646371718
 30
0.0
  0
SPLINE
  5
1DC8D
102
{ACAD_REACTORS
330
1DC89
102
}
330
2
100
AcDbEntity
  8
Layer 1
100
AcDbSpline
210
0.0
220
0.0
230
1.0
 70
    24
 71
     3
 72
     8
 73
     4
 74
     0
 42
0.000000001
 43
0.0000000001
 40
3.0
 40
3.0
 40
3.0
 40
3.0
 40
4.0
 40
4.0
 40
4.0
 40
4.0
 10
592.3551887226091
 20
14.51226646371718
 30
0.0
 10
592.3551887226091
 20
14.51226646371718
 30
0.0
 10
591.94116794045
 20
14.51226646371718
 30
0.0
 10
591.94116794045
 20
14.51226646371718
 30
0.0
  0
SPLINE
  5
1DC8E
102
{ACAD_REACTORS
330
1DC89
102
}
330
2
100
AcDbEntity
  8
Layer 1
100
AcDbSpline
210
0.0
220
0.0
230
1.0
 70
    24
 71
     3
 72
     8
 73
     4
 74
     0
 42
0.000000001
 43
0.0000000001
 40
4.0
 40
4.0
 40
4.0
 40
4.0
 40
5.0
 40
5.0
 40
5.0
 40
5.0
 10
591.94116794045
 20
14.51226646371718
 30
0.0
 10
591.94116794045
 20
14.51226646371718
 30
0.0
 10
591.6277441094926
 20
17.27990297458395
 30
0.0
 10
591.6277441094926
 20
17.27990297458395
 30
0.0
  0
SPLINE
  5
1DC8F
102
{ACAD_REACTORS
330
1DC89
102
}
330
2
100
AcDbEntity
  8
Layer 1
100
AcDbSpline
210
0.0
220
0.0
230
1.0
 70
    24
 71
     3
 72
     8
 73
     4
 74
     0
 42
0.000000001
 43
0.0000000001
 40
5.0
 40
5.0
 40
5.0
 40
5.0
 40
6.0
 40
6.0
 40
6.0
 40
6.0
 10
591.6277441094926
 20
17.27990297458395
 30
0.0
 10
591.6277441094926
 20
17.27990297458395
 30
0.0
 10
590.7701300652338
 20
14.51226646371718
 30
0.0
 10
590.7701300652338
 20
14.51226646371718
 30
0.0
  0
SPLINE
  5
1DC90
102
{ACAD_REACTORS
330
1DC89
102
}
330
2
100
AcDbEntity
  8
Layer 1
100
AcDbSpline
210
0.0
220
0.0
230
1.0
 70
    24
 71
     3
 72
     8
 73
     4
 74
     0
 42
0.000000001
 43
0.0000000001
 40
6.0
 40
6.0
 40
6.0
 40
6.0
 40
7.0
 40
7.0
 40
7.0
 40
7.0
 10
590.7701300652338
 20
14.51226646371718
 30
0.0
 10
590.7701300652338
 20
14.51226646371718
 30
0.0
 10
589.498724069652
 20
14.51226646371718
 30
0.0
 10
589.498724069652
 20
14.51226646371718
 30
0.0
  0
SPLINE
  5
1DC91
102
{ACAD_REACTORS
330
1DC89
102
}
330
2
100
AcDbEntity
  8
Layer 1
100
AcDbSpline
210
0.0
220
0.0
230
1.0
 70
    24
 71
     3
 72
     8
 73
     4
 74
     0
 42
0.000000001
 43
0.0000000001
 40
7.0
 40
7.0
 40
7.0
 40
7.0
 40
8.0
 40
8.0
 40
8.0
 40
8.0
 10
589.498724069652
 20
14.51226646371718
 30
0.0
 10
589.498724069652
 20
14.51226646371718
 30
0.0
 10
591.0184694716246
 20
18.68739920618656
 30
0.0
 10
591.0184694716246
 20
18.68739920618656
 30
0.0
  0
SPLINE
  5
1DC92
102
{ACAD_REACTORS
330
1DC89
102
}
330
2
100
AcDbEntity
  8
Layer 1
100
AcDbSpline
210
0.0
220
0.0
230
1.0
 70
    24
 71
     3
 72
     8
 73
     4
 74
     0
 42
0.000000001
 43
0.0000000001
 40
8.0
 40
8.0
 40
8.0
 40
8.0
 40
9.0
 40
9.0
 40
9.0
 40
9.0
 10
591.0184694716246
 20
18.68739920618656
 30
0.0
 10
591.0184694716246
 20
18.68739920618656
 30
0.0
 10
592.396644205991
 20
18.68739920618656
 30
0.0
 10
592.396644205991
 20
18.68739920618656
 30
0.0
  0
SPLINE
  5
1DC93
102
{ACAD_REACTORS
330
1DC89
102
}
330
2
100
AcDbEntity
  8
Layer 1
100
AcDbSpline
210
0.0
220
0.0
230
1.0
 70
    24
 71
     3
 72
     8
 73
     4
 74
     0
 42
0.000000001
 43
0.0000000001
 40
9.0
 40
9.0
 40
9.0
 40
9.0
 40
10.0
 40
10.0
 40
10.0
 40
10.0
 10
592.396644205991
 20
18.68739920618656
 30
0.0
 10
592.396644205991
 20
18.68739920618656
 30
0.0
 10
592.6506954027852
 20
16.39294704965743
 30
0.0
 10
592.6506954027852
 20
16.39294704965743
 30
0.0
  0
SPLINE
  5
1DC94
102
{ACAD_REACTORS
330
1DC89
102
}
330
2
100
AcDbEntity
  8
Layer 1
100
AcDbSpline
210
0.0
220
0.0
230
1.0
 70
    24
 71
     3
 72
     8
 73
     4
 74
     0
 42
0.000000001
 43
0.0000000001
 40
10.0
 40
10.0
 40
10.0
 40
10.0
 40
11.0
 40
11.0
 40
11.0
 40
11.0
 10
592.6506954027852
 20
16.39294704965743
 30
0.0
 10
592.6506954027852
 20
16.39294704965743
 30
0.0
 10
594.0937021711334
 20
18.68739920618656
 30
0.0
 10
594.0937021711334
 20
18.68739920618656
 30
0.0
  0
SPLINE
  5
1DC95
102
{ACAD_REACTORS
330
1DC89
102
}
330
2
100
AcDbEntity
  8
Layer 1
100
AcDbSpline
210
0.0
220
0.0
230
1.0
 70
    24
 71
     3
 72
     8
 73
     4
 74
     0
 42
0.000000001
 43
0.0000000001
 40
11.0
 40
11.0
 40
11.0
 40
11.0
 40
12.0
 40
12.0
 40
12.0
 40
12.0
 10
594.0937021711334
 20
18.68739920618656
 30
0.0
 10
594.0937021711334
 20
18.68739920618656
 30
0.0
 10
595.4955063932821
 20
18.68739920618656
 30
0.0
 10
595.4955063932821
 20
18.68739920618656
 30
0.0
  0
SPLINE
  5
1DC96
102
{ACAD_REACTORS
330
1DC9C
102
}
330
2
100
AcDbEntity
  8
Layer 1
100
AcDbSpline
210
0.0
220
0.0
230
1.0
 70
     8
 71
     3
 72
     8
 73
     4
 74
     0
 42
0.000000001
 43
0.0000000001
 40
12.0
 40
12.0
 40
12.0
 40
12.0
 40
13.0
 40
13.0
 40
13.0
 40
13.0
 10
602.8615856493757
 20
16.23118805564114
 30
0.0
 10
603.0476394632278
 20
16.28776126217136
 30
0.0
 10
603.2322479761834
 20
16.37087753437686
 30
0.0
 10
603.3955669775167
 20
16.49565517846342
 30
0.0
  0
SPLINE
  5
1DC97
102
{ACAD_REACTORS
330
1DC89
102
}
330
2
100
AcDbEntity
  8
Layer 1
100
AcDbSpline
210
0.0
220
0.0
230
1.0
 70
    24
 71
     3
 72
     8
 73
     4
 74
     0
 42
0.000000001
 43
0.0000000001
 40
12.0
 40
12.0
 40
12.0
 40
12.0
 40
13.0
 40
13.0
 40
13.0
 40
13.0
 10
595.4955063932821
 20
18.68739920618656
 30
0.0
 10
595.4955063932821
 20
18.68739920618656
 30
0.0
 10
594.8152055553075
 20
14.51226646371718
 30
0.0
 10
594.8152055553075
 20
14.51226646371718
 30
0.0
  0
HATCH
  5
1DC98
330
2
100
AcDbEntity
  8
0
  6
Continuous
 62
     0
100
AcDbHatch
 10
0.0
 20
0.0
 30
0.0
210
0.0
220
0.0
230
1.0
  2
SOLID
 70
     1
 71
     0
 91
        1
 92
        5
 93
        2
 72
     4
 94
        3
 73
     0
 74
     0
 95
       35
 96
       31
 40
0.9999994039535522
 40
0.9999994039535522
 40
0.9999994039535522
 40
0.9999994039535522
 40
1.999998807907104
 40
1.999998807907104
 40
1.999998807907104
 40
2.999998807907104
 40
2.999998807907104
 40
2.999998807907104
 40
3.999998807907104
 40
3.999998807907104
 40
3.999998807907104
 40
4.999998807907104
 40
4.999998807907104
 40
4.999998807907104
 40
5.999998807907104
 40
5.999998807907104
 40
5.999998807907104
 40
6.999998807907104
 40
6.999998807907104
 40
6.999998807907104
 40
7.999998807907104
 40
7.999998807907104
 40
7.999998807907104
 40
8.999998807907104
 40
8.999998807907104
 40
8.999998807907104
 40
9.999998807907104
 40
9.999998807907104
 40
9.999998807907104
 40
9.999999403953552
 40
9.999999403953552
 40
9.999999403953552
 40
9.999999403953552
 10
597.9670626918704
 20
17.27990297458264
 10
597.9670627554276
 20
17.2799015151508
 10
598.0203782360621
 20
16.05564134989556
 10
598.0203782360621
 20
16.05564134989556
 10
598.0203782360621
 20
16.05564134989556
 10
597.6018833319568
 20
16.05564134989556
 10
597.6018833319568
 20
16.05564134989556
 10
597.6018833319568
 20
16.05564134989556
 10
597.1485406173411
 20
15.18651080269574
 10
597.1485406173411
 20
15.18651080269574
 10
597.1485406173411
 20
15.18651080269574
 10
598.061718429966
 20
15.18651080269574
 10
598.061718429966
 20
15.18651080269574
 10
598.061718429966
 20
15.18651080269574
 10
598.1031733302903
 20
14.51226646371718
 10
598.1031733302903
 20
14.51226646371718
 10
598.1031733302903
 20
14.51226646371718
 10
599.3629251214436
 20
14.51226646371718
 10
599.3629251214436
 20
14.51226646371718
 10
599.3629251214436
 20
14.51226646371718
 10
599.0493873431038
 20
18.69322372133841
 10
599.0493873431038
 20
18.69322372133841
 10
599.0493873431038
 20
18.69322372133841
 10
597.6536395846916
 20
18.69322372133841
 10
597.6536395846916
 20
18.69322372133841
 10
597.6536395846916
 20
18.69322372133841
 10
594.9451449883111
 20
14.51226646371718
 10
594.9451449883111
 20
14.51226646371718
 10
594.9451449883111
 20
14.51226646371718
 10
594.9451449883116
 20
14.51226646371718
 10
594.9451449883127
 20
14.51226646371718
 97
        0
 72
     4
 94
        3
 73
     0
 74
     0
 95
       17
 96
       13
 40
9.999999403953552
 40
9.999999403953552
 40
9.999999403953552
 40
9.999999403953552
 40
10.9999988079071
 40
10.9999988079071
 40
10.9999988079071
 40
11.9999988079071
 40
11.9999988079071
 40
11.9999988079071
 40
12.9999988079071
 40
12.9999988079071
 40
12.9999988079071
 40
12.99999940395355
 40
12.99999940395355
 40
12.99999940395355
 40
12.99999940395355
 10
594.9451449883127
 20
14.51226646371718
 10
594.9451466026442
 20
14.51226646371718
 10
596.299346046003
 20
14.51226646371718
 10
596.299346046003
 20
14.51226646371718
 10
596.299346046003
 20
14.51226646371718
 10
596.3060685240551
 20
14.52167239018818
 10
596.3060685240551
 20
14.52167239018818
 10
596.3060685240551
 20
14.52167239018818
 10
597.9670626918704
 20
17.27990297458395
 10
597.9670626918704
 20
17.27990297458395
 10
597.9670626918704
 20
17.27990297458395
 10
597.9670626918704
 20
17.27990297458351
 10
597.9670626918704
 20
17.27990297458264
 97
        0
 97
        0
 75
     1
 76
     1
 47
0.0269459378258844
 98
        1
 10
598.8442436151962
 20
16.238376672035
450
        0
451
        0
460
0.0
461
0.0
452
        0
462
1.0
453
        2
463
0.0
 63
     5
421
      255
463
1.0
 63
     2
421
 16776960
470
LINEAR
1001
GRADIENTCOLOR1ACI
1070
     5
1001
GRADIENTCOLOR2ACI
1070
     2
1001
ACAD
1010
0.0
1020
0.0
1030
0.0
  0
SPLINE
  5
1DC99
330
2
100
AcDbEntity
  8
Layer 1
100
AcDbSpline
210
0.0
220
0.0
230
1.0
 70
    11
 71
     3
 72
    41
 73
    37
 74
     0
 42
0.000000001
 43
0.0000000001
 40
0.0
 40
0.0
 40
0.0
 40
0.0
 40
1.0
 40
1.0
 40
1.0
 40
2.0
 40
2.0
 40
2.0
 40
3.0
 40
3.0
 40
3.0
 40
4.0
 40
4.0
 40
4.0
 40
5.0
 40
5.0
 40
5.0
 40
6.0
 40
6.0
 40
6.0
 40
7.0
 40
7.0
 40
7.0
 40
8.0
 40
8.0
 40
8.0
 40
9.0
 40
9.0
 40
9.0
 40
10.0
 40
10.0
 40
10.0
 40
11.0
 40
11.0
 40
11.0
 40
12.0
 40
12.0
 40
12.0
 40
12.0
 10
596.299346046003
 20
14.51226646371718
 30
0.0
 10
596.299346046003
 20
14.51226646371718
 30
0.0
 10
594.9451449883111
 20
14.51226646371718
 30
0.0
 10
594.9451449883111
 20
14.51226646371718
 30
0.0
 10
594.9451449883111
 20
14.51226646371718
 30
0.0
 10
597.6536395846916
 20
18.69322372133842
 30
0.0
 10
597.6536395846916
 20
18.69322372133842
 30
0.0
 10
597.6536395846916
 20
18.69322372133842
 30
0.0
 10
599.0493873431038
 20
18.69322372133842
 30
0.0
 10
599.0493873431038
 20
18.69322372133842
 30
0.0
 10
599.0493873431038
 20
18.69322372133842
 30
0.0
 10
599.3629251214436
 20
14.51226646371718
 30
0.0
 10
599.3629251214436
 20
14.51226646371718
 30
0.0
 10
599.3629251214436
 20
14.51226646371718
 30
0.0
 10
598.1031733302903
 20
14.51226646371718
 30
0.0
 10
598.1031733302903
 20
14.51226646371718
 30
0.0
 10
598.1031733302903
 20
14.51226646371718
 30
0.0
 10
598.061718429966
 20
15.18651080269575
 30
0.0
 10
598.061718429966
 20
15.18651080269575
 30
0.0
 10
598.061718429966
 20
15.18651080269575
 30
0.0
 10
597.1485406173411
 20
15.18651080269575
 30
0.0
 10
597.1485406173411
 20
15.18651080269575
 30
0.0
 10
597.1485406173411
 20
15.18651080269575
 30
0.0
 10
597.6018833319568
 20
16.05564134989557
 30
0.0
 10
597.6018833319568
 20
16.05564134989557
 30
0.0
 10
597.6018833319568
 20
16.05564134989557
 30
0.0
 10
598.0203782360621
 20
16.05564134989557
 30
0.0
 10
598.0203782360621
 20
16.05564134989557
 30
0.0
 10
598.0203782360621
 20
16.05564134989557
 30
0.0
 10
597.9670626918704
 20
17.27990297458395
 30
0.0
 10
597.9670626918704
 20
17.27990297458395
 30
0.0
 10
597.9670626918704
 20
17.27990297458395
 30
0.0
 10
596.3060685240551
 20
14.52167239018818
 30
0.0
 10
596.3060685240551
 20
14.52167239018818
 30
0.0
 10
596.3060685240551
 20
14.52167239018818
 30
0.0
 10
596.299346046003
 20
14.51226646371718
 30
0.0
 10
596.299346046003
 20
14.51226646371718
 30
0.0
  0
HATCH
  5
1DC9A
330
2
100
AcDbEntity
  8
0
  6
Continuous
 62
     0
100
AcDbHatch
 10
0.0
 20
0.0
 30
0.0
210
0.0
220
0.0
230
1.0
  2
SOLID
 70
     1
 71
     1
 91
        1
 92
        5
 93
        1
 72
     4
 94
        3
 73
     0
 74
     0
 95
       17
 96
       13
 40
0.0
 40
0.0
 40
0.0
 40
0.0
 40
1.0
 40
1.0
 40
1.0
 40
2.0
 40
2.0
 40
2.0
 40
3.0
 40
3.0
 40
3.0
 40
4.0
 40
4.0
 40
4.0
 40
4.0
 10
605.128598363841
 20
14.51226646371718
 10
605.128598363841
 20
14.51226646371718
 10
603.8393890592411
 20
14.51226646371718
 10
603.8393890592411
 20
14.51226646371718
 10
603.8393890592411
 20
14.51226646371718
 10
604.9572031258191
 20
18.68739920618656
 10
604.9572031258191
 20
18.68739920618656
 10
604.9572031258191
 20
18.68739920618656
 10
606.2463197605889
 20
18.68739920618656
 10
606.2463197605889
 20
18.68739920618656
 10
606.2463197605889
 20
18.68739920618656
 10
605.128598363841
 20
14.51226646371718
 10
605.128598363841
 20
14.51226646371718
 97
        0
 97
        1
330
1DC9B
 75
     1
 76
     1
 47
0.0269459378258844
 98
        1
 10
604.5925766719209
 20
15.65277436013993
450
        0
451
        0
460
0.0
461
0.0
452
        0
462
1.0
453
        2
463
0.0
 63
     5
421
      255
463
1.0
 63
     2
421
 16776960
470
LINEAR
1001
GRADIENTCOLOR1ACI
1070
     5
1001
GRADIENTCOLOR2ACI
1070
     2
1001
ACAD
1010
0.0
1020
0.0
1030
0.0
  0
SPLINE
  5
1DC9B
102
{ACAD_REACTORS
330
1DC9A
102
}
330
2
100
AcDbEntity
  8
Layer 1
100
AcDbSpline
210
0.0
220
0.0
230
1.0
 70
    11
 71
     3
 72
    17
 73
    13
 74
     0
 42
0.000000001
 43
0.0000000001
 40
0.0
 40
0.0
 40
0.0
 40
0.0
 40
1.0
 40
1.0
 40
1.0
 40
2.0
 40
2.0
 40
2.0
 40
3.0
 40
3.0
 40
3.0
 40
4.0
 40
4.0
 40
4.0
 40
4.0
 10
605.128598363841
 20
14.51226646371718
 30
0.0
 10
605.128598363841
 20
14.51226646371718
 30
0.0
 10
603.8393890592411
 20
14.51226646371718
 30
0.0
 10
603.8393890592411
 20
14.51226646371718
 30
0.0
 10
603.8393890592411
 20
14.51226646371718
 30
0.0
 10
604.9572031258191
 20
18.68739920618656
 30
0.0
 10
604.9572031258191
 20
18.68739920618656
 30
0.0
 10
604.9572031258191
 20
18.68739920618656
 30
0.0
 10
606.2463197605889
 20
18.68739920618656
 30
0.0
 10
606.2463197605889
 20
18.68739920618656
 30
0.0
 10
606.2463197605889
 20
18.68739920618656
 30
0.0
 10
605.128598363841
 20
14.51226646371718
 30
0.0
 10
605.128598363841
 20
14.51226646371718
 30
0.0
  0
HATCH
  5
1DC9C
330
2
100
AcDbEntity
  8
0
  6
Continuous
 62
     0
100
AcDbHatch
 10
0.0
 20
0.0
 30
0.0
210
0.0
220
0.0
230
1.0
  2
SOLID
 70
     1
 71
     1
 91
        1
 92
        5
 93
       14
 72
     4
 94
        3
 73
     0
 74
     0
 95
        8
 96
        4
 40
11.0
 40
11.0
 40
11.0
 40
11.0
 40
12.0
 40
12.0
 40
12.0
 40
12.0
 10
603.4561787124894
 20
14.45603737644809
 10
603.4561787124894
 20
14.45603737644809
 10
602.8615856493757
 20
16.23118805564114
 10
602.8615856493757
 20
16.23118805564114
 97
        0
 72
     4
 94
        3
 73
     0
 74
     0
 95
        8
 96
        4
 40
12.0
 40
12.0
 40
12.0
 40
12.0
 40
13.0
 40
13.0
 40
13.0
 40
13.0
 10
602.8615856493757
 20
16.23118805564114
 10
603.0476394632278
 20
16.28776126217136
 10
603.2322479761834
 20
16.37087753437686
 10
603.3955669775167
 20
16.49565517846342
 97
        0
 72
     4
 94
        3
 73
     0
 74
     0
 95
        8
 96
        4
 40
13.0
 40
13.0
 40
13.0
 40
13.0
 40
14.0
 40
14.0
 40
14.0
 40
14.0
 10
603.3955669775167
 20
16.49565517846342
 10
603.7563874934559
 20
16.77368060017421
 10
603.945698969647
 20
17.17001422386238
 10
603.945698969647
 20
17.5601537008501
 97
        0
 72
     4
 94
        3
 73
     0
 74
     0
 95
        8
 96
        4
 40
0.0
 40
0.0
 40
0.0
 40
0.0
 40
1.0
 40
1.0
 40
1.0
 40
1.0
 10
603.945698969647
 20
17.5601537008501
 10
603.945698969647
 20
18.39985058058106
 10
603.2064849141664
 20
18.69558667359815
 10
602.5619274366361
 20
18.69558667359815
 97
        0
 72
     4
 94
        3
 73
     0
 74
     0
 95
        8
 96
        4
 40
1.0
 40
1.0
 40
1.0
 40
1.0
 40
2.0
 40
2.0
 40
2.0
 40
2.0
 10
602.5619274366361
 20
18.69558667359815
 10
602.5619274366361
 20
18.69558667359815
 10
600.7167599118315
 20
18.69558667359815
 10
600.7167599118315
 20
18.69558667359815
 97
        0
 72
     4
 94
        3
 73
     0
 74
     0
 95
        8
 96
        4
 40
2.0
 40
2.0
 40
2.0
 40
2.0
 40
3.0
 40
3.0
 40
3.0
 40
3.0
 10
600.7167599118315
 20
18.69558667359815
 10
600.7167599118315
 20
18.69558667359815
 10
599.593117965857
 20
14.52034426144628
 10
599.593117965857
 20
14.52034426144628
 97
        0
 72
     4
 94
        3
 73
     0
 74
     0
 95
        8
 96
        4
 40
3.0
 40
3.0
 40
3.0
 40
3.0
 40
4.0
 40
4.0
 40
4.0
 40
4.0
 10
599.593117965857
 20
14.52034426144628
 10
599.593117965857
 20
14.52034426144628
 10
600.9180688863526
 20
14.52034426144628
 10
600.9180688863526
 20
14.52034426144628
 97
        0
 72
     4
 94
        3
 73
     0
 74
     0
 95
        8
 96
        4
 40
4.0
 40
4.0
 40
4.0
 40
4.0
 40
5.0
 40
5.0
 40
5.0
 40
5.0
 10
600.9180688863526
 20
14.52034426144628
 10
600.9180688863526
 20
14.52034426144628
 10
601.7871076684163
 20
17.76111934935135
 10
601.7871076684163
 20
17.76111934935135
 97
        0
 72
     4
 94
        3
 73
     0
 74
     0
 95
        8
 96
        4
 40
5.0
 40
5.0
 40
5.0
 40
5.0
 40
6.0
 40
6.0
 40
6.0
 40
6.0
 10
601.7871076684163
 20
17.76111934935135
 10
601.7871076684163
 20
17.76111934935135
 10
602.1774765582446
 20
17.76111934935135
 10
602.1774765582446
 20
17.76111934935135
 97
        0
 72
     4
 94
        3
 73
     0
 74
     0
 95
        8
 96
        4
 40
6.0
 40
6.0
 40
6.0
 40
6.0
 40
7.0
 40
7.0
 40
7.0
 40
7.0
 10
602.1774765582446
 20
17.76111934935135
 10
602.4080135219191
 20
17.76111934935135
 10
602.6447216910102
 20
17.70791851158027
 10
602.6447216910102
 20
17.42418071013465
 97
        0
 72
     4
 94
        3
 73
     0
 74
     0
 95
        8
 96
        4
 40
7.0
 40
7.0
 40
7.0
 40
7.0
 40
8.0
 40
8.0
 40
8.0
 40
8.0
 10
602.6447216910102
 20
17.42418071013465
 10
602.6447216910102
 20
17.27049704811301
 10
602.5265281954532
 20
17.02192823515506
 10
602.1361593056249
 20
17.03390358544244
 97
        0
 72
     4
 94
        3
 73
     0
 74
     0
 95
        8
 96
        4
 40
8.0
 40
8.0
 40
8.0
 40
8.0
 40
9.0
 40
9.0
 40
9.0
 40
9.0
 10
602.1361593056249
 20
17.03390358544244
 10
602.1361593056249
 20
17.03390358544244
 10
601.886122250486
 20
16.11861517468281
 10
601.886122250486
 20
16.11861517468281
 97
        0
 72
     4
 94
        3
 73
     0
 74
     0
 95
        8
 96
        4
 40
9.0
 40
9.0
 40
9.0
 40
9.0
 40
10.0
 40
10.0
 40
10.0
 40
10.0
 10
601.886122250486
 20
16.11861517468281
 10
601.886122250486
 20
16.11861517468281
 10
602.3636680198012
 20
14.45603737644809
 10
602.3636680198012
 20
14.45603737644809
 97
        0
 72
     4
 94
        3
 73
     0
 74
     0
 95
        8
 96
        4
 40
10.0
 40
10.0
 40
10.0
 40
10.0
 40
11.0
 40
11.0
 40
11.0
 40
11.0
 10
602.3636680198012
 20
14.45603737644809
 10
602.3636680198012
 20
14.45603737644809
 10
603.4561787124894
 20
14.45603737644809
 10
603.4561787124894
 20
14.45603737644809
 97
        0
 97
       13
330
1DCA7
330
1DC96
330
1DCA8
330
1DC9D
330
1DC9E
330
1DC9F
330
1DCA0
330
1DCA1
330
1DCA2
330
1DCA3
330
1DCA4
330
1DCA5
330
1DCA6
 75
     1
 76
     1
 47
0.0269459378258844
 98
        1
 10
602.5694990264323
 20
16.01528990440049
450
        0
451
        0
460
0.0
461
0.0
452
        0
462
1.0
453
        2
463
0.0
 63
     5
421
      255
463
1.0
 63
     2
421
 16776960
470
LINEAR
1001
GRADIENTCOLOR1ACI
1070
     5
1001
GRADIENTCOLOR2ACI
1070
     2
1001
ACAD
1010
0.0
1020
0.0
1030
0.0
  0
SPLINE
  5
1DC9D
102
{ACAD_REACTORS
330
1DC9C
102
}
330
2
100
AcDbEntity
  8
Layer 1
100
AcDbSpline
210
0.0
220
0.0
230
1.0
 70
     8
 71
     3
 72
     8
 73
     4
 74
     0
 42
0.000000001
 43
0.0000000001
 40
0.0
 40
0.0
 40
0.0
 40
0.0
 40
1.0
 40
1.0
 40
1.0
 40
1.0
 10
603.945698969647
 20
17.5601537008501
 30
0.0
 10
603.945698969647
 20
18.39985058058106
 30
0.0
 10
603.2064849141664
 20
18.69558667359815
 30
0.0
 10
602.5619274366361
 20
18.69558667359815
 30
0.0
  0
SPLINE
  5
1DC9E
102
{ACAD_REACTORS
330
1DC9C
102
}
330
2
100
AcDbEntity
  8
Layer 1
100
AcDbSpline
210
0.0
220
0.0
230
1.0
 70
    24
 71
     3
 72
     8
 73
     4
 74
     0
 42
0.000000001
 43
0.0000000001
 40
1.0
 40
1.0
 40
1.0
 40
1.0
 40
2.0
 40
2.0
 40
2.0
 40
2.0
 10
602.5619274366361
 20
18.69558667359815
 30
0.0
 10
602.5619274366361
 20
18.69558667359815
 30
0.0
 10
600.7167599118315
 20
18.69558667359815
 30
0.0
 10
600.7167599118315
 20
18.69558667359815
 30
0.0
  0
SPLINE
  5
1DC9F
102
{ACAD_REACTORS
330
1DC9C
102
}
330
2
100
AcDbEntity
  8
Layer 1
100
AcDbSpline
210
0.0
220
0.0
230
1.0
 70
    24
 71
     3
 72
     8
 73
     4
 74
     0
 42
0.000000001
 43
0.0000000001
 40
2.0
 40
2.0
 40
2.0
 40
2.0
 40
3.0
 40
3.0
 40
3.0
 40
3.0
 10
600.7167599118315
 20
18.69558667359815
 30
0.0
 10
600.7167599118315
 20
18.69558667359815
 30
0.0
 10
599.593117965857
 20
14.52034426144628
 30
0.0
 10
599.593117965857
 20
14.52034426144628
 30
0.0
  0
SPLINE
  5
1DCA0
102
{ACAD_REACTORS
330
1DC9C
102
}
330
2
100
AcDbEntity
  8
Layer 1
100
AcDbSpline
210
0.0
220
0.0
230
1.0
 70
    24
 71
     3
 72
     8
 73
     4
 74
     0
 42
0.000000001
 43
0.0000000001
 40
3.0
 40
3.0
 40
3.0
 40
3.0
 40
4.0
 40
4.0
 40
4.0
 40
4.0
 10
599.593117965857
 20
14.52034426144628
 30
0.0
 10
599.593117965857
 20
14.52034426144628
 30
0.0
 10
600.9180688863526
 20
14.52034426144628
 30
0.0
 10
600.9180688863526
 20
14.52034426144628
 30
0.0
  0
SPLINE
  5
1DCA1
102
{ACAD_REACTORS
330
1DC9C
102
}
330
2
100
AcDbEntity
  8
Layer 1
100
AcDbSpline
210
0.0
220
0.0
230
1.0
 70
    24
 71
     3
 72
     8
 73
     4
 74
     0
 42
0.000000001
 43
0.0000000001
 40
4.0
 40
4.0
 40
4.0
 40
4.0
 40
5.0
 40
5.0
 40
5.0
 40
5.0
 10
600.9180688863526
 20
14.52034426144628
 30
0.0
 10
600.9180688863526
 20
14.52034426144628
 30
0.0
 10
601.7871076684163
 20
17.76111934935135
 30
0.0
 10
601.7871076684163
 20
17.76111934935135
 30
0.0
  0
SPLINE
  5
1DCA2
102
{ACAD_REACTORS
330
1DC9C
102
}
330
2
100
AcDbEntity
  8
Layer 1
100
AcDbSpline
210
0.0
220
0.0
230
1.0
 70
    24
 71
     3
 72
     8
 73
     4
 74
     0
 42
0.000000001
 43
0.0000000001
 40
5.0
 40
5.0
 40
5.0
 40
5.0
 40
6.0
 40
6.0
 40
6.0
 40
6.0
 10
601.7871076684163
 20
17.76111934935135
 30
0.0
 10
601.7871076684163
 20
17.76111934935135
 30
0.0
 10
602.1774765582446
 20
17.76111934935135
 30
0.0
 10
602.1774765582446
 20
17.76111934935135
 30
0.0
  0
SPLINE
  5
1DCA3
102
{ACAD_REACTORS
330
1DC9C
102
}
330
2
100
AcDbEntity
  8
Layer 1
100
AcDbSpline
210
0.0
220
0.0
230
1.0
 70
     8
 71
     3
 72
    11
 73
     7
 74
     0
 42
0.000000001
 43
0.0000000001
 40
6.0
 40
6.0
 40
6.0
 40
6.0
 40
7.0
 40
7.0
 40
7.0
 40
8.0
 40
8.0
 40
8.0
 40
8.0
 10
602.1774765582446
 20
17.76111934935135
 30
0.0
 10
602.4080135219191
 20
17.76111934935135
 30
0.0
 10
602.6447216910102
 20
17.70791851158027
 30
0.0
 10
602.6447216910102
 20
17.42418071013465
 30
0.0
 10
602.6447216910102
 20
17.27049704811301
 30
0.0
 10
602.5265281954532
 20
17.02192823515506
 30
0.0
 10
602.1361593056249
 20
17.03390358544244
 30
0.0
  0
SPLINE
  5
1DCA4
102
{ACAD_REACTORS
330
1DC9C
102
}
330
2
100
AcDbEntity
  8
Layer 1
100
AcDbSpline
210
0.0
220
0.0
230
1.0
 70
    24
 71
     3
 72
     8
 73
     4
 74
     0
 42
0.000000001
 43
0.0000000001
 40
8.0
 40
8.0
 40
8.0
 40
8.0
 40
9.0
 40
9.0
 40
9.0
 40
9.0
 10
602.1361593056249
 20
17.03390358544244
 30
0.0
 10
602.1361593056249
 20
17.03390358544244
 30
0.0
 10
601.886122250486
 20
16.11861517468281
 30
0.0
 10
601.886122250486
 20
16.11861517468281
 30
0.0
  0
SPLINE
  5
1DCA5
102
{ACAD_REACTORS
330
1DC9C
102
}
330
2
100
AcDbEntity
  8
Layer 1
100
AcDbSpline
210
0.0
220
0.0
230
1.0
 70
    24
 71
     3
 72
     8
 73
     4
 74
     0
 42
0.000000001
 43
0.0000000001
 40
9.0
 40
9.0
 40
9.0
 40
9.0
 40
10.0
 40
10.0
 40
10.0
 40
10.0
 10
601.886122250486
 20
16.11861517468281
 30
0.0
 10
601.886122250486
 20
16.11861517468281
 30
0.0
 10
602.3636680198012
 20
14.45603737644809
 30
0.0
 10
602.3636680198012
 20
14.45603737644809
 30
0.0
  0
SPLINE
  5
1DCA6
102
{ACAD_REACTORS
330
1DC9C
102
}
330
2
100
AcDbEntity
  8
Layer 1
100
AcDbSpline
210
0.0
220
0.0
230
1.0
 70
    24
 71
     3
 72
     8
 73
     4
 74
     0
 42
0.000000001
 43
0.0000000001
 40
10.0
 40
10.0
 40
10.0
 40
10.0
 40
11.0
 40
11.0
 40
11.0
 40
11.0
 10
602.3636680198012
 20
14.45603737644809
 30
0.0
 10
602.3636680198012
 20
14.45603737644809
 30
0.0
 10
603.4561787124894
 20
14.45603737644809
 30
0.0
 10
603.4561787124894
 20
14.45603737644809
 30
0.0
  0
SPLINE
  5
1DCA7
102
{ACAD_REACTORS
330
1DC9C
102
}
330
2
100
AcDbEntity
  8
Layer 1
100
AcDbSpline
210
0.0
220
0.0
230
1.0
 70
    24
 71
     3
 72
     8
 73
     4
 74
     0
 42
0.000000001
 43
0.0000000001
 40
11.0
 40
11.0
 40
11.0
 40
11.0
 40
12.0
 40
12.0
 40
12.0
 40
12.0
 10
603.4561787124894
 20
14.45603737644809
 30
0.0
 10
603.4561787124894
 20
14.45603737644809
 30
0.0
 10
602.8615856493757
 20
16.23118805564114
 30
0.0
 10
602.8615856493757
 20
16.23118805564114
 30
0.0
  0
SPLINE
  5
1DCA8
102
{ACAD_REACTORS
330
1DC9C
102
}
330
2
100
AcDbEntity
  8
Layer 1
100
AcDbSpline
210
0.0
220
0.0
230
1.0
 70
     8
 71
     3
 72
     8
 73
     4
 74
     0
 42
0.000000001
 43
0.0000000001
 40
13.0
 40
13.0
 40
13.0
 40
13.0
 40
14.0
 40
14.0
 40
14.0
 40
14.0
 10
603.3955669775167
 20
16.49565517846342
 30
0.0
 10
603.7563874934559
 20
16.77368060017421
 30
0.0
 10
603.945698969647
 20
17.17001422386238
 30
0.0
 10
603.945698969647
 20
17.5601537008501
 30
0.0
  0
HATCH
  5
1DCA9
330
2
100
AcDbEntity
  8
0
  6
Continuous
 62
     0
100
AcDbHatch
 10
0.0
 20
0.0
 30
0.0
210
0.0
220
0.0
230
1.0
  2
SOLID
 70
     1
 71
     1
 91
        2
 92
        5
 93
        4
 72
     4
 94
        3
 73
     0
 74
     0
 95
        8
 96
        4
 40
0.0
 40
0.0
 40
0.0
 40
0.0
 40
1.0
 40
1.0
 40
1.0
 40
1.0
 10
609.1205873598384
 20
16.20519558078362
 10
609.1205873598384
 20
15.12321579993148
 10
609.8615908354766
 20
14.29393426317075
 10
611.1435268483309
 20
14.29393426317075
 97
        0
 72
     4
 94
        3
 73
     0
 74
     0
 95
        8
 96
        4
 40
3.0
 40
3.0
 40
3.0
 40
3.0
 40
4.0
 40
4.0
 40
4.0
 40
4.0
 10
611.1435268483309
 20
14.29393426317075
 10
612.8431548203475
 20
14.29393426317075
 10
613.7193742243265
 20
15.59358094733117
 10
613.7193742243265
 20
16.76975764059737
 97
        0
 72
     4
 94
        3
 73
     0
 74
     0
 95
        8
 96
        4
 40
2.0
 40
2.0
 40
2.0
 40
2.0
 40
3.0
 40
3.0
 40
3.0
 40
3.0
 10
613.7193742243265
 20
16.76975764059737
 10
613.7193742243265
 20
17.82251277469187
 10
612.9784854551086
 20
18.69287960207723
 10
611.64355507604
 20
18.69287960207723
 97
        0
 72
     4
 94
        3
 73
     0
 74
     0
 95
        8
 96
        4
 40
1.0
 40
1.0
 40
1.0
 40
1.0
 40
2.0
 40
2.0
 40
2.0
 40
2.0
 10
611.64355507604
 20
18.69287960207723
 10
610.002725615109
 20
18.69287960207723
 10
609.1205873598384
 20
17.38719936020499
 10
609.1205873598384
 20
16.20519558078362
 97
        0
 97
        1
330
1DCAA
 92
       20
 93
        4
 72
     4
 94
        3
 73
     0
 74
     0
 95
        8
 96
        4
 40
2.0
 40
2.0
 40
2.0
 40
2.0
 40
3.0
 40
3.0
 40
3.0
 40
3.0
 10
611.2201277958588
 20
15.29371542318043
 10
610.7849545782308
 20
15.29371542318043
 10
610.4084651652682
 20
15.58192677502089
 10
610.4084651652682
 20
16.19354140847333
 97
        0
 72
     4
 94
        3
 73
     0
 74
     0
 95
        8
 96
        4
 40
1.0
 40
1.0
 40
1.0
 40
1.0
 40
2.0
 40
2.0
 40
2.0
 40
2.0
 10
610.4084651652682
 20
16.19354140847333
 10
610.4084651652682
 20
16.82869632343606
 10
610.8496959311131
 20
17.74017395699045
 10
611.6553239547707
 20
17.74017395699045
 97
        0
 72
     4
 94
        3
 73
     0
 74
     0
 95
        8
 96
        4
 40
0.0
 40
0.0
 40
0.0
 40
0.0
 40
1.0
 40
1.0
 40
1.0
 40
1.0
 10
611.6553239547707
 20
17.74017395699045
 10
612.0787512349521
 20
17.74017395699045
 10
612.4433800040479
 20
17.45207731157045
 10
612.4433800040479
 20
16.84626682298909
 97
        0
 72
     4
 94
        3
 73
     0
 74
     0
 95
        8
 96
        4
 40
3.0
 40
3.0
 40
3.0
 40
3.0
 40
4.0
 40
4.0
 40
4.0
 40
4.0
 10
612.4433800040479
 20
16.84626682298909
 10
612.4433800040479
 20
16.24059398211215
 10
612.0906348201033
 20
15.29371542318043
 10
611.2201277958588
 20
15.29371542318043
 97
        0
 97
        1
330
1DCAB
 75
     1
 76
     1
 47
0.0269459378258844
 98
        2
 10
610.0060541300756
 20
15.56911757752016
 10
610.0060541300756
 20
15.56911757752016
450
        0
451
        0
460
0.0
461
0.0
452
        0
462
1.0
453
        2
463
0.0
 63
     5
421
      255
463
1.0
 63
     2
421
 16776960
470
LINEAR
1001
GRADIENTCOLOR1ACI
1070
     5
1001
GRADIENTCOLOR2ACI
1070
     2
1001
ACAD
1010
0.0
1020
0.0
1030
0.0
  0
SPLINE
  5
1DCAA
102
{ACAD_REACTORS
330
1DCA9
102
}
330
2
100
AcDbEntity
  8
Layer 1
100
AcDbSpline
210
0.0
220
0.0
230
1.0
 70
     9
 71
     3
 72
    17
 73
    13
 74
     0
 42
0.000000001
 43
0.0000000001
 40
0.0
 40
0.0
 40
0.0
 40
0.0
 40
1.0
 40
1.0
 40
1.0
 40
2.0
 40
2.0
 40
2.0
 40
3.0
 40
3.0
 40
3.0
 40
4.0
 40
4.0
 40
4.0
 40
4.0
 10
611.1435268483309
 20
14.29393426317075
 30
0.0
 10
609.8615908354766
 20
14.29393426317075
 30
0.0
 10
609.1205873598384
 20
15.12321579993148
 30
0.0
 10
609.1205873598384
 20
16.20519558078362
 30
0.0
 10
609.1205873598384
 20
17.38719936020499
 30
0.0
 10
610.002725615109
 20
18.69287960207723
 30
0.0
 10
611.64355507604
 20
18.69287960207723
 30
0.0
 10
612.9784854551086
 20
18.69287960207723
 30
0.0
 10
613.7193742243265
 20
17.82251277469187
 30
0.0
 10
613.7193742243265
 20
16.76975764059737
 30
0.0
 10
613.7193742243265
 20
15.59358094733117
 30
0.0
 10
612.8431548203475
 20
14.29393426317075
 30
0.0
 10
611.1435268483309
 20
14.29393426317075
 30
0.0
  0
SPLINE
  5
1DCAB
102
{ACAD_REACTORS
330
1DCA9
102
}
330
2
100
AcDbEntity
  8
Layer 1
100
AcDbSpline
210
0.0
220
0.0
230
1.0
 70
     9
 71
     3
 72
    17
 73
    13
 74
     0
 42
0.000000001
 43
0.0000000001
 40
0.0
 40
0.0
 40
0.0
 40
0.0
 40
1.0
 40
1.0
 40
1.0
 40
2.0
 40
2.0
 40
2.0
 40
3.0
 40
3.0
 40
3.0
 40
4.0
 40
4.0
 40
4.0
 40
4.0
 10
612.4433800040479
 20
16.84626682298909
 30
0.0
 10
612.4433800040479
 20
17.45207731157045
 30
0.0
 10
612.0787512349521
 20
17.74017395699045
 30
0.0
 10
611.6553239547707
 20
17.74017395699045
 30
0.0
 10
610.8496959311131
 20
17.74017395699045
 30
0.0
 10
610.4084651652682
 20
16.82869632343606
 30
0.0
 10
610.4084651652682
 20
16.19354140847333
 30
0.0
 10
610.4084651652682
 20
15.58192677502089
 30
0.0
 10
610.7849545782308
 20
15.29371542318043
 30
0.0
 10
611.2201277958588
 20
15.29371542318043
 30
0.0
 10
612.0906348201033
 20
15.29371542318043
 30
0.0
 10
612.4433800040479
 20
16.24059398211215
 30
0.0
 10
612.4433800040479
 20
16.84626682298909
 30
0.0
  0
HATCH
  5
1DCAC
330
2
100
AcDbEntity
  8
0
  6
Continuous
 62
     0
100
AcDbHatch
 10
0.0
 20
0.0
 30
0.0
210
0.0
220
0.0
230
1.0
  2
SOLID
 70
     1
 71
     1
 91
        2
 92
        5
 93
        4
 72
     4
 94
        3
 73
     0
 74
     0
 95
        8
 96
        4
 40
0.0
 40
0.0
 40
0.0
 40
0.0
 40
1.0
 40
1.0
 40
1.0
 40
1.0
 10
613.8629866626389
 20
16.20519558078362
 10
613.8629866626389
 20
15.12321579993148
 10
614.6040819034135
 20
14.29393426317075
 10
615.8859032098473
 20
14.29393426317075
 97
        0
 72
     4
 94
        3
 73
     0
 74
     0
 95
        8
 96
        4
 40
3.0
 40
3.0
 40
3.0
 40
3.0
 40
4.0
 40
4.0
 40
4.0
 40
4.0
 10
615.8859032098473
 20
14.29393426317075
 10
617.5855541231481
 20
14.29393426317075
 10
618.461773527127
 20
15.59358094733117
 10
618.461773527127
 20
16.76975764059737
 97
        0
 72
     4
 94
        3
 73
     0
 74
     0
 95
        8
 96
        4
 40
2.0
 40
2.0
 40
2.0
 40
2.0
 40
3.0
 40
3.0
 40
3.0
 40
3.0
 10
618.461773527127
 20
16.76975764059737
 10
618.461773527127
 20
17.82251277469187
 10
617.7207700514888
 20
18.69287960207723
 10
616.3859543788407
 20
18.69287960207723
 97
        0
 72
     4
 94
        3
 73
     0
 74
     0
 95
        8
 96
        4
 40
1.0
 40
1.0
 40
1.0
 40
1.0
 40
2.0
 40
2.0
 40
2.0
 40
2.0
 10
616.3859543788407
 20
18.69287960207723
 10
614.7450102114892
 20
18.69287960207723
 10
613.8629866626389
 20
17.38719936020499
 10
613.8629866626389
 20
16.20519558078362
 97
        0
 97
        1
330
1DCAE
 92
       20
 93
        4
 72
     4
 94
        3
 73
     0
 74
     0
 95
        8
 96
        4
 40
2.0
 40
2.0
 40
2.0
 40
2.0
 40
3.0
 40
3.0
 40
3.0
 40
3.0
 10
615.9622976858188
 20
15.29371542318043
 10
615.5271244681907
 20
15.29371542318043
 10
615.1509573910852
 20
15.58192677502089
 10
615.1509573910852
 20
16.19354140847333
 97
        0
 72
     4
 94
        3
 73
     0
 74
     0
 95
        8
 96
        4
 40
1.0
 40
1.0
 40
1.0
 40
1.0
 40
2.0
 40
2.0
 40
2.0
 40
2.0
 10
615.1509573910852
 20
16.19354140847333
 10
615.1509573910852
 20
16.82869632343606
 10
615.5919794782723
 20
17.74017395699045
 10
616.3973791383104
 20
17.74017395699045
 97
        0
 72
     4
 94
        3
 73
     0
 74
     0
 95
        8
 96
        4
 40
0.0
 40
0.0
 40
0.0
 40
0.0
 40
1.0
 40
1.0
 40
1.0
 40
1.0
 10
616.3973791383104
 20
17.74017395699045
 10
616.8210358313323
 20
17.74017395699045
 10
617.1856646004281
 20
17.45207731157045
 10
617.1856646004281
 20
16.84626682298909
 97
        0
 72
     4
 94
        3
 73
     0
 74
     0
 95
        8
 96
        4
 40
3.0
 40
3.0
 40
3.0
 40
3.0
 40
4.0
 40
4.0
 40
4.0
 40
4.0
 10
617.1856646004281
 20
16.84626682298909
 10
617.1856646004281
 20
16.24059398211215
 10
616.8326900036427
 20
15.29371542318043
 10
615.9622976858188
 20
15.29371542318043
 97
        0
 97
        1
330
1DCAD
 75
     1
 76
     1
 47
0.0269459378258844
 98
        2
 10
615.0707249367355
 20
15.90374712477758
 10
615.0707249367355
 20
15.90374712477758
450
        0
451
        0
460
0.0
461
0.0
452
        0
462
1.0
453
        2
463
0.0
 63
     5
421
      255
463
1.0
 63
     2
421
 16776960
470
LINEAR
1001
GRADIENTCOLOR1ACI
1070
     5
1001
GRADIENTCOLOR2ACI
1070
     2
1001
ACAD
1010
0.0
1020
0.0
1030
0.0
  0
SPLINE
  5
1DCAD
102
{ACAD_REACTORS
330
1DCAC
102
}
330
2
100
AcDbEntity
  8
Layer 1
100
AcDbSpline
210
0.0
220
0.0
230
1.0
 70
     9
 71
     3
 72
    17
 73
    13
 74
     0
 42
0.000000001
 43
0.0000000001
 40
0.0
 40
0.0
 40
0.0
 40
0.0
 40
1.0
 40
1.0
 40
1.0
 40
2.0
 40
2.0
 40
2.0
 40
3.0
 40
3.0
 40
3.0
 40
4.0
 40
4.0
 40
4.0
 40
4.0
 10
617.1856646004281
 20
16.84626682298909
 30
0.0
 10
617.1856646004281
 20
17.45207731157045
 30
0.0
 10
616.8210358313323
 20
17.74017395699045
 30
0.0
 10
616.3973791383104
 20
17.74017395699045
 30
0.0
 10
615.5919794782723
 20
17.74017395699045
 30
0.0
 10
615.1509573910852
 20
16.82869632343606
 30
0.0
 10
615.1509573910852
 20
16.19354140847333
 30
0.0
 10
615.1509573910852
 20
15.58192677502089
 30
0.0
 10
615.5271244681907
 20
15.29371542318043
 30
0.0
 10
615.9622976858188
 20
15.29371542318043
 30
0.0
 10
616.8326900036427
 20
15.29371542318043
 30
0.0
 10
617.1856646004281
 20
16.24059398211215
 30
0.0
 10
617.1856646004281
 20
16.84626682298909
 30
0.0
  0
SPLINE
  5
1DCAE
102
{ACAD_REACTORS
330
1DCAC
102
}
330
2
100
AcDbEntity
  8
Layer 1
100
AcDbSpline
210
0.0
220
0.0
230
1.0
 70
     9
 71
     3
 72
    17
 73
    13
 74
     0
 42
0.000000001
 43
0.0000000001
 40
0.0
 40
0.0
 40
0.0
 40
0.0
 40
1.0
 40
1.0
 40
1.0
 40
2.0
 40
2.0
 40
2.0
 40
3.0
 40
3.0
 40
3.0
 40
4.0
 40
4.0
 40
4.0
 40
4.0
 10
615.8859032098473
 20
14.29393426317075
 30
0.0
 10
614.6040819034135
 20
14.29393426317075
 30
0.0
 10
613.8629866626389
 20
15.12321579993148
 30
0.0
 10
613.8629866626389
 20
16.20519558078362
 30
0.0
 10
613.8629866626389
 20
17.38719936020499
 30
0.0
 10
614.7450102114892
 20
18.69287960207723
 30
0.0
 10
616.3859543788407
 20
18.69287960207723
 30
0.0
 10
617.7207700514888
 20
18.69287960207723
 30
0.0
 10
618.461773527127
 20
17.82251277469187
 30
0.0
 10
618.461773527127
 20
16.76975764059737
 30
0.0
 10
618.461773527127
 20
15.59358094733117
 30
0.0
 10
617.5855541231481
 20
14.29393426317075
 30
0.0
 10
615.8859032098473
 20
14.29393426317075
 30
0.0
  0
HATCH
  5
1DCAF
330
2
100
AcDbEntity
  8
0
  6
Continuous
 62
     0
100
AcDbHatch
 10
0.0
 20
0.0
 30
0.0
210
0.0
220
0.0
230
1.0
  2
SOLID
 70
     1
 71
     1
 91
        1
 92
        5
 93
        6
 72
     4
 94
        3
 73
     0
 74
     0
 95
        8
 96
        4
 40
4.0
 40
4.0
 40
4.0
 40
4.0
 40
5.0
 40
5.0
 40
5.0
 40
5.0
 10
619.7341672394675
 20
15.38185583659852
 10
619.7341672394675
 20
15.38185583659852
 10
620.5869623187439
 20
18.56945549375113
 10
620.5869623187439
 20
18.56945549375113
 97
        0
 72
     4
 94
        3
 73
     0
 74
     0
 95
        8
 96
        4
 40
3.0
 40
3.0
 40
3.0
 40
3.0
 40
4.0
 40
4.0
 40
4.0
 40
4.0
 10
620.5869623187439
 20
18.56945549375113
 10
620.5869623187439
 20
18.56945549375113
 10
619.2811673704514
 20
18.56945549375113
 10
619.2811673704514
 20
18.56945549375113
 97
        0
 72
     4
 94
        3
 73
     0
 74
     0
 95
        8
 96
        4
 40
2.0
 40
2.0
 40
2.0
 40
2.0
 40
3.0
 40
3.0
 40
3.0
 40
3.0
 10
619.2811673704514
 20
18.56945549375113
 10
619.2811673704514
 20
18.56945549375113
 10
618.1698456872664
 20
14.41749601920128
 10
618.1698456872664
 20
14.41749601920128
 97
        0
 72
     4
 94
        3
 73
     0
 74
     0
 95
        8
 96
        4
 40
1.0
 40
1.0
 40
1.0
 40
1.0
 40
2.0
 40
2.0
 40
2.0
 40
2.0
 10
618.1698456872664
 20
14.41749601920128
 10
618.1698456872664
 20
14.41749601920128
 10
620.8576019490245
 20
14.41749601920128
 10
620.8576019490245
 20
14.41749601920128
 97
        0
 72
     4
 94
        3
 73
     0
 74
     0
 95
        8
 96
        4
 40
0.0
 40
0.0
 40
0.0
 40
0.0
 40
1.0
 40
1.0
 40
1.0
 40
1.0
 10
620.8576019490245
 20
14.41749601920128
 10
620.8576019490245
 20
14.41749601920128
 10
621.1766221433362
 20
15.38185583659852
 10
621.1766221433362
 20
15.38185583659852
 97
        0
 72
     4
 94
        3
 73
     0
 74
     0
 95
        8
 96
        4
 40
5.0
 40
5.0
 40
5.0
 40
5.0
 40
6.0
 40
6.0
 40
6.0
 40
6.0
 10
621.1766221433362
 20
15.38185583659852
 10
621.1766221433362
 20
15.38185583659852
 10
619.7341672394675
 20
15.38185583659852
 10
619.7341672394675
 20
15.38185583659852
 97
        0
 97
        6
330
1DCB4
330
1DCB3
330
1DCB2
330
1DCB1
330
1DCB0
330
1DCB5
 75
     1
 76
     1
 47
0.0168242271866721
 98
        1
 10
619.3342973558515
 20
15.65269702323276
450
        0
451
        0
460
0.0
461
0.0
452
        0
462
1.0
453
        2
463
0.0
 63
     5
421
      255
463
1.0
 63
     2
421
 16776960
470
LINEAR
1001
GRADIENTCOLOR1ACI
1070
     5
1001
GRADIENTCOLOR2ACI
1070
     2
1001
ACAD
1010
0.0
1020
0.0
1030
0.0
  0
SPLINE
  5
1DCB0
102
{ACAD_REACTORS
330
1DCAF
102
}
330
2
100
AcDbEntity
  8
Layer 1
100
AcDbSpline
210
0.0
220
0.0
230
1.0
 70
    24
 71
     3
 72
     8
 73
     4
 74
     0
 42
0.000000001
 43
0.0000000001
 40
0.0
 40
0.0
 40
0.0
 40
0.0
 40
1.0
 40
1.0
 40
1.0
 40
1.0
 10
621.1766221433362
 20
15.38185583659852
 30
0.0
 10
621.1766221433362
 20
15.38185583659852
 30
0.0
 10
620.8576019490245
 20
14.41749601920128
 30
0.0
 10
620.8576019490245
 20
14.41749601920128
 30
0.0
  0
SPLINE
  5
1DCB1
102
{ACAD_REACTORS
330
1DCAF
102
}
330
2
100
AcDbEntity
  8
Layer 1
100
AcDbSpline
210
0.0
220
0.0
230
1.0
 70
    24
 71
     3
 72
     8
 73
     4
 74
     0
 42
0.000000001
 43
0.0000000001
 40
1.0
 40
1.0
 40
1.0
 40
1.0
 40
2.0
 40
2.0
 40
2.0
 40
2.0
 10
620.8576019490245
 20
14.41749601920128
 30
0.0
 10
620.8576019490245
 20
14.41749601920128
 30
0.0
 10
618.1698456872664
 20
14.41749601920128
 30
0.0
 10
618.1698456872664
 20
14.41749601920128
 30
0.0
  0
SPLINE
  5
1DCB2
102
{ACAD_REACTORS
330
1DCAF
102
}
330
2
100
AcDbEntity
  8
Layer 1
100
AcDbSpline
210
0.0
220
0.0
230
1.0
 70
    24
 71
     3
 72
     8
 73
     4
 74
     0
 42
0.000000001
 43
0.0000000001
 40
2.0
 40
2.0
 40
2.0
 40
2.0
 40
3.0
 40
3.0
 40
3.0
 40
3.0
 10
618.1698456872664
 20
14.41749601920128
 30
0.0
 10
618.1698456872664
 20
14.41749601920128
 30
0.0
 10
619.2811673704514
 20
18.56945549375113
 30
0.0
 10
619.2811673704514
 20
18.56945549375113
 30
0.0
  0
SPLINE
  5
1DCB3
102
{ACAD_REACTORS
330
1DCAF
102
}
330
2
100
AcDbEntity
  8
Layer 1
100
AcDbSpline
210
0.0
220
0.0
230
1.0
 70
    24
 71
     3
 72
     8
 73
     4
 74
     0
 42
0.000000001
 43
0.0000000001
 40
3.0
 40
3.0
 40
3.0
 40
3.0
 40
4.0
 40
4.0
 40
4.0
 40
4.0
 10
619.2811673704514
 20
18.56945549375113
 30
0.0
 10
619.2811673704514
 20
18.56945549375113
 30
0.0
 10
620.5869623187439
 20
18.56945549375113
 30
0.0
 10
620.5869623187439
 20
18.56945549375113
 30
0.0
  0
SPLINE
  5
1DCB4
102
{ACAD_REACTORS
330
1DCAF
102
}
330
2
100
AcDbEntity
  8
Layer 1
100
AcDbSpline
210
0.0
220
0.0
230
1.0
 70
    24
 71
     3
 72
     8
 73
     4
 74
     0
 42
0.000000001
 43
0.0000000001
 40
4.0
 40
4.0
 40
4.0
 40
4.0
 40
5.0
 40
5.0
 40
5.0
 40
5.0
 10
620.5869623187439
 20
18.56945549375113
 30
0.0
 10
620.5869623187439
 20
18.56945549375113
 30
0.0
 10
619.7341672394675
 20
15.38185583659852
 30
0.0
 10
619.7341672394675
 20
15.38185583659852
 30
0.0
  0
SPLINE
  5
1DCB5
102
{ACAD_REACTORS
330
1DCAF
102
}
330
2
100
AcDbEntity
  8
Layer 1
100
AcDbSpline
210
0.0
220
0.0
230
1.0
 70
    24
 71
     3
 72
     8
 73
     4
 74
     0
 42
0.000000001
 43
0.0000000001
 40
5.0
 40
5.0
 40
5.0
 40
5.0
 40
6.0
 40
6.0
 40
6.0
 40
6.0
 10
619.7341672394675
 20
15.38185583659852
 30
0.0
 10
619.7341672394675
 20
15.38185583659852
 30
0.0
 10
621.1766221433362
 20
15.38185583659852
 30
0.0
 10
621.1766221433362
 20
15.38185583659852
 30
0.0
  0
TEXT
  5
1DCB6
330
2
100
AcDbEntity
  8
0
 62
     2
100
AcDbText
 10
593.4819318207231
 20
9.536016263500176
 30
0.0
 40
2.028364799999999
  1
www.maritool.com
  7
굴림
100
AcDbText
  0
TEXT
  5
1DCB7
330
2
100
AcDbEntity
  8
0
 62
     2
100
AcDbText
 10
579.6142204677176
 20
2.741745580237181
 30
0.0
 40
1.622691839999999
  1
ITEM#
  7
굴림
100
AcDbText
  0
TEXT
  5
1DCB8
330
2
100
AcDbEntity
  8
0
 62
     2
100
AcDbText
 10
590.047044352
 20
2.356198525208715
 30
0.0
 40
2.434037759999999
  1
CAT40-HC.125-2.5
  7
굴림
100
AcDbText
  0
TEXT
  5
1DCC0
330
2
100
AcDbEntity
  8
0
 62
     2
100
AcDbText
 10
495.7863957783235
 20
11.40460524423831
 30
0.0
 40
3.651056639999999
  1
T.I.R. ACCURACY .0001"
  7
굴림
100
AcDbText
  0
LINE
  5
22FAB
330
2
100
AcDbEntity
  8
0
  6
Continuous
 62
     3
100
AcDbLine
 10
513.2916530865986
 20
61.04925923857701
 30
0.0
 11
513.2916530865986
 21
34.13729486288486
 31
0.0
  0
MTEXT
  5
22FAC
330
2
100
AcDbEntity
  8
0
  6
Continuous
 62
     2
100
AcDbMText
 10
513.2921872557463
 20
31.68847975908881
 30
0.0
 40
3.0
 41
0.0
 46
0.0
 71
     5
 72
     1
  1
0.00
 73
     1
 44
1.0
  0
LINE
  5
22FAD
330
2
100
AcDbEntity
  8
0
  6
Continuous
 62
     3
100
AcDbLine
 10
532.3416530865988
 20
51.8305810893192
 30
0.0
 11
532.3416530865988
 21
33.70184288141155
 31
0.0
  0
MTEXT
  5
22FAE
330
2
100
AcDbEntity
  8
0
  6
Continuous
 62
     2
100
AcDbMText
 10
532.0478391534513
 20
31.22026915703106
 30
0.0
 40
3.0
 41
0.0
 46
0.0
 71
     5
 72
     1
  1
0.75
 73
     1
 44
1.0
  0
DIMENSION
  5
22FAF
330
2
100
AcDbEntity
  8
0
  6
Continuous
 62
     7
100
AcDbDimension
280
     0
  2
*D0
 10
500.5158503142135
 20
105.6560486365193
 30
0.0
 11
500.5158503142135
 21
124.1113517796132
 31
0.0
 70
   160
  1
%%C1.7500
 71
     5
 42
44.44999999999981
 73
     0
 74
     0
 75
     0
  3
Standard$0
100
AcDbAlignedDimension
 13
513.2916530865986
 23
61.20604863651948
 33
0.0
 14
513.2916530865986
 24
105.6560486365193
 34
0.0
 50
90.0
100
AcDbRotatedDimension
1001
ACAD
1000
DSTYLE
1002
{
1070
    42
1040
0.625
1070
    43
1040
3.75
1070
    44
1040
1.25
1070
    48
1040
0.000000001
1070
    74
1070
     0
1070
    77
1070
     1
1070
    90
1070
     1
1070
   140
1040
3.0
1070
   141
1040
-0.5
1070
   143
1040
0.03937007874016
1070
   146
1040
0.7
1070
   147
1040
0.625
1070
   171
1070
     3
1070
   172
1070
     1
1070
   175
1070
     0
1070
   179
1070
     0
1070
   274
1070
     3
1070
   283
1070
     0
1070
   284
1070
     8
1070
   340
1005
25
1070
   371
1070
    -1
1070
   372
1070
    -1
1002
}
  0
DIMENSION
  5
22FB0
330
2
100
AcDbEntity
  8
0
  6
Continuous
 62
     7
100
AcDbDimension
280
     0
  2
*D1
 10
492.5158503142133
 20
115.1810486365194
 30
0.0
 11
492.5158503142133
 21
123.8572297388817
 31
0.0
 70
   160
  1
%%C2.500
 71
     5
 42
63.5
 73
     0
 74
     0
 75
     0
  3
Standard$0
100
AcDbAlignedDimension
 13
516.9666530865986
 23
51.68104863651939
 33
0.0
 14
516.9666530865986
 24
115.1810486365194
 34
0.0
 50
90.0
100
AcDbRotatedDimension
1001
ACAD
1000
DSTYLE
1002
{
1070
    42
1040
0.625
1070
    43
1040
3.75
1070
    44
1040
1.25
1070
    48
1040
0.000000001
1070
    74
1070
     0
1070
    77
1070
     1
1070
    90
1070
     1
1070
   140
1040
3.0
1070
   141
1040
-0.5
1070
   143
1040
0.03937007874016
1070
   146
1040
0.7
1070
   147
1040
0.625
1070
   171
1070
     3
1070
   172
1070
     1
1070
   175
1070
     0
1070
   179
1070
     0
1070
   274
1070
     3
1070
   283
1070
     0
1070
   284
1070
     8
1070
   340
1005
25
1070
   371
1070
    -1
1070
   372
1070
    -1
1002
}
  0
MULTILEADER
  5
22FB1
330
2
100
AcDbEntity
  8
0
  6
Continuous
 62
     7
160
               736
310
E0020000190000000C00000016000000020000C30C00000033000000000000000C00000013000000993A00000C00000016000000020000C3E00000002600000023495EE7E4217C4024E515C7CB9E5C40000000000000000000000000000000000000000000000000000000000000F03F000000000000F03F00000000000000
310
00000000000000000055004E00430035002F0038002D0031003100000009000000010000000000000000000840000000000000F03F0000000000000000000000000000F03F00000000000000000000000000000000000000000000000000000000010000000000000000000000690073006F00630070002E00730068007800
310
00007700680067007400780074002E00730068007800000000000C00000033000000000000000C00000010000000000000000C00000016000000030000C30C00000012000000000000000C00000013000000010000000C0000001400000001000000540000000700000003000000F424FE4FF63F7D406C3C208781D1574000
310
00000000000000D0D9EAA4392B7D408435054D96DB56400000000000000000AE572BE1E62A7D40186DAD761DDF574000000000000000000C00000013000000891300003C000000060000000200000051BE94986E357D40C2D4E67E4FD857400000000000000000B40B541041657D40C47EAF6065785C400000000000000000
310
0C00000013000000112700003C0000000600000002000000B40B541041657D40C47EAF6065785C400000000000000000BEE2F7807E5F7D40C47EAF6065785C4000000000000000000C00000016000000030000C30C00000012000000000000000C00000017000000000000000C000000130000009A3A00003C000000060000
310
0002000000587C911A18297C40C47EAF6065785C400000000000000000BEE2F7807E5F7D40C47EAF6065785C4000000000000000000C00000016000000070000C30C00000012000000000000000C00000017000000FFFFFFFF0C0000003300000000000000
100
AcDbMLeader
270
     2
300
CONTEXT_DATA{
 40
1.0
 10
448.5683847125087
 20
115.9811876024074
 30
0.0
 41
3.0
140
4.0
145
2.0
174
     1
175
     6
176
     2
177
     0
290
     1
304
UNC5/8-11
 11
0.0
 21
0.0
 31
1.0
340
25
 12
467.9683847125086
 22
117.4811876024073
 32
0.0
 13
1.0
 23
0.0
 33
0.0
 42
0.0
 43
0.0
 44
0.0
 45
1.0
170
     1
 90
-1023410174
171
     3
172
     5
 91
-1073741824
141
0.0
 92
        0
291
     0
292
     0
173
     0
293
     0
142
0.0
143
0.0
294
     0
295
     0
296
     0
110
466.7015732931006
120
76.13177217255548
130
0.0
111
1.0
121
0.0
131
0.0
112
0.0
122
1.0
132
0.0
297
     0
302
LEADER{
290
     1
291
     1
 10
470.3283847125087
 20
113.8811876024074
 30
0.0
 11
-1.0
 21
0.0
 31
0.0
 90
        0
 40
0.36
304
LEADER_LINE{
 10
466.7015732931004
 20
91.4310486365194
 30
0.0
 91
        0
305
}
271
     0
303
}
272
     9
273
     9
301
}
340
BD9
 90
   279552
170
     1
 91
-1023410173
341
28
171
    -2
290
     1
291
     1
 41
0.36
 42
4.0
172
     2
343
25
173
     1
 95
        6
174
     1
175
     2
 92
-1023410174
292
     0
 93
-1056964608
 10
1.0
 20
1.0
 30
1.0
 43
0.0
176
     0
293
     0
294
     0
178
     0
179
     3
 45
1.0
271
     0
272
     9
273
     9
295
     1
  0
LINE
  5
22FB2
330
2
100
AcDbEntity
  8
0
  6
Continuous
 62
     3
100
AcDbLine
 10
445.0416530865989
 20
71.73788310212746
 30
0.0
 11
445.0416530865989
 21
34.13729486288486
 31
0.0
  0
MTEXT
  5
22FB3
330
2
100
AcDbEntity
  8
0
  6
Continuous
 62
     2
100
AcDbMText
 10
445.0421872557463
 20
31.68847975908881
 30
0.0
 40
3.0
 41
0.0
 46
0.0
 71
     5
 72
     1
  1
2.69
 73
     1
 44
1.0
  0
LINE
  5
22FB4
330
2
100
AcDbEntity
  8
0
  6
Continuous
 62
     3
100
AcDbLine
 10
516.4666530865988
 20
51.67300040702099
 30
0.0
 11
516.4666530865988
 21
43.44301104878292
 31
0.0
  0
LINE
  5
22FB5
330
2
100
AcDbEntity
  8
0
  6
Continuous
 62
     3
100
AcDbLine
 10
516.4666530865988
 20
43.44301104878292
 30
0.0
 11
522.734803876945
 21
41.69426988033893
 31
0.0
  0
LINE
  5
22FB6
330
2
100
AcDbEntity
  8
0
  6
Continuous
 62
     3
100
AcDbLine
 10
522.734803876945
 20
41.69426988033893
 30
0.0
 11
522.734803876945
 21
28.86934453599457
 31
0.0
  0
MTEXT
  5
22FB7
330
2
100
AcDbEntity
  8
0
  6
Continuous
 62
     2
100
AcDbMText
 10
522.679347106819
 20
26.38790027548572
 30
0.0
 40
3.0
 41
0.0
 46
0.0
 71
     5
 72
     1
  1
0.13
 73
     1
 44
1.0
  0
DIMENSION
  5
22FB8
330
2
100
AcDbEntity
  8
0
  6
Continuous
 62
     7
100
AcDbDimension
280
     0
  2
*D2
 10
445.0416530865986
 20
104.6468266642542
 30
0.0
 11
438.6580817657338
 21
106.7721219398447
 31
0.0
 70
    32
  1
0.29
 71
     5
 42
7.400000000000545
 73
     0
 74
     0
 75
     0
  3
Standard$0
100
AcDbAlignedDimension
 13
452.4416530865992
 23
91.58104863651947
 33
0.0
 14
445.0416530865986
 24
94.16540872261663
 34
0.0
100
AcDbRotatedDimension
1001
ACAD
1000
DSTYLE
1002
{
1070
    42
1040
0.625
1070
    43
1040
3.75
1070
    44
1040
1.25
1070
    48
1040
0.000000001
1070
    74
1070
     0
1070
    77
1070
     1
1070
    90
1070
     1
1070
   140
1040
3.0
1070
   141
1040
-0.5
1070
   143
1040
0.03937007874016
1070
   146
1040
0.7
1070
   147
1040
0.625
1070
   171
1070
     3
1070
   172
1070
     1
1070
   175
1070
     0
1070
   274
1070
     3
1070
   283
1070
     0
1070
   284
1070
     8
1070
   340
1005
25
1070
   371
1070
    -1
1070
   372
1070
    -1
1002
}
  0
DIMENSION
  5
241B6
330
2
100
AcDbEntity
  8
0
  6
Continuous
 62
     7
100
AcDbDimension
280
     0
  2
*D3
 10
597.4392456225477
 20
95.93104863658941
 30
0.0
 11
595.3142456225477
 21
83.4310486365811
 31
0.0
 70
    32
  1
%%C.98
 71
     5
 42
25.00000000001683
 73
     0
 74
     0
 75
     0
  3
Standard$0
100
AcDbAlignedDimension
 13
576.7916530865968
 23
70.93104863657259
 33
0.0
 14
576.7916530865968
 24
95.93104863658941
 34
0.0
 50
90.0
100
AcDbRotatedDimension
1001
ACAD
1000
DSTYLE
1002
{
1070
    75
1070
     1
1070
   281
1070
     1
1070
   282
1070
     0
1070
    42
1040
0.625
1070
    43
1040
3.75
1070
    44
1040
1.25
1070
    48
1040
0.000000001
1070
    74
1070
     0
1070
    77
1070
     1
1070
    90
1070
     1
1070
   140
1040
3.0
1070
   141
1040
-0.5
1070
   143
1040
0.03937007874016
1070
   146
1040
0.7
1070
   147
1040
0.625
1070
   171
1070
     3
1070
   172
1070
     1
1070
   175
1070
     0
1070
   179
1070
     0
1070
   274
1070
     3
1070
   283
1070
     0
1070
   284
1070
     8
1070
   340
1005
25
1070
   371
1070
    -1
1070
   372
1070
    -1
1002
}
  0
LINE
  5
241B7
330
2
100
AcDbEntity
  8
0
  6
Continuous
 62
     3
100
AcDbLine
 10
576.9836403847084
 20
85.01854863658541
 30
0.0
 11
590.6892456224722
 21
85.01854863658541
 31
0.0
  0
LINE
  5
241B8
330
2
100
AcDbEntity
  8
0
  6
Continuous
 62
     3
100
AcDbLine
 10
589.4392456224722
 20
85.01854863658541
 30
0.0
 11
589.4392456224722
 21
71.281336856971
 31
0.0
  0
SOLID
  5
241B9
330
2
100
AcDbEntity
  8
0
  6
Continuous
 62
     3
100
AcDbTrace
 10
589.8559122891392
 20
82.51854863658541
 30
0.0
 11
589.0225789558053
 21
82.51854863658541
 31
0.0
 12
589.4392456224722
 22
85.01854863658541
 32
0.0
 13
589.4392456224722
 23
85.01854863658541
 33
0.0
  0
MTEXT
  5
241BA
330
2
100
AcDbEntity
  8
0
  6
Continuous
 62
     2
100
AcDbMText
 10
587.3139503468819
 20
76.16846889132791
 30
0.0
 40
3.0
 41
0.0
 46
0.0
 71
     5
 72
     1
  1
%%C.125
 11
0.0000000000000001
 21
1.0
 31
0.0
 73
     1
 44
1.0
  0
DIMENSION
  5
241BB
330
2
100
AcDbEntity
  8
0
  6
Continuous
 62
     7
100
AcDbDimension
280
     0
  2
*D4
 10
605.4392456225477
 20
98.12997432526897
 30
0.0
 11
603.3142456225477
 21
83.43104863658155
 31
0.0
 70
    32
  1
%%C1.15
 71
     5
 42
29.39785137737499
 73
     0
 74
     0
 75
     0
  3
Standard$0
100
AcDbAlignedDimension
 13
548.8516530866008
 23
68.73212294789396
 33
0.0
 14
548.8516530866018
 24
98.12997432526897
 34
0.0
 50
90.0
100
AcDbRotatedDimension
1001
ACAD
1000
DSTYLE
1002
{
1070
    75
1070
     1
1070
   281
1070
     1
1070
   282
1070
     0
1070
    42
1040
0.625
1070
    43
1040
3.75
1070
    44
1040
1.25
1070
    48
1040
0.000000001
1070
    74
1070
     0
1070
    77
1070
     1
1070
    90
1070
     1
1070
   140
1040
3.0
1070
   141
1040
-0.5
1070
   143
1040
0.03937007874016
1070
   146
1040
0.7
1070
   147
1040
0.625
1070
   171
1070
     3
1070
   172
1070
     1
1070
   175
1070
     0
1070
   179
1070
     0
1070
   274
1070
     3
1070
   283
1070
     0
1070
   284
1070
     8
1070
   340
1005
25
1070
   371
1070
    -1
1070
   372
1070
    -1
1002
}
  0
DIMENSION
  5
241BC
330
2
100
AcDbEntity
  8
0
  6
Continuous
 62
     7
100
AcDbDimension
280
     0
  2
*D5
 10
613.4392456225477
 20
105.6560486365702
 30
0.0
 11
611.3142456225477
 21
83.43104863658654
 31
0.0
 70
    32
  1
%%C1.75
 71
     5
 42
44.44999999996753
 73
     0
 74
     0
 75
     0
  3
Standard$0
100
AcDbAlignedDimension
 13
546.6123828474492
 23
61.2060486366027
 33
0.0
 14
546.761361524781
 24
105.6560486365702
 34
0.0
 50
90.0
100
AcDbRotatedDimension
1001
ACAD
1000
DSTYLE
1002
{
1070
    75
1070
     1
1070
   281
1070
     1
1070
    42
1040
0.625
1070
    43
1040
3.75
1070
    44
1040
1.25
1070
    48
1040
0.000000001
1070
    74
1070
     0
1070
    77
1070
     1
1070
    90
1070
     1
1070
   140
1040
3.0
1070
   141
1040
-0.5
1070
   143
1040
0.03937007874016
1070
   146
1040
0.7
1070
   147
1040
0.625
1070
   171
1070
     3
1070
   172
1070
     1
1070
   175
1070
     0
1070
   179
1070
     0
1070
   274
1070
     3
1070
   283
1070
     0
1070
   284
1070
     8
1070
   340
1005
25
1070
   371
1070
    -1
1070
   372
1070
    -1
1002
}
  0
LINE
  5
242A4
330
2
100
AcDbEntity
  8
0
  6
CENTER
 62
     3
100
AcDbLine
 10
443.0416530865986
 20
83.43104863651849
 30
0.0
 11
578.7916530865995
 21
83.4310486365767
 31
0.0
  0
HATCH
  5
242A5
330
2
100
AcDbEntity
  8
0
  6
Continuous
 62
     4
100
AcDbHatch
 10
0.0
 20
0.0
 30
0.0
210
0.0
220
0.0
230
1.0
  2
ANSI31
 70
     0
 71
     0
 91
        4
 92
        7
 72
     1
 73
     1
 93
       44
 10
576.7916530865968
 20
95.00665814492828
 42
0.3913924554633129
 10
575.8701121823269
 20
96.00357547866412
 42
0.0
 10
550.2607561144623
 20
98.01907551188476
 42
-0.3176989915245369
 10
548.4858226533415
 20
99.49527208914339
 42
0.0
 10
547.1329458101709
 20
104.5442772042066
 42
0.3394542588626352
 10
545.6840570707391
 20
105.6560486365502
 42
0.0
 10
534.3416530865788
 20
105.6560486365711
 42
-0.4142135623700317
 10
532.3416530865997
 20
107.6560486365711
 42
0.0
 10
532.3416530865988
 20
114.3810486365192
 42
0.4142135623730951
 10
531.5416530865986
 20
115.1810486365194
 42
0.0
 10
528.2824372552422
 20
115.1810486365194
 42
0.2679491924309997
 10
527.8494245533502
 20
114.9310486365194
 42
0.0
 10
526.3853530865981
 20
112.3952024701894
 42
0.0
 10
526.385353086599
 20
111.5810486365199
 42
0.0
 10
522.5499530865981
 20
111.5810486365194
 42
0.0
 10
522.5499530865991
 20
112.395202470193
 42
0.0
 10
521.0858816198479
 20
114.9310486365194
 42
0.267949192431487
 10
520.6528689179549
 20
115.1810486365194
 42
0.0
 10
517.266653086599
 20
115.1810486365194
 42
0.4142135623730951
 10
516.4666530865988
 20
114.3810486365192
 42
0.0
 10
516.4666530865988
 20
107.1317763961538
 42
0.0
 10
516.8666530865984
 20
106.4389560731279
 42
0.0
 10
516.8666530865984
 20
105.5317763961548
 42
-0.4142135623713195
 10
516.5666530865991
 20
105.2317763961555
 42
0.0
 10
514.8750586438755
 20
105.231776396156
 42
0.0
 10
513.2916530866005
 20
105.6560486365193
 42
0.0
 10
446.5630754471003
 20
95.92479836533636
 42
0.3724076148657255
 10
445.0416530865986
 20
94.16540872261663
 42
0.0
 10
445.0416530865986
 20
92.58104863651949
 42
0.0
 10
446.7737038941686
 20
91.58104863651947
 42
0.0
 10
452.4416530865992
 20
91.58104863651947
 42
0.0
 10
452.5290149555976
 20
91.4310486365194
 42
0.0
 10
475.0416530865987
 20
91.43104863651894
 42
0.0
 10
476.8612561478294
 20
90.43104863651938
 42
0.0
 10
490.0416530865986
 20
90.43104863651938
 42
0.0
 10
490.0416530865986
 20
90.1810486365194
 42
0.0
 10
518.041653086655
 20
90.1810486365194
 42
0.0
 10
520.6397292979509
 20
85.68104863658396
 42
0.0
 10
553.7916530866005
 20
85.68104863657941
 42
0.0
 10
554.0586775861028
 20
85.21854863657614
 42
0.0
 10
558.7916530866005
 20
85.21854863657569
 42
0.0
 10
558.9071231404395
 20
85.01854863657177
 42
0.0
 10
576.3586403847093
 20
85.01854863657678
 42
0.0
 10
576.7916530865987
 20
85.26854863657678
 42
0.0
 97
        0
 92
       22
 72
     1
 73
     1
 93
        9
 10
559.579153086609
 20
86.93104863657579
 42
0.0
 10
573.2916530865959
 20
86.93104863658168
 42
0.0
 10
573.2916530865959
 20
86.11854863657669
 42
-0.4142135623729618
 10
572.8916530865963
 20
85.71854863657661
 42
0.0
 10
569.1916530865992
 20
85.71854863657796
 42
0.0
 10
568.3916530865999
 20
86.51854863657769
 42
0.0
 10
565.391653086599
 20
86.51854863657815
 42
0.0
 10
564.5916530865988
 20
85.71854863657842
 42
0.0
 10
560.7916530866004
 20
85.71854863657842
 42
0.0
 97
        0
 92
       23
 72
     0
 73
     1
 93
        4
 10
475.0416530865977
 20
91.4310486365194
 10
452.5290149555976
 20
91.43104863651984
 10
453.1114274155843
 20
90.43104863651985
 10
475.0416530865987
 20
90.43104863651938
 97
        0
 92
       23
 72
     0
 73
     1
 93
        3
 10
475.0416530865987
 20
91.4310486365194
 10
475.0416530865987
 20
90.43104863651938
 10
476.8612561478294
 20
90.43104863651938
 97
        0
 75
     0
 76
     1
 52
0.0
 41
1.5
 77
     0
 78
     1
 53
45.0
 43
-3810.807279041017
 44
3165.912327489237
 45
-3.367596045400931
 46
3.367596045400932
 79
     0
 47
0.0957441691297652
 98
        4
 10
516.2559435866978
 20
92.95822559590993
 10
516.2559435866978
 20
92.95822559590993
 10
474.0390941798514
 20
90.50007015121042
 10
475.5915898699359
 20
90.57779144291959
1001
ACAD
1010
0.0
1020
0.0
1030
0.0
  0
LINE
  5
242A6
330
2
100
AcDbEntity
  8
0
  6
Continuous
 62
     7
100
AcDbLine
 10
520.6397292979517
 20
85.68104863658351
 30
0.0
 11
518.0416530866231
 21
90.1810486365726
 31
0.0
  0
LINE
  5
242A7
330
2
100
AcDbEntity
  8
0
  6
Continuous
 62
     7
100
AcDbLine
 10
513.2916530865986
 20
105.6560486365193
 30
0.0
 11
446.5630754471003
 21
95.92479836533636
 31
0.0
1001
ACAD
1000
ASC_BOUNDS
1002
{
1070
    19
1002
}
  0
ARC
  5
242A8
330
2
100
AcDbEntity
  8
0
  6
Continuous
 62
     7
100
AcDbCircle
 10
446.8196530865989
 20
94.16540872261663
 30
0.0
 40
1.778
100
AcDbArc
 50
98.29714443629292
 51
180.0
1001
ACAD
1000
ASC_BOUNDS
1002
{
1070
    19
1002
}
  0
LINE
  5
242A9
330
2
100
AcDbEntity
  8
0
  6
Continuous
100
AcDbLine
 10
446.7737038941677
 20
91.58104863651947
 30
0.0
 11
452.4416530865992
 21
91.58104863651947
 31
0.0
  0
LINE
  5
242AA
330
2
100
AcDbEntity
  8
0
  6
Continuous
 62
     7
100
AcDbLine
 10
513.2916530865986
 20
61.20604863651948
 30
0.0
 11
446.5630754471003
 21
70.93729890770197
 31
0.0
1001
ACAD
1000
ASC_BOUNDS
1002
{
1070
    19
1002
}
  0
ARC
  5
242AB
330
2
100
AcDbEntity
  8
0
  6
Continuous
 62
     7
100
AcDbCircle
 10
446.8196530865989
 20
72.69668855042169
 30
0.0
 40
1.778
100
AcDbArc
 50
180.0
 51
261.7028555637071
1001
ACAD
1000
ASC_BOUNDS
1002
{
1070
    19
1002
}
  0
LINE
  5
242AC
330
2
100
AcDbEntity
  8
0
  6
Continuous
100
AcDbLine
 10
445.0416530865986
 20
83.43104863651939
 30
0.0
 11
445.0416530865986
 21
72.69668855042169
 31
0.0
  0
LINE
  5
242AD
330
2
100
AcDbEntity
  8
0
  6
Continuous
100
AcDbLine
 10
445.0416530865986
 20
83.43104863651939
 30
0.0
 11
445.0416530865986
 21
94.16540872261663
 31
0.0
  0
POINT
  5
242AE
330
2
100
AcDbEntity
  8
DEFPOINTS
  6
ByBlock
 62
     0
100
AcDbPoint
 10
445.0416530865986
 20
83.43104863651939
 30
0.0
  0
LINE
  5
242AF
330
2
100
AcDbEntity
  8
0
  6
Continuous
100
AcDbLine
 10
490.0416530865986
 20
90.43104863651938
 30
0.0
 11
453.1114274155852
 21
90.43104863651938
 31
0.0
  0
LINE
  5
242B0
330
2
100
AcDbEntity
  8
0
  6
Continuous
 62
     3
100
AcDbLine
 10
475.0416530865987
 20
91.4310486365194
 30
0.0
 11
452.5290149555976
 21
91.4310486365194
 31
0.0
  0
LINE
  5
242B1
330
2
100
AcDbEntity
  8
0
  6
Continuous
100
AcDbLine
 10
452.4416530865992
 20
91.58104863651947
 30
0.0
 11
453.1114274155852
 21
90.43104863651938
 31
0.0
  0
POINT
  5
242B2
330
2
100
AcDbEntity
  8
DEFPOINTS
  6
ByBlock
 62
     0
100
AcDbPoint
 10
452.2916530865987
 20
91.58104863651947
 30
0.0
  0
LINE
  5
242B3
330
2
100
AcDbEntity
  8
0
  6
Continuous
100
AcDbLine
 10
452.4416530865992
 20
83.43104863651939
 30
0.0
 11
452.4416530865992
 21
91.58104863651947
 31
0.0
1001
ACAD
1000
ASC_BOUNDS
1002
{
1070
    19
1005
0
1002
}
  0
LINE
  5
242B4
330
2
100
AcDbEntity
  8
0
  6
Continuous
100
AcDbLine
 10
453.1114274155852
 20
90.43104863651938
 30
0.0
 11
453.1114274155852
 21
83.43104863651939
 31
0.0
  0
LINE
  5
242B5
330
2
100
AcDbEntity
  8
0
  6
Continuous
 62
     3
100
AcDbLine
 10
475.0416530865987
 20
91.4310486365194
 30
0.0
 11
476.8612561478294
 21
90.43104863651938
 31
0.0
  0
LINE
  5
242B6
330
2
100
AcDbEntity
  8
0
  6
Continuous
 62
     2
100
AcDbLine
 10
475.0416530865987
 20
91.4310486365194
 30
0.0
 11
475.0416530865987
 21
83.43104863651939
 31
0.0
  0
LINE
  5
242B7
330
2
100
AcDbEntity
  8
0
  6
Continuous
100
AcDbLine
 10
490.0416530865986
 20
90.43104863651938
 30
0.0
 11
490.0416530865986
 21
83.43104863651939
 31
0.0
  0
LINE
  5
242B8
330
2
100
AcDbEntity
  8
0
  6
ByBlock
 62
     0
100
AcDbLine
 10
490.0416530865986
 20
90.1810486365194
 30
0.0
 11
518.0416530866532
 21
90.1810486365194
 31
0.0
  0
LINE
  5
242B9
330
2
100
AcDbEntity
  8
0
  6
Continuous
100
AcDbLine
 10
445.0416530865986
 20
92.58104863651949
 30
0.0
 11
446.7737038941677
 21
91.58104863651947
 31
0.0
  0
LINE
  5
242BA
330
2
100
AcDbEntity
  8
0
  6
Continuous
100
AcDbLine
 10
446.7737038941677
 20
91.58104863651947
 30
0.0
 11
446.7737038941677
 21
83.43104863651939
 31
0.0
  0
LINE
  5
242BB
330
2
100
AcDbEntity
  8
0
  6
Continuous
 62
     7
100
AcDbLine
 10
518.0416530866541
 20
90.1810486365194
 30
0.0
 11
518.0416530866541
 21
83.43104863651939
 31
0.0
  0
LINE
  5
242BC
330
2
100
AcDbEntity
  8
0
  6
Continuous
100
AcDbLine
 10
520.6528689179549
 20
51.68104863651939
 30
0.0
 11
517.266653086599
 21
51.68104863651939
 31
0.0
  0
LINE
  5
242BD
330
2
100
AcDbEntity
  8
0
  6
Continuous
100
AcDbLine
 10
520.9415440525499
 20
51.7728003460557
 30
0.0
 11
520.9415440525499
 21
75.23954863651948
 31
0.0
  0
LINE
  5
242BE
330
2
100
AcDbEntity
  8
0
  6
Continuous
100
AcDbLine
 10
522.5499530865981
 20
75.23954863651948
 30
0.0
 11
522.5499530865981
 21
54.46689480284391
 31
0.0
  0
LINE
  5
242BF
330
2
100
AcDbEntity
  8
0
  6
Continuous
100
AcDbLine
 10
527.9937621206472
 20
51.7728003460557
 30
0.0
 11
527.9937621206472
 21
75.23954863651948
 31
0.0
  0
LINE
  5
242C0
330
2
100
AcDbEntity
  8
0
  6
Continuous
100
AcDbLine
 10
526.385353086599
 20
75.23954863651903
 30
0.0
 11
526.385353086599
 21
54.46689480284391
 31
0.0
  0
LINE
  5
242C1
330
2
100
AcDbEntity
  8
0
  6
Continuous
100
AcDbLine
 10
531.5416530865986
 20
51.68104863651939
 30
0.0
 11
528.2824372552422
 21
51.68104863651939
 31
0.0
  0
LINE
  5
242C2
330
2
100
AcDbEntity
  8
0
  6
Continuous
100
AcDbLine
 10
522.5676530865984
 20
55.2810486365193
 30
0.0
 11
526.3676530865986
 21
55.2810486365193
 31
0.0
  0
LINE
  5
242C3
330
2
100
AcDbEntity
  8
0
  6
Continuous
100
AcDbLine
 10
522.5499530865981
 20
54.46689480284391
 30
0.0
 11
521.0858816198479
 21
51.93104863651939
 31
0.0
  0
ARC
  5
242C4
330
2
100
AcDbEntity
  8
0
  6
Continuous
100
AcDbCircle
 10
520.6528689179549
 20
52.18104863651939
 30
0.0
 40
0.5
100
AcDbArc
 50
270.0
 51
329.9999999999699
  0
LINE
  5
242C5
330
2
100
AcDbEntity
  8
0
  6
Continuous
100
AcDbLine
 10
526.385353086599
 20
54.46689480284391
 30
0.0
 11
527.8494245533502
 21
51.93104863651939
 31
0.0
  0
POINT
  5
242C6
330
2
100
AcDbEntity
  8
DEFPOINTS
  6
ByBlock
 62
     0
100
AcDbPoint
 10
526.3676530865986
 20
55.2810486365193
 30
0.0
  0
POINT
  5
242C7
330
2
100
AcDbEntity
  8
DEFPOINTS
  6
ByBlock
 62
     0
100
AcDbPoint
 10
526.3676530865986
 20
54.48917134002482
 30
0.0
  0
ARC
  5
242C8
330
2
100
AcDbEntity
  8
0
  6
Continuous
100
AcDbCircle
 10
528.2824372552422
 20
52.18104863651939
 30
0.0
 40
0.5
100
AcDbArc
 50
210.0000000000001
 51
270.0
  0
LINE
  5
242C9
330
2
100
AcDbEntity
  8
0
  6
Continuous
100
AcDbLine
 10
520.6528689179549
 20
115.1810486365194
 30
0.0
 11
517.266653086599
 21
115.1810486365194
 31
0.0
  0
LINE
  5
242CA
330
2
100
AcDbEntity
  8
0
  6
Continuous
100
AcDbLine
 10
522.5676530865984
 20
111.5810486365194
 30
0.0
 11
526.3676530865986
 21
111.5810486365194
 31
0.0
  0
ARC
  5
242CB
330
2
100
AcDbEntity
  8
0
  6
Continuous
100
AcDbCircle
 10
520.6528689179549
 20
114.6810486365194
 30
0.0
 40
0.5
100
AcDbArc
 50
30.00000000002993
 51
90.0
  0
LINE
  5
242CC
330
2
100
AcDbEntity
  8
0
  6
Continuous
100
AcDbLine
 10
522.5499530865981
 20
111.5810486365194
 30
0.0
 11
522.5499530865991
 21
112.3952024701944
 31
0.0
  0
POINT
  5
242CD
330
2
100
AcDbEntity
  8
DEFPOINTS
  6
ByBlock
 62
     0
100
AcDbPoint
 10
522.5676530865984
 20
112.3729259330139
 30
0.0
  0
LINE
  5
242CE
330
2
100
AcDbEntity
  8
0
  6
Continuous
100
AcDbLine
 10
522.5499530865981
 20
112.3952024701944
 30
0.0
 11
521.0858816198479
 21
114.9310486365194
 31
0.0
  0
LINE
  5
242CF
330
2
100
AcDbEntity
  8
0
  6
Continuous
100
AcDbLine
 10
526.385353086599
 20
111.5810486365194
 30
0.0
 11
526.3853530865981
 21
112.3952024701944
 31
0.0
  0
POINT
  5
242D0
330
2
100
AcDbEntity
  8
DEFPOINTS
  6
ByBlock
 62
     0
100
AcDbPoint
 10
526.3676530865986
 20
112.3729259330139
 30
0.0
  0
POINT
  5
242D1
330
2
100
AcDbEntity
  8
DEFPOINTS
  6
ByBlock
 62
     0
100
AcDbPoint
 10
526.3676530865986
 20
111.5810486365194
 30
0.0
  0
LINE
  5
242D2
330
2
100
AcDbEntity
  8
0
  6
Continuous
100
AcDbLine
 10
526.385353086599
 20
112.3952024701944
 30
0.0
 11
527.8494245533502
 21
114.9310486365194
 31
0.0
  0
ARC
  5
242D3
330
2
100
AcDbEntity
  8
0
  6
Continuous
100
AcDbCircle
 10
528.2824372552422
 20
114.6810486365194
 30
0.0
 40
0.5
100
AcDbArc
 50
90.0
 51
149.99999999997
  0
LINE
  5
242D4
330
2
100
AcDbEntity
  8
0
  6
Continuous
100
AcDbLine
 10
531.5416530865986
 20
115.1810486365194
 30
0.0
 11
528.2824372552422
 21
115.1810486365194
 31
0.0
  0
LINE
  5
242D5
330
2
100
AcDbEntity
  8
0
  6
Continuous
100
AcDbLine
 10
532.3416530865988
 20
52.48104863651912
 30
0.0
 11
532.3416530865988
 21
83.43104863651939
 31
0.0
  0
ARC
  5
242D6
330
2
100
AcDbEntity
  8
0
  6
Continuous
100
AcDbCircle
 10
531.5416530865986
 20
52.48104863651912
 30
0.0
 40
0.8
100
AcDbArc
 50
270.0
 51
0.0
  0
LINE
  5
242D7
330
2
100
AcDbEntity
  8
0
  6
Continuous
100
AcDbLine
 10
516.9916530865984
 20
75.23954863651948
 30
0.0
 11
532.3416530865988
 21
75.23954863651948
 31
0.0
  0
LINE
  5
242D8
330
2
100
AcDbEntity
  8
0
  6
Continuous
100
AcDbLine
 10
532.3416530865988
 20
114.3810486365192
 30
0.0
 11
532.3416530865997
 21
107.6560486365711
 31
0.0
  0
ARC
  5
242D9
330
2
100
AcDbEntity
  8
0
  6
Continuous
100
AcDbCircle
 10
531.5416530865986
 20
114.3810486365192
 30
0.0
 40
0.8
100
AcDbArc
 50
0.0
 51
90.0
  0
ARC
  5
242DA
330
2
100
AcDbEntity
  8
0
  6
Continuous
100
AcDbCircle
 10
524.4676530865981
 20
83.43104863651939
 30
0.0
 40
4.7625
100
AcDbArc
 50
180.0
 51
0.0
  0
ARC
  5
242DC
330
2
100
AcDbEntity
  8
0
  6
Continuous
100
AcDbCircle
 10
517.266653086599
 20
52.48104863651912
 30
0.0
 40
0.8
100
AcDbArc
 50
180.0
 51
270.0
  0
ARC
  5
242DD
330
2
100
AcDbEntity
  8
0
  6
Continuous
100
AcDbCircle
 10
517.266653086599
 20
114.3810486365192
 30
0.0
 40
0.8
100
AcDbArc
 50
90.0
 51
180.0
  0
LINE
  5
242DE
330
2
100
AcDbEntity
  8
0
  6
Continuous
100
AcDbLine
 10
513.2916530865986
 20
61.20604863651948
 30
0.0
 11
513.2916530865986
 21
83.43104863651939
 31
0.0
  0
LINE
  5
242DF
330
2
100
AcDbEntity
  8
0
  6
Continuous
100
AcDbLine
 10
516.4666530865988
 20
105.2317763961555
 30
0.0
 11
516.4666530865988
 21
114.3810486365192
 31
0.0
  0
LINE
  5
242E0
330
2
100
AcDbEntity
  8
0
  6
Continuous
100
AcDbLine
 10
516.4666530865988
 20
83.43104863651939
 30
0.0
 11
516.4666530865988
 21
52.48104863651912
 31
0.0
  0
ARC
  5
242E1
330
2
100
AcDbEntity
  8
0
  6
Continuous
100
AcDbCircle
 10
515.9666530865989
 20
61.13032087688321
 30
0.0
 40
0.5
100
AcDbArc
 50
0.0
 51
90.0
  0
LINE
  5
242E2
330
2
100
AcDbEntity
  8
0
  6
Continuous
100
AcDbLine
 10
513.2916530865986
 20
61.20604863651948
 30
0.0
 11
514.8750586438772
 21
61.63032087688321
 31
0.0
  0
LINE
  5
242E3
330
2
100
AcDbEntity
  8
0
  6
Continuous
100
AcDbLine
 10
514.8750586438772
 20
61.63032087688321
 30
0.0
 11
515.9666530865989
 21
61.63032087688321
 31
0.0
  0
LINE
  5
242E4
330
2
100
AcDbEntity
  8
0
  6
Continuous
100
AcDbLine
 10
514.8750586438772
 20
105.2317763961555
 30
0.0
 11
516.5666530865991
 21
105.2317763961555
 31
0.0
  0
LINE
  5
242E5
330
2
100
AcDbEntity
  8
0
  6
Continuous
100
AcDbLine
 10
513.2916530865986
 20
105.6560486365193
 30
0.0
 11
514.8750586438772
 21
105.2317763961555
 31
0.0
  0
LINE
  5
242E6
330
2
100
AcDbEntity
  8
0
  6
Continuous
 62
     0
100
AcDbLine
 10
514.8750586438772
 20
61.63032087688321
 30
0.0
 11
514.8750586438772
 21
83.43104863651939
 31
0.0
  0
ARC
  5
242E7
330
2
100
AcDbEntity
  8
0
  6
Continuous
100
AcDbCircle
 10
516.5666530865991
 20
105.5317763961548
 30
0.0
 40
0.3
100
AcDbArc
 50
270.0
 51
0.0
1001
ACAD
1000
ASC_BOUNDS
1002
{
1070
    19
1002
}
  0
LINE
  5
242E8
330
2
100
AcDbEntity
  8
0
  6
Continuous
100
AcDbLine
 10
516.8666530865984
 20
105.5317763961548
 30
0.0
 11
516.8666530865984
 21
106.4389560731297
 31
0.0
  0
LINE
  5
242E9
330
2
100
AcDbEntity
  8
0
  6
Continuous
100
AcDbLine
 10
516.4666530865988
 20
107.1317763961534
 30
0.0
 11
516.8666530865984
 21
106.4389560731279
 31
0.0
  0
ARC
  5
242EA
330
2
100
AcDbEntity
  8
0
  6
Continuous
 62
     7
100
AcDbCircle
 10
534.3416530865788
 20
107.6560486365711
 30
0.0
 40
2.0
100
AcDbArc
 50
180.000000000026
 51
270.0
  0
LINE
  5
242EC
330
2
100
AcDbEntity
  8
0
  6
Continuous
 62
     7
370
     0
100
AcDbLine
 10
559.5791530866054
 20
86.93104863657579
 30
0.0
 11
573.2916530865959
 21
86.93104863658124
 31
0.0
  0
LINE
  5
242ED
330
2
100
AcDbEntity
  8
0
  6
Continuous
 62
     7
100
AcDbLine
 10
554.058677586102
 20
85.2185486365766
 30
0.0
 11
553.7916530866005
 21
85.68104863657941
 31
0.0
  0
LINE
  5
242EE
330
2
100
AcDbEntity
  8
0
  6
Continuous
 62
     7
100
AcDbLine
 10
553.7916530866005
 20
85.68104863657941
 30
0.0
 11
520.6397292979517
 21
85.68104863658351
 31
0.0
  0
ARC
  5
242EF
330
2
100
AcDbEntity
  8
0
  6
Continuous
 62
     7
100
AcDbCircle
 10
572.8916530865963
 20
86.11854863657669
 30
0.0
 40
0.4
100
AcDbArc
 50
270.0
 51
359.999999999974
1001
ACAD
1000
ASC_BOUNDS
1002
{
1070
    19
1005
0
1002
}
  0
LINE
  5
242F0
330
2
100
AcDbEntity
  8
0
  6
Continuous
 62
     7
100
AcDbLine
 10
558.7916530866005
 20
85.2185486365766
 30
0.0
 11
558.7916530866005
 21
83.4310486365767
 31
0.0
  0
LINE
  5
242F1
330
2
100
AcDbEntity
  8
0
  6
Continuous
 62
     7
100
AcDbLine
 10
554.058677586102
 20
85.2185486365766
 30
0.0
 11
558.7916530866005
 21
85.21854863657569
 31
0.0
1001
ACAD
1000
ASC_BOUNDS
1002
{
1070
    19
1005
0
1002
}
  0
LINE
  5
242F2
330
2
100
AcDbEntity
  8
0
  6
Continuous
 62
     7
100
AcDbLine
 10
558.9071231404395
 20
85.01854863657223
 30
0.0
 11
576.3586403847084
 21
85.01854863657678
 31
0.0
1001
ACAD
1000
ASC_BOUNDS
1002
{
1070
    19
1005
0
1002
}
  0
LINE
  5
242F3
330
2
100
AcDbEntity
  8
0
  6
Continuous
 62
     7
100
AcDbLine
 10
558.7916530866005
 20
85.21854863657569
 30
0.0
 11
558.9071231404395
 21
85.01854863657223
 31
0.0
  0
LINE
  5
242F4
330
2
100
AcDbEntity
  8
0
  6
Continuous
 62
     7
100
AcDbLine
 10
558.9071231404395
 20
85.01854863657223
 30
0.0
 11
558.9071231404395
 21
83.4310486365767
 31
0.0
  0
LINE
  5
242F5
330
2
100
AcDbEntity
  8
0
  6
Continuous
 62
     7
100
AcDbLine
 10
576.7916530865996
 20
85.26854863657678
 30
0.0
 11
576.3586403847084
 21
85.01854863657678
 31
0.0
  0
LINE
  5
242F6
330
2
100
AcDbEntity
  8
0
  6
Continuous
 62
     7
100
AcDbLine
 10
576.3586403847084
 20
85.01854863657678
 30
0.0
 11
576.3586403847084
 21
83.4310486365767
 31
0.0
  0
LINE
  5
242F7
330
2
100
AcDbEntity
  8
0
  6
Continuous
 62
     7
100
AcDbLine
 10
569.1916530865992
 20
85.71854863657751
 30
0.0
 11
572.8916530865963
 21
85.71854863657661
 31
0.0
1001
ACAD
1000
ASC_BOUNDS
1002
{
1070
    19
1005
0
1002
}
  0
LINE
  5
242F8
330
2
100
AcDbEntity
  8
0
  6
Continuous
 62
     7
100
AcDbLine
 10
560.7916530866013
 20
85.71854863657842
 30
0.0
 11
564.5916530865988
 21
85.71854863657796
 31
0.0
1001
ACAD
1000
ASC_BOUNDS
1002
{
1070
    19
1005
0
1002
}
  0
LINE
  5
242F9
330
2
100
AcDbEntity
  8
0
  6
Continuous
 62
     7
100
AcDbLine
 10
559.5791530866054
 20
86.93104863657579
 30
0.0
 11
560.7916530866013
 21
85.71854863657842
 31
0.0
1001
ACAD
1000
ASC_BOUNDS
1002
{
1070
    19
1005
0
1002
}
  0
LINE
  5
242FA
330
2
100
AcDbEntity
  8
0
  6
Continuous
 62
     7
100
AcDbLine
 10
568.391653086599
 20
86.51854863657769
 30
0.0
 11
569.1916530865992
 21
85.71854863657751
 31
0.0
1001
ACAD
1000
ASC_BOUNDS
1002
{
1070
    19
1005
0
1002
}
  0
LINE
  5
242FB
330
2
100
AcDbEntity
  8
0
  6
Continuous
 62
     7
100
AcDbLine
 10
565.3916530865981
 20
86.51854863657815
 30
0.0
 11
564.5916530865988
 21
85.71854863657796
 31
0.0
1001
ACAD
1000
ASC_BOUNDS
1002
{
1070
    19
1005
0
1002
}
  0
LINE
  5
242FC
330
2
100
AcDbEntity
  8
0
 62
     7
100
AcDbLine
 10
565.3916530865981
 20
86.51854863657815
 30
0.0
 11
568.391653086599
 21
86.51854863657769
 31
0.0
  0
LINE
  5
242FD
330
2
100
AcDbEntity
  8
0
  6
Continuous
 62
     7
100
AcDbLine
 10
573.2916530865959
 20
86.11854863657669
 30
0.0
 11
573.2916530865959
 21
86.93104863658124
 31
0.0
  0
LINE
  5
242FE
330
2
100
AcDbEntity
  8
0
  6
Continuous
 62
     7
100
AcDbLine
 10
553.7916530866005
 20
83.43104863657215
 30
0.0
 11
553.7916530866005
 21
85.68104863657941
 31
0.0
  0
LINE
  5
242FF
330
2
100
AcDbEntity
  8
0
  6
Continuous
 62
     7
100
AcDbLine
 10
554.058677586102
 20
85.2185486365766
 30
0.0
 11
554.058677586102
 21
83.43104863657305
 31
0.0
  0
ARC
  5
24300
330
2
100
AcDbEntity
  8
0
  6
Continuous
 62
     7
100
AcDbCircle
 10
534.3416530865979
 20
59.20604863653676
 30
0.0
 40
2.0
100
AcDbArc
 50
90.00000000005213
 51
180.0
  0
LINE
  5
24301
330
2
100
AcDbEntity
  8
0
  6
Continuous
 62
     7
100
AcDbLine
 10
520.6397292979517
 20
85.68104863658351
 30
0.0
 11
520.6397292979527
 21
83.43104863654895
 31
0.0
  0
LINE
  5
24306
330
2
100
AcDbEntity
  8
0
  6
ByBlock
 62
     0
100
AcDbLine
 10
576.7916530865996
 20
83.4310486365867
 30
0.0
 11
576.7916530865968
 21
95.00665814492828
 31
0.0
  0
ARC
  5
24307
330
2
100
AcDbEntity
  8
0
  6
Continuous
 62
     7
100
AcDbCircle
 10
575.7916530865986
 20
95.00665814492828
 30
0.0
 40
1.0
100
AcDbArc
 50
0.0
 51
85.50000000008138
  0
LINE
  5
24308
330
2
100
AcDbEntity
  8
0
  6
Continuous
 62
     7
100
AcDbLine
 10
534.3416530865788
 20
105.6560486365711
 30
0.0
 11
545.6840570707391
 21
105.6560486365502
 31
0.0
  0
ARC
  5
24309
330
2
100
AcDbEntity
  8
0
  6
Continuous
 62
     7
100
AcDbCircle
 10
545.6840570707381
 20
104.1560486365502
 30
0.0
 40
1.5
100
AcDbArc
 50
15.00000000010239
 51
89.99999999994789
  0
LINE
  5
2430A
330
2
100
AcDbEntity
  8
0
  6
ByBlock
 62
     0
100
AcDbLine
 10
550.2607561144623
 20
98.01907551188476
 30
0.0
 11
575.8701121823269
 21
96.00357547866412
 31
0.0
  0
ARC
  5
2430B
330
2
100
AcDbEntity
  8
0
  6
Continuous
 62
     7
100
AcDbCircle
 10
550.4176743059178
 20
100.0129101793509
 30
0.0
 40
2.0
100
AcDbArc
 50
195.0000000000484
 51
265.4999999999769
  0
LINE
  5
2430C
330
2
100
AcDbEntity
  8
0
  6
Continuous
 62
     7
100
AcDbLine
 10
548.4858226533415
 20
99.49527208914339
 30
0.0
 11
547.1329458101709
 21
104.5442772042066
 31
0.0
  0
ARC
  5
2430D
330
2
100
AcDbEntity
  8
0
  6
Continuous
 62
     7
100
AcDbCircle
 10
575.7916530865977
 20
71.85543912823419
 30
0.0
 40
1.0
100
AcDbArc
 50
274.4999999999186
 51
0.0
  0
LINE
  5
2430E
330
2
100
AcDbEntity
  8
0
  6
ByBlock
 62
     0
100
AcDbLine
 10
550.2607561144613
 20
68.84302176127864
 30
0.0
 11
575.870112182326
 21
70.85852179449791
 31
0.0
  0
ARC
  5
2430F
330
2
100
AcDbEntity
  8
0
  6
Continuous
 62
     7
100
AcDbCircle
 10
550.4176743059169
 20
66.84918709381197
 30
0.0
 40
2.0
100
AcDbArc
 50
94.50000000002313
 51
164.9999999999515
  0
LINE
  5
24310
330
2
100
AcDbEntity
  8
0
  6
Continuous
 62
     7
100
AcDbLine
 10
548.4858226533406
 20
67.36682518401955
 30
0.0
 11
547.1329458101636
 21
62.31782006892678
 31
0.0
  0
LINE
  5
24311
330
2
100
AcDbEntity
  8
0
  6
ByBlock
 62
     0
100
AcDbLine
 10
576.7916530865996
 20
83.43104863657577
 30
0.0
 11
576.7916530865968
 21
71.85543912823374
 31
0.0
  0
LINE
  5
24312
330
2
100
AcDbEntity
  8
0
  6
Continuous
 62
     7
100
AcDbLine
 10
548.8516530866008
 20
68.09320379010348
 30
0.0
 11
548.8516530866018
 21
83.43104863658169
 31
0.0
  0
LINE
  5
24313
330
2
100
AcDbEntity
  8
0
  6
Continuous
 62
     7
100
AcDbLine
 10
546.8350475526959
 20
61.74416459446144
 30
0.0
 11
546.8350475526976
 21
83.43104863658169
 31
0.0
  0
LINE
  5
24315
330
2
100
AcDbEntity
  8
0
  6
Continuous
 62
     7
100
AcDbLine
 10
534.3416530865952
 20
61.20604863653813
 30
0.0
 11
545.6840570707554
 21
61.20604863657632
 31
0.0
  0
ARC
  5
24316
330
2
100
AcDbEntity
  8
0
  6
Continuous
 62
     7
100
AcDbCircle
 10
545.6840570707527
 20
62.70604863657633
 30
0.0
 40
1.5
100
AcDbArc
 50
270.0000000001042
 51
344.9999999999516
  0
LINE
  5
2437F
330
2
100
AcDbEntity
  8
0
  6
Continuous
 62
     3
100
AcDbLine
 10
576.79165308659
 20
71.12562019882995
 30
0.0
 11
576.79165308659
 21
33.70184288141155
 31
0.0
  0
LINE
  5
24380
330
2
100
AcDbEntity
  8
0
  6
Continuous
 62
     3
100
AcDbLine
 10
548.8516530865931
 20
67.3134070299945
 30
0.0
 11
548.8516530865931
 21
33.70184288141155
 31
0.0
  0
MTEXT
  5
24381
330
2
100
AcDbEntity
  8
0
  6
Continuous
 62
     2
100
AcDbMText
 10
549.105775442142
 20
31.15821841179883
 30
0.0
 40
3.0
 41
0.0
 46
0.0
 71
     5
 72
     1
  1
1.4
 73
     1
 44
1.0
  0
MTEXT
  5
24382
330
2
100
AcDbEntity
  8
0
  6
Continuous
 62
     2
100
AcDbMText
 10
576.7694476881342
 20
31.26890590256159
 30
0.0
 40
3.0
 41
0.0
 46
0.0
 71
     5
 72
     1
  1
2.5
 73
     1
 44
1.0
  0
DIMENSION
  5
2438A
330
2
100
AcDbEntity
  8
0
  6
Continuous
 62
     7
100
AcDbDimension
280
     0
  2
*D6
 10
545.684057070738
 20
104.1560486365504
 30
0.0
 11
551.000616189857
 21
114.6268978260564
 31
0.0
 70
    36
  1
R0.06
 71
     5
 42
1.5
 73
     0
 74
     0
 75
     0
  3
Standard
100
AcDbRadialDimension
 15
546.5939659126353
 25
105.3485526824291
 35
0.0
 40
0.0
1001
ACAD
1000
DSTYLE
1002
{
1070
    42
1040
0.625
1070
    43
1040
3.75
1070
    44
1040
1.25
1070
    48
1040
0.000000001
1070
    74
1070
     0
1070
    77
1070
     1
1070
    90
1070
     1
1070
   140
1040
3.0
1070
   141
1040
-0.5
1070
   143
1040
0.03937007874016
1070
   146
1040
0.7
1070
   147
1040
0.625
1070
   171
1070
     3
1070
   172
1070
     1
1070
   175
1070
     0
1070
   179
1070
     1
1070
   274
1070
     3
1070
   283
1070
     0
1070
   284
1070
     8
1070
   288
1070
     1
1070
   340
1005
25
1070
   371
1070
    -1
1070
   372
1070
    -1
1002
}
1001
ACAD_DSTYLE_DIMRADIAL_EXTENSION
1070
   387
1070
     1
1070
   388
1040
0.261799387800942
1070
   390
1040
1.570796326793987
  0
DIMENSION
  5
24394
330
2
100
AcDbEntity
  8
0
  6
Continuous
 62
     7
100
AcDbDimension
280
     0
  2
*D7
 10
550.4176743059182
 20
100.012910179351
 30
0.0
 11
556.2383089484613
 21
105.4645922462019
 31
0.0
 70
   164
  1
R0.08
 71
     5
 42
2.000000000000227
 73
     0
 74
     0
 75
     0
  3
Standard
100
AcDbRadialDimension
 15
548.9579540193867
 25
98.64571718452934
 35
0.0
 40
0.0
1001
ACAD
1000
DSTYLE
1002
{
1070
    42
1040
0.625
1070
    43
1040
3.75
1070
    44
1040
1.25
1070
    48
1040
0.000000001
1070
    74
1070
     0
1070
    77
1070
     1
1070
    90
1070
     1
1070
   140
1040
3.0
1070
   141
1040
-0.5
1070
   143
1040
0.03937007874016
1070
   146
1040
0.7
1070
   147
1040
0.625
1070
   171
1070
     3
1070
   172
1070
     1
1070
   175
1070
     0
1070
   179
1070
     1
1070
   274
1070
     3
1070
   283
1070
     0
1070
   284
1070
     8
1070
   288
1070
     1
1070
   340
1005
25
1070
   371
1070
    -1
1070
   372
1070
    -1
1002
}
1001
ACAD_DSTYLE_DIMRADIAL_EXTENSION
1070
   387
1070
     1
1070
   388
1040
3.403392041389782
1070
   390
1040
4.633849164044539
  0
DIMENSION
  5
2439D
330
2
100
AcDbEntity
  8
0
  6
Continuous
 62
     7
100
AcDbDimension
280
     0
  2
*D8
 10
575.7916530865973
 20
71.85543912823414
 30
0.0
 11
585.7399874322418
 21
66.44139315989582
 31
0.0
 70
    36
  1
R0.04
 71
     5
 42
1.000000000000454
 73
     0
 74
     0
 75
     0
  3
Standard
100
AcDbRadialDimension
 15
576.5647229772681
 25
71.22111827555855
 35
0.0
 40
0.0
1001
ACAD
1000
DSTYLE
1002
{
1070
    42
1040
0.625
1070
    43
1040
3.75
1070
    44
1040
1.25
1070
    48
1040
0.000000001
1070
    74
1070
     0
1070
    77
1070
     1
1070
    90
1070
     1
1070
   140
1040
3.0
1070
   141
1040
-0.5
1070
   143
1040
0.03937007874016
1070
   146
1040
0.7
1070
   147
1040
0.625
1070
   171
1070
     3
1070
   172
1070
     1
1070
   175
1070
     0
1070
   179
1070
     1
1070
   274
1070
     3
1070
   283
1070
     0
1070
   284
1070
     8
1070
   288
1070
     1
1070
   340
1005
25
1070
   371
1070
    -1
1070
   372
1070
    -1
1002
}
1001
ACAD_DSTYLE_DIMRADIAL_EXTENSION
1070
   387
1070
     1
1070
   388
1040
4.790928796723015
1070
   390
1040
0.0
  0
ENDSEC
  0
SECTION
  2
OBJECTS
  0
DICTIONARY
  5
B
330
0
100
AcDbDictionary
281
     1
  3
ACAD_CIP_PREVIOUS_PRODUCT_INFO
350
BE4
  3
ACAD_COLOR
350
3F
  3
ACAD_DETAILVIEWSTYLE
350
BDC
  3
ACAD_GROUP
350
3A
  3
ACAD_LAYOUT
350
17
  3
ACAD_MATERIAL
350
D
  3
ACAD_MLEADERSTYLE
350
42
  3
ACAD_MLINESTYLE
350
3B
  3
ACAD_PLOTSETTINGS
350
3C
  3
ACAD_PLOTSTYLENAME
350
A
  3
ACAD_SCALELIST
350
40
  3
ACAD_SECTIONVIEWSTYLE
350
BDA
  3
ACAD_TABLESTYLE
350
41
  3
ACAD_VISUALSTYLE
350
2F
  3
ACDB_RECOMPOSE_DATA
350
244F2
  3
AcDbVariableDictionary
350
BB8
  3
AEC_PROPERTY_SET_DEFS
350
24C9
  0
DICTIONARY
  5
31
330
2C
100
AcDbDictionary
280
     1
281
     1
  0
DICTIONARY
  5
22
330
21
100
AcDbDictionary
280
     1
281
     1
  3
ACAD_LAYERSTATES
360
23
  0
DICTIONARY
  5
7
330
6
100
AcDbDictionary
280
     1
281
     1
  3
ADSK_XREC_LAYER_RECONCILED
360
8
  0
DICTIONARY
  5
3
330
2
100
AcDbDictionary
280
     1
281
     1
  3
ACAD_SORTENTS
360
BB0
  0
XRECORD
  5
BE4
102
{ACAD_REACTORS
330
B
102
}
330
B
100
AcDbXrecord
280
     1
300
ACD
300
2014
300
ACD_F_S
  0
DICTIONARY
  5
3F
102
{ACAD_REACTORS
330
B
102
}
330
B
100
AcDbDictionary
281
     1
  0
DICTIONARY
  5
BDC
102
{ACAD_REACTORS
330
B
102
}
330
B
100
AcDbDictionary
281
     1
  3
Metric50
350
BDD
  0
DICTIONARY
  5
3A
102
{ACAD_REACTORS
330
B
102
}
330
B
100
AcDbDictionary
281
     1
  0
DICTIONARY
  5
17
102
{ACAD_REACTORS
330
B
102
}
330
B
100
AcDbDictionary
281
     1
  3
Model
350
16
  3
배치1
350
1E
  0
DICTIONARY
  5
D
102
{ACAD_REACTORS
330
B
102
}
330
B
100
AcDbDictionary
281
     1
  3
ByBlock
350
3E
  3
ByLayer
350
3D
  3
Global
350
C
  0
DICTIONARY
  5
42
102
{ACAD_REACTORS
330
B
102
}
330
B
100
AcDbDictionary
281
     1
  3
Standard
350
BD9
  0
DICTIONARY
  5
3B
102
{ACAD_REACTORS
330
B
102
}
330
B
100
AcDbDictionary
281
     1
  3
Standard
350
43
  0
DICTIONARY
  5
3C
102
{ACAD_REACTORS
330
B
102
}
330
B
100
AcDbDictionary
281
     1
  0
ACDBDICTIONARYWDFLT
  5
A
102
{ACAD_REACTORS
330
B
102
}
330
B
100
AcDbDictionary
281
     1
  3
Normal
350
9
100
AcDbDictionaryWithDefault
340
9
  0
DICTIONARY
  5
40
102
{ACAD_REACTORS
330
B
102
}
330
B
100
AcDbDictionary
281
     1
  3
A0
350
48
  3
A1
350
49
  3
A2
350
4A
  3
A3
350
4B
  3
A4
350
4C
  3
A5
350
4D
  3
A6
350
4E
  3
A7
350
4F
  3
A8
350
50
  3
A9
350
51
  3
B0
350
52
  3
B1
350
53
  3
B2
350
54
  3
B3
350
55
  3
B4
350
56
  3
B5
350
57
  3
B6
350
58
  0
DICTIONARY
  5
BDA
102
{ACAD_REACTORS
330
B
102
}
330
B
100
AcDbDictionary
281
     1
  3
Metric50
350
BDB
  0
DICTIONARY
  5
41
102
{ACAD_REACTORS
330
B
102
}
330
B
100
AcDbDictionary
281
     1
  3
Standard
350
44
  0
DICTIONARY
  5
2F
102
{ACAD_REACTORS
330
B
102
}
330
B
100
AcDbDictionary
281
     1
  3
2dWireframe
350
2E
  3
3D Hidden
350
1A64
  3
3dWireframe
350
47
  3
Basic
350
BC7
  3
Brighten
350
BCC
  3
ColorChange
350
BD0
  3
Conceptual
350
BCA
  3
Dim
350
BCB
  3
EdgeColorOff
350
BD8
  3
Facepattern
350
BCF
  3
Flat
350
BC3
  3
FlatWithEdges
350
BC4
  3
Gouraud
350
BC5
  3
GouraudWithEdges
350
BC6
  3
Hidden
350
BC9
  3
JitterOff
350
BD6
  3
Linepattern
350
BCE
  3
OverhangOff
350
BD7
  3
Realistic
350
46
  3
Shaded
350
BD5
  3
Shaded with edges
350
BD4
  3
Shades of Gray
350
BD1
  3
Sketchy
350
BD2
  3
Thicken
350
BCD
  3
Wireframe
350
BC8
  3
X-Ray
350
BD3
  0
XRECORD
  5
244F2
102
{ACAD_REACTORS
330
B
102
}
330
B
100
AcDbXrecord
280
     1
 90
        1
330
44
330
BDB
330
BDD
  0
DICTIONARY
  5
BB8
102
{ACAD_REACTORS
330
B
102
}
330
B
100
AcDbDictionary
281
     1
  3
CANNOSCALE
350
BBE
  3
CMLEADERSTYLE
350
BBA
  3
CTABLESTYLE
350
BB9
  3
CVIEWDETAILSTYLE
350
BBB
  3
CVIEWSECTIONSTYLE
350
BBC
  3
DIMASSOC
350
C3B
  3
HIDETEXT
350
C39
  3
HPCOLOR
350
FF3
  3
INDEXCTL
350
C38
  3
LAYEREVAL
350
BC0
  3
LAYERNOTIFY
350
BC1
  3
LIGHTINGUNITS
350
BBF
  3
MSLTSCALE
350
BBD
  3
SOLIDHIST
350
C3C
  3
SORTENTS
350
C37
  0
DICTIONARY
  5
24C9
102
{ACAD_REACTORS
330
B
102
}
330
B
100
AcDbDictionary
281
     1
  0
DICTIONARY
  5
23
102
{ACAD_REACTORS
330
22
102
}
330
22
100
AcDbDictionary
281
     1
  0
XRECORD
  5
8
102
{ACAD_REACTORS
330
7
102
}
330
7
100
AcDbXrecord
280
     1
290
     1
  0
SORTENTSTABLE
  5
BB0
102
{ACAD_REACTORS
330
3
102
}
330
3
100
AcDbSortentsTable
330
2
331
1DCAD
  5
1DCB2
331
1DC76
  5
1DC7B
331
1DC70
  5
1DC75
331
1DC6A
  5
1DC6F
331
1DC84
  5
1DC89
331
1DC7E
  5
1DC83
331
1DC78
  5
1DC7D
331
1DC92
  5
1DC97
331
1DC8C
  5
1DC91
331
1DCA6
  5
1DCAB
331
1DCA0
  5
1DCA5
331
1DC63
  5
1DC68
331
1DC9A
  5
1DC9F
331
1DC5D
  5
1DC62
331
1DCB4
  5
1DCC0
331
1DCAE
  5
1DCB3
331
1DC77
  5
1DC7C
331
1DCA8
  5
1DCAD
331
1DC71
  5
1DC76
331
1DC6B
  5
1DC70
331
1DC85
  5
1DC8A
331
1DC7F
  5
1DC84
331
1DC79
  5
1DC7E
331
1DC93
  5
1DC98
331
1DC8D
  5
1DC92
331
1DBC8
  5
1DC5E
331
1DCA7
  5
1DCAC
331
1DCA1
  5
1DCA6
331
1DC64
  5
1DC69
331
1DC9B
  5
1DCA0
331
1DC5E
  5
1DC63
331
1DCB5
  5
1DDD7
331
1DCAF
  5
1DCB4
331
1DCA9
  5
1DCAE
331
1DC72
  5
1DC77
331
1DC6C
  5
1DC71
331
1DC86
  5
1DC8B
331
1DC80
  5
1DC85
331
1DC7A
  5
1DC7F
331
1DC94
  5
1DC99
331
1DC8E
  5
1DC93
331
1DC88
  5
1DC8D
331
1DCC0
  5
1DE49
331
1DCA2
  5
1DCA7
331
1DC65
  5
1DC6A
331
1DC9C
  5
1DCA1
331
1DC5F
  5
1DC64
331
1DCB6
  5
1DE45
331
1DCB0
  5
1DCB5
331
1DCAA
  5
1DCAF
331
1DC73
  5
1DC78
331
1DC6D
  5
1DC72
331
1DC87
  5
1DC8C
331
1DC81
  5
1DC86
331
1DCB8
  5
1DE48
331
1DC7B
  5
1DC80
331
1DC95
  5
1DC9A
331
1DC8F
  5
1DC94
331
1DC89
  5
1DC8E
331
1DCA3
  5
1DCA8
331
1DC66
  5
1DC6B
331
1DC9D
  5
1DCA2
331
1DC60
  5
1DC65
331
1DCB7
  5
1DE46
331
1DC5A
  5
1DC5F
331
1DCB1
  5
1DCB6
331
1DCAB
  5
1DCB0
331
1DC74
  5
1DC79
331
1DC6E
  5
1DC73
331
1DC68
  5
1DC6D
331
1DC82
  5
1DC87
331
1DC7C
  5
1DC81
331
1DC96
  5
1DC9B
331
1DC90
  5
1DC95
331
1DC8A
  5
1DC8F
331
1DCA4
  5
1DCA9
331
1DC67
  5
1DC6C
331
1DC9E
  5
1DCA3
331
1DC98
  5
1DC9D
331
1DC61
  5
1DC66
331
1DC5B
  5
1DC60
331
1DCB2
  5
1DCB7
331
1DCAC
  5
1DCB1
331
1DC75
  5
1DC7A
331
1DC6F
  5
1DC74
331
1DC69
  5
1DC6E
331
1DC83
  5
1DC88
331
1DC7D
  5
1DC82
331
1DC97
  5
1DC9C
331
1DC91
  5
1DC96
331
1DC8B
  5
1DC90
331
1DCA5
  5
1DCAA
331
1DC9F
  5
1DCA4
331
1DC62
  5
1DC67
331
1DC99
  5
1DC9E
331
1DC5C
  5
1DC61
331
1DCB3
  5
1DCB8
  0
ACDBDETAILVIEWSTYLE
  5
BDD
102
{ACAD_XDICTIONARY
360
244F0
102
}
102
{ACAD_REACTORS
330
BDC
102
}
330
BDC
100
AcDbModelDocViewStyle
 70
     0
  3
Metric50
290
     0
100
AcDbDetailViewStyle
 70
     0
 71
     0
 90
        3
 71
     1
340
25
 62
   256
 40
5.0
340
0
 62
   256
 40
5.0
300

 40
0.0
280
     1
 71
     2
340
14
 90
       25
 62
   256
 71
     3
340
25
 62
   256
 40
5.0
 90
        0
 40
15.0
 90
        1
300
%<\AcVar ViewDetailId>% (%<\AcVar ViewScale \f "%sn">%)
 71
     4
340
14
 90
       25
 62
   256
340
14
 90
       25
 62
   256
280
     0
  0
LAYOUT
  5
16
102
{ACAD_XDICTIONARY
360
18
102
}
102
{ACAD_REACTORS
330
17
102
}
330
17
100
AcDbPlotSettings
  1

  2
Samsung M267x 287x Series
  4
A4
  6

 40
5.027082920074462
 41
5.027099609375
 42
5.027069091796875
 43
5.027069091796875
 44
209.9733276367187
 45
296.9259948730469
 46
0.0
 47
0.3443247085572807
 48
5290.957610138349
 49
-1180.058350911508
140
5701.957610138348
141
-892.9458025305684
142
1.0
143
1.436143118755716
 70
 11956
 72
     1
 73
     1
 74
     4
  7
ksm0910.ctb
 75
     0
147
0.6963094324933345
 76
     0
 77
     2
 78
   300
148
-5290.957610138349
149
1180.058350911508
100
AcDbLayout
  1
Model
 70
     1
 71
     0
 10
0.0
 20
0.0
 11
12.0
 21
9.0
 12
0.0
 22
0.0
 32
0.0
 14
0.0
 24
0.0
 34
0.0
 15
0.0
 25
0.0
 35
0.0
146
0.0
 13
0.0
 23
0.0
 33
0.0
 16
1.0
 26
0.0
 36
0.0
 17
0.0
 27
1.0
 37
0.0
 76
     0
330
2
331
2D
1001
ACAD_PSEXT
1000
Samsung M267x 287x Series
1000
Samsung M267x 287x Series
1000
USB001
1000

1070
     0
  0
LAYOUT
  5
1E
102
{ACAD_XDICTIONARY
360
1F
102
}
102
{ACAD_REACTORS
330
17
102
}
330
17
100
AcDbPlotSettings
  1

  2
none_device
  4
ISO_A4_(210.00_x_297.00_MM)
  6

 40
7.5
 41
20.0
 42
7.5
 43
20.0
 44
210.0
 45
297.0
 46
0.0
 47
0.0
 48
0.0
 49
0.0
140
0.0
141
0.0
142
1.0
143
1.0
 70
   688
 72
     1
 73
     1
 74
     5
  7
ksm0910.ctb
 75
    16
147
1.0
 76
     0
 77
     2
 78
   300
148
0.0
149
0.0
100
AcDbLayout
  1
배치1
 70
     1
 71
     1
 10
-20.0
 20
-7.5
 11
277.0
 21
202.5
 12
0.0
 22
0.0
 32
0.0
 14
1.000000000000000E+20
 24
1.000000000000000E+20
 34
1.000000000000000E+20
 15
-1.000000000000000E+20
 25
-1.000000000000000E+20
 35
-1.000000000000000E+20
146
0.0
 13
0.0
 23
0.0
 33
0.0
 16
1.0
 26
0.0
 36
0.0
 17
0.0
 27
1.0
 37
0.0
 76
     0
330
1B
1001
ACAD_PSEXT
1000
없음
1000
없음
1000
해당 없음
1000
배치가 새로운 플로터 구성을 선택할 때까지 플롯되지 않습니다.
1070
     0
  0
MATERIAL
  5
3E
102
{ACAD_REACTORS
330
D
102
}
330
D
100
AcDbMaterial
  1
ByBlock
 94
       63
  0
MATERIAL
  5
3D
102
{ACAD_REACTORS
330
D
102
}
330
D
100
AcDbMaterial
  1
ByLayer
 94
       63
  0
MATERIAL
  5
C
102
{ACAD_XDICTIONARY
360
E
102
}
102
{ACAD_REACTORS
330
D
102
}
330
D
100
AcDbMaterial
  1
Global
 43
0.0007999999797903
 43
0.0
 43
0.0
 43
0.0
 43
0.0
 43
0.0007999999797903
 43
0.0
 43
0.0
 43
0.0
 43
0.0
 43
1.0
 43
0.0
 43
0.0
 43
0.0
 43
0.0
 43
1.0
 49
0.0007999999797903
 49
0.0
 49
0.0
 49
0.0
 49
0.0
 49
0.0007999999797903
 49
0.0
 49
0.0
 49
0.0
 49
0.0
 49
1.0
 49
0.0
 49
0.0
 49
0.0
 49
0.0
 49
1.0
142
0.0007999999797903
142
0.0
142
0.0
142
0.0
142
0.0
142
0.0007999999797903
142
0.0
142
0.0
142
0.0
142
0.0
142
1.0
142
0.0
142
0.0
142
0.0
142
0.0
142
1.0
144
0.0007999999797903
144
0.0
144
0.0
144
0.0
144
0.0
144
0.0007999999797903
144
0.0
144
0.0
144
0.0
144
0.0
144
1.0
144
0.0
144
0.0
144
0.0
144
0.0
144
1.0
 94
       63
1001
ACAD
1070
    -1
1070
     3
1070
     0
1000

1071
        0
1070
     0
  0
MLEADERSTYLE
  5
BD9
102
{ACAD_REACTORS
330
42
330
22FB1
102
}
330
42
100
AcDbMLeaderStyle
179
     2
170
     2
171
     1
172
     0
 90
        2
 40
0.0
 41
0.0
173
     1
 91
-1056964608
340
28
 92
       -2
290
     1
 42
2.0
291
     1
 43
0.36
  3
Standard
 44
4.0
300

342
25
174
     1
178
     6
175
     1
176
     0
 93
-1056964608
 45
4.0
292
     0
297
     0
 46
4.0
 94
-1056964608
 47
1.0
 49
1.0
140
1.0
293
     1
141
0.0
294
     1
177
     0
142
1.0
295
     0
296
     0
143
0.125
271
     0
272
     9
273
     9
298
     1
  0
MLINESTYLE
  5
43
102
{ACAD_REACTORS
330
3B
102
}
330
3B
100
AcDbMlineStyle
  2
STANDARD
 70
     0
  3

 62
   256
 51
90.0
 52
90.0
 71
     2
 49
0.5
 62
   256
  6
BYLAYER
 49
-0.5
 62
   256
  6
BYLAYER
  0
ACDBPLACEHOLDER
  5
9
102
{ACAD_REACTORS
330
A
102
}
330
A
  0
SCALE
  5
48
102
{ACAD_REACTORS
330
40
102
}
330
40
100
AcDbScale
 70
     0
300
1:1
140
1.0
141
1.0
290
     1
  0
SCALE
  5
49
102
{ACAD_REACTORS
330
40
102
}
330
40
100
AcDbScale
 70
     0
300
1:2
140
1.0
141
2.0
290
     0
  0
SCALE
  5
4A
102
{ACAD_REACTORS
330
40
102
}
330
40
100
AcDbScale
 70
     0
300
1:4
140
1.0
141
4.0
290
     0
  0
SCALE
  5
4B
102
{ACAD_REACTORS
330
40
102
}
330
40
100
AcDbScale
 70
     0
300
1:5
140
1.0
141
5.0
290
     0
  0
SCALE
  5
4C
102
{ACAD_REACTORS
330
40
102
}
330
40
100
AcDbScale
 70
     0
300
1:8
140
1.0
141
8.0
290
     0
  0
SCALE
  5
4D
102
{ACAD_REACTORS
330
40
102
}
330
40
100
AcDbScale
 70
     0
300
1:10
140
1.0
141
10.0
290
     0
  0
SCALE
  5
4E
102
{ACAD_REACTORS
330
40
102
}
330
40
100
AcDbScale
 70
     0
300
1:16
140
1.0
141
16.0
290
     0
  0
SCALE
  5
4F
102
{ACAD_REACTORS
330
40
102
}
330
40
100
AcDbScale
 70
     0
300
1:20
140
1.0
141
20.0
290
     0
  0
SCALE
  5
50
102
{ACAD_REACTORS
330
40
102
}
330
40
100
AcDbScale
 70
     0
300
1:30
140
1.0
141
30.0
290
     0
  0
SCALE
  5
51
102
{ACAD_REACTORS
330
40
102
}
330
40
100
AcDbScale
 70
     0
300
1:40
140
1.0
141
40.0
290
     0
  0
SCALE
  5
52
102
{ACAD_REACTORS
330
40
102
}
330
40
100
AcDbScale
 70
     0
300
1:50
140
1.0
141
50.0
290
     0
  0
SCALE
  5
53
102
{ACAD_REACTORS
330
40
102
}
330
40
100
AcDbScale
 70
     0
300
1:100
140
1.0
141
100.0
290
     0
  0
SCALE
  5
54
102
{ACAD_REACTORS
330
40
102
}
330
40
100
AcDbScale
 70
     0
300
2:1
140
2.0
141
1.0
290
     0
  0
SCALE
  5
55
102
{ACAD_REACTORS
330
40
102
}
330
40
100
AcDbScale
 70
     0
300
4:1
140
4.0
141
1.0
290
     0
  0
SCALE
  5
56
102
{ACAD_REACTORS
330
40
102
}
330
40
100
AcDbScale
 70
     0
300
8:1
140
8.0
141
1.0
290
     0
  0
SCALE
  5
57
102
{ACAD_REACTORS
330
40
102
}
330
40
100
AcDbScale
 70
     0
300
10:1
140
10.0
141
1.0
290
     0
  0
SCALE
  5
58
102
{ACAD_REACTORS
330
40
102
}
330
40
100
AcDbScale
 70
     0
300
100:1
140
100.0
141
1.0
290
     0
  0
ACDBSECTIONVIEWSTYLE
  5
BDB
102
{ACAD_XDICTIONARY
360
244EE
102
}
102
{ACAD_REACTORS
330
BDA
102
}
330
BDA
100
AcDbModelDocViewStyle
 70
     0
  3
Metric50
290
     0
100
AcDbSectionViewStyle
 70
     0
 71
     0
 90
      102
 71
     1
340
25
 62
   256
 40
5.0
340
0
340
0
 62
   256
 40
5.0
300
I, O, Q, S, X, Z
 40
10.0
 90
        0
 40
2.5
 90
        0
 71
     2
340
14
 90
       25
 62
   256
340
14
 90
       50
 62
   256
 40
5.0
 40
2.5
 40
5.0
 71
     3
340
25
 62
   256
 40
5.0
 90
        0
 40
15.0
 90
        1
300
%<\AcVar ViewSectionStartId>%-%<\AcVar ViewSectionEndId>% (%<\AcVar ViewScale \f "%sn">%)
 71
     4
 62
   256
 62
   257
300
ANSI31
 40
1.0
 90
        0
290
     0
290
     0
 90
        6
 40
0.0
 40
1.570796326794896
 40
0.2617993877991494
 40
1.308996938995747
 40
-0.2617993877991494
 40
1.832595714594046
  0
TABLESTYLE
  5
44
102
{ACAD_XDICTIONARY
360
45
102
}
102
{ACAD_REACTORS
330
41
102
}
330
41
100
AcDbTableStyle
280
     0
  3
Standard
 70
     0
 71
     0
 40
1.5
 41
1.5
280
     0
281
     0
  7
Standard
140
4.5
170
     2
 62
     0
 63
     7
283
     0
 90
      512
 91
        0
  1

274
    -2
284
     1
 64
     0
275
    -2
285
     1
 65
     0
276
    -2
286
     1
 66
     0
277
    -2
287
     1
 67
     0
278
    -2
288
     1
 68
     0
279
    -2
289
     1
 69
     0
  7
Standard
140
6.0
170
     5
 62
     0
 63
     7
283
     0
 90
      512
 91
        0
  1

274
    -2
284
     1
 64
     0
275
    -2
285
     1
 65
     0
276
    -2
286
     1
 66
     0
277
    -2
287
     1
 67
     0
278
    -2
288
     1
 68
     0
279
    -2
289
     1
 69
     0
  7
Standard
140
4.5
170
     5
 62
     0
 63
     7
283
     0
 90
      512
 91
        0
  1

274
    -2
284
     1
 64
     0
275
    -2
285
     1
 65
     0
276
    -2
286
     1
 66
     0
277
    -2
287
     1
 67
     0
278
    -2
288
     1
 68
     0
279
    -2
289
     1
 69
     0
  0
VISUALSTYLE
  5
2E
102
{ACAD_REACTORS
330
2F
102
}
330
2F
100
AcDbVisualStyle
  2
2dWireframe
 70
     4
177
     3
291
     0
 70
    58
 90
        0
176
     1
 90
        2
176
     1
 90
        1
176
     1
 90
        0
176
     1
 40
0.6
176
     1
 40
30.0
176
     1
 62
     7
176
     1
 90
        1
176
     1
 90
        4
176
     1
 62
     7
176
     1
 62
   257
176
     1
 90
        1
176
     1
 90
        1
176
     1
 40
1.0
176
     1
 90
        0
176
     1
 62
   257
176
     1
 40
1.0
176
     1
 90
        1
176
     1
 90
        6
176
     1
 90
        2
176
     1
 62
     7
176
     1
 90
        5
176
     1
 90
        0
176
     1
 90
        0
176
     1
290
     0
176
     1
 90
        1
176
     1
 40
0.0
176
     1
 90
        0
176
     1
290
     1
176
     1
290
     1
176
     1
290
     0
176
     1
290
     0
176
     1
290
     0
176
     1
290
     0
176
     1
290
     0
176
     1
290
     0
176
     1
290
     0
176
     1
 90
       50
176
     1
 40
0.0
176
     1
 40
1.0
176
     1
 90
        0
176
     1
 62
    18
420
        0
176
     1
 90
       50
176
     1
 90
        3
176
     1
 62
     5
420
      255
176
     1
290
     0
176
     1
 90
       50
176
     1
 90
       50
176
     1
 90
       50
176
     1
290
     0
176
     1
 90
       50
176
     1
 62
   256
176
     0
 40
1.0
176
     0
 90
        2
176
     1
  1
strokes_ogs.tif
176
     1
290
     0
176
     1
 40
1.0
176
     1
 40
1.0
176
     1
  0
VISUALSTYLE
  5
1A64
102
{ACAD_REACTORS
330
2F
102
}
330
2F
100
AcDbVisualStyle
  2
3D Hidden
 70
     6
177
     3
291
     0
 70
    58
 90
        1
176
     1
 90
        2
176
     1
 90
        2
176
     1
 90
        0
176
     1
 40
0.6
176
     1
 40
30.0
176
     1
 62
     7
176
     1
 90
        2
176
     1
 90
        2
176
     1
 62
     7
176
     1
 62
   257
176
     1
 90
        2
176
     1
 90
        1
176
     1
 40
40.0
176
     1
 90
        0
176
     1
 62
   257
176
     1
 40
1.0
176
     1
 90
        1
176
     1
 90
        6
176
     1
 90
        2
176
     1
 62
     7
176
     1
 90
        3
176
     1
 90
        0
176
     1
 90
        0
176
     1
290
     0
176
     1
 90
        1
176
     1
 40
0.0
176
     1
 90
        0
176
     1
290
     0
176
     1
290
     1
176
     1
290
     1
176
     1
290
     0
176
     1
290
     0
176
     1
290
     0
176
     1
290
     0
176
     1
290
     0
176
     1
290
     0
176
     1
 90
       50
176
     1
 40
0.0
176
     1
 40
1.0
176
     1
 90
        0
176
     1
 62
    18
420
        0
176
     1
 90
       50
176
     1
 90
        3
176
     1
 62
     5
420
      255
176
     1
290
     0
176
     1
 90
       50
176
     1
 90
       50
176
     1
 90
       50
176
     1
290
     0
176
     1
 90
       50
176
     1
 62
   256
176
     0
 40
1.0
176
     0
 90
        2
176
     1
  1
strokes_ogs.tif
176
     1
290
     0
176
     1
 40
1.0
176
     1
 40
1.0
176
     1
  0
VISUALSTYLE
  5
47
102
{ACAD_REACTORS
330
2F
102
}
330
2F
100
AcDbVisualStyle
  2
3dWireframe
 70
     5
177
     3
291
     0
 70
    58
 90
        0
176
     1
 90
        2
176
     1
 90
        1
176
     1
 90
        0
176
     1
 40
0.6
176
     1
 40
30.0
176
     1
 62
     7
176
     1
 90
        1
176
     1
 90
        4
176
     1
 62
     7
176
     1
 62
   257
176
     1
 90
        1
176
     1
 90
        1
176
     1
 40
1.0
176
     1
 90
        0
176
     1
 62
   257
176
     1
 40
1.0
176
     1
 90
        1
176
     1
 90
        6
176
     1
 90
        2
176
     1
 62
     7
176
     1
 90
        5
176
     1
 90
        0
176
     1
 90
        0
176
     1
290
     0
176
     1
 90
        1
176
     1
 40
0.0
176
     1
 90
        0
176
     1
290
     0
176
     1
290
     1
176
     1
290
     1
176
     1
290
     0
176
     1
290
     0
176
     1
290
     0
176
     1
290
     0
176
     1
290
     0
176
     1
290
     0
176
     1
 90
       50
176
     1
 40
0.0
176
     1
 40
1.0
176
     1
 90
        0
176
     1
 62
    18
420
        0
176
     1
 90
       50
176
     1
 90
        3
176
     1
 62
     5
420
      255
176
     1
290
     0
176
     1
 90
       50
176
     1
 90
       50
176
     1
 90
       50
176
     1
290
     0
176
     1
 90
       50
176
     1
 62
   256
176
     0
 40
1.0
176
     0
 90
        2
176
     1
  1
strokes_ogs.tif
176
     1
290
     0
176
     1
 40
1.0
176
     1
 40
1.0
176
     1
  0
VISUALSTYLE
  5
BC7
102
{ACAD_REACTORS
330
2F
102
}
330
2F
100
AcDbVisualStyle
  2
Basic
 70
     7
177
     3
291
     1
 70
    58
 90
        1
176
     1
 90
        0
176
     1
 90
        1
176
     1
 90
        0
176
     1
 40
0.6
176
     1
 40
30.0
176
     1
 62
     7
176
     1
 90
        0
176
     1
 90
        4
176
     1
 62
     7
176
     1
 62
   257
176
     1
 90
        1
176
     1
 90
        1
176
     1
 40
1.0
176
     1
 90
        8
176
     1
 62
     7
176
     1
 40
1.0
176
     1
 90
        1
176
     1
 90
        6
176
     1
 90
        2
176
     1
 62
     7
176
     1
 90
        5
176
     1
 90
        0
176
     1
 90
        0
176
     1
290
     0
176
     1
 90
        1
176
     1
 40
0.0
176
     1
 90
        0
176
     1
290
     0
176
     1
290
     1
176
     1
290
     1
176
     1
290
     0
176
     1
290
     0
176
     1
290
     0
176
     1
290
     0
176
     1
290
     0
176
     1
290
     0
176
     1
 90
       50
176
     1
 40
0.0
176
     1
 40
1.0
176
     1
 90
        0
176
     1
 62
    18
420
        0
176
     1
 90
       50
176
     1
 90
        3
176
     1
 62
     5
420
      255
176
     1
290
     0
176
     1
 90
       50
176
     1
 90
       50
176
     1
 90
       50
176
     1
290
     0
176
     1
 90
       50
176
     1
 62
   256
176
     0
 40
1.0
176
     0
 90
        2
176
     1
  1
strokes_ogs.tif
176
     1
290
     0
176
     1
 40
1.0
176
     1
 40
1.0
176
     1
  0
VISUALSTYLE
  5
BCC
102
{ACAD_REACTORS
330
2F
102
}
330
2F
100
AcDbVisualStyle
  2
Brighten
 70
    12
177
     3
291
     1
 70
    58
 90
        2
176
     1
 90
        2
176
     1
 90
        0
176
     1
 90
        0
176
     1
 40
0.6
176
     1
 40
30.0
176
     1
 62
     7
176
     1
 90
        1
176
     1
 90
        4
176
     1
 62
     7
176
     1
 62
   257
176
     1
 90
        1
176
     1
 90
        1
176
     1
 40
1.0
176
     1
 90
        8
176
     1
 62
     7
176
     1
 40
1.0
176
     1
 90
        1
176
     1
 90
        6
176
     1
 90
        2
176
     1
 62
     7
176
     1
 90
        5
176
     1
 90
        0
176
     1
 90
        0
176
     1
290
     0
176
     1
 90
        1
176
     1
 40
50.0
176
     1
 90
        0
176
     1
290
     0
176
     1
290
     1
176
     1
290
     1
176
     1
290
     0
176
     1
290
     0
176
     1
290
     0
176
     1
290
     0
176
     1
290
     0
176
     1
290
     0
176
     1
 90
       50
176
     1
 40
0.0
176
     1
 40
1.0
176
     1
 90
        0
176
     1
 62
    18
420
        0
176
     1
 90
       50
176
     1
 90
        3
176
     1
 62
     5
420
      255
176
     1
290
     0
176
     1
 90
       50
176
     1
 90
       50
176
     1
 90
       50
176
     1
290
     0
176
     1
 90
       50
176
     1
 62
   256
176
     0
 40
1.0
176
     0
 90
        2
176
     1
  1
strokes_ogs.tif
176
     1
290
     0
176
     1
 40
1.0
176
     1
 40
1.0
176
     1
  0
VISUALSTYLE
  5
BD0
102
{ACAD_REACTORS
330
2F
102
}
330
2F
100
AcDbVisualStyle
  2
ColorChange
 70
    16
177
     3
291
     1
 70
    58
 90
        2
176
     1
 90
        2
176
     1
 90
        3
176
     1
 90
        0
176
     1
 40
0.6
176
     1
 40
30.0
176
     1
 62
     8
176
     1
 90
        1
176
     1
 90
        4
176
     1
 62
     7
176
     1
 62
   257
176
     1
 90
        1
176
     1
 90
        1
176
     1
 40
1.0
176
     1
 90
        8
176
     1
 62
     8
176
     1
 40
1.0
176
     1
 90
        1
176
     1
 90
        6
176
     1
 90
        2
176
     1
 62
     7
176
     1
 90
        5
176
     1
 90
        0
176
     1
 90
        0
176
     1
290
     0
176
     1
 90
        1
176
     1
 40
0.0
176
     1
 90
        0
176
     1
290
     0
176
     1
290
     1
176
     1
290
     1
176
     1
290
     0
176
     1
290
     0
176
     1
290
     0
176
     1
290
     0
176
     1
290
     0
176
     1
290
     0
176
     1
 90
       50
176
     1
 40
0.0
176
     1
 40
1.0
176
     1
 90
        0
176
     1
 62
    18
420
        0
176
     1
 90
       50
176
     1
 90
        3
176
     1
 62
     5
420
      255
176
     1
290
     0
176
     1
 90
       50
176
     1
 90
       50
176
     1
 90
       50
176
     1
290
     0
176
     1
 90
       50
176
     1
 62
   256
176
     0
 40
1.0
176
     0
 90
        2
176
     1
  1
strokes_ogs.tif
176
     1
290
     0
176
     1
 40
1.0
176
     1
 40
1.0
176
     1
  0
VISUALSTYLE
  5
BCA
102
{ACAD_REACTORS
330
2F
102
}
330
2F
100
AcDbVisualStyle
  2
Conceptual
 70
     9
177
     3
291
     0
 70
    58
 90
        3
176
     1
 90
        2
176
     1
 90
        0
176
     1
 90
        0
176
     1
 40
0.6
176
     1
 40
30.0
176
     1
 62
     7
176
     1
 90
        2
176
     1
 90
        2
176
     1
 62
     7
176
     1
 62
   257
176
     1
 90
        1
176
     1
 90
        1
176
     1
 40
179.0
176
     1
 90
        8
176
     1
 62
     7
176
     1
 40
1.0
176
     1
 90
        1
176
     1
 90
        6
176
     1
 90
        2
176
     1
 62
     7
176
     1
 90
        3
176
     1
 90
        0
176
     1
 90
        0
176
     1
290
     0
176
     1
 90
        1
176
     1
 40
0.0
176
     1
 90
        0
176
     1
290
     0
176
     1
290
     1
176
     1
290
     1
176
     1
290
     0
176
     1
290
     0
176
     1
290
     0
176
     1
290
     0
176
     1
290
     0
176
     1
290
     0
176
     1
 90
       50
176
     1
 40
0.0
176
     1
 40
1.0
176
     1
 90
        0
176
     1
 62
    18
420
        0
176
     1
 90
       50
176
     1
 90
        3
176
     1
 62
     5
420
      255
176
     1
290
     0
176
     1
 90
       50
176
     1
 90
       50
176
     1
 90
       50
176
     1
290
     0
176
     1
 90
       50
176
     1
 62
   256
176
     0
 40
1.0
176
     0
 90
        2
176
     1
  1
strokes_ogs.tif
176
     1
290
     0
176
     1
 40
1.0
176
     1
 40
1.0
176
     1
  0
VISUALSTYLE
  5
BCB
102
{ACAD_REACTORS
330
2F
102
}
330
2F
100
AcDbVisualStyle
  2
Dim
 70
    11
177
     3
291
     1
 70
    58
 90
        2
176
     1
 90
        2
176
     1
 90
        0
176
     1
 90
        0
176
     1
 40
0.6
176
     1
 40
30.0
176
     1
 62
     7
176
     1
 90
        1
176
     1
 90
        4
176
     1
 62
     7
176
     1
 62
   257
176
     1
 90
        1
176
     1
 90
        1
176
     1
 40
1.0
176
     1
 90
        8
176
     1
 62
     7
176
     1
 40
1.0
176
     1
 90
        1
176
     1
 90
        6
176
     1
 90
        2
176
     1
 62
     7
176
     1
 90
        5
176
     1
 90
        0
176
     1
 90
        0
176
     1
290
     0
176
     1
 90
        1
176
     1
 40
-50.0
176
     1
 90
        0
176
     1
290
     0
176
     1
290
     1
176
     1
290
     1
176
     1
290
     0
176
     1
290
     0
176
     1
290
     0
176
     1
290
     0
176
     1
290
     0
176
     1
290
     0
176
     1
 90
       50
176
     1
 40
0.0
176
     1
 40
1.0
176
     1
 90
        0
176
     1
 62
    18
420
        0
176
     1
 90
       50
176
     1
 90
        3
176
     1
 62
     5
420
      255
176
     1
290
     0
176
     1
 90
       50
176
     1
 90
       50
176
     1
 90
       50
176
     1
290
     0
176
     1
 90
       50
176
     1
 62
   256
176
     0
 40
1.0
176
     0
 90
        2
176
     1
  1
strokes_ogs.tif
176
     1
290
     0
176
     1
 40
1.0
176
     1
 40
1.0
176
     1
  0
VISUALSTYLE
  5
BD8
102
{ACAD_REACTORS
330
2F
102
}
330
2F
100
AcDbVisualStyle
  2
EdgeColorOff
 70
    22
177
     3
291
     1
 70
    58
 90
        2
176
     0
 90
        2
176
     0
 90
        0
176
     0
 90
        0
176
     0
 40
0.6
176
     0
 40
30.0
176
     0
 62
     7
176
     0
 90
        1
176
     0
 90
        4
176
     0
 62
     7
176
     0
 62
   257
176
     0
 90
        1
176
     0
 90
        1
176
     0
 40
1.0
176
     0
 90
        8
176
     2
 62
     7
176
     0
 40
1.0
176
     0
 90
        1
176
     0
 90
        6
176
     0
 90
        2
176
     0
 62
     7
176
     0
 90
        5
176
     0
 90
        0
176
     0
 90
        0
176
     0
290
     0
176
     0
 90
        1
176
     0
 40
0.0
176
     0
 90
        0
176
     0
290
     0
176
     0
290
     1
176
     0
290
     1
176
     0
290
     0
176
     0
290
     0
176
     0
290
     0
176
     0
290
     0
176
     0
290
     0
176
     0
290
     0
176
     0
 90
       50
176
     0
 40
0.0
176
     0
 40
1.0
176
     0
 90
        0
176
     0
 62
    18
420
        0
176
     0
 90
       50
176
     0
 90
        3
176
     0
 62
     5
420
      255
176
     0
290
     0
176
     0
 90
       50
176
     0
 90
       50
176
     0
 90
       50
176
     0
290
     0
176
     0
 90
       50
176
     0
 62
   256
176
     0
 40
1.0
176
     0
 90
        2
176
     0
  1
strokes_ogs.tif
176
     0
290
     0
176
     0
 40
1.0
176
     0
 40
1.0
176
     0
  0
VISUALSTYLE
  5
BCF
102
{ACAD_REACTORS
330
2F
102
}
330
2F
100
AcDbVisualStyle
  2
Facepattern
 70
    15
177
     3
291
     1
 70
    58
 90
        2
176
     1
 90
        2
176
     1
 90
        0
176
     1
 90
        0
176
     1
 40
0.6
176
     1
 40
30.0
176
     1
 62
     7
176
     1
 90
        1
176
     1
 90
        4
176
     1
 62
     7
176
     1
 62
   257
176
     1
 90
        1
176
     1
 90
        1
176
     1
 40
1.0
176
     1
 90
        8
176
     1
 62
     7
176
     1
 40
1.0
176
     1
 90
        1
176
     1
 90
        6
176
     1
 90
        2
176
     1
 62
     7
176
     1
 90
        5
176
     1
 90
        0
176
     1
 90
        0
176
     1
290
     0
176
     1
 90
        1
176
     1
 40
0.0
176
     1
 90
        0
176
     1
290
     0
176
     1
290
     1
176
     1
290
     1
176
     1
290
     0
176
     1
290
     0
176
     1
290
     0
176
     1
290
     0
176
     1
290
     0
176
     1
290
     0
176
     1
 90
       50
176
     1
 40
0.0
176
     1
 40
1.0
176
     1
 90
        0
176
     1
 62
    18
420
        0
176
     1
 90
       50
176
     1
 90
        3
176
     1
 62
     5
420
      255
176
     1
290
     0
176
     1
 90
       50
176
     1
 90
       50
176
     1
 90
       50
176
     1
290
     0
176
     1
 90
       50
176
     1
 62
   256
176
     0
 40
1.0
176
     0
 90
        2
176
     1
  1
strokes_ogs.tif
176
     1
290
     0
176
     1
 40
1.0
176
     1
 40
1.0
176
     1
  0
VISUALSTYLE
  5
BC3
102
{ACAD_REACTORS
330
2F
102
}
330
2F
100
AcDbVisualStyle
  2
Flat
 70
     0
177
     3
291
     1
 70
    58
 90
        2
176
     1
 90
        1
176
     1
 90
        1
176
     1
 90
        2
176
     1
 40
0.6
176
     1
 40
30.0
176
     1
 62
     7
176
     1
 90
        0
176
     1
 90
        0
176
     1
 62
     7
176
     1
 62
   257
176
     1
 90
        1
176
     1
 90
        1
176
     1
 40
1.0
176
     1
 90
        8
176
     1
 62
     7
176
     1
 40
1.0
176
     1
 90
        1
176
     1
 90
        6
176
     1
 90
        2
176
     1
 62
     7
176
     1
 90
        5
176
     1
 90
        0
176
     1
 90
        0
176
     1
290
     0
176
     1
 90
       13
176
     1
 40
0.0
176
     1
 90
        0
176
     1
290
     0
176
     1
290
     1
176
     1
290
     1
176
     1
290
     0
176
     1
290
     0
176
     1
290
     0
176
     1
290
     0
176
     1
290
     0
176
     1
290
     0
176
     1
 90
       50
176
     1
 40
0.0
176
     1
 40
1.0
176
     1
 90
        0
176
     1
 62
    18
420
        0
176
     1
 90
       50
176
     1
 90
        3
176
     1
 62
     5
420
      255
176
     1
290
     0
176
     1
 90
       50
176
     1
 90
       50
176
     1
 90
       50
176
     1
290
     0
176
     1
 90
       50
176
     1
 62
   256
176
     0
 40
1.0
176
     0
 90
        2
176
     1
  1
strokes_ogs.tif
176
     1
290
     0
176
     1
 40
1.0
176
     1
 40
1.0
176
     1
  0
VISUALSTYLE
  5
BC4
102
{ACAD_REACTORS
330
2F
102
}
330
2F
100
AcDbVisualStyle
  2
FlatWithEdges
 70
     1
177
     3
291
     1
 70
    58
 90
        2
176
     1
 90
        1
176
     1
 90
        1
176
     1
 90
        2
176
     1
 40
0.6
176
     1
 40
30.0
176
     1
 62
     7
176
     1
 90
        1
176
     1
 90
        0
176
     1
 62
     7
176
     1
 62
   257
176
     1
 90
        1
176
     1
 90
        1
176
     1
 40
1.0
176
     1
 90
        0
176
     1
 62
   257
176
     1
 40
1.0
176
     1
 90
        1
176
     1
 90
        6
176
     1
 90
        2
176
     1
 62
     7
176
     1
 90
        5
176
     1
 90
        0
176
     1
 90
        0
176
     1
290
     0
176
     1
 90
       13
176
     1
 40
0.0
176
     1
 90
        0
176
     1
290
     0
176
     1
290
     1
176
     1
290
     1
176
     1
290
     0
176
     1
290
     0
176
     1
290
     0
176
     1
290
     0
176
     1
290
     0
176
     1
290
     0
176
     1
 90
       50
176
     1
 40
0.0
176
     1
 40
1.0
176
     1
 90
        0
176
     1
 62
    18
420
        0
176
     1
 90
       50
176
     1
 90
        3
176
     1
 62
     5
420
      255
176
     1
290
     0
176
     1
 90
       50
176
     1
 90
       50
176
     1
 90
       50
176
     1
290
     0
176
     1
 90
       50
176
     1
 62
   256
176
     0
 40
1.0
176
     0
 90
        2
176
     1
  1
strokes_ogs.tif
176
     1
290
     0
176
     1
 40
1.0
176
     1
 40
1.0
176
     1
  0
VISUALSTYLE
  5
BC5
102
{ACAD_REACTORS
330
2F
102
}
330
2F
100
AcDbVisualStyle
  2
Gouraud
 70
     2
177
     3
291
     1
 70
    58
 90
        2
176
     1
 90
        2
176
     1
 90
        1
176
     1
 90
        2
176
     1
 40
0.6
176
     1
 40
30.0
176
     1
 62
     7
176
     1
 90
        0
176
     1
 90
        0
176
     1
 62
     7
176
     1
 62
   257
176
     1
 90
        1
176
     1
 90
        1
176
     1
 40
1.0
176
     1
 90
        0
176
     1
 62
     7
176
     1
 40
1.0
176
     1
 90
        1
176
     1
 90
        6
176
     1
 90
        2
176
     1
 62
     7
176
     1
 90
        5
176
     1
 90
        0
176
     1
 90
        0
176
     1
290
     0
176
     1
 90
       13
176
     1
 40
0.0
176
     1
 90
        0
176
     1
290
     0
176
     1
290
     1
176
     1
290
     1
176
     1
290
     0
176
     1
290
     0
176
     1
290
     0
176
     1
290
     0
176
     1
290
     0
176
     1
290
     0
176
     1
 90
       50
176
     1
 40
0.0
176
     1
 40
1.0
176
     1
 90
        0
176
     1
 62
    18
420
        0
176
     1
 90
       50
176
     1
 90
        3
176
     1
 62
     5
420
      255
176
     1
290
     0
176
     1
 90
       50
176
     1
 90
       50
176
     1
 90
       50
176
     1
290
     0
176
     1
 90
       50
176
     1
 62
   256
176
     0
 40
1.0
176
     0
 90
        2
176
     1
  1
strokes_ogs.tif
176
     1
290
     0
176
     1
 40
1.0
176
     1
 40
1.0
176
     1
  0
VISUALSTYLE
  5
BC6
102
{ACAD_REACTORS
330
2F
102
}
330
2F
100
AcDbVisualStyle
  2
GouraudWithEdges
 70
     3
177
     3
291
     1
 70
    58
 90
        2
176
     1
 90
        2
176
     1
 90
        1
176
     1
 90
        2
176
     1
 40
0.6
176
     1
 40
30.0
176
     1
 62
     7
176
     1
 90
        1
176
     1
 90
        0
176
     1
 62
     7
176
     1
 62
   257
176
     1
 90
        1
176
     1
 90
        1
176
     1
 40
1.0
176
     1
 90
        0
176
     1
 62
   257
176
     1
 40
1.0
176
     1
 90
        1
176
     1
 90
        6
176
     1
 90
        2
176
     1
 62
     7
176
     1
 90
        5
176
     1
 90
        0
176
     1
 90
        0
176
     1
290
     0
176
     1
 90
       13
176
     1
 40
0.0
176
     1
 90
        0
176
     1
290
     0
176
     1
290
     1
176
     1
290
     1
176
     1
290
     0
176
     1
290
     0
176
     1
290
     0
176
     1
290
     0
176
     1
290
     0
176
     1
290
     0
176
     1
 90
       50
176
     1
 40
0.0
176
     1
 40
1.0
176
     1
 90
        0
176
     1
 62
    18
420
        0
176
     1
 90
       50
176
     1
 90
        3
176
     1
 62
     5
420
      255
176
     1
290
     0
176
     1
 90
       50
176
     1
 90
       50
176
     1
 90
       50
176
     1
290
     0
176
     1
 90
       50
176
     1
 62
   256
176
     0
 40
1.0
176
     0
 90
        2
176
     1
  1
strokes_ogs.tif
176
     1
290
     0
176
     1
 40
1.0
176
     1
 40
1.0
176
     1
  0
VISUALSTYLE
  5
BC9
102
{ACAD_REACTORS
330
2F
102
}
330
2F
100
AcDbVisualStyle
  2
Hidden
 70
     6
177
     3
291
     0
 70
    58
 90
        1
176
     1
 90
        2
176
     1
 90
        2
176
     1
 90
        0
176
     1
 40
0.6
176
     1
 40
30.0
176
     1
 62
     7
176
     1
 90
        2
176
     1
 90
        2
176
     1
 62
     7
176
     1
 62
   257
176
     1
 90
        2
176
     1
 90
        1
176
     1
 40
40.0
176
     1
 90
        0
176
     1
 62
   257
176
     1
 40
1.0
176
     1
 90
        1
176
     1
 90
        6
176
     1
 90
        2
176
     1
 62
     7
176
     1
 90
        3
176
     1
 90
        0
176
     1
 90
        0
176
     1
290
     0
176
     1
 90
        1
176
     1
 40
0.0
176
     1
 90
        0
176
     1
290
     0
176
     1
290
     1
176
     1
290
     1
176
     1
290
     0
176
     1
290
     0
176
     1
290
     0
176
     1
290
     0
176
     1
290
     0
176
     1
290
     0
176
     1
 90
       50
176
     1
 40
0.0
176
     1
 40
1.0
176
     1
 90
        0
176
     1
 62
    18
420
        0
176
     1
 90
       50
176
     1
 90
        3
176
     1
 62
     5
420
      255
176
     1
290
     0
176
     1
 90
       50
176
     1
 90
       50
176
     1
 90
       50
176
     1
290
     0
176
     1
 90
       50
176
     1
 62
   256
176
     0
 40
1.0
176
     0
 90
        2
176
     1
  1
strokes_ogs.tif
176
     1
290
     0
176
     1
 40
1.0
176
     1
 40
1.0
176
     1
  0
VISUALSTYLE
  5
BD6
102
{ACAD_REACTORS
330
2F
102
}
330
2F
100
AcDbVisualStyle
  2
JitterOff
 70
    20
177
     3
291
     1
 70
    58
 90
        2
176
     0
 90
        2
176
     0
 90
        0
176
     0
 90
        0
176
     0
 40
0.6
176
     0
 40
30.0
176
     0
 62
     7
176
     0
 90
        1
176
     0
 90
        4
176
     0
 62
     7
176
     0
 62
   257
176
     0
 90
        1
176
     0
 90
        1
176
     0
 40
1.0
176
     0
 90
       10
176
     2
 62
     7
176
     0
 40
1.0
176
     0
 90
        1
176
     0
 90
        6
176
     0
 90
        2
176
     0
 62
     7
176
     0
 90
        5
176
     0
 90
        0
176
     0
 90
        0
176
     0
290
     0
176
     0
 90
        1
176
     0
 40
0.0
176
     0
 90
        0
176
     0
290
     0
176
     0
290
     1
176
     0
290
     1
176
     0
290
     0
176
     0
290
     0
176
     0
290
     0
176
     0
290
     0
176
     0
290
     0
176
     0
290
     0
176
     0
 90
       50
176
     0
 40
0.0
176
     0
 40
1.0
176
     0
 90
        0
176
     0
 62
    18
420
        0
176
     0
 90
       50
176
     0
 90
        3
176
     0
 62
     5
420
      255
176
     0
290
     0
176
     0
 90
       50
176
     0
 90
       50
176
     0
 90
       50
176
     0
290
     0
176
     0
 90
       50
176
     0
 62
   256
176
     0
 40
1.0
176
     0
 90
        2
176
     0
  1
strokes_ogs.tif
176
     0
290
     0
176
     0
 40
1.0
176
     0
 40
1.0
176
     0
  0
VISUALSTYLE
  5
BCE
102
{ACAD_REACTORS
330
2F
102
}
330
2F
100
AcDbVisualStyle
  2
Linepattern
 70
    14
177
     3
291
     1
 70
    58
 90
        2
176
     1
 90
        2
176
     1
 90
        0
176
     1
 90
        0
176
     1
 40
0.6
176
     1
 40
30.0
176
     1
 62
     7
176
     1
 90
        1
176
     1
 90
        4
176
     1
 62
     7
176
     1
 62
   257
176
     1
 90
        7
176
     1
 90
        7
176
     1
 40
1.0
176
     1
 90
        8
176
     1
 62
     7
176
     1
 40
1.0
176
     1
 90
        1
176
     1
 90
        6
176
     1
 90
        2
176
     1
 62
     7
176
     1
 90
        5
176
     1
 90
        0
176
     1
 90
        0
176
     1
290
     0
176
     1
 90
        1
176
     1
 40
0.0
176
     1
 90
        0
176
     1
290
     0
176
     1
290
     1
176
     1
290
     1
176
     1
290
     0
176
     1
290
     0
176
     1
290
     0
176
     1
290
     0
176
     1
290
     0
176
     1
290
     0
176
     1
 90
       50
176
     1
 40
0.0
176
     1
 40
1.0
176
     1
 90
        0
176
     1
 62
    18
420
        0
176
     1
 90
       50
176
     1
 90
        3
176
     1
 62
     5
420
      255
176
     1
290
     0
176
     1
 90
       50
176
     1
 90
       50
176
     1
 90
       50
176
     1
290
     0
176
     1
 90
       50
176
     1
 62
   256
176
     0
 40
1.0
176
     0
 90
        2
176
     1
  1
strokes_ogs.tif
176
     1
290
     0
176
     1
 40
1.0
176
     1
 40
1.0
176
     1
  0
VISUALSTYLE
  5
BD7
102
{ACAD_REACTORS
330
2F
102
}
330
2F
100
AcDbVisualStyle
  2
OverhangOff
 70
    21
177
     3
291
     1
 70
    58
 90
        2
176
     0
 90
        2
176
     0
 90
        0
176
     0
 90
        0
176
     0
 40
0.6
176
     0
 40
30.0
176
     0
 62
     7
176
     0
 90
        1
176
     0
 90
        4
176
     0
 62
     7
176
     0
 62
   257
176
     0
 90
        1
176
     0
 90
        1
176
     0
 40
1.0
176
     0
 90
        9
176
     2
 62
     7
176
     0
 40
1.0
176
     0
 90
        1
176
     0
 90
        6
176
     0
 90
        2
176
     0
 62
     7
176
     0
 90
        5
176
     0
 90
        0
176
     0
 90
        0
176
     0
290
     0
176
     0
 90
        1
176
     0
 40
0.0
176
     0
 90
        0
176
     0
290
     0
176
     0
290
     1
176
     0
290
     1
176
     0
290
     0
176
     0
290
     0
176
     0
290
     0
176
     0
290
     0
176
     0
290
     0
176
     0
290
     0
176
     0
 90
       50
176
     0
 40
0.0
176
     0
 40
1.0
176
     0
 90
        0
176
     0
 62
    18
420
        0
176
     0
 90
       50
176
     0
 90
        3
176
     0
 62
     5
420
      255
176
     0
290
     0
176
     0
 90
       50
176
     0
 90
       50
176
     0
 90
       50
176
     0
290
     0
176
     0
 90
       50
176
     0
 62
   256
176
     0
 40
1.0
176
     0
 90
        2
176
     0
  1
strokes_ogs.tif
176
     0
290
     0
176
     0
 40
1.0
176
     0
 40
1.0
176
     0
  0
VISUALSTYLE
  5
46
102
{ACAD_REACTORS
330
2F
102
}
330
2F
100
AcDbVisualStyle
  2
Realistic
 70
     8
177
     3
291
     0
 70
    58
 90
        2
176
     1
 90
        2
176
     1
 90
        1
176
     1
 90
        0
176
     1
 40
0.6
176
     1
 40
30.0
176
     1
 62
     7
176
     1
 90
        1
176
     1
 90
        0
176
     1
 62
     7
176
     1
 62
   257
176
     1
 90
        1
176
     1
 90
        1
176
     1
 40
1.0
176
     1
 90
        8
176
     1
 62
     8
176
     1
 40
1.0
176
     1
 90
        1
176
     1
 90
        6
176
     1
 90
        2
176
     1
 62
     7
176
     1
 90
        5
176
     1
 90
        0
176
     1
 90
        0
176
     1
290
     0
176
     1
 90
       13
176
     1
 40
0.0
176
     1
 90
        0
176
     1
290
     0
176
     1
290
     1
176
     1
290
     1
176
     1
290
     0
176
     1
290
     0
176
     1
290
     0
176
     1
290
     0
176
     1
290
     0
176
     1
290
     0
176
     1
 90
       50
176
     1
 40
0.0
176
     1
 40
1.0
176
     1
 90
        0
176
     1
 62
    18
420
        0
176
     1
 90
       50
176
     1
 90
        3
176
     1
 62
     5
420
      255
176
     1
290
     0
176
     1
 90
       50
176
     1
 90
       50
176
     1
 90
       50
176
     1
290
     0
176
     1
 90
       50
176
     1
 62
   256
176
     0
 40
1.0
176
     0
 90
        2
176
     1
  1
strokes_ogs.tif
176
     1
290
     0
176
     1
 40
1.0
176
     1
 40
1.0
176
     1
  0
VISUALSTYLE
  5
BD5
102
{ACAD_REACTORS
330
2F
102
}
330
2F
100
AcDbVisualStyle
  2
Shaded
 70
    27
177
     3
291
     0
 70
    58
 90
        2
176
     1
 90
        2
176
     1
 90
        1
176
     1
 90
        2
176
     1
 40
0.6
176
     1
 40
30.0
176
     1
 62
     7
176
     1
 90
        0
176
     1
 90
        4
176
     1
 62
     7
176
     1
 62
   257
176
     1
 90
        1
176
     1
 90
        1
176
     1
 40
1.0
176
     1
 90
        8
176
     1
 62
   257
176
     1
 40
1.0
176
     1
 90
        1
176
     1
 90
        6
176
     1
 90
        2
176
     1
 62
     8
176
     1
 90
        3
176
     1
 90
        0
176
     1
 90
        0
176
     1
290
     0
176
     1
 90
        5
176
     1
 40
0.0
176
     1
 90
        0
176
     1
290
     0
176
     1
290
     1
176
     1
290
     1
176
     1
290
     0
176
     1
290
     0
176
     1
290
     0
176
     1
290
     0
176
     1
290
     0
176
     1
290
     0
176
     1
 90
       50
176
     1
 40
0.0
176
     1
 40
1.0
176
     1
 90
        0
176
     1
 62
    18
420
        0
176
     1
 90
       50
176
     1
 90
        3
176
     1
 62
     5
420
      255
176
     1
290
     0
176
     1
 90
       50
176
     1
 90
       50
176
     1
 90
       50
176
     1
290
     0
176
     1
 90
       50
176
     1
 62
   256
176
     0
 40
1.0
176
     0
 90
        2
176
     1
  1
strokes_ogs.tif
176
     1
290
     0
176
     1
 40
1.0
176
     1
 40
1.0
176
     1
  0
VISUALSTYLE
  5
BD4
102
{ACAD_REACTORS
330
2F
102
}
330
2F
100
AcDbVisualStyle
  2
Shaded with edges
 70
    26
177
     3
291
     0
 70
    58
 90
        2
176
     1
 90
        2
176
     1
 90
        1
176
     1
 90
        2
176
     1
 40
0.6
176
     1
 40
30.0
176
     1
 62
     7
176
     1
 90
        1
176
     1
 90
       10
176
     1
 62
     7
176
     1
 62
   257
176
     1
 90
        2
176
     1
 90
        1
176
     1
 40
1.0
176
     1
 90
        8
176
     1
 62
   257
176
     1
 40
1.0
176
     1
 90
        1
176
     1
 90
        6
176
     1
 90
        2
176
     1
 62
     7
176
     1
 90
        3
176
     1
 90
        0
176
     1
 90
        0
176
     1
290
     0
176
     1
 90
        5
176
     1
 40
0.0
176
     1
 90
        0
176
     1
290
     0
176
     1
290
     1
176
     1
290
     1
176
     1
290
     0
176
     1
290
     0
176
     1
290
     0
176
     1
290
     0
176
     1
290
     0
176
     1
290
     0
176
     1
 90
       50
176
     1
 40
0.0
176
     1
 40
1.0
176
     1
 90
        0
176
     1
 62
    18
420
        0
176
     1
 90
       50
176
     1
 90
        3
176
     1
 62
     5
420
      255
176
     1
290
     0
176
     1
 90
       50
176
     1
 90
       50
176
     1
 90
       50
176
     1
290
     0
176
     1
 90
       50
176
     1
 62
   256
176
     0
 40
1.0
176
     0
 90
        2
176
     1
  1
strokes_ogs.tif
176
     1
290
     0
176
     1
 40
1.0
176
     1
 40
1.0
176
     1
  0
VISUALSTYLE
  5
BD1
102
{ACAD_REACTORS
330
2F
102
}
330
2F
100
AcDbVisualStyle
  2
Shades of Gray
 70
    23
177
     3
291
     0
 70
    58
 90
        2
176
     1
 90
        2
176
     1
 90
        3
176
     1
 90
        0
176
     1
 40
0.6
176
     1
 40
30.0
176
     1
 62
     7
176
     1
 90
        2
176
     1
 90
        2
176
     1
 62
     7
176
     1
 62
     7
176
     1
 90
        1
176
     1
 90
        1
176
     1
 40
40.0
176
     1
 90
        8
176
     1
 62
     7
176
     1
 40
1.0
176
     1
 90
        1
176
     1
 90
        6
176
     1
 90
        2
176
     1
 62
     7
176
     1
 90
        3
176
     1
 90
        0
176
     1
 90
        0
176
     1
290
     0
176
     1
 90
        1
176
     1
 40
0.0
176
     1
 90
        0
176
     1
290
     0
176
     1
290
     1
176
     1
290
     1
176
     1
290
     0
176
     1
290
     0
176
     1
290
     0
176
     1
290
     0
176
     1
290
     0
176
     1
290
     0
176
     1
 90
       50
176
     1
 40
0.0
176
     1
 40
1.0
176
     1
 90
        0
176
     1
 62
    18
420
        0
176
     1
 90
       50
176
     1
 90
        3
176
     1
 62
     5
420
      255
176
     1
290
     0
176
     1
 90
       50
176
     1
 90
       50
176
     1
 90
       50
176
     1
290
     0
176
     1
 90
       50
176
     1
 62
   256
176
     0
 40
1.0
176
     0
 90
        2
176
     1
  1
strokes_ogs.tif
176
     1
290
     0
176
     1
 40
1.0
176
     1
 40
1.0
176
     1
  0
VISUALSTYLE
  5
BD2
102
{ACAD_REACTORS
330
2F
102
}
330
2F
100
AcDbVisualStyle
  2
Sketchy
 70
    24
177
     3
291
     0
 70
    58
 90
        1
176
     1
 90
        2
176
     1
 90
        2
176
     1
 90
        0
176
     1
 40
0.6
176
     1
 40
30.0
176
     1
 62
     7
176
     1
 90
        2
176
     1
 90
        2
176
     1
 62
     7
176
     1
 62
     7
176
     1
 90
        1
176
     1
 90
        1
176
     1
 40
40.0
176
     1
 90
       11
176
     1
 62
     7
176
     1
 40
1.0
176
     1
 90
        1
176
     1
 90
        6
176
     1
 90
        2
176
     1
 62
     7
176
     1
 90
        6
176
     1
 90
        0
176
     1
 90
        0
176
     1
290
     0
176
     1
 90
        1
176
     1
 40
0.0
176
     1
 90
        0
176
     1
290
     0
176
     1
290
     1
176
     1
290
     1
176
     1
290
     0
176
     1
290
     0
176
     1
290
     0
176
     1
290
     0
176
     1
290
     0
176
     1
290
     0
176
     1
 90
       50
176
     1
 40
0.0
176
     1
 40
1.0
176
     1
 90
        0
176
     1
 62
    18
420
        0
176
     1
 90
       50
176
     1
 90
        3
176
     1
 62
     5
420
      255
176
     1
290
     0
176
     1
 90
       50
176
     1
 90
       50
176
     1
 90
       50
176
     1
290
     0
176
     1
 90
       50
176
     1
 62
   256
176
     0
 40
1.0
176
     0
 90
        2
176
     1
  1
strokes_ogs.tif
176
     1
290
     0
176
     1
 40
1.0
176
     1
 40
1.0
176
     1
  0
VISUALSTYLE
  5
BCD
102
{ACAD_REACTORS
330
2F
102
}
330
2F
100
AcDbVisualStyle
  2
Thicken
 70
    13
177
     3
291
     1
 70
    58
 90
        2
176
     1
 90
        2
176
     1
 90
        0
176
     1
 90
        0
176
     1
 40
0.6
176
     1
 40
30.0
176
     1
 62
     7
176
     1
 90
        1
176
     1
 90
        4
176
     1
 62
     7
176
     1
 62
   257
176
     1
 90
        1
176
     1
 90
        1
176
     1
 40
1.0
176
     1
 90
       12
176
     1
 62
     7
176
     1
 40
1.0
176
     1
 90
        1
176
     1
 90
        6
176
     1
 90
        2
176
     1
 62
     7
176
     1
 90
        5
176
     1
 90
        0
176
     1
 90
        0
176
     1
290
     0
176
     1
 90
        1
176
     1
 40
0.0
176
     1
 90
        0
176
     1
290
     0
176
     1
290
     1
176
     1
290
     1
176
     1
290
     0
176
     1
290
     0
176
     1
290
     0
176
     1
290
     0
176
     1
290
     0
176
     1
290
     0
176
     1
 90
       50
176
     1
 40
0.0
176
     1
 40
1.0
176
     1
 90
        0
176
     1
 62
    18
420
        0
176
     1
 90
       50
176
     1
 90
        3
176
     1
 62
     5
420
      255
176
     1
290
     0
176
     1
 90
       50
176
     1
 90
       50
176
     1
 90
       50
176
     1
290
     0
176
     1
 90
       50
176
     1
 62
   256
176
     0
 40
1.0
176
     0
 90
        2
176
     1
  1
strokes_ogs.tif
176
     1
290
     0
176
     1
 40
1.0
176
     1
 40
1.0
176
     1
  0
VISUALSTYLE
  5
BC8
102
{ACAD_REACTORS
330
2F
102
}
330
2F
100
AcDbVisualStyle
  2
Wireframe
 70
     5
177
     3
291
     0
 70
    58
 90
        0
176
     1
 90
        2
176
     1
 90
        0
176
     1
 90
        0
176
     1
 40
0.6
176
     1
 40
30.0
176
     1
 62
     7
176
     1
 90
        1
176
     1
 90
        4
176
     1
 62
     7
176
     1
 62
   257
176
     1
 90
        1
176
     1
 90
        1
176
     1
 40
1.0
176
     1
 90
        0
176
     1
 62
   257
176
     1
 40
1.0
176
     1
 90
        1
176
     1
 90
        6
176
     1
 90
        2
176
     1
 62
     7
176
     1
 90
        3
176
     1
 90
        0
176
     1
 90
        0
176
     1
290
     0
176
     1
 90
        1
176
     1
 40
0.0
176
     1
 90
        0
176
     1
290
     0
176
     1
290
     1
176
     1
290
     1
176
     1
290
     0
176
     1
290
     0
176
     1
290
     0
176
     1
290
     0
176
     1
290
     0
176
     1
290
     0
176
     1
 90
       50
176
     1
 40
0.0
176
     1
 40
1.0
176
     1
 90
        0
176
     1
 62
    18
420
        0
176
     1
 90
       50
176
     1
 90
        3
176
     1
 62
     5
420
      255
176
     1
290
     0
176
     1
 90
       50
176
     1
 90
       50
176
     1
 90
       50
176
     1
290
     0
176
     1
 90
       50
176
     1
 62
   256
176
     0
 40
1.0
176
     0
 90
        2
176
     1
  1
strokes_ogs.tif
176
     1
290
     0
176
     1
 40
1.0
176
     1
 40
1.0
176
     1
  0
VISUALSTYLE
  5
BD3
102
{ACAD_REACTORS
330
2F
102
}
330
2F
100
AcDbVisualStyle
  2
X-Ray
 70
    25
177
     3
291
     0
 70
    58
 90
        2
176
     1
 90
        2
176
     1
 90
        1
176
     1
 90
        1
176
     1
 40
0.5
176
     1
 40
30.0
176
     1
 62
     7
176
     1
 90
        1
176
     1
 90
        0
176
     1
 62
     7
176
     1
 62
   257
176
     1
 90
        1
176
     1
 90
        1
176
     1
 40
1.0
176
     1
 90
        8
176
     1
 62
     7
176
     1
 40
1.0
176
     1
 90
        1
176
     1
 90
        6
176
     1
 90
        2
176
     1
 62
     7
176
     1
 90
        3
176
     1
 90
        0
176
     1
 90
        0
176
     1
290
     0
176
     1
 90
       13
176
     1
 40
0.0
176
     1
 90
        0
176
     1
290
     0
176
     1
290
     1
176
     1
290
     1
176
     1
290
     0
176
     1
290
     0
176
     1
290
     0
176
     1
290
     0
176
     1
290
     0
176
     1
290
     0
176
     1
 90
       50
176
     1
 40
0.0
176
     1
 40
1.0
176
     1
 90
        0
176
     1
 62
    18
420
        0
176
     1
 90
       50
176
     1
 90
        3
176
     1
 62
     5
420
      255
176
     1
290
     0
176
     1
 90
       50
176
     1
 90
       50
176
     1
 90
       50
176
     1
290
     0
176
     1
 90
       50
176
     1
 62
   256
176
     0
 40
1.0
176
     0
 90
        2
176
     1
  1
strokes_ogs.tif
176
     1
290
     0
176
     1
 40
1.0
176
     1
 40
1.0
176
     1
  0
DICTIONARYVAR
  5
BBE
102
{ACAD_REACTORS
330
BB8
102
}
330
BB8
100
DictionaryVariables
280
     0
  1
1:1
  0
DICTIONARYVAR
  5
BBA
102
{ACAD_REACTORS
330
BB8
102
}
330
BB8
100
DictionaryVariables
280
     0
  1
STANDARD
  0
DICTIONARYVAR
  5
BB9
102
{ACAD_REACTORS
330
BB8
102
}
330
BB8
100
DictionaryVariables
280
     0
  1
STANDARD
  0
DICTIONARYVAR
  5
BBB
102
{ACAD_REACTORS
330
BB8
102
}
330
BB8
100
DictionaryVariables
280
     0
  1
Metric50
  0
DICTIONARYVAR
  5
BBC
102
{ACAD_REACTORS
330
BB8
102
}
330
BB8
100
DictionaryVariables
280
     0
  1
Metric50
  0
DICTIONARYVAR
  5
C3B
102
{ACAD_REACTORS
330
BB8
102
}
330
BB8
100
DictionaryVariables
280
     0
  1
1
  0
DICTIONARYVAR
  5
C39
102
{ACAD_REACTORS
330
BB8
102
}
330
BB8
100
DictionaryVariables
280
     0
  1
1
  0
DICTIONARYVAR
  5
FF3
102
{ACAD_REACTORS
330
BB8
102
}
330
BB8
100
DictionaryVariables
280
     0
  1
4
  0
DICTIONARYVAR
  5
C38
102
{ACAD_REACTORS
330
BB8
102
}
330
BB8
100
DictionaryVariables
280
     0
  1
0
  0
DICTIONARYVAR
  5
BC0
102
{ACAD_REACTORS
330
BB8
102
}
330
BB8
100
DictionaryVariables
280
     0
  1
1
  0
DICTIONARYVAR
  5
BC1
102
{ACAD_REACTORS
330
BB8
102
}
330
BB8
100
DictionaryVariables
280
     0
  1
15
  0
DICTIONARYVAR
  5
BBF
102
{ACAD_REACTORS
330
BB8
102
}
330
BB8
100
DictionaryVariables
280
     0
  1
0
  0
DICTIONARYVAR
  5
BBD
102
{ACAD_REACTORS
330
BB8
102
}
330
BB8
100
DictionaryVariables
280
     0
  1
0
  0
DICTIONARYVAR
  5
C3C
102
{ACAD_REACTORS
330
BB8
102
}
330
BB8
100
DictionaryVariables
280
     0
  1
1
  0
DICTIONARYVAR
  5
C37
102
{ACAD_REACTORS
330
BB8
102
}
330
BB8
100
DictionaryVariables
280
     0
  1
127
  0
DICTIONARY
  5
244F0
330
BDD
100
AcDbDictionary
280
     1
281
     1
  3
ACAD_XREC_ROUNDTRIP
360
244F1
  0
DICTIONARY
  5
18
330
16
100
AcDbDictionary
280
     1
281
     1
  0
DICTIONARY
  5
1F
330
1E
100
AcDbDictionary
280
     1
281
     1
  0
DICTIONARY
  5
E
330
C
100
AcDbDictionary
280
     1
281
     1
  3
BUMPTILE
360
F
  3
DIFFUSETILE
360
10
  3
OPACITYTILE
360
11
  3
REFLECTIONTILE
360
12
  0
DICTIONARY
  5
244EE
330
BDB
100
AcDbDictionary
280
     1
281
     1
  3
ACAD_XREC_ROUNDTRIP
360
244EF
  0
DICTIONARY
  5
45
330
44
100
AcDbDictionary
280
     1
281
     1
  3
ACAD_ROUNDTRIP_2008_TABLESTYLE_CELLSTYLEMAP
360
244ED
  0
XRECORD
  5
244F1
102
{ACAD_REACTORS
330
244F0
102
}
330
244F0
100
AcDbXrecord
280
     1
102
DISPLAYNAME
  1
Metric50
102
FLAGS
 90
        0
  0
XRECORD
  5
F
102
{ACAD_REACTORS
330
E
102
}
330
E
100
AcDbXrecord
280
     1
270
     1
271
     1
  0
XRECORD
  5
10
102
{ACAD_REACTORS
330
E
102
}
330
E
100
AcDbXrecord
280
     1
270
     1
271
     1
  0
XRECORD
  5
11
102
{ACAD_REACTORS
330
E
102
}
330
E
100
AcDbXrecord
280
     1
270
     1
271
     1
  0
XRECORD
  5
12
102
{ACAD_REACTORS
330
E
102
}
330
E
100
AcDbXrecord
280
     1
270
     1
271
     1
  0
XRECORD
  5
244EF
102
{ACAD_REACTORS
330
244EE
102
}
330
244EE
100
AcDbXrecord
280
     1
102
DISPLAYNAME
  1
Metric50
102
FLAGS
 90
        0
  0
CELLSTYLEMAP
  5
244ED
102
{ACAD_REACTORS
330
45
102
}
330
45
100
AcDbCellStyleMap
 90
        3
300
CELLSTYLE
  1
TABLEFORMAT_BEGIN
 90
        5
170
     1
 91
        0
 92
    32768
 62
   257
 93
        1
300
CONTENTFORMAT
  1
CONTENTFORMAT_BEGIN
 90
        0
 91
        0
 92
      512
 93
        0
300

 40
0.0
140
1.0
 94
        5
 62
     0
340
25
144
6.0
309
CONTENTFORMAT_END
171
     1
301
MARGIN
  1
CELLMARGIN_BEGIN
 40
1.5
 40
1.5
 40
1.5
 40
1.5
 40
0.18
 40
0.18
309
CELLMARGIN_END
 94
        6
 95
        1
302
GRIDFORMAT
  1
GRIDFORMAT_BEGIN
 90
        0
 91
        1
 62
     0
 92
       -2
340
28
 93
        0
 40
1.125
309
GRIDFORMAT_END
 95
        2
302
GRIDFORMAT
  1
GRIDFORMAT_BEGIN
 90
        0
 91
        1
 62
     0
 92
       -2
340
28
 93
        0
 40
1.125
309
GRIDFORMAT_END
 95
        4
302
GRIDFORMAT
  1
GRIDFORMAT_BEGIN
 90
        0
 91
        1
 62
     0
 92
       -2
340
28
 93
        0
 40
1.125
309
GRIDFORMAT_END
 95
        8
302
GRIDFORMAT
  1
GRIDFORMAT_BEGIN
 90
        0
 91
        1
 62
     0
 92
       -2
340
28
 93
        0
 40
1.125
309
GRIDFORMAT_END
 95
       16
302
GRIDFORMAT
  1
GRIDFORMAT_BEGIN
 90
        0
 91
        1
 62
     0
 92
       -2
340
28
 93
        0
 40
1.125
309
GRIDFORMAT_END
 95
       32
302
GRIDFORMAT
  1
GRIDFORMAT_BEGIN
 90
        0
 91
        1
 62
     0
 92
       -2
340
28
 93
        0
 40
1.125
309
GRIDFORMAT_END
309
TABLEFORMAT_END
  1
CELLSTYLE_BEGIN
 90
        1
 91
        1
300
_TITLE
309
CELLSTYLE_END
300
CELLSTYLE
  1
TABLEFORMAT_BEGIN
 90
        5
170
     1
 91
        0
 92
        0
 62
   257
 93
        1
300
CONTENTFORMAT
  1
CONTENTFORMAT_BEGIN
 90
        0
 91
        0
 92
      512
 93
        0
300

 40
0.0
140
1.0
 94
        5
 62
     0
340
25
144
4.5
309
CONTENTFORMAT_END
171
     1
301
MARGIN
  1
CELLMARGIN_BEGIN
 40
1.5
 40
1.5
 40
1.5
 40
1.5
 40
0.18
 40
0.18
309
CELLMARGIN_END
 94
        6
 95
        1
302
GRIDFORMAT
  1
GRIDFORMAT_BEGIN
 90
        0
 91
        1
 62
     0
 92
       -2
340
28
 93
        0
 40
1.125
309
GRIDFORMAT_END
 95
        2
302
GRIDFORMAT
  1
GRIDFORMAT_BEGIN
 90
        0
 91
        1
 62
     0
 92
       -2
340
28
 93
        0
 40
1.125
309
GRIDFORMAT_END
 95
        4
302
GRIDFORMAT
  1
GRIDFORMAT_BEGIN
 90
        0
 91
        1
 62
     0
 92
       -2
340
28
 93
        0
 40
1.125
309
GRIDFORMAT_END
 95
        8
302
GRIDFORMAT
  1
GRIDFORMAT_BEGIN
 90
        0
 91
        1
 62
     0
 92
       -2
340
28
 93
        0
 40
1.125
309
GRIDFORMAT_END
 95
       16
302
GRIDFORMAT
  1
GRIDFORMAT_BEGIN
 90
        0
 91
        1
 62
     0
 92
       -2
340
28
 93
        0
 40
1.125
309
GRIDFORMAT_END
 95
       32
302
GRIDFORMAT
  1
GRIDFORMAT_BEGIN
 90
        0
 91
        1
 62
     0
 92
       -2
340
28
 93
        0
 40
1.125
309
GRIDFORMAT_END
309
TABLEFORMAT_END
  1
CELLSTYLE_BEGIN
 90
        2
 91
        1
300
_HEADER
309
CELLSTYLE_END
300
CELLSTYLE
  1
TABLEFORMAT_BEGIN
 90
        5
170
     1
 91
        0
 92
        0
 62
   257
 93
        1
300
CONTENTFORMAT
  1
CONTENTFORMAT_BEGIN
 90
        0
 91
        0
 92
      512
 93
        0
300

 40
0.0
140
1.0
 94
        2
 62
     0
340
25
144
4.5
309
CONTENTFORMAT_END
171
     1
301
MARGIN
  1
CELLMARGIN_BEGIN
 40
1.5
 40
1.5
 40
1.5
 40
1.5
 40
0.18
 40
0.18
309
CELLMARGIN_END
 94
        6
 95
        1
302
GRIDFORMAT
  1
GRIDFORMAT_BEGIN
 90
        0
 91
        1
 62
     0
 92
       -2
340
28
 93
        0
 40
1.125
309
GRIDFORMAT_END
 95
        2
302
GRIDFORMAT
  1
GRIDFORMAT_BEGIN
 90
        0
 91
        1
 62
     0
 92
       -2
340
28
 93
        0
 40
1.125
309
GRIDFORMAT_END
 95
        4
302
GRIDFORMAT
  1
GRIDFORMAT_BEGIN
 90
        0
 91
        1
 62
     0
 92
       -2
340
28
 93
        0
 40
1.125
309
GRIDFORMAT_END
 95
        8
302
GRIDFORMAT
  1
GRIDFORMAT_BEGIN
 90
        0
 91
        1
 62
     0
 92
       -2
340
28
 93
        0
 40
1.125
309
GRIDFORMAT_END
 95
       16
302
GRIDFORMAT
  1
GRIDFORMAT_BEGIN
 90
        0
 91
        1
 62
     0
 92
       -2
340
28
 93
        0
 40
1.125
309
GRIDFORMAT_END
 95
       32
302
GRIDFORMAT
  1
GRIDFORMAT_BEGIN
 90
        0
 91
        1
 62
     0
 92
       -2
340
28
 93
        0
 40
1.125
309
GRIDFORMAT_END
309
TABLEFORMAT_END
  1
CELLSTYLE_BEGIN
 90
        3
 91
        2
300
_DATA
309
CELLSTYLE_END
  0
ENDSEC
  0
SECTION
  2
ACDSDATA
 70
     2
 71
     6
  0
ACDSSCHEMA
 90
        0
  1
AcDb_Thumbnail_Schema
  2
AcDbDs::ID
280
    10
 91
        8
  2
Thumbnail_Data
280
    15
 91
        0
101
ACDSRECORD
 95
        0
 90
        1
  2
AcDbDs::TreatedAsObjectData
280
     1
291
     1
101
ACDSRECORD
 95
        0
 90
        2
  2
AcDbDs::Legacy
280
     1
291
     1
101
ACDSRECORD
  1
AcDbDs::ID
 90
        3
  2
AcDs:Indexable
280
     1
291
     1
101
ACDSRECORD
  1
AcDbDs::ID
 90
        4
  2
AcDbDs::HandleAttribute
280
     7
282
     1
  0
ACDSSCHEMA
 90
        1
  1
AcDbDs::TreatedAsObjectDataSchema
  2
AcDbDs::TreatedAsObjectData
280
     1
 91
        0
  0
ACDSSCHEMA
 90
        2
  1
AcDbDs::LegacySchema
  2
AcDbDs::Legacy
280
     1
 91
        0
  0
ACDSSCHEMA
 90
        3
  1
AcDbDs::IndexedPropertySchema
  2
AcDs:Indexable
280
     1
 91
        0
  0
ACDSSCHEMA
 90
        4
  1
AcDbDs::HandleAttributeSchema
  2
AcDbDs::HandleAttribute
280
     7
 91
        1
284
     1
  0
ACDSRECORD
 90
        0
  2
AcDbDs::ID
280
    10
320
16
  2
Thumbnail_Data
280
    15
 94
     1852
310
89504E470D0A1A0A0000000D4948445200000100000000730803000000406D2C8F00000300504C5445000000000000C8C8C80000000000000000000000000000000000000000000000000000330000660000990000CC0000FF0033000033330033660033990033CC0033FF0066000066330066660066990066CC0066FF0099
310
000099330099660099990099CC0099FF00CC0000CC3300CC6600CC9900CCCC00CCFF00FF0000FF3300FF6600FF9900FFCC00FFFF3300003300333300663300993300CC3300FF3333003333333333663333993333CC3333FF3366003366333366663366993366CC3366FF3399003399333399663399993399CC3399FF33CC00
310
33CC3333CC6633CC9933CCCC33CCFF33FF0033FF3333FF6633FF9933FFCC33FFFF6600006600336600666600996600CC6600FF6633006633336633666633996633CC6633FF6666006666336666666666996666CC6666FF6699006699336699666699996699CC6699FF66CC0066CC3366CC6666CC9966CCCC66CCFF66FF0066
310
FF3366FF6666FF9966FFCC66FFFF9900009900339900669900999900CC9900FF9933009933339933669933999933CC9933FF9966009966339966669966999966CC9966FF9999009999339999669999999999CC9999FF99CC0099CC3399CC6699CC9999CCCC99CCFF99FF0099FF3399FF6699FF9999FFCC99FFFFCC0000CC00
310
33CC0066CC0099CC00CCCC00FFCC3300CC3333CC3366CC3399CC33CCCC33FFCC6600CC6633CC6666CC6699CC66CCCC66FFCC9900CC9933CC9966CC9999CC99CCCC99FFCCCC00CCCC33CCCC66CCCC99CCCCCCCCCCFFCCFF00CCFF33CCFF66CCFF99CCFFCCCCFFFFFF0000FF0033FF0066FF0099FF00CCFF00FFFF3300FF3333
310
FF3366FF3399FF33CCFF33FFFF6600FF6633FF6666FF6699FF66CCFF66FFFF9900FF9933FF9966FF9999FF99CCFF99FFFFCC00FFCC33FFCC66FFCC99FFCCCCFFCCFFFFFF00FFFF33FFFF66FFFF99FFFFCCFFFFFF0000000D0D0D1A1A1A2828283535354343435050505D5D5D6B6B6B787878868686939393A1A1A1AEAEAEBB
310
BBBBC9C9C9D6D6D6E4E4E4F1F1F1FFFFFF00000000000000000000000000000000000000000000000000000000000008F1915C000003F74944415478DAED9C6D96AB200C86B39CFC71675D32DBC8FF691D513E824651091AEE399E999632E4217981402FC045854EAD26AEA7A74801506F008829CE91A408ABC9EB712F3619
310
59E7441F155693D76BE229F488C8330006C00018000360000C8001300006E0C6BFE01C3E008074A3127FE667BABB05C091FE1980AB7DEC4E002A35C00018801100C06B018079008E1C4C03840ED32100F7B3CF8D4F762ADEE101AE2A569A02F0180A00400EA0430F980AF01E808469F18718E961469DFDCD00A4E6656F671E
310
40C37F5B14375969BF1611C4ED10A079F407CA670CB50084876F4200038C0FCAF6CCC7BDE0FAD3C113014CF6C74D62DD44706B0894249F517B0E80B73FEA34560AC1CD00C6C92F374E0460B63F1201AC14C2061EE0A7B86D0053CDE020DF8BC052706F216C3E0BE0F46F13C0646330F4E963C4B22FFE111400D80A013FE62B
310
A6FBC7B7F97DFAA719C0ECDBDE42DCB4FF2B07B84FFF350240082EEC84A6E3A6FDDFE6779AA00C4010E6030476FD9B8E8220A09DF2A7054018E638DB3F78BB707943A20483E4D617AAF180B19F8B71CB4F8B13C84DCF27867C760CC75E010082A4D398D92F1741FE41E5B1D7008062E338FBC5225810063D0098452A01BB86
310
73C744B0B43A100268713648F3DE3EBEC88A1B375DE5F66B02C06A0071AFBBB006D3D9D53571FC18946BC05100EB5E1FBA4A0EA0946AEF0900AC0447B445CCB2868F01504E6BA52548B7AA03F05D96D0B83849678170E192E5C471368BC2B7C75F7E6F50523D757EBF69746A1642922D0B06F13F3B40E40905B7A03861A42E
310
040E02A0F9471980DCF9FB06301248244E0000F267AF00FC54B81380BA7C400580AC81FD00EECE0AD36900D86F7AAD8BA0E080FDEA8321A2861A20C917D3F5049A8B60530F286784AE02100689060DD8CA099E0420D10744E946B75D56385AC6D700E01A4040E181616B00C976663F00C28203E1FF25A44E00640E510F40E8
310
03CA00241CAA00C88ECD7502C8847245035600FC9CA06B00C10539A2084020FA6B0024CEA61940F46B088068A335ACE85E0F00365B330006400D00EE22F071004CD6BF12408BA33141EFB0E801D01B80534300CE07A05403B80B2E85EBF20F154166735368C0001800036000DE0160591BBC1340B03C7A2D003000FD0128A7
310
BCB50068F0AD310B817703287C5D7C7DCB3AE5B71F0260F7B7DCE68F6084C3E364EB3F1A0044041CFB01CD1A70BC780F08469DB3D53D14C001F5781A0067005E0DA0D3EE19802666C9CB430164AF7C92725BF7AE3F795907108DF6271F7795FFA3E45500A00580C621103BC0270F7DBD1AE0E4452A822100FD225807E001D3
310
A001380BC07AFD17AC035E0FC096C2B6147EA307F8E4C1A66E1A000B01457AD4A43449C308176FFC2AFF7073D064637A3A00680CE00FA8F2BCA773DE22010000000049454E44AE426082
  0
ACDSRECORD
 90
        0
  2
AcDbDs::ID
280
    10
320
1E
  2
Thumbnail_Data
280
    15
 94
     1014
310
89504E470D0A1A0A0000000D49484452000000B80000007F08030000006B00F8F900000300504C5445FFFFFF000000FFFFFF0000000000000000000000000000000000000000000000000000330000660000990000CC0000FF0033000033330033660033990033CC0033FF0066000066330066660066990066CC0066FF0099
310
000099330099660099990099CC0099FF00CC0000CC3300CC6600CC9900CCCC00CCFF00FF0000FF3300FF6600FF9900FFCC00FFFF3300003300333300663300993300CC3300FF3333003333333333663333993333CC3333FF3366003366333366663366993366CC3366FF3399003399333399663399993399CC3399FF33CC00
310
33CC3333CC6633CC9933CCCC33CCFF33FF0033FF3333FF6633FF9933FFCC33FFFF6600006600336600666600996600CC6600FF6633006633336633666633996633CC6633FF6666006666336666666666996666CC6666FF6699006699336699666699996699CC6699FF66CC0066CC3366CC6666CC9966CCCC66CCFF66FF0066
310
FF3366FF6666FF9966FFCC66FFFF9900009900339900669900999900CC9900FF9933009933339933669933999933CC9933FF9966009966339966669966999966CC9966FF9999009999339999669999999999CC9999FF99CC0099CC3399CC6699CC9999CCCC99CCFF99FF0099FF3399FF6699FF9999FFCC99FFFFCC0000CC00
310
33CC0066CC0099CC00CCCC00FFCC3300CC3333CC3366CC3399CC33CCCC33FFCC6600CC6633CC6666CC6699CC66CCCC66FFCC9900CC9933CC9966CC9999CC99CCCC99FFCCCC00CCCC33CCCC66CCCC99CCCCCCCCCCFFCCFF00CCFF33CCFF66CCFF99CCFFCCCCFFFFFF0000FF0033FF0066FF0099FF00CCFF00FFFF3300FF3333
310
FF3366FF3399FF33CCFF33FFFF6600FF6633FF6666FF6699FF66CCFF66FFFF9900FF9933FF9966FF9999FF99CCFF99FFFFCC00FFCC33FFCC66FFCC99FFCCCCFFCCFFFFFF00FFFF33FFFF66FFFF99FFFFCCFFFFFF0000000D0D0D1A1A1A2828283535354343435050505D5D5D6B6B6B787878868686939393A1A1A1AEAEAEBB
310
BBBBC9C9C9D6D6D6E4E4E4F1F1F1FFFFFF000000000000000000000000000000000000000000000000000000000000790CAC0F000000B14944415478DAEDDC3B0A80301004D0DCFF987B81ADEC258D4D8A547E46DE968AF01061B25338BAE2A6C79CAE236C72E105FE3EFCFAFED72BBB1B373FB2837FF62D838383833F0A97
310
9CE0E0E0E0E1E771C9090E0E0E0E0E0E0E0EAE9EB04880838383AB27443E3838383838383838B87A021C1C1C1C5CAF22F2C1C1C1C1C1C1C1C1C1F52A362070707070F5043838383838383838B87AC222010E0E0EAE9E909CE0E0E099F0D47F7A4A4EF05FC2F366BA4F0386279D40CB09810000000049454E44AE426082
  0
ENDSEC
  0
EOF
