  0
SECTION
  2
HEADER
  9
$ACADVER
  1
AC1027
  9
$ACADMAINTVER
 70
    55
  9
$DWGCODEPAGE
  3
ANSI_949
  9
$LASTSAVEDBY
  1
DESKTOP
  9
$REQUIREDVERSIONS
160
                 0
  9
$INSBASE
 10
0.0
 20
0.0
 30
0.0
  9
$EXTMIN
 10
417.766
 20
-3.233999999999999
 30
0.0
  9
$EXTMAX
 10
689.422
 20
188.2915962927926
 30
0.0
  9
$LIMMIN
 10
0.0
 20
0.0
  9
$LIMMAX
 10
420.0
 20
297.0
  9
$ORTHOMODE
 70
     0
  9
$REGENMODE
 70
     1
  9
$FILLMODE
 70
     1
  9
$QTEXTMODE
 70
     0
  9
$MIRRTEXT
 70
     0
  9
$LTSCALE
 40
5.0
  9
$ATTMODE
 70
     1
  9
$TEXTSIZE
 40
3.0
  9
$TRACEWID
 40
1.0
  9
$TEXTSTYLE
  7
Standard
  9
$CLAYER
  8
0
  9
$CELTYPE
  6
Continuous
  9
$CECOLOR
 62
     7
  9
$CELTSCALE
 40
1.0
  9
$DISPSILH
 70
     0
  9
$DIMSCALE
 40
1.0
  9
$DIMASZ
 40
2.5
  9
$DIMEXO
 40
0.625
  9
$DIMDLI
 40
3.75
  9
$DIMRND
 40
0.0
  9
$DIMDLE
 40
0.0
  9
$DIMEXE
 40
1.25
  9
$DIMTP
 40
0.0
  9
$DIMTM
 40
0.000000001
  9
$DIMTXT
 40
3.0
  9
$DIMCEN
 40
-0.5
  9
$DIMTSZ
 40
0.0
  9
$DIMTOL
 70
     0
  9
$DIMLIM
 70
     0
  9
$DIMTIH
 70
     0
  9
$DIMTOH
 70
     0
  9
$DIMSE1
 70
     0
  9
$DIMSE2
 70
     0
  9
$DIMTAD
 70
     1
  9
$DIMZIN
 70
     8
  9
$DIMBLK
  1

  9
$DIMASO
 70
     1
  9
$DIMSHO
 70
     1
  9
$DIMPOST
  1

  9
$DIMAPOST
  1

  9
$DIMALT
 70
     0
  9
$DIMALTD
 70
     3
  9
$DIMALTF
 40
0.03937007874016
  9
$DIMLFAC
 40
1.0
  9
$DIMTOFL
 70
     1
  9
$DIMTVP
 40
0.0
  9
$DIMTIX
 70
     0
  9
$DIMSOXD
 70
     0
  9
$DIMSAH
 70
     0
  9
$DIMBLK1
  1

  9
$DIMBLK2
  1

  9
$DIMSTYLE
  2
Standard
  9
$DIMCLRD
 70
     3
  9
$DIMCLRE
 70
     3
  9
$DIMCLRT
 70
     2
  9
$DIMTFAC
 40
0.7
  9
$DIMGAP
 40
0.625
  9
$DIMJUST
 70
     0
  9
$DIMSD1
 70
     0
  9
$DIMSD2
 70
     0
  9
$DIMTOLJ
 70
     0
  9
$DIMTZIN
 70
     8
  9
$DIMALTZ
 70
     0
  9
$DIMALTTZ
 70
     0
  9
$DIMUPT
 70
     0
  9
$DIMDEC
 70
     8
  9
$DIMTDEC
 70
     8
  9
$DIMALTU
 70
     2
  9
$DIMALTTD
 70
     3
  9
$DIMTXSTY
  7
Standard
  9
$DIMAUNIT
 70
     1
  9
$DIMADEC
 70
     1
  9
$DIMALTRND
 40
0.0
  9
$DIMAZIN
 70
     0
  9
$DIMDSEP
 70
    46
  9
$DIMATFIT
 70
     3
  9
$DIMFRAC
 70
     0
  9
$DIMLDRBLK
  1

  9
$DIMLUNIT
 70
     2
  9
$DIMLWD
 70
    -1
  9
$DIMLWE
 70
    -1
  9
$DIMTMOVE
 70
     0
  9
$DIMFXL
 40
1.0
  9
$DIMFXLON
 70
     0
  9
$DIMJOGANG
 40
0.7853981633974483
  9
$DIMTFILL
 70
     0
  9
$DIMTFILLCLR
 70
     0
  9
$DIMARCSYM
 70
     1
  9
$DIMLTYPE
  6

  9
$DIMLTEX1
  6

  9
$DIMLTEX2
  6

  9
$DIMTXTDIRECTION
 70
     0
  9
$LUNITS
 70
     2
  9
$LUPREC
 70
     4
  9
$SKETCHINC
 40
0.0
  9
$FILLETRAD
 40
0.0
  9
$AUNITS
 70
     0
  9
$AUPREC
 70
     0
  9
$MENU
  1
.
  9
$ELEVATION
 40
0.0
  9
$PELEVATION
 40
0.0
  9
$THICKNESS
 40
0.0
  9
$LIMCHECK
 70
     0
  9
$CHAMFERA
 40
1.5
  9
$CHAMFERB
 40
1.5
  9
$CHAMFERC
 40
0.0
  9
$CHAMFERD
 40
0.0087266462599716
  9
$SKPOLY
 70
     0
  9
$TDCREATE
 40
2455072.745932974
  9
$TDUCREATE
 40
2455072.370932974
  9
$TDUPDATE
 40
2459766.357808796
  9
$TDUUPDATE
 40
2459765.982808796
  9
$TDINDWG
 40
131.6542128704
  9
$TDUSRTIMER
 40
131.6542126852
  9
$USRTIMER
 70
     1
  9
$ANGBASE
 50
0.0
  9
$ANGDIR
 70
     0
  9
$PDMODE
 70
     0
  9
$PDSIZE
 40
0.0
  9
$PLINEWID
 40
0.0
  9
$SPLFRAME
 70
     0
  9
$SPLINETYPE
 70
     6
  9
$SPLINESEGS
 70
     8
  9
$HANDSEED
  5
22CF6
  9
$SURFTAB1
 70
     6
  9
$SURFTAB2
 70
     6
  9
$SURFTYPE
 70
     6
  9
$SURFU
 70
     6
  9
$SURFV
 70
     6
  9
$UCSBASE
  2

  9
$UCSNAME
  2

  9
$UCSORG
 10
0.0
 20
0.0
 30
0.0
  9
$UCSXDIR
 10
1.0
 20
0.0
 30
0.0
  9
$UCSYDIR
 10
0.0
 20
1.0
 30
0.0
  9
$UCSORTHOREF
  2

  9
$UCSORTHOVIEW
 70
     0
  9
$UCSORGTOP
 10
0.0
 20
0.0
 30
0.0
  9
$UCSORGBOTTOM
 10
0.0
 20
0.0
 30
0.0
  9
$UCSORGLEFT
 10
0.0
 20
0.0
 30
0.0
  9
$UCSORGRIGHT
 10
0.0
 20
0.0
 30
0.0
  9
$UCSORGFRONT
 10
0.0
 20
0.0
 30
0.0
  9
$UCSORGBACK
 10
0.0
 20
0.0
 30
0.0
  9
$PUCSBASE
  2

  9
$PUCSNAME
  2

  9
$PUCSORG
 10
0.0
 20
0.0
 30
0.0
  9
$PUCSXDIR
 10
1.0
 20
0.0
 30
0.0
  9
$PUCSYDIR
 10
0.0
 20
1.0
 30
0.0
  9
$PUCSORTHOREF
  2

  9
$PUCSORTHOVIEW
 70
     0
  9
$PUCSORGTOP
 10
0.0
 20
0.0
 30
0.0
  9
$PUCSORGBOTTOM
 10
0.0
 20
0.0
 30
0.0
  9
$PUCSORGLEFT
 10
0.0
 20
0.0
 30
0.0
  9
$PUCSORGRIGHT
 10
0.0
 20
0.0
 30
0.0
  9
$PUCSORGFRONT
 10
0.0
 20
0.0
 30
0.0
  9
$PUCSORGBACK
 10
0.0
 20
0.0
 30
0.0
  9
$USERI1
 70
     0
  9
$USERI2
 70
     0
  9
$USERI3
 70
     0
  9
$USERI4
 70
     0
  9
$USERI5
 70
     0
  9
$USERR1
 40
0.0
  9
$USERR2
 40
0.0
  9
$USERR3
 40
0.0
  9
$USERR4
 40
0.0
  9
$USERR5
 40
0.0
  9
$WORLDVIEW
 70
     1
  9
$SHADEDGE
 70
     3
  9
$SHADEDIF
 70
    70
  9
$TILEMODE
 70
     1
  9
$MAXACTVP
 70
    64
  9
$PINSBASE
 10
0.0
 20
0.0
 30
0.0
  9
$PLIMCHECK
 70
     0
  9
$PEXTMIN
 10
1.000000000000000E+20
 20
1.000000000000000E+20
 30
1.000000000000000E+20
  9
$PEXTMAX
 10
-1.000000000000000E+20
 20
-1.000000000000000E+20
 30
-1.000000000000000E+20
  9
$PLIMMIN
 10
-20.0
 20
-7.5
  9
$PLIMMAX
 10
277.0
 20
202.5
  9
$UNITMODE
 70
     0
  9
$VISRETAIN
 70
     1
  9
$PLINEGEN
 70
     0
  9
$PSLTSCALE
 70
     1
  9
$TREEDEPTH
 70
  3020
  9
$CMLSTYLE
  2
Standard
  9
$CMLJUST
 70
     0
  9
$CMLSCALE
 40
20.0
  9
$PROXYGRAPHICS
 70
     1
  9
$MEASUREMENT
 70
     1
  9
$CELWEIGHT
370
    -1
  9
$ENDCAPS
280
     0
  9
$JOINSTYLE
280
     0
  9
$LWDISPLAY
290
     0
  9
$INSUNITS
 70
     4
  9
$HYPERLINKBASE
  1

  9
$STYLESHEET
  1
ksm0910.ctb
  9
$XEDIT
290
     1
  9
$CEPSNTYPE
380
     0
  9
$PSTYLEMODE
290
     1
  9
$FINGERPRINTGUID
  2
{D2C70C36-9B4F-4E20-9CCB-531AA1EE4AC8}
  9
$VERSIONGUID
  2
{A28A7901-9F3F-4616-B2E8-D78ECD36596B}
  9
$EXTNAMES
290
     1
  9
$PSVPSCALE
 40
0.0
  9
$OLESTARTUP
290
     0
  9
$SORTENTS
280
   127
  9
$INDEXCTL
280
     0
  9
$HIDETEXT
280
     1
  9
$XCLIPFRAME
280
     2
  9
$HALOGAP
280
     0
  9
$OBSCOLOR
 70
   257
  9
$OBSLTYPE
280
     0
  9
$INTERSECTIONDISPLAY
280
     0
  9
$INTERSECTIONCOLOR
 70
   257
  9
$DIMASSOC
280
     1
  9
$PROJECTNAME
  1

  9
$CAMERADISPLAY
290
     0
  9
$LENSLENGTH
 40
50.0
  9
$CAMERAHEIGHT
 40
0.0
  9
$STEPSPERSEC
 40
2.0
  9
$STEPSIZE
 40
6.0
  9
$3DDWFPREC
 40
2.0
  9
$PSOLWIDTH
 40
5.0
  9
$PSOLHEIGHT
 40
80.0
  9
$LOFTANG1
 40
1.570796326794896
  9
$LOFTANG2
 40
1.570796326794896
  9
$LOFTMAG1
 40
0.0
  9
$LOFTMAG2
 40
0.0
  9
$LOFTPARAM
 70
     7
  9
$LOFTNORMALS
280
     1
  9
$LATITUDE
 40
37.795
  9
$LONGITUDE
 40
-122.394
  9
$NORTHDIRECTION
 40
0.0
  9
$TIMEZONE
 70
 -8000
  9
$LIGHTGLYPHDISPLAY
280
     1
  9
$TILEMODELIGHTSYNCH
280
     1
  9
$CMATERIAL
347
3D
  9
$SOLIDHIST
280
     1
  9
$SHOWHIST
280
     1
  9
$DWFFRAME
280
     2
  9
$DGNFRAME
280
     0
  9
$REALWORLDSCALE
290
     1
  9
$INTERFERECOLOR
 62
     1
  9
$INTERFEREOBJVS
345
46
  9
$INTERFEREVPVS
346
47
  9
$CSHADOW
280
     0
  9
$SHADOWPLANELOCATION
 40
0.0
  0
ENDSEC
  0
SECTION
  2
CLASSES
  0
CLASS
  1
ACDBDICTIONARYWDFLT
  2
AcDbDictionaryWithDefault
  3
ObjectDBX Classes
 90
        0
 91
        1
280
     0
281
     0
  0
CLASS
  1
DICTIONARYVAR
  2
AcDbDictionaryVar
  3
ObjectDBX Classes
 90
        0
 91
       18
280
     0
281
     0
  0
CLASS
  1
TABLESTYLE
  2
AcDbTableStyle
  3
ObjectDBX Classes
 90
     4095
 91
        1
280
     0
281
     0
  0
CLASS
  1
MATERIAL
  2
AcDbMaterial
  3
ObjectDBX Classes
 90
     1153
 91
        3
280
     0
281
     0
  0
CLASS
  1
VISUALSTYLE
  2
AcDbVisualStyle
  3
ObjectDBX Classes
 90
     4095
 91
       26
280
     0
281
     0
  0
CLASS
  1
SCALE
  2
AcDbScale
  3
ObjectDBX Classes
 90
     1153
 91
       17
280
     0
281
     0
  0
CLASS
  1
MLEADERSTYLE
  2
AcDbMLeaderStyle
  3
ACDB_MLEADERSTYLE_CLASS
 90
     4095
 91
        1
280
     0
281
     0
  0
CLASS
  1
CELLSTYLEMAP
  2
AcDbCellStyleMap
  3
ObjectDBX Classes
 90
     1152
 91
        2
280
     0
281
     0
  0
CLASS
  1
SORTENTSTABLE
  2
AcDbSortentsTable
  3
ObjectDBX Classes
 90
        0
 91
        1
280
     0
281
     0
  0
CLASS
  1
DIMASSOC
  2
AcDbDimAssoc
  3
"AcDbDimAssoc|Product Desc:     AcDim ARX App For Dimension|Company:          Autodesk, Inc.|WEB Address:      www.autodesk.com"
 90
        0
 91
        0
280
     0
281
     0
  0
CLASS
  1
SOLID_BACKGROUND
  2
AcDbSolidBackground
  3
SCENEOE
 90
     4095
 91
        0
280
     0
281
     0
  0
CLASS
  1
NPOCOLLECTION
  2
AcDbImpNonPersistentObjectsCollection
  3
ObjectDBX Classes
 90
     1153
 91
        0
280
     0
281
     0
  0
CLASS
  1
ACAD_EVALUATION_GRAPH
  2
AcDbEvalGraph
  3
ObjectDBX Classes
 90
     1153
 91
        0
280
     0
281
     0
  0
CLASS
  1
ACAECUSTOBJ
  2
AcAeEditorObj
  3
AcAeEditorObj
 90
     1024
 91
        0
280
     1
281
     0
  0
CLASS
  1
ACDB_DYNAMICBLOCKPURGEPREVENTER_VERSION
  2
AcDbDynamicBlockPurgePreventer
  3
ObjectDBX Classes
 90
     1153
 91
        0
280
     0
281
     0
  0
CLASS
  1
HELIX
  2
AcDbHelix
  3
ObjectDBX Classes
 90
     4095
 91
        0
280
     0
281
     1
  0
CLASS
  1
MULTILEADER
  2
AcDbMLeader
  3
ACDB_MLEADER_CLASS
 90
     1025
 91
        1
280
     0
281
     1
  0
CLASS
  1
ACMDIMBREAKPERSREACTOR
  2
AcmDimBreakPersReactor
  3
amgDimApp().moduleName()
 90
     1023
 91
        0
280
     1
281
     0
  0
CLASS
  1
ACDB_MTEXTOBJECTCONTEXTDATA_CLASS
  2
AcDbMTextObjectContextData
  3
ObjectDBX Classes
 90
     1153
 91
        0
280
     0
281
     0
  0
CLASS
  1
BREAKDATA
  2
AcDbBreakData
  3
ObjectDBX Classes
 90
     1024
 91
        0
280
     0
281
     0
  0
CLASS
  1
EXACXREFPANELOBJECT
  2
ExAcXREFPanelObject
  3
EXAC_ESW
 90
     1025
 91
        0
280
     1
281
     0
  0
CLASS
  1
ACDBSECTIONVIEWSTYLE
  2
AcDbSectionViewStyle
  3
ObjectDBX Classes
 90
     1025
 91
        1
280
     0
281
     0
  0
CLASS
  1
ACDBDETAILVIEWSTYLE
  2
AcDbDetailViewStyle
  3
ObjectDBX Classes
 90
     1025
 91
        1
280
     0
281
     0
  0
ENDSEC
  0
SECTION
  2
TABLES
  0
TABLE
  2
VPORT
  5
2C
102
{ACAD_XDICTIONARY
360
31
102
}
330
0
100
AcDbSymbolTable
 70
     1
  0
VPORT
  5
2D
330
2C
100
AcDbSymbolTableRecord
100
AcDbViewportTableRecord
  2
*Active
 70
     0
 10
0.0
 20
0.0
 11
1.0
 21
1.0
 12
553.5845707228641
 22
92.53346547217876
 13
0.0
 23
0.0
 14
2.0
 24
2.0
 15
2.0
 25
2.0
 16
0.0
 26
0.0
 36
1.0
 17
0.0
 27
0.0
 37
0.0
 40
192.9484428237975
 41
2.214198286413708
 42
50.0
 43
0.0
 44
0.0
 50
0.0
 51
0.0
 71
     0
 72
  1000
 73
     1
 74
     3
 75
     0
 76
     0
 77
     0
 78
     1
281
     0
 65
     1
110
0.0
120
0.0
130
0.0
111
1.0
121
0.0
131
0.0
112
0.0
122
1.0
132
0.0
 79
     0
146
0.0
348
2E
 60
     3
 61
     5
292
     1
282
     1
141
0.0
142
0.0
 63
   250
421
  3355443
1001
ACAD_NAV_VCDISPLAY
1070
     3
  0
ENDTAB
  0
TABLE
  2
LTYPE
  5
27
330
0
100
AcDbSymbolTable
 70
     3
  0
LTYPE
  5
28
330
27
100
AcDbSymbolTableRecord
100
AcDbLinetypeTableRecord
  2
ByBlock
 70
     0
  3

 72
    65
 73
     0
 40
0.0
  0
LTYPE
  5
29
330
27
100
AcDbSymbolTableRecord
100
AcDbLinetypeTableRecord
  2
ByLayer
 70
     0
  3

 72
    65
 73
     0
 40
0.0
  0
LTYPE
  5
14
330
27
100
AcDbSymbolTableRecord
100
AcDbLinetypeTableRecord
  2
Continuous
 70
     0
  3
Solid line
 72
    65
 73
     0
 40
0.0
  0
LTYPE
  5
4DD
330
27
100
AcDbSymbolTableRecord
100
AcDbLinetypeTableRecord
  2
CENTER
 70
     0
  3
____ _ ____ _ ____ _ ____ _ ____ _ ____ _ ____ 
 72
    65
 73
     4
 40
2.0
 49
1.25
 74
     0
 49
-0.25
 74
     0
 49
0.25
 74
     0
 49
-0.25
 74
     0
  0
LTYPE
  5
2159F
330
27
100
AcDbSymbolTableRecord
100
AcDbLinetypeTableRecord
  2
HIDDEN
 70
     0
  3
Hidden __ __ __ __ __ __ __ __ __ __ __ __ __ _
 72
    65
 73
     2
 40
0.375
 49
0.25
 74
     0
 49
-0.125
 74
     0
  0
ENDTAB
  0
TABLE
  2
LAYER
  5
21
102
{ACAD_XDICTIONARY
360
22
102
}
330
0
100
AcDbSymbolTable
 70
     3
  0
LAYER
  5
6
102
{ACAD_XDICTIONARY
360
7
102
}
330
21
100
AcDbSymbolTableRecord
100
AcDbLayerTableRecord
  2
0
 70
     0
 62
     7
  6
Continuous
370
    -3
390
9
347
C
348
0
  0
LAYER
  5
1A4
330
21
100
AcDbSymbolTableRecord
100
AcDbLayerTableRecord
  2
DEFPOINTS
 70
     0
 62
     7
  6
Continuous
290
     0
370
    -3
390
9
347
C
348
0
  0
LAYER
  5
1DAC5
330
21
100
AcDbSymbolTableRecord
100
AcDbLayerTableRecord
  2
Layer 1
 70
     0
 62
     7
  6
Continuous
370
     0
390
9
347
C
348
0
  0
ENDTAB
  0
TABLE
  2
STYLE
  5
24
330
0
100
AcDbSymbolTable
 70
     3
  0
STYLE
  5
25
330
24
100
AcDbSymbolTableRecord
100
AcDbTextStyleTableRecord
  2
Standard
 70
     0
 40
3.0
 41
1.0
 50
0.0
 71
     0
 42
3.0
  3
isocp.shx
  4
whgtxt.shx
  0
STYLE
  5
35
330
24
100
AcDbSymbolTableRecord
100
AcDbTextStyleTableRecord
  2
ROMANS
 70
     0
 40
2.5
 41
1.0
 50
0.0
 71
     0
 42
2.5
  3
romans.shx
  4

  0
STYLE
  5
5C
330
24
100
AcDbSymbolTableRecord
100
AcDbTextStyleTableRecord
  2
굴림
 70
     0
 40
3.0
 41
1.0
 50
0.0
 71
     0
 42
3.0
  3

  4

1001
ACAD
1000
Gulim
1071
    33074
  0
ENDTAB
  0
TABLE
  2
VIEW
  5
2A
330
0
100
AcDbSymbolTable
 70
     0
  0
ENDTAB
  0
TABLE
  2
UCS
  5
2B
330
0
100
AcDbSymbolTable
 70
     0
  0
ENDTAB
  0
TABLE
  2
APPID
  5
32
330
0
100
AcDbSymbolTable
 70
    44
  0
APPID
  5
13
330
32
100
AcDbSymbolTableRecord
100
AcDbRegAppTableRecord
  2
ACAD
 70
     0
  0
APPID
  5
1A
330
32
100
AcDbSymbolTableRecord
100
AcDbRegAppTableRecord
  2
ACAD_PSEXT
 70
     0
  0
APPID
  5
37
330
32
100
AcDbSymbolTableRecord
100
AcDbRegAppTableRecord
  2
ACAD_DSTYLE_DIMJAG
 70
     0
  0
APPID
  5
38
330
32
100
AcDbSymbolTableRecord
100
AcDbRegAppTableRecord
  2
ACAD_DSTYLE_DIMTALN
 70
     0
  0
APPID
  5
36
330
32
100
AcDbSymbolTableRecord
100
AcDbRegAppTableRecord
  2
ACAD_DSTYLE_DIMJOGGED_JOGANGLE_SYMBOL
 70
     0
  0
APPID
  5
183
330
32
100
AcDbSymbolTableRecord
100
AcDbRegAppTableRecord
  2
AcAecLayerStandard
 70
     0
  0
APPID
  5
3DE
330
32
100
AcDbSymbolTableRecord
100
AcDbRegAppTableRecord
  2
ACAD_DSTYLE_DIMRADIAL_EXTENSION
 70
     0
  0
APPID
  5
530
330
32
100
AcDbSymbolTableRecord
100
AcDbRegAppTableRecord
  2
GRADIENTCOLOR1ACI
 70
     0
  0
APPID
  5
531
330
32
100
AcDbSymbolTableRecord
100
AcDbRegAppTableRecord
  2
GRADIENTCOLOR2ACI
 70
     0
  0
APPID
  5
30
330
32
100
AcDbSymbolTableRecord
100
AcDbRegAppTableRecord
  2
ACAD_NAV_VCDISPLAY
 70
     0
  0
APPID
  5
C34
330
32
100
AcDbSymbolTableRecord
100
AcDbRegAppTableRecord
  2
ACAD_MLEADERVER
 70
     0
  0
APPID
  5
C97
330
32
100
AcDbSymbolTableRecord
100
AcDbRegAppTableRecord
  2
ACAD_EXEMPT_FROM_CAD_STANDARDS
 70
     0
  0
APPID
  5
D79
330
32
100
AcDbSymbolTableRecord
100
AcDbRegAppTableRecord
  2
AcadAnnoMonitorAlertIconDisabled
 70
     0
  0
APPID
  5
1A45
330
32
100
AcDbSymbolTableRecord
100
AcDbRegAppTableRecord
  2
GENIUS_GENODEF_13
 70
     0
  0
APPID
  5
1A46
330
32
100
AcDbSymbolTableRecord
100
AcDbRegAppTableRecord
  2
GENIUS_GENOBJ-N-FIL_13
 70
     0
  0
APPID
  5
1A47
330
32
100
AcDbSymbolTableRecord
100
AcDbRegAppTableRecord
  2
ACAD_DSTYLE_DIMBREAK
 70
     0
  0
APPID
  5
1A48
330
32
100
AcDbSymbolTableRecord
100
AcDbRegAppTableRecord
  2
GENIUS_GENOBJ-N-HTC_13
 70
     0
  0
APPID
  5
1A49
330
32
100
AcDbSymbolTableRecord
100
AcDbRegAppTableRecord
  2
GENIUS_GENHATCH_13
 70
     0
  0
APPID
  5
1A4A
330
32
100
AcDbSymbolTableRecord
100
AcDbRegAppTableRecord
  2
GENIUS_GENREC_14
 70
     0
  0
APPID
  5
1A4B
330
32
100
AcDbSymbolTableRecord
100
AcDbRegAppTableRecord
  2
GENIUS_GENOBJ-N-REC_13
 70
     0
  0
APPID
  5
1A4C
330
32
100
AcDbSymbolTableRecord
100
AcDbRegAppTableRecord
  2
ACAUTHENVIRON
 70
     0
  0
APPID
  5
1A4D
330
32
100
AcDbSymbolTableRecord
100
AcDbRegAppTableRecord
  2
AcDbDynamicBlockTrueName
 70
     0
  0
APPID
  5
1A4E
330
32
100
AcDbSymbolTableRecord
100
AcDbRegAppTableRecord
  2
AcDbDynamicBlockGUID
 70
     0
  0
APPID
  5
1A4F
330
32
100
AcDbSymbolTableRecord
100
AcDbRegAppTableRecord
  2
AcDbBlockRepETag
 70
     0
  0
APPID
  5
1A50
330
32
100
AcDbSymbolTableRecord
100
AcDbRegAppTableRecord
  2
DCO15
 70
     0
  0
APPID
  5
1A51
330
32
100
AcDbSymbolTableRecord
100
AcDbRegAppTableRecord
  2
ACAD_DSTYLE_DIMTEXT_FILL
 70
     0
  0
APPID
  5
1A52
330
32
100
AcDbSymbolTableRecord
100
AcDbRegAppTableRecord
  2
ACAD_DSTYLE_DIM_LINETYPE
 70
     0
  0
APPID
  5
1A53
330
32
100
AcDbSymbolTableRecord
100
AcDbRegAppTableRecord
  2
ACAD_DSTYLE_DIM_EXT1_LINETYPE
 70
     0
  0
APPID
  5
1A54
330
32
100
AcDbSymbolTableRecord
100
AcDbRegAppTableRecord
  2
ACAD_DSTYLE_DIM_EXT2_LINETYPE
 70
     0
  0
APPID
  5
1A55
330
32
100
AcDbSymbolTableRecord
100
AcDbRegAppTableRecord
  2
ACAD_DSTYLE_DIMINSPECT
 70
     0
  0
APPID
  5
1A56
330
32
100
AcDbSymbolTableRecord
100
AcDbRegAppTableRecord
  2
AcadAnnotative
 70
     0
  0
APPID
  5
1A57
330
32
100
AcDbSymbolTableRecord
100
AcDbRegAppTableRecord
  2
GENIUS_GENDTOL_13
 70
     0
  0
APPID
  5
1A58
330
32
100
AcDbSymbolTableRecord
100
AcDbRegAppTableRecord
  2
GENIUS_GENFIL_13
 70
     0
  0
APPID
  5
1A59
330
32
100
AcDbSymbolTableRecord
100
AcDbRegAppTableRecord
  2
GENIUS_GENOBJ-N-CHA_13
 70
     0
  0
APPID
  5
1A5A
330
32
100
AcDbSymbolTableRecord
100
AcDbRegAppTableRecord
  2
AcadAnnotativeDecomposition
 70
     0
  0
APPID
  5
1A5B
330
32
100
AcDbSymbolTableRecord
100
AcDbRegAppTableRecord
  2
MCAD_NO_VIS
 70
     0
  0
APPID
  5
1A5C
330
32
100
AcDbSymbolTableRecord
100
AcDbRegAppTableRecord
  2
ACAD_TEMP_GRAPHIC
 70
     0
  0
APPID
  5
1A5D
330
32
100
AcDbSymbolTableRecord
100
AcDbRegAppTableRecord
  2
ACATTRIBSERVICES
 70
     0
  0
APPID
  5
1A5E
330
32
100
AcDbSymbolTableRecord
100
AcDbRegAppTableRecord
  2
DESIGNERASSEMBLIES
 70
     0
  0
APPID
  5
1A5F
330
32
100
AcDbSymbolTableRecord
100
AcDbRegAppTableRecord
  2
GENIUS_GENDIMSH_14
 70
     0
  0
APPID
  5
1A60
330
32
100
AcDbSymbolTableRecord
100
AcDbRegAppTableRecord
  2
ACAD_DSTYLE_DIMARC_LENGTH_SYMBOL
 70
     0
  0
APPID
  5
1A61
330
32
100
AcDbSymbolTableRecord
100
AcDbRegAppTableRecord
  2
ACAD_SPLINE_DATA
 70
     0
  0
APPID
  5
1A62
330
32
100
AcDbSymbolTableRecord
100
AcDbRegAppTableRecord
  2
GENIUS_GENOREF_13
 70
     0
  0
APPID
  5
1A63
330
32
100
AcDbSymbolTableRecord
100
AcDbRegAppTableRecord
  2
ACAD_DSTYLE_DIMANGULAR_EXTENSION
 70
     0
  0
ENDTAB
  0
TABLE
  2
DIMSTYLE
  5
33
330
0
100
AcDbSymbolTable
 70
     2
100
AcDbDimStyleTable
 71
     1
340
34
  0
DIMSTYLE
105
34
102
{ACAD_REACTORS
330
22B1C
330
22B26
330
22B2F
102
}
330
33
100
AcDbSymbolTableRecord
100
AcDbDimStyleTableRecord
  2
Standard
 70
     0
 41
2.5
 73
     0
 77
     3
 78
     8
140
2.5
141
-1.0
147
1.0
175
     1
176
     3
177
     3
178
     2
179
     8
271
     8
272
     8
275
     1
340
35
1001
ACAD_DSTYLE_DIMJOGGED_JOGANGLE_SYMBOL
1070
   384
1040
0.7853981633974483
1001
ACAD_DSTYLE_DIMJAG
1070
   388
1040
1.5
1001
ACAD_DSTYLE_DIMTALN
1070
   392
1070
     0
  0
DIMSTYLE
105
1A8
102
{ACAD_REACTORS
330
226AE
330
226AF
330
226B5
330
226B6
330
226BF
330
226C0
330
226C1
330
2273D
330
22AC8
102
}
330
33
100
AcDbSymbolTableRecord
100
AcDbDimStyleTableRecord
  2
Standard$0
 70
     0
 41
2.5
 73
     0
 77
     3
 78
     8
140
2.5
141
-1.0
147
1.0
175
     1
176
     3
177
     3
178
     2
179
     8
271
     8
272
     8
275
     1
340
35
  0
ENDTAB
  0
TABLE
  2
BLOCK_RECORD
  5
1
330
0
100
AcDbSymbolTable
 70
    12
  0
BLOCK_RECORD
  5
2
102
{ACAD_XDICTIONARY
360
3
102
}
330
1
100
AcDbSymbolTableRecord
100
AcDbBlockTableRecord
  2
*Model_Space
340
16
 70
     0
280
     1
281
     0
  0
BLOCK_RECORD
  5
1B
330
1
100
AcDbSymbolTableRecord
100
AcDbBlockTableRecord
  2
*Paper_Space
340
1E
 70
     0
280
     1
281
     0
  0
BLOCK_RECORD
  5
2273E
330
1
100
AcDbSymbolTableRecord
100
AcDbBlockTableRecord
  2
*D0
340
0
 70
     0
280
     1
281
     0
  0
BLOCK_RECORD
  5
2274A
330
1
100
AcDbSymbolTableRecord
100
AcDbBlockTableRecord
  2
*D1
340
0
 70
     0
280
     1
281
     0
  0
BLOCK_RECORD
  5
2276E
330
1
100
AcDbSymbolTableRecord
100
AcDbBlockTableRecord
  2
*D2
340
0
 70
     0
280
     1
281
     0
  0
BLOCK_RECORD
  5
2277A
330
1
100
AcDbSymbolTableRecord
100
AcDbBlockTableRecord
  2
*D3
340
0
 70
     0
280
     1
281
     0
  0
BLOCK_RECORD
  5
227A2
330
1
100
AcDbSymbolTableRecord
100
AcDbBlockTableRecord
  2
*D4
340
0
 70
     0
280
     1
281
     0
  0
BLOCK_RECORD
  5
227AF
330
1
100
AcDbSymbolTableRecord
100
AcDbBlockTableRecord
  2
*D5
340
0
 70
     0
280
     1
281
     0
  0
BLOCK_RECORD
  5
227BC
330
1
100
AcDbSymbolTableRecord
100
AcDbBlockTableRecord
  2
*D6
340
0
 70
     0
280
     1
281
     0
  0
BLOCK_RECORD
  5
227CF
330
1
100
AcDbSymbolTableRecord
100
AcDbBlockTableRecord
  2
*D7
340
0
 70
     0
280
     1
281
     0
  0
BLOCK_RECORD
  5
22AC9
330
1
100
AcDbSymbolTableRecord
100
AcDbBlockTableRecord
  2
*D8
340
0
 70
     0
280
     1
281
     0
  0
BLOCK_RECORD
  5
22B1D
330
1
100
AcDbSymbolTableRecord
100
AcDbBlockTableRecord
  2
*D9
340
0
 70
     0
280
     1
281
     0
  0
BLOCK_RECORD
  5
22B27
330
1
100
AcDbSymbolTableRecord
100
AcDbBlockTableRecord
  2
*D10
340
0
 70
     0
280
     1
281
     0
  0
BLOCK_RECORD
  5
22B30
330
1
100
AcDbSymbolTableRecord
100
AcDbBlockTableRecord
  2
*D11
340
0
 70
     0
280
     1
281
     0
  0
ENDTAB
  0
ENDSEC
  0
SECTION
  2
BLOCKS
  0
BLOCK
  5
5
330
2
100
AcDbEntity
  8
0
100
AcDbBlockBegin
  2
*Model_Space
 70
     0
 10
0.0
 20
0.0
 30
0.0
  3
*Model_Space
  1

  0
ENDBLK
  5
15
330
2
100
AcDbEntity
  8
0
100
AcDbBlockEnd
  0
BLOCK
  5
1C
330
1B
100
AcDbEntity
 67
     1
  8
0
100
AcDbBlockBegin
  2
*Paper_Space
 70
     0
 10
0.0
 20
0.0
 30
0.0
  3
*Paper_Space
  1

  0
ENDBLK
  5
1D
330
1B
100
AcDbEntity
 67
     1
  8
0
100
AcDbBlockEnd
  0
BLOCK
  5
2273F
330
2273E
100
AcDbEntity
  8
0
 62
     7
100
AcDbBlockBegin
  2
*D0
 70
     1
 10
0.0
 20
0.0
 30
0.0
  3
*D0
  1

  0
LINE
  5
22BC1
330
2273E
100
AcDbEntity
  8
0
  6
Continuous
 62
     3
440
 16777216
100
AcDbLine
 10
642.593277316357
 20
92.78777960082607
 30
0.0
 11
666.8820367174139
 21
92.78777960082607
 31
0.0
  0
LINE
  5
22BC2
330
2273E
100
AcDbEntity
  8
0
  6
Continuous
 62
     3
440
 16777216
100
AcDbLine
 10
642.5932773163567
 20
109.7877796008251
 30
0.0
 11
666.8820367174139
 21
109.7877796008251
 31
0.0
  0
LINE
  5
22BC3
330
2273E
100
AcDbEntity
  8
0
  6
Continuous
 62
     3
440
 16777216
100
AcDbLine
 10
665.6320367174139
 20
95.28777960082607
 30
0.0
 11
665.6320367174139
 21
107.2877796008251
 31
0.0
  0
SOLID
  5
22BC4
330
2273E
100
AcDbEntity
  8
0
  6
Continuous
 62
     3
440
 16777216
100
AcDbTrace
 10
665.2153700507473
 20
95.28777960082607
 30
0.0
 11
666.0487033840805
 21
95.28777960082607
 31
0.0
 12
665.6320367174139
 22
92.78777960082607
 32
0.0
 13
665.6320367174139
 23
92.78777960082607
 33
0.0
  0
SOLID
  5
22BC5
330
2273E
100
AcDbEntity
  8
0
  6
Continuous
 62
     3
440
 16777216
100
AcDbTrace
 10
665.2153700507473
 20
107.2877796008251
 30
0.0
 11
666.0487033840805
 21
107.2877796008251
 31
0.0
 12
665.6320367174139
 22
109.7877796008251
 32
0.0
 13
665.6320367174139
 23
109.7877796008251
 33
0.0
  0
MTEXT
  5
22BC6
330
2273E
100
AcDbEntity
  8
0
  6
Continuous
 62
     2
440
 16777216
100
AcDbMText
 10
663.5070367174139
 20
101.2877796008257
 30
0.0
 40
3.0
 41
0.0
 46
0.0
 71
     5
 72
     1
  1
%%C0.67
 11
0.0000000000000001
 21
1.0
 31
0.0
 73
     1
 44
1.0
  0
POINT
  5
22BC7
330
2273E
100
AcDbEntity
  8
DEFPOINTS
  6
Continuous
 62
     0
440
 16777216
100
AcDbPoint
 10
641.968277316357
 20
92.78777960082607
 30
0.0
  0
POINT
  5
22BC8
330
2273E
100
AcDbEntity
  8
DEFPOINTS
  6
Continuous
 62
     0
440
 16777216
100
AcDbPoint
 10
641.9682773163567
 20
109.7877796008251
 30
0.0
  0
POINT
  5
22BC9
330
2273E
100
AcDbEntity
  8
DEFPOINTS
  6
Continuous
 62
     0
440
 16777216
100
AcDbPoint
 10
665.6320367174139
 20
109.7877796008251
 30
0.0
  0
ENDBLK
  5
22740
330
2273E
100
AcDbEntity
  8
0
 62
     7
100
AcDbBlockEnd
  0
BLOCK
  5
2274B
330
2274A
100
AcDbEntity
  8
0
 62
     7
100
AcDbBlockBegin
  2
*D1
 70
     1
 10
0.0
 20
0.0
 30
0.0
  3
*D1
  1

  0
LINE
  5
22BCA
330
2274A
100
AcDbEntity
  8
0
  6
Continuous
 62
     3
440
 16777216
100
AcDbLine
 10
642.1602646144447
 20
106.0502796008044
 30
0.0
 11
658.8820367174139
 21
106.0502796008044
 31
0.0
  0
LINE
  5
22BCB
330
2274A
100
AcDbEntity
  8
0
  6
Continuous
 62
     3
440
 16777216
100
AcDbLine
 10
657.6320367174139
 20
103.5502796008044
 30
0.0
 11
657.6320367174139
 21
95.0506475664693
 31
0.0
  0
SOLID
  5
22BCC
330
2274A
100
AcDbEntity
  8
0
  6
Continuous
 62
     3
440
 16777216
100
AcDbTrace
 10
657.2153700507473
 20
103.5502796008044
 30
0.0
 11
658.0487033840805
 21
103.5502796008044
 31
0.0
 12
657.6320367174139
 22
106.0502796008044
 32
0.0
 13
657.6320367174139
 23
106.0502796008044
 33
0.0
  0
MTEXT
  5
22BCD
330
2274A
100
AcDbEntity
  8
0
  6
Continuous
 62
     2
440
 16777216
100
AcDbMText
 10
655.5070367174139
 20
101.2877796008254
 30
0.0
 40
3.0
 41
0.0
 46
0.0
 71
     5
 72
     1
  1
%%C0.375
 11
0.0000000000000001
 21
1.0
 31
0.0
 73
     1
 44
1.0
  0
POINT
  5
22BCE
330
2274A
100
AcDbEntity
  8
DEFPOINTS
  6
Continuous
 62
     0
440
 16777216
100
AcDbPoint
 10
641.5352646144447
 20
96.52527960084615
 30
0.0
  0
POINT
  5
22BCF
330
2274A
100
AcDbEntity
  8
DEFPOINTS
  6
Continuous
 62
     0
440
 16777216
100
AcDbPoint
 10
641.5352646144447
 20
106.0502796008044
 30
0.0
  0
POINT
  5
22BD0
330
2274A
100
AcDbEntity
  8
DEFPOINTS
  6
Continuous
 62
     0
440
 16777216
100
AcDbPoint
 10
657.6320367174139
 20
106.0502796008044
 30
0.0
  0
ENDBLK
  5
2274C
330
2274A
100
AcDbEntity
  8
0
 62
     7
100
AcDbBlockEnd
  0
BLOCK
  5
2276F
330
2276E
100
AcDbEntity
  8
0
 62
     7
100
AcDbBlockBegin
  2
*D2
 70
     1
 10
0.0
 20
0.0
 30
0.0
  3
*D2
  1

  0
LINE
  5
22BD1
330
2276E
100
AcDbEntity
  8
0
  6
Continuous
 62
     3
440
 16777216
100
AcDbLine
 10
600.9682773163758
 20
106.5127796008262
 30
0.0
 11
600.9682773163758
 21
132.3199872700815
 31
0.0
  0
LINE
  5
22BD2
330
2276E
100
AcDbEntity
  8
0
  6
Continuous
 62
     3
440
 16777216
100
AcDbLine
 10
641.9682773163565
 20
109.9382973174674
 30
0.0
 11
641.9682773163565
 21
132.3199872700815
 31
0.0
  0
LINE
  5
22BD3
330
2276E
100
AcDbEntity
  8
0
  6
Continuous
 62
     3
440
 16777216
100
AcDbLine
 10
603.4682773163758
 20
131.0699872700815
 30
0.0
 11
639.4682773163565
 21
131.0699872700815
 31
0.0
  0
SOLID
  5
22BD4
330
2276E
100
AcDbEntity
  8
0
  6
Continuous
 62
     3
440
 16777216
100
AcDbTrace
 10
603.4682773163758
 20
131.4866539367481
 30
0.0
 11
603.4682773163758
 21
130.6533206034148
 31
0.0
 12
600.9682773163758
 22
131.0699872700815
 32
0.0
 13
600.9682773163758
 23
131.0699872700815
 33
0.0
  0
SOLID
  5
22BD5
330
2276E
100
AcDbEntity
  8
0
  6
Continuous
 62
     3
440
 16777216
100
AcDbTrace
 10
639.4682773163565
 20
131.4866539367481
 30
0.0
 11
639.4682773163565
 21
130.6533206034148
 31
0.0
 12
641.9682773163565
 22
131.0699872700815
 32
0.0
 13
641.9682773163565
 23
131.0699872700815
 33
0.0
  0
MTEXT
  5
22BD6
330
2276E
100
AcDbEntity
  8
0
  6
Continuous
 62
     2
440
 16777216
100
AcDbMText
 10
621.4682773163661
 20
133.1949872700815
 30
0.0
 40
3.0
 41
0.0
 46
0.0
 71
     5
 72
     1
  1
1.61
 73
     1
 44
1.0
  0
POINT
  5
22BD7
330
2276E
100
AcDbEntity
  8
DEFPOINTS
  6
Continuous
 62
     0
440
 16777216
100
AcDbPoint
 10
600.9682773163758
 20
105.8877796008262
 30
0.0
  0
POINT
  5
22BD8
330
2276E
100
AcDbEntity
  8
DEFPOINTS
  6
Continuous
 62
     0
440
 16777216
100
AcDbPoint
 10
641.9682773163565
 20
109.3132973174674
 30
0.0
  0
POINT
  5
22BD9
330
2276E
100
AcDbEntity
  8
DEFPOINTS
  6
Continuous
 62
     0
440
 16777216
100
AcDbPoint
 10
641.9682773163565
 20
131.0699872700815
 30
0.0
  0
ENDBLK
  5
22770
330
2276E
100
AcDbEntity
  8
0
 62
     7
100
AcDbBlockEnd
  0
BLOCK
  5
2277B
330
2277A
100
AcDbEntity
  8
0
 62
     7
100
AcDbBlockBegin
  2
*D3
 70
     1
 10
0.0
 20
0.0
 30
0.0
  3
*D3
  1

  0
LINE
  5
22BDA
330
2277A
100
AcDbEntity
  8
0
  6
Continuous
 62
     3
440
 16777216
100
AcDbLine
 10
568.5932773163568
 20
88.90960393388096
 30
0.0
 11
674.8820367174139
 21
88.90960393388093
 31
0.0
  0
LINE
  5
22BDB
330
2277A
100
AcDbEntity
  8
0
  6
Continuous
 62
     3
440
 16777216
100
AcDbLine
 10
568.5932773163565
 20
113.6659552677703
 30
0.0
 11
674.8820367174139
 21
113.6659552677703
 31
0.0
  0
LINE
  5
22BDC
330
2277A
100
AcDbEntity
  8
0
  6
Continuous
 62
     3
440
 16777216
100
AcDbLine
 10
673.6320367174139
 20
91.40960393388093
 30
0.0
 11
673.6320367174139
 21
111.1659552677703
 31
0.0
  0
SOLID
  5
22BDD
330
2277A
100
AcDbEntity
  8
0
  6
Continuous
 62
     3
440
 16777216
100
AcDbTrace
 10
673.2153700507473
 20
91.40960393388093
 30
0.0
 11
674.0487033840805
 21
91.40960393388093
 31
0.0
 12
673.6320367174139
 22
88.90960393388093
 32
0.0
 13
673.6320367174139
 23
88.90960393388093
 33
0.0
  0
SOLID
  5
22BDE
330
2277A
100
AcDbEntity
  8
0
  6
Continuous
 62
     3
440
 16777216
100
AcDbTrace
 10
673.2153700507473
 20
111.1659552677703
 30
0.0
 11
674.0487033840805
 21
111.1659552677703
 31
0.0
 12
673.6320367174139
 22
113.6659552677703
 32
0.0
 13
673.6320367174139
 23
113.6659552677703
 33
0.0
  0
MTEXT
  5
22BDF
330
2277A
100
AcDbEntity
  8
0
  6
Continuous
 62
     2
440
 16777216
100
AcDbMText
 10
671.5070367174139
 20
101.2877796008139
 30
0.0
 40
3.0
 41
0.0
 46
0.0
 71
     5
 72
     1
  1
%%C0.97
 11
0.0000000000000001
 21
1.0
 31
0.0
 73
     1
 44
1.0
  0
POINT
  5
22BE0
330
2277A
100
AcDbEntity
  8
DEFPOINTS
  6
Continuous
 62
     0
440
 16777216
100
AcDbPoint
 10
567.9682773163567
 20
88.90960393388096
 30
0.0
  0
POINT
  5
22BE1
330
2277A
100
AcDbEntity
  8
DEFPOINTS
  6
Continuous
 62
     0
440
 16777216
100
AcDbPoint
 10
567.9682773163565
 20
113.6659552677703
 30
0.0
  0
POINT
  5
22BE2
330
2277A
100
AcDbEntity
  8
DEFPOINTS
  6
Continuous
 62
     0
440
 16777216
100
AcDbPoint
 10
673.6320367174139
 20
113.6659552677703
 30
0.0
  0
ENDBLK
  5
2277C
330
2277A
100
AcDbEntity
  8
0
 62
     7
100
AcDbBlockEnd
  0
BLOCK
  5
227A3
330
227A2
100
AcDbEntity
  8
0
 62
     7
100
AcDbBlockBegin
  2
*D4
 70
     1
 10
0.0
 20
0.0
 30
0.0
  3
*D4
  1

  0
LINE
  5
22BE3
330
227A2
100
AcDbEntity
  8
0
  6
Continuous
 62
     3
440
 16777216
100
AcDbLine
 10
514.3432773163477
 20
79.0627796008257
 30
0.0
 11
500.9424745439625
 21
79.0627796008257
 31
0.0
  0
LINE
  5
22BE4
330
227A2
100
AcDbEntity
  8
0
  6
Continuous
 62
     3
440
 16777216
100
AcDbLine
 10
514.3432773163477
 20
123.5127796008256
 30
0.0
 11
500.9424745439625
 21
123.5127796008256
 31
0.0
  0
LINE
  5
22BE5
330
227A2
100
AcDbEntity
  8
0
  6
Continuous
 62
     3
440
 16777216
100
AcDbLine
 10
502.1924745439625
 20
81.5627796008257
 30
0.0
 11
502.1924745439625
 21
121.0127796008256
 31
0.0
  0
LINE
  5
22BE6
330
227A2
100
AcDbEntity
  8
0
  6
Continuous
 62
     3
440
 16777216
100
AcDbLine
 10
502.1924745439625
 20
123.5127796008256
 30
0.0
 11
502.1924745439626
 21
148.8942638462817
 31
0.0
  0
SOLID
  5
22BE7
330
227A2
100
AcDbEntity
  8
0
  6
Continuous
 62
     3
440
 16777216
100
AcDbTrace
 10
501.7758078772959
 20
81.5627796008257
 30
0.0
 11
502.6091412106293
 21
81.5627796008257
 31
0.0
 12
502.1924745439625
 22
79.0627796008257
 32
0.0
 13
502.1924745439625
 23
79.0627796008257
 33
0.0
  0
SOLID
  5
22BE8
330
227A2
100
AcDbEntity
  8
0
  6
Continuous
 62
     3
440
 16777216
100
AcDbTrace
 10
501.7758078772959
 20
121.0127796008256
 30
0.0
 11
502.6091412106293
 21
121.0127796008256
 31
0.0
 12
502.1924745439625
 22
123.5127796008256
 32
0.0
 13
502.1924745439625
 23
123.5127796008256
 33
0.0
  0
MTEXT
  5
22BE9
330
227A2
100
AcDbEntity
  8
0
  6
Continuous
 62
     2
440
 16777216
100
AcDbMText
 10
500.0674745439625
 20
141.9680827439196
 30
0.0
 40
3.0
 41
0.0
 46
0.0
 71
     5
 72
     1
  1
%%C1.7500
 11
0.0000000000000001
 21
1.0
 31
0.0
 73
     1
 44
1.0
  0
POINT
  5
22BEA
330
227A2
100
AcDbEntity
  8
DEFPOINTS
  6
Continuous
 62
     0
440
 16777216
100
AcDbPoint
 10
514.9682773163476
 20
79.0627796008257
 30
0.0
  0
POINT
  5
22BEB
330
227A2
100
AcDbEntity
  8
DEFPOINTS
  6
Continuous
 62
     0
440
 16777216
100
AcDbPoint
 10
514.9682773163476
 20
123.5127796008256
 30
0.0
  0
POINT
  5
22BEC
330
227A2
100
AcDbEntity
  8
DEFPOINTS
  6
Continuous
 62
     0
440
 16777216
100
AcDbPoint
 10
502.1924745439625
 20
123.5127796008256
 30
0.0
  0
ENDBLK
  5
227A4
330
227A2
100
AcDbEntity
  8
0
 62
     7
100
AcDbBlockEnd
  0
BLOCK
  5
227B0
330
227AF
100
AcDbEntity
  8
0
 62
     7
100
AcDbBlockBegin
  2
*D5
 70
     1
 10
0.0
 20
0.0
 30
0.0
  3
*D5
  1

  0
LINE
  5
22BED
330
227AF
100
AcDbEntity
  8
0
  6
Continuous
 62
     3
440
 16777216
100
AcDbLine
 10
518.0182773163476
 20
69.53777960082573
 30
0.0
 11
492.9424745439623
 21
69.53777960082573
 31
0.0
  0
LINE
  5
22BEE
330
227AF
100
AcDbEntity
  8
0
  6
Continuous
 62
     3
440
 16777216
100
AcDbLine
 10
518.0182773163476
 20
133.0377796008257
 30
0.0
 11
492.9424745439624
 21
133.0377796008257
 31
0.0
  0
LINE
  5
22BEF
330
227AF
100
AcDbEntity
  8
0
  6
Continuous
 62
     3
440
 16777216
100
AcDbLine
 10
494.1924745439624
 20
72.03777960082573
 30
0.0
 11
494.1924745439624
 21
130.5377796008256
 31
0.0
  0
LINE
  5
22BF0
330
227AF
100
AcDbEntity
  8
0
  6
Continuous
 62
     3
440
 16777216
100
AcDbLine
 10
494.1924745439624
 20
133.0377796008257
 30
0.0
 11
494.1924745439624
 21
147.8901418055502
 31
0.0
  0
SOLID
  5
22BF1
330
227AF
100
AcDbEntity
  8
0
  6
Continuous
 62
     3
440
 16777216
100
AcDbTrace
 10
493.7758078772956
 20
72.03777960082573
 30
0.0
 11
494.609141210629
 21
72.03777960082573
 31
0.0
 12
494.1924745439624
 22
69.53777960082573
 32
0.0
 13
494.1924745439624
 23
69.53777960082573
 33
0.0
  0
SOLID
  5
22BF2
330
227AF
100
AcDbEntity
  8
0
  6
Continuous
 62
     3
440
 16777216
100
AcDbTrace
 10
493.7758078772957
 20
130.5377796008256
 30
0.0
 11
494.6091412106291
 21
130.5377796008256
 31
0.0
 12
494.1924745439624
 22
133.0377796008257
 32
0.0
 13
494.1924745439624
 23
133.0377796008257
 33
0.0
  0
MTEXT
  5
22BF3
330
227AF
100
AcDbEntity
  8
0
  6
Continuous
 62
     2
440
 16777216
100
AcDbMText
 10
492.0671792683718
 20
141.713960703188
 30
0.0
 40
3.0
 41
0.0
 46
0.0
 71
     5
 72
     1
  1
%%C2.500
 11
0.0000000000000001
 21
1.0
 31
0.0
 73
     1
 44
1.0
  0
POINT
  5
22BF4
330
227AF
100
AcDbEntity
  8
DEFPOINTS
  6
Continuous
 62
     0
440
 16777216
100
AcDbPoint
 10
518.6432773163476
 20
69.53777960082573
 30
0.0
  0
POINT
  5
22BF5
330
227AF
100
AcDbEntity
  8
DEFPOINTS
  6
Continuous
 62
     0
440
 16777216
100
AcDbPoint
 10
518.6432773163476
 20
133.0377796008257
 30
0.0
  0
POINT
  5
22BF6
330
227AF
100
AcDbEntity
  8
DEFPOINTS
  6
Continuous
 62
     0
440
 16777216
100
AcDbPoint
 10
494.1924745439624
 20
133.0377796008257
 30
0.0
  0
ENDBLK
  5
227B1
330
227AF
100
AcDbEntity
  8
0
 62
     7
100
AcDbBlockEnd
  0
BLOCK
  5
227BD
330
227BC
100
AcDbEntity
  8
0
 62
     7
100
AcDbBlockBegin
  2
*D6
 70
     1
 10
0.0
 20
0.0
 30
0.0
  3
*D6
  1

  0
LINE
  5
22BF7
330
227BC
100
AcDbEntity
  8
0
  6
Continuous
 62
     3
440
 16777216
100
AcDbLine
 10
597.2952860792088
 20
105.2877796008463
 30
0.0
 11
585.5567700665208
 21
105.2877796008463
 31
0.0
  0
LINE
  5
22BF8
330
227BC
100
AcDbEntity
  8
0
  6
Continuous
 62
     3
440
 16777216
100
AcDbLine
 10
586.8067700665208
 20
100.2877796008463
 30
0.0
 11
586.8067700665208
 21
102.7877796008463
 31
0.0
  0
LINE
  5
22BF9
330
227BC
100
AcDbEntity
  8
0
  6
Continuous
 62
     3
440
 16777216
100
AcDbLine
 10
586.8067700665208
 20
105.2877796008463
 30
0.0
 11
586.8067700665208
 21
147.8442638462817
 31
0.0
  0
SOLID
  5
22BFA
330
227BC
100
AcDbEntity
  8
0
  6
Continuous
 62
     3
440
 16777216
100
AcDbTrace
 10
586.3901033998542
 20
102.7877796008463
 30
0.0
 11
587.2234367331874
 21
102.7877796008463
 31
0.0
 12
586.8067700665208
 22
105.2877796008463
 32
0.0
 13
586.8067700665208
 23
105.2877796008463
 33
0.0
  0
MTEXT
  5
22BFB
330
227BC
100
AcDbEntity
  8
0
  6
Continuous
 62
     2
440
 16777216
100
AcDbMText
 10
584.6817700665208
 20
141.9680827439196
 30
0.0
 40
3.0
 41
0.0
 46
0.0
 71
     5
 72
     1
  1
M8*1.0
 11
0.0000000000000001
 21
1.0
 31
0.0
 73
     1
 44
1.0
  0
POINT
  5
22BFC
330
227BC
100
AcDbEntity
  8
DEFPOINTS
  6
Continuous
 62
     0
440
 16777216
100
AcDbPoint
 10
591.5825728389059
 20
97.2877796007952
 30
0.0
  0
POINT
  5
22BFD
330
227BC
100
AcDbEntity
  8
DEFPOINTS
  6
Continuous
 62
     0
440
 16777216
100
AcDbPoint
 10
597.9202860792088
 20
105.2877796008463
 30
0.0
  0
POINT
  5
22BFE
330
227BC
100
AcDbEntity
  8
DEFPOINTS
  6
Continuous
 62
     0
440
 16777216
100
AcDbPoint
 10
586.8067700665208
 20
105.2877796008463
 30
0.0
  0
ENDBLK
  5
227BE
330
227BC
100
AcDbEntity
  8
0
 62
     7
100
AcDbBlockEnd
  0
BLOCK
  5
227D0
330
227CF
100
AcDbEntity
  8
0
 62
     7
100
AcDbBlockBegin
  2
*D7
 70
     1
 10
0.0
 20
0.0
 30
0.0
  3
*D7
  1

  0
LINE
  5
22BFF
330
227CF
100
AcDbEntity
  8
0
  6
Continuous
 62
     3
440
 16777216
100
AcDbLine
 10
454.1182773163482
 20
110.0627796008259
 30
0.0
 11
454.1182773163482
 21
123.7535576285606
 31
0.0
  0
LINE
  5
22C00
330
227CF
100
AcDbEntity
  8
0
  6
Continuous
 62
     3
440
 16777216
100
AcDbLine
 10
446.7182773163476
 20
112.6471396869231
 30
0.0
 11
446.7182773163476
 21
123.7535576285606
 31
0.0
  0
LINE
  5
22C01
330
227CF
100
AcDbEntity
  8
0
  6
Continuous
 62
     3
440
 16777216
100
AcDbLine
 10
451.6182773163482
 20
122.5035576285606
 30
0.0
 11
449.2182773163476
 21
122.5035576285606
 31
0.0
  0
LINE
  5
22C02
330
227CF
100
AcDbEntity
  8
0
  6
Continuous
 62
     3
440
 16777216
100
AcDbLine
 10
446.7182773163476
 20
122.5035576285606
 30
0.0
 11
436.451134674618
 21
122.5035576285606
 31
0.0
  0
SOLID
  5
22C03
330
227CF
100
AcDbEntity
  8
0
  6
Continuous
 62
     3
440
 16777216
100
AcDbTrace
 10
451.6182773163482
 20
122.9202242952273
 30
0.0
 11
451.6182773163482
 21
122.086890961894
 31
0.0
 12
454.1182773163482
 22
122.5035576285606
 32
0.0
 13
454.1182773163482
 23
122.5035576285606
 33
0.0
  0
SOLID
  5
22C04
330
227CF
100
AcDbEntity
  8
0
  6
Continuous
 62
     3
440
 16777216
100
AcDbTrace
 10
449.2182773163476
 20
122.9202242952273
 30
0.0
 11
449.2182773163476
 21
122.086890961894
 31
0.0
 12
446.7182773163476
 22
122.5035576285606
 32
0.0
 13
446.7182773163476
 23
122.5035576285606
 33
0.0
  0
MTEXT
  5
22C05
330
227CF
100
AcDbEntity
  8
0
  6
Continuous
 62
     2
440
 16777216
100
AcDbMText
 10
440.3347059954827
 20
124.6288529041512
 30
0.0
 40
3.0
 41
0.0
 46
0.0
 71
     5
 72
     1
  1
0.29
 73
     1
 44
1.0
  0
POINT
  5
22C06
330
227CF
100
AcDbEntity
  8
DEFPOINTS
  6
Continuous
 62
     0
440
 16777216
100
AcDbPoint
 10
454.1182773163482
 20
109.4377796008259
 30
0.0
  0
POINT
  5
22C07
330
227CF
100
AcDbEntity
  8
DEFPOINTS
  6
Continuous
 62
     0
440
 16777216
100
AcDbPoint
 10
446.7182773163476
 20
112.0221396869231
 30
0.0
  0
POINT
  5
22C08
330
227CF
100
AcDbEntity
  8
DEFPOINTS
  6
Continuous
 62
     0
440
 16777216
100
AcDbPoint
 10
446.7182773163476
 20
122.5035576285606
 30
0.0
  0
ENDBLK
  5
227D1
330
227CF
100
AcDbEntity
  8
0
 62
     7
100
AcDbBlockEnd
  0
BLOCK
  5
22ACA
330
22AC9
100
AcDbEntity
  8
0
 62
     7
100
AcDbBlockBegin
  2
*D8
 70
     1
 10
0.0
 20
0.0
 30
0.0
  3
*D8
  1

  0
LINE
  5
22C09
330
22AC9
100
AcDbEntity
  8
0
  6
Continuous
 62
     3
440
 16777216
100
AcDbLine
 10
549.1850558327232
 20
78.28777960082462
 30
0.0
 11
553.9981285748394
 21
78.28777960082462
 31
0.0
  0
LINE
  5
22C0A
330
22AC9
100
AcDbEntity
  8
0
  6
Continuous
 62
     3
440
 16777216
100
AcDbLine
 10
549.185055832723
 20
124.2877796008267
 30
0.0
 11
553.9981285748394
 21
124.2877796008267
 31
0.0
  0
LINE
  5
22C0B
330
22AC9
100
AcDbEntity
  8
0
  6
Continuous
 62
     3
440
 16777216
100
AcDbLine
 10
552.7481285748394
 20
80.78777960082462
 30
0.0
 11
552.7481285748394
 21
121.7877796008267
 31
0.0
  0
LINE
  5
22C0C
330
22AC9
100
AcDbEntity
  8
0
  6
Continuous
 62
     3
440
 16777216
100
AcDbLine
 10
552.7481285748394
 20
124.2877796008267
 30
0.0
 11
552.7481285748394
 21
137.7614348989191
 31
0.0
  0
SOLID
  5
22C0D
330
22AC9
100
AcDbEntity
  8
0
  6
Continuous
 62
     3
440
 16777216
100
AcDbTrace
 10
552.3314619081729
 20
80.78777960082462
 30
0.0
 11
553.1647952415061
 21
80.78777960082462
 31
0.0
 12
552.7481285748394
 22
78.28777960082462
 32
0.0
 13
552.7481285748394
 23
78.28777960082462
 33
0.0
  0
SOLID
  5
22C0E
330
22AC9
100
AcDbEntity
  8
0
  6
Continuous
 62
     3
440
 16777216
100
AcDbTrace
 10
552.3314619081729
 20
121.7877796008267
 30
0.0
 11
553.1647952415061
 21
121.7877796008267
 31
0.0
 12
552.7481285748394
 22
124.2877796008267
 32
0.0
 13
552.7481285748394
 23
124.2877796008267
 33
0.0
  0
MTEXT
  5
22C0F
330
22AC9
100
AcDbEntity
  8
0
  6
Continuous
 62
     2
440
 16777216
100
AcDbMText
 10
550.6231285748395
 20
133.2364348989192
 30
0.0
 40
3.0
 41
0.0
 46
0.0
 71
     5
 72
     1
  1
%%C1.81
 11
0.0000000000000001
 21
1.0
 31
0.0
 73
     1
 44
1.0
  0
POINT
  5
22C10
330
22AC9
100
AcDbEntity
  8
DEFPOINTS
  6
Continuous
 62
     0
440
 16777216
100
AcDbPoint
 10
548.5600558327233
 20
78.28777960082462
 30
0.0
  0
POINT
  5
22C11
330
22AC9
100
AcDbEntity
  8
DEFPOINTS
  6
Continuous
 62
     0
440
 16777216
100
AcDbPoint
 10
548.560055832723
 20
124.2877796008267
 30
0.0
  0
POINT
  5
22C12
330
22AC9
100
AcDbEntity
  8
DEFPOINTS
  6
Continuous
 62
     0
440
 16777216
100
AcDbPoint
 10
552.7481285748394
 20
124.2877796008267
 30
0.0
  0
ENDBLK
  5
22ACB
330
22AC9
100
AcDbEntity
  8
0
 62
     7
100
AcDbBlockEnd
  0
BLOCK
  5
22B1E
330
22B1D
100
AcDbEntity
  8
0
 62
     7
100
AcDbBlockBegin
  2
*D9
 70
     1
 10
0.0
 20
0.0
 30
0.0
  3
*D9
  1

  0
LINE
  5
22C13
330
22B1D
100
AcDbEntity
  8
0
  6
Continuous
 62
     3
440
 16777216
100
AcDbLine
 10
652.7849608314086
 20
82.48102297390403
 30
0.0
 11
643.6403608561656
 21
91.19294965639069
 31
0.0
  0
MTEXT
  5
22C14
330
22B1D
100
AcDbEntity
  8
0
  6
Continuous
 62
     2
440
 16777216
100
AcDbMText
 10
650.583662152524
 20
87.51354584868119
 30
0.0
 40
3.0
 41
0.0
 46
0.0
 71
     5
 72
     1
  1
R0.02
 11
0.7240278466027761
 21
-0.6897707425976743
 31
0.0
 73
     1
 44
1.0
  0
LINE
  5
22C15
330
22B1D
100
AcDbEntity
  8
0
  6
Continuous
 62
     3
440
 16777216
100
AcDbLine
 10
641.4682773163576
 20
93.26226188418331
 30
0.0
 11
641.8302912396586
 21
92.91737651288485
 31
0.0
  0
SOLID
  5
22C16
330
22B1D
100
AcDbEntity
  8
0
  6
Continuous
 62
     3
440
 16777216
100
AcDbTrace
 10
643.927765332248
 20
91.49462792580852
 30
0.0
 11
643.3529563800832
 21
90.89127138697284
 31
0.0
 12
641.8302912396586
 22
92.91737651288485
 32
0.0
 13
641.8302912396586
 23
92.91737651288485
 33
0.0
  0
POINT
  5
22C17
330
22B1D
100
AcDbEntity
  8
DEFPOINTS
  6
Continuous
 62
     0
440
 16777216
100
AcDbPoint
 10
641.8302912396586
 20
92.91737651288485
 30
0.0
  0
POINT
  5
22C18
330
22B1D
100
AcDbEntity
  8
DEFPOINTS
  6
Continuous
 62
     0
440
 16777216
100
AcDbPoint
 10
641.4682773163576
 20
93.26226188418331
 30
0.0
  0
ENDBLK
  5
22B1F
330
22B1D
100
AcDbEntity
  8
0
 62
     7
100
AcDbBlockEnd
  0
BLOCK
  5
22B28
330
22B27
100
AcDbEntity
  8
0
 62
     7
100
AcDbBlockBegin
  2
*D10
 70
     1
 10
0.0
 20
0.0
 30
0.0
  3
*D10
  1

  0
LINE
  5
22C19
330
22B27
100
AcDbEntity
  8
0
  6
Continuous
 62
     3
440
 16777216
100
AcDbLine
 10
578.1817629999582
 20
76.6823610024208
 30
0.0
 11
569.8651670609377
 21
85.95034656912934
 31
0.0
  0
MTEXT
  5
22C1A
330
22B27
100
AcDbEntity
  8
0
  6
Continuous
 62
     2
440
 16777216
100
AcDbMText
 10
576.4401109943378
 20
81.80543690106551
 30
0.0
 40
3.0
 41
0.0
 46
0.0
 71
     5
 72
     1
  1
R0.20
 11
0.6678729547286317
 21
-0.7442752960713174
 31
0.0
 73
     1
 44
1.0
  0
SOLID
  5
22C1B
330
22B27
100
AcDbEntity
  8
0
  6
Continuous
 62
     3
440
 16777216
100
AcDbTrace
 10
570.1752817676341
 20
86.22862696693301
 30
0.0
 11
569.5550523542414
 21
85.67206617132574
 31
0.0
 12
568.1954846741161
 22
87.81103480930765
 32
0.0
 13
568.1954846741161
 23
87.81103480930765
 33
0.0
  0
POINT
  5
22C1C
330
22B27
100
AcDbEntity
  8
DEFPOINTS
  6
Continuous
 62
     0
440
 16777216
100
AcDbPoint
 10
568.1954846741161
 20
87.81103480930765
 30
0.0
  0
POINT
  5
22C1D
330
22B27
100
AcDbEntity
  8
DEFPOINTS
  6
Continuous
 62
     0
440
 16777216
100
AcDbPoint
 10
571.5348494477596
 20
84.08965832895081
 30
0.0
  0
ENDBLK
  5
22B29
330
22B27
100
AcDbEntity
  8
0
 62
     7
100
AcDbBlockEnd
  0
BLOCK
  5
22B31
330
22B30
100
AcDbEntity
  8
0
 62
     7
100
AcDbBlockBegin
  2
*D11
 70
     1
 10
0.0
 20
0.0
 30
0.0
  3
*D11
  1

  0
LINE
  5
22C1E
330
22B30
100
AcDbEntity
  8
0
  6
Continuous
 62
     3
440
 16777216
100
AcDbLine
 10
573.8593801972374
 20
67.52801194436663
 30
0.0
 11
565.6640146627644
 21
76.9002306654792
 31
0.0
  0
MTEXT
  5
22C1F
330
22B30
100
AcDbEntity
  8
0
  6
Continuous
 62
     2
440
 16777216
100
AcDbMText
 10
572.1842011810414
 20
72.67194285989197
 30
0.0
 40
3.0
 41
0.0
 46
0.0
 71
     5
 72
     1
  1
R0.08
 11
0.6582622919255407
 21
-0.7527886522981961
 31
0.0
 73
     1
 44
1.0
  0
LINE
  5
22C20
330
22B30
100
AcDbEntity
  8
0
  6
Continuous
 62
     3
440
 16777216
100
AcDbLine
 10
562.7018343490997
 20
80.2877796008209
 30
0.0
 11
564.0183589329506
 21
78.78220229622468
 31
0.0
  0
SOLID
  5
22C21
330
22B30
100
AcDbEntity
  8
0
  6
Continuous
 62
     3
440
 16777216
100
AcDbTrace
 10
565.977676601222
 20
77.17450662044817
 30
0.0
 11
565.3503527243068
 21
76.62595471051023
 31
0.0
 12
564.0183589329506
 22
78.78220229622468
 32
0.0
 13
564.0183589329506
 23
78.78220229622468
 33
0.0
  0
POINT
  5
22C22
330
22B30
100
AcDbEntity
  8
DEFPOINTS
  6
Continuous
 62
     0
440
 16777216
100
AcDbPoint
 10
564.0183589329506
 20
78.78220229622468
 30
0.0
  0
POINT
  5
22C23
330
22B30
100
AcDbEntity
  8
DEFPOINTS
  6
Continuous
 62
     0
440
 16777216
100
AcDbPoint
 10
562.7018343490997
 20
80.2877796008209
 30
0.0
  0
ENDBLK
  5
22B32
330
22B30
100
AcDbEntity
  8
0
 62
     7
100
AcDbBlockEnd
  0
ENDSEC
  0
SECTION
  2
ENTITIES
  0
LWPOLYLINE
  5
1DBC8
330
2
100
AcDbEntity
  8
0
 62
     0
100
AcDbPolyline
 90
        4
 70
     1
 43
0.0
 10
421.0
 20
0.0
 10
421.0
 20
185.0575962927926
 10
686.1880000000001
 20
185.0575962927926
 10
686.1880000000001
 20
0.0
  0
LINE
  5
1DC5A
330
2
100
AcDbEntity
  8
0
  6
Continuous
 62
     7
100
AcDbLine
 10
619.8909999999999
 20
-3.233999999999999
 30
0.0
 11
619.8909999999999
 21
0.0
 31
0.0
  0
LINE
  5
1DC5B
330
2
100
AcDbEntity
  8
0
  6
Continuous
 62
     7
100
AcDbLine
 10
616.6570000000001
 20
-0.0000000000000006
 30
0.0
 11
616.6570000000001
 21
26.02372447867397
 31
0.0
  0
LINE
  5
1DC5C
330
2
100
AcDbEntity
  8
0
  6
Continuous
 62
     7
100
AcDbLine
 10
487.297
 20
-3.233999999999999
 30
0.0
 11
487.297
 21
0.0
 31
0.0
  0
LINE
  5
1DC5D
330
2
100
AcDbEntity
  8
0
  6
Continuous
 62
     7
100
AcDbLine
 10
619.8909999999999
 20
188.2915962927926
 30
0.0
 11
619.8909999999999
 21
185.0575962927926
 31
0.0
  0
LINE
  5
1DC5E
330
2
100
AcDbEntity
  8
0
  6
Continuous
 62
     7
100
AcDbLine
 10
487.297
 20
188.2915962927926
 30
0.0
 11
487.297
 21
185.0575962927926
 31
0.0
  0
LINE
  5
1DC5F
330
2
100
AcDbEntity
  8
0
  6
Continuous
 62
     7
100
AcDbLine
 10
417.766
 20
46.26439907319816
 30
0.0
 11
421.0
 21
46.26439907319816
 31
0.0
  0
LINE
  5
1DC60
330
2
100
AcDbEntity
  8
0
  6
Continuous
 62
     7
100
AcDbLine
 10
417.766
 20
138.7931972195945
 30
0.0
 11
421.0
 21
138.7931972195945
 31
0.0
  0
LINE
  5
1DC61
330
2
100
AcDbEntity
  8
0
  6
Continuous
 62
     7
100
AcDbLine
 10
689.422
 20
46.26439907319816
 30
0.0
 11
686.1880000000001
 21
46.26439907319816
 31
0.0
  0
LINE
  5
1DC62
330
2
100
AcDbEntity
  8
0
  6
Continuous
 62
     7
100
AcDbLine
 10
689.422
 20
138.7931972195945
 30
0.0
 11
686.1880000000001
 21
138.7931972195945
 31
0.0
  0
LINE
  5
1DC63
330
2
100
AcDbEntity
  8
0
  6
Continuous
 62
     7
100
AcDbLine
 10
686.1880000000001
 20
26.02372447867397
 30
0.0
 11
616.6569999999999
 21
26.02372447867397
 31
0.0
  0
LINE
  5
1DC64
330
2
100
AcDbEntity
  8
0
  6
Continuous
 62
     7
100
AcDbLine
 10
616.6570000000001
 20
8.674574826224658
 30
0.0
 11
686.1880000000001
 21
8.674574826224658
 31
0.0
  0
LINE
  5
1DC65
330
2
100
AcDbEntity
  8
0
  6
Continuous
 62
     7
100
AcDbLine
 10
616.6570000000001
 20
17.34914965244931
 30
0.0
 11
686.1880000000001
 21
17.34914965244931
 31
0.0
  0
LINE
  5
1DC66
330
2
100
AcDbEntity
  8
0
  6
Continuous
 62
     7
100
AcDbLine
 10
616.6570000000001
 20
-0.0000000000000012
 30
0.0
 11
686.1880000000001
 21
0.0000000000000035
 31
0.0
  0
LINE
  5
1DC67
330
2
100
AcDbEntity
  8
0
  6
Continuous
 62
     7
100
AcDbLine
 10
686.1880000000001
 20
92.52879814639632
 30
0.0
 11
689.422
 21
92.52879814639632
 31
0.0
  0
LINE
  5
1DC68
330
2
100
AcDbEntity
  8
0
  6
Continuous
 62
     7
100
AcDbLine
 10
687.805
 20
91.4292381463963
 30
0.0
 11
687.805
 21
93.62835814639632
 31
0.0
  0
LINE
  5
1DC69
330
2
100
AcDbEntity
  8
0
  6
Continuous
 62
     7
100
AcDbLine
 10
687.805
 20
91.4292381463963
 30
0.0
 11
686.1880000000001
 21
92.52879814639632
 31
0.0
  0
LINE
  5
1DC6A
330
2
100
AcDbEntity
  8
0
  6
Continuous
 62
     7
100
AcDbLine
 10
686.1880000000001
 20
92.52879814639632
 30
0.0
 11
687.805
 21
93.62835814639632
 31
0.0
  0
LINE
  5
1DC6B
330
2
100
AcDbEntity
  8
0
  6
Continuous
 62
     7
100
AcDbLine
 10
421.0
 20
92.52879814639632
 30
0.0
 11
417.766
 21
92.52879814639632
 31
0.0
  0
LINE
  5
1DC6C
330
2
100
AcDbEntity
  8
0
  6
Continuous
 62
     7
100
AcDbLine
 10
419.383
 20
91.4292381463963
 30
0.0
 11
419.383
 21
93.62835814639632
 31
0.0
  0
LINE
  5
1DC6D
330
2
100
AcDbEntity
  8
0
  6
Continuous
 62
     7
100
AcDbLine
 10
419.383
 20
91.4292381463963
 30
0.0
 11
421.0
 21
92.52879814639632
 31
0.0
  0
LINE
  5
1DC6E
330
2
100
AcDbEntity
  8
0
  6
Continuous
 62
     7
100
AcDbLine
 10
421.0
 20
92.52879814639632
 30
0.0
 11
419.383
 21
93.62835814639632
 31
0.0
  0
LINE
  5
1DC6F
330
2
100
AcDbEntity
  8
0
  6
Continuous
 62
     7
100
AcDbLine
 10
553.5940000000001
 20
185.0575962927926
 30
0.0
 11
553.5940000000001
 21
188.2915962927926
 31
0.0
  0
LINE
  5
1DC70
330
2
100
AcDbEntity
  8
0
  6
Continuous
 62
     7
100
AcDbLine
 10
552.49444
 20
186.6745962927926
 30
0.0
 11
554.69356
 21
186.6745962927926
 31
0.0
  0
LINE
  5
1DC71
330
2
100
AcDbEntity
  8
0
  6
Continuous
 62
     7
100
AcDbLine
 10
552.49444
 20
186.6745962927926
 30
0.0
 11
553.5940000000001
 21
185.0575962927926
 31
0.0
  0
LINE
  5
1DC72
330
2
100
AcDbEntity
  8
0
  6
Continuous
 62
     7
100
AcDbLine
 10
553.5940000000001
 20
185.0575962927926
 30
0.0
 11
554.69356
 21
186.6745962927926
 31
0.0
  0
LINE
  5
1DC73
330
2
100
AcDbEntity
  8
0
  6
Continuous
 62
     7
100
AcDbLine
 10
553.5940000000001
 20
0.0
 30
0.0
 11
553.5940000000001
 21
-3.233999999999999
 31
0.0
  0
LINE
  5
1DC74
330
2
100
AcDbEntity
  8
0
  6
Continuous
 62
     7
100
AcDbLine
 10
552.49444
 20
-1.616999999999999
 30
0.0
 11
554.69356
 21
-1.616999999999999
 31
0.0
  0
LINE
  5
1DC75
330
2
100
AcDbEntity
  8
0
  6
Continuous
 62
     7
100
AcDbLine
 10
552.49444
 20
-1.616999999999999
 30
0.0
 11
553.5940000000001
 21
0.0
 31
0.0
  0
LINE
  5
1DC76
330
2
100
AcDbEntity
  8
0
  6
Continuous
 62
     7
100
AcDbLine
 10
553.5940000000001
 20
0.0
 30
0.0
 11
554.69356
 21
-1.616999999999999
 31
0.0
  0
TEXT
  5
1DC77
330
2
100
AcDbEntity
  8
0
 62
     2
100
AcDbText
 10
453.4712721368002
 20
-2.620310394522521
 30
0.0
 40
1.81104
  1
4
  7
굴림
100
AcDbText
  0
TEXT
  5
1DC78
330
2
100
AcDbEntity
  8
0
 62
     2
100
AcDbText
 10
519.8297382438149
 20
-2.620310394522521
 30
0.0
 40
1.81104
  1
3
  7
굴림
100
AcDbText
  0
TEXT
  5
1DC79
330
2
100
AcDbEntity
  8
0
 62
     2
100
AcDbText
 10
586.0409804990502
 20
-2.620310394522521
 30
0.0
 40
1.81104
  1
2
  7
굴림
100
AcDbText
  0
TEXT
  5
1DC7A
330
2
100
AcDbEntity
  8
0
 62
     2
100
AcDbText
 10
652.5401790189191
 20
-2.620310394522521
 30
0.0
 40
1.81104
  1
1
  7
굴림
100
AcDbText
  0
TEXT
  5
1DC7B
330
2
100
AcDbEntity
  8
0
 62
     2
100
AcDbText
 10
453.4712721368002
 20
186.0887141464059
 30
0.0
 40
1.81104
  1
4
  7
굴림
100
AcDbText
  0
LWPOLYLINE
  5
1DC7C
102
{ACAD_REACTORS
330
1DC82
102
}
330
2
100
AcDbEntity
  8
Layer 1
 62
   103
100
AcDbPolyline
 90
        8
 70
     1
 43
0.0
 10
671.0145355353315
 20
25.05982582928472
 10
646.2152942157813
 20
25.06080083385792
 10
645.8453660100643
 20
23.84402380309918
 10
654.4395151440023
 20
23.84359688001262
 10
652.7947971354206
 20
18.14033307964649
 10
654.4064796949337
 20
18.14033307964649
 10
656.0508822608595
 20
23.84359688001262
 10
670.6427736499133
 20
23.8428767388954
  0
TEXT
  5
1DC7D
330
2
100
AcDbEntity
  8
0
 62
     2
100
AcDbText
 10
519.8297382438149
 20
186.0887141464059
 30
0.0
 40
1.81104
  1
3
  7
굴림
100
AcDbText
  0
TEXT
  5
1DC7E
330
2
100
AcDbEntity
  8
0
 62
     2
100
AcDbText
 10
586.0409804990502
 20
186.0887141464059
 30
0.0
 40
1.81104
  1
2
  7
굴림
100
AcDbText
  0
TEXT
  5
1DC7F
330
2
100
AcDbEntity
  8
0
 62
     2
100
AcDbText
 10
652.5401790189191
 20
186.0887141464059
 30
0.0
 40
1.81104
  1
1
  7
굴림
100
AcDbText
  0
TEXT
  5
1DC80
330
2
100
AcDbEntity
  8
0
 62
     2
100
AcDbText
 10
418.385514261335
 20
22.52916999211228
 30
0.0
 40
1.81104
  1
A
  7
굴림
100
AcDbText
  0
TEXT
  5
1DC81
330
2
100
AcDbEntity
  8
0
 62
     2
100
AcDbText
 10
418.385514261335
 20
68.4097584582514
 30
0.0
 40
1.81104
  1
B
  7
굴림
100
AcDbText
  0
HATCH
  5
1DC82
330
2
100
AcDbEntity
  8
0
  6
Continuous
 62
    93
100
AcDbHatch
 10
0.0
 20
0.0
 30
0.0
210
0.0
220
0.0
230
1.0
  2
SOLID
 70
     1
 71
     1
 91
        1
 92
        7
 72
     0
 73
     1
 93
        8
 10
646.2152942157813
 20
25.06080083385792
 10
645.8453660100643
 20
23.84402380309918
 10
654.4395151440023
 20
23.84359688001262
 10
652.7947971354206
 20
18.14033307964649
 10
654.4064796949337
 20
18.14033307964649
 10
656.0508822608595
 20
23.84359688001262
 10
670.6427736499133
 20
23.8428767388954
 10
671.0145355353315
 20
25.05982582928472
 97
        1
330
1DC7C
 75
     1
 76
     1
 47
0.0428322549537331
 98
        1
 10
657.1280771621619
 20
24.45956648932724
450
        0
451
        0
460
0.0
461
0.0
452
        0
462
1.0
453
        2
463
0.0
 63
     5
421
      255
463
1.0
 63
     2
421
 16776960
470
LINEAR
1001
GRADIENTCOLOR1ACI
1070
     5
1001
GRADIENTCOLOR2ACI
1070
     2
1001
ACAD
1010
0.0
1020
0.0
1030
0.0
  0
TEXT
  5
1DC83
330
2
100
AcDbEntity
  8
0
 62
     2
100
AcDbText
 10
418.385514261335
 20
114.728153875106
 30
0.0
 40
1.81104
  1
C
  7
굴림
100
AcDbText
  0
TEXT
  5
1DC84
330
2
100
AcDbEntity
  8
0
 62
     2
100
AcDbText
 10
418.385514261335
 20
161.3317684100266
 30
0.0
 40
1.81104
  1
D
  7
굴림
100
AcDbText
  0
TEXT
  5
1DC85
330
2
100
AcDbEntity
  8
0
 62
     2
100
AcDbText
 10
687.1567919131296
 20
22.52916999211228
 30
0.0
 40
1.81104
  1
A
  7
굴림
100
AcDbText
  0
TEXT
  5
1DC86
330
2
100
AcDbEntity
  8
0
 62
     2
100
AcDbText
 10
687.1567919131296
 20
68.4097584582514
 30
0.0
 40
1.81104
  1
B
  7
굴림
100
AcDbText
  0
TEXT
  5
1DC87
330
2
100
AcDbEntity
  8
0
 62
     2
100
AcDbText
 10
687.1567919131296
 20
114.728153875106
 30
0.0
 40
1.81104
  1
C
  7
굴림
100
AcDbText
  0
TEXT
  5
1DC88
330
2
100
AcDbEntity
  8
0
 62
     2
100
AcDbText
 10
687.1567919131296
 20
161.3317684100266
 30
0.0
 40
1.81104
  1
D
  7
굴림
100
AcDbText
  0
HATCH
  5
1DC89
330
2
100
AcDbEntity
  8
0
  6
Continuous
 62
     0
100
AcDbHatch
 10
0.0
 20
0.0
 30
0.0
210
0.0
220
0.0
230
1.0
  2
SOLID
 70
     1
 71
     1
 91
        1
 92
        5
 93
       13
 72
     4
 94
        3
 73
     0
 74
     0
 95
        8
 96
        4
 40
1.0
 40
1.0
 40
1.0
 40
1.0
 40
2.0
 40
2.0
 40
2.0
 40
2.0
 10
637.3821255783812
 20
21.52606513671701
 10
637.3821255783812
 20
21.52606513671701
 10
636.6427853458384
 20
18.14033307964647
 10
636.6427853458384
 20
18.14033307964647
 97
        0
 72
     4
 94
        3
 73
     0
 74
     0
 95
        8
 96
        4
 40
0.0
 40
0.0
 40
0.0
 40
0.0
 40
1.0
 40
1.0
 40
1.0
 40
1.0
 10
636.6427853458384
 20
18.14033307964647
 10
636.6427853458384
 20
18.14033307964647
 10
638.2690069441345
 20
18.14033307964647
 10
638.2690069441345
 20
18.14033307964647
 97
        0
 72
     4
 94
        3
 73
     0
 74
     0
 95
        8
 96
        4
 40
12.0
 40
12.0
 40
12.0
 40
12.0
 40
13.0
 40
13.0
 40
13.0
 40
13.0
 10
638.2690069441345
 20
18.14033307964647
 10
638.2690069441345
 20
18.14033307964647
 10
639.1193829916026
 20
23.35924900773321
 10
639.1193829916026
 20
23.35924900773321
 97
        0
 72
     4
 94
        3
 73
     0
 74
     0
 95
        8
 96
        4
 40
11.0
 40
11.0
 40
11.0
 40
11.0
 40
12.0
 40
12.0
 40
12.0
 40
12.0
 10
639.1193829916026
 20
23.35924900773321
 10
639.1193829916026
 20
23.35924900773321
 10
637.3671277139168
 20
23.35924900773321
 10
637.3671277139168
 20
23.35924900773321
 97
        0
 72
     4
 94
        3
 73
     0
 74
     0
 95
        8
 96
        4
 40
10.0
 40
10.0
 40
10.0
 40
10.0
 40
11.0
 40
11.0
 40
11.0
 40
11.0
 10
637.3671277139168
 20
23.35924900773321
 10
637.3671277139168
 20
23.35924900773321
 10
635.5633692534816
 20
20.49118381207179
 10
635.5633692534816
 20
20.49118381207179
 97
        0
 72
     4
 94
        3
 73
     0
 74
     0
 95
        8
 96
        4
 40
9.0
 40
9.0
 40
9.0
 40
9.0
 40
10.0
 40
10.0
 40
10.0
 40
10.0
 10
635.5633692534816
 20
20.49118381207179
 10
635.5633692534816
 20
20.49118381207179
 10
635.2458052574887
 20
23.35924900773321
 10
635.2458052574887
 20
23.35924900773321
 97
        0
 72
     4
 94
        3
 73
     0
 74
     0
 95
        8
 96
        4
 40
8.0
 40
8.0
 40
8.0
 40
8.0
 40
9.0
 40
9.0
 40
9.0
 40
9.0
 10
635.2458052574887
 20
23.35924900773321
 10
635.2458052574887
 20
23.35924900773321
 10
633.5230868395306
 20
23.35924900773321
 10
633.5230868395306
 20
23.35924900773321
 97
        0
 72
     4
 94
        3
 73
     0
 74
     0
 95
        8
 96
        4
 40
7.0
 40
7.0
 40
7.0
 40
7.0
 40
8.0
 40
8.0
 40
8.0
 40
8.0
 10
633.5230868395306
 20
23.35924900773321
 10
633.5230868395306
 20
23.35924900773321
 10
631.6234050870652
 20
18.14033307964647
 10
631.6234050870652
 20
18.14033307964647
 97
        0
 72
     4
 94
        3
 73
     0
 74
     0
 95
        8
 96
        4
 40
6.0
 40
6.0
 40
6.0
 40
6.0
 40
7.0
 40
7.0
 40
7.0
 40
7.0
 10
631.6234050870652
 20
18.14033307964647
 10
631.6234050870652
 20
18.14033307964647
 10
633.2126625815423
 20
18.14033307964647
 10
633.2126625815423
 20
18.14033307964647
 97
        0
 72
     4
 94
        3
 73
     0
 74
     0
 95
        8
 96
        4
 40
5.0
 40
5.0
 40
5.0
 40
5.0
 40
6.0
 40
6.0
 40
6.0
 40
6.0
 10
633.2126625815423
 20
18.14033307964647
 10
633.2126625815423
 20
18.14033307964647
 10
634.284680136866
 20
21.59987871822994
 10
634.284680136866
 20
21.59987871822994
 97
        0
 72
     4
 94
        3
 73
     0
 74
     0
 95
        8
 96
        4
 40
4.0
 40
4.0
 40
4.0
 40
4.0
 40
5.0
 40
5.0
 40
5.0
 40
5.0
 10
634.284680136866
 20
21.59987871822994
 10
634.284680136866
 20
21.59987871822994
 10
634.6764599255626
 20
18.14033307964647
 10
634.6764599255626
 20
18.14033307964647
 97
        0
 72
     4
 94
        3
 73
     0
 74
     0
 95
        8
 96
        4
 40
3.0
 40
3.0
 40
3.0
 40
3.0
 40
4.0
 40
4.0
 40
4.0
 40
4.0
 10
634.6764599255626
 20
18.14033307964647
 10
634.6764599255626
 20
18.14033307964647
 10
635.1939859032613
 20
18.14033307964647
 10
635.1939859032613
 20
18.14033307964647
 97
        0
 72
     4
 94
        3
 73
     0
 74
     0
 95
        8
 96
        4
 40
2.0
 40
2.0
 40
2.0
 40
2.0
 40
3.0
 40
3.0
 40
3.0
 40
3.0
 10
635.1939859032613
 20
18.14033307964647
 10
635.1939859032613
 20
18.14033307964647
 10
637.3821255783812
 20
21.52606513671701
 10
637.3821255783812
 20
21.52606513671701
 97
        0
 97
       13
330
1DC97
330
1DC95
330
1DC94
330
1DC93
330
1DC92
330
1DC91
330
1DC90
330
1DC8F
330
1DC8E
330
1DC8D
330
1DC8C
330
1DC8B
330
1DC8A
 75
     1
 76
     1
 47
0.0269459378258844
 98
        1
 10
637.4764502074318
 20
19.91468942989974
450
        0
451
        0
460
0.0
461
0.0
452
        0
462
1.0
453
        2
463
0.0
 63
     5
421
      255
463
1.0
 63
     2
421
 16776960
470
LINEAR
1001
GRADIENTCOLOR1ACI
1070
     5
1001
GRADIENTCOLOR2ACI
1070
     2
1001
ACAD
1010
0.0
1020
0.0
1030
0.0
  0
SPLINE
  5
1DC8A
102
{ACAD_REACTORS
330
1DC89
102
}
330
2
100
AcDbEntity
  8
Layer 1
100
AcDbSpline
210
0.0
220
0.0
230
1.0
 70
    24
 71
     3
 72
     8
 73
     4
 74
     0
 42
0.000000001
 43
0.0000000001
 40
0.0
 40
0.0
 40
0.0
 40
0.0
 40
1.0
 40
1.0
 40
1.0
 40
1.0
 10
638.2690069441345
 20
18.14033307964647
 30
0.0
 10
638.2690069441345
 20
18.14033307964647
 30
0.0
 10
636.6427853458384
 20
18.14033307964647
 30
0.0
 10
636.6427853458384
 20
18.14033307964647
 30
0.0
  0
SPLINE
  5
1DC8B
102
{ACAD_REACTORS
330
1DC89
102
}
330
2
100
AcDbEntity
  8
Layer 1
100
AcDbSpline
210
0.0
220
0.0
230
1.0
 70
    24
 71
     3
 72
     8
 73
     4
 74
     0
 42
0.000000001
 43
0.0000000001
 40
1.0
 40
1.0
 40
1.0
 40
1.0
 40
2.0
 40
2.0
 40
2.0
 40
2.0
 10
636.6427853458384
 20
18.14033307964647
 30
0.0
 10
636.6427853458384
 20
18.14033307964647
 30
0.0
 10
637.3821255783812
 20
21.52606513671701
 30
0.0
 10
637.3821255783812
 20
21.52606513671701
 30
0.0
  0
SPLINE
  5
1DC8C
102
{ACAD_REACTORS
330
1DC89
102
}
330
2
100
AcDbEntity
  8
Layer 1
100
AcDbSpline
210
0.0
220
0.0
230
1.0
 70
    24
 71
     3
 72
     8
 73
     4
 74
     0
 42
0.000000001
 43
0.0000000001
 40
2.0
 40
2.0
 40
2.0
 40
2.0
 40
3.0
 40
3.0
 40
3.0
 40
3.0
 10
637.3821255783812
 20
21.52606513671701
 30
0.0
 10
637.3821255783812
 20
21.52606513671701
 30
0.0
 10
635.1939859032613
 20
18.14033307964647
 30
0.0
 10
635.1939859032613
 20
18.14033307964647
 30
0.0
  0
SPLINE
  5
1DC8D
102
{ACAD_REACTORS
330
1DC89
102
}
330
2
100
AcDbEntity
  8
Layer 1
100
AcDbSpline
210
0.0
220
0.0
230
1.0
 70
    24
 71
     3
 72
     8
 73
     4
 74
     0
 42
0.000000001
 43
0.0000000001
 40
3.0
 40
3.0
 40
3.0
 40
3.0
 40
4.0
 40
4.0
 40
4.0
 40
4.0
 10
635.1939859032613
 20
18.14033307964647
 30
0.0
 10
635.1939859032613
 20
18.14033307964647
 30
0.0
 10
634.6764599255626
 20
18.14033307964647
 30
0.0
 10
634.6764599255626
 20
18.14033307964647
 30
0.0
  0
SPLINE
  5
1DC8E
102
{ACAD_REACTORS
330
1DC89
102
}
330
2
100
AcDbEntity
  8
Layer 1
100
AcDbSpline
210
0.0
220
0.0
230
1.0
 70
    24
 71
     3
 72
     8
 73
     4
 74
     0
 42
0.000000001
 43
0.0000000001
 40
4.0
 40
4.0
 40
4.0
 40
4.0
 40
5.0
 40
5.0
 40
5.0
 40
5.0
 10
634.6764599255626
 20
18.14033307964647
 30
0.0
 10
634.6764599255626
 20
18.14033307964647
 30
0.0
 10
634.284680136866
 20
21.59987871822994
 30
0.0
 10
634.284680136866
 20
21.59987871822994
 30
0.0
  0
SPLINE
  5
1DC8F
102
{ACAD_REACTORS
330
1DC89
102
}
330
2
100
AcDbEntity
  8
Layer 1
100
AcDbSpline
210
0.0
220
0.0
230
1.0
 70
    24
 71
     3
 72
     8
 73
     4
 74
     0
 42
0.000000001
 43
0.0000000001
 40
5.0
 40
5.0
 40
5.0
 40
5.0
 40
6.0
 40
6.0
 40
6.0
 40
6.0
 10
634.284680136866
 20
21.59987871822994
 30
0.0
 10
634.284680136866
 20
21.59987871822994
 30
0.0
 10
633.2126625815423
 20
18.14033307964647
 30
0.0
 10
633.2126625815423
 20
18.14033307964647
 30
0.0
  0
SPLINE
  5
1DC90
102
{ACAD_REACTORS
330
1DC89
102
}
330
2
100
AcDbEntity
  8
Layer 1
100
AcDbSpline
210
0.0
220
0.0
230
1.0
 70
    24
 71
     3
 72
     8
 73
     4
 74
     0
 42
0.000000001
 43
0.0000000001
 40
6.0
 40
6.0
 40
6.0
 40
6.0
 40
7.0
 40
7.0
 40
7.0
 40
7.0
 10
633.2126625815423
 20
18.14033307964647
 30
0.0
 10
633.2126625815423
 20
18.14033307964647
 30
0.0
 10
631.6234050870652
 20
18.14033307964647
 30
0.0
 10
631.6234050870652
 20
18.14033307964647
 30
0.0
  0
SPLINE
  5
1DC91
102
{ACAD_REACTORS
330
1DC89
102
}
330
2
100
AcDbEntity
  8
Layer 1
100
AcDbSpline
210
0.0
220
0.0
230
1.0
 70
    24
 71
     3
 72
     8
 73
     4
 74
     0
 42
0.000000001
 43
0.0000000001
 40
7.0
 40
7.0
 40
7.0
 40
7.0
 40
8.0
 40
8.0
 40
8.0
 40
8.0
 10
631.6234050870652
 20
18.14033307964647
 30
0.0
 10
631.6234050870652
 20
18.14033307964647
 30
0.0
 10
633.5230868395306
 20
23.35924900773321
 30
0.0
 10
633.5230868395306
 20
23.35924900773321
 30
0.0
  0
SPLINE
  5
1DC92
102
{ACAD_REACTORS
330
1DC89
102
}
330
2
100
AcDbEntity
  8
Layer 1
100
AcDbSpline
210
0.0
220
0.0
230
1.0
 70
    24
 71
     3
 72
     8
 73
     4
 74
     0
 42
0.000000001
 43
0.0000000001
 40
8.0
 40
8.0
 40
8.0
 40
8.0
 40
9.0
 40
9.0
 40
9.0
 40
9.0
 10
633.5230868395306
 20
23.35924900773321
 30
0.0
 10
633.5230868395306
 20
23.35924900773321
 30
0.0
 10
635.2458052574887
 20
23.35924900773321
 30
0.0
 10
635.2458052574887
 20
23.35924900773321
 30
0.0
  0
SPLINE
  5
1DC93
102
{ACAD_REACTORS
330
1DC89
102
}
330
2
100
AcDbEntity
  8
Layer 1
100
AcDbSpline
210
0.0
220
0.0
230
1.0
 70
    24
 71
     3
 72
     8
 73
     4
 74
     0
 42
0.000000001
 43
0.0000000001
 40
9.0
 40
9.0
 40
9.0
 40
9.0
 40
10.0
 40
10.0
 40
10.0
 40
10.0
 10
635.2458052574887
 20
23.35924900773321
 30
0.0
 10
635.2458052574887
 20
23.35924900773321
 30
0.0
 10
635.5633692534816
 20
20.49118381207179
 30
0.0
 10
635.5633692534816
 20
20.49118381207179
 30
0.0
  0
SPLINE
  5
1DC94
102
{ACAD_REACTORS
330
1DC89
102
}
330
2
100
AcDbEntity
  8
Layer 1
100
AcDbSpline
210
0.0
220
0.0
230
1.0
 70
    24
 71
     3
 72
     8
 73
     4
 74
     0
 42
0.000000001
 43
0.0000000001
 40
10.0
 40
10.0
 40
10.0
 40
10.0
 40
11.0
 40
11.0
 40
11.0
 40
11.0
 10
635.5633692534816
 20
20.49118381207179
 30
0.0
 10
635.5633692534816
 20
20.49118381207179
 30
0.0
 10
637.3671277139168
 20
23.35924900773321
 30
0.0
 10
637.3671277139168
 20
23.35924900773321
 30
0.0
  0
SPLINE
  5
1DC95
102
{ACAD_REACTORS
330
1DC89
102
}
330
2
100
AcDbEntity
  8
Layer 1
100
AcDbSpline
210
0.0
220
0.0
230
1.0
 70
    24
 71
     3
 72
     8
 73
     4
 74
     0
 42
0.000000001
 43
0.0000000001
 40
11.0
 40
11.0
 40
11.0
 40
11.0
 40
12.0
 40
12.0
 40
12.0
 40
12.0
 10
637.3671277139168
 20
23.35924900773321
 30
0.0
 10
637.3671277139168
 20
23.35924900773321
 30
0.0
 10
639.1193829916026
 20
23.35924900773321
 30
0.0
 10
639.1193829916026
 20
23.35924900773321
 30
0.0
  0
SPLINE
  5
1DC96
102
{ACAD_REACTORS
330
1DC9C
102
}
330
2
100
AcDbEntity
  8
Layer 1
100
AcDbSpline
210
0.0
220
0.0
230
1.0
 70
     8
 71
     3
 72
     8
 73
     4
 74
     0
 42
0.000000001
 43
0.0000000001
 40
12.0
 40
12.0
 40
12.0
 40
12.0
 40
13.0
 40
13.0
 40
13.0
 40
13.0
 10
648.3269820617197
 20
20.28898506955143
 30
0.0
 10
648.5595493290349
 20
20.3597015777142
 30
0.0
 10
648.7903099702293
 20
20.46359691797107
 30
0.0
 10
648.994458721896
 20
20.61956897307928
 30
0.0
  0
SPLINE
  5
1DC97
102
{ACAD_REACTORS
330
1DC89
102
}
330
2
100
AcDbEntity
  8
Layer 1
100
AcDbSpline
210
0.0
220
0.0
230
1.0
 70
    24
 71
     3
 72
     8
 73
     4
 74
     0
 42
0.000000001
 43
0.0000000001
 40
12.0
 40
12.0
 40
12.0
 40
12.0
 40
13.0
 40
13.0
 40
13.0
 40
13.0
 10
639.1193829916026
 20
23.35924900773321
 30
0.0
 10
639.1193829916026
 20
23.35924900773321
 30
0.0
 10
638.2690069441345
 20
18.14033307964647
 30
0.0
 10
638.2690069441345
 20
18.14033307964647
 30
0.0
  0
HATCH
  5
1DC98
330
2
100
AcDbEntity
  8
0
  6
Continuous
 62
     0
100
AcDbHatch
 10
0.0
 20
0.0
 30
0.0
210
0.0
220
0.0
230
1.0
  2
SOLID
 70
     1
 71
     0
 91
        1
 92
        5
 93
        2
 72
     4
 94
        3
 73
     0
 74
     0
 95
       35
 96
       31
 40
0.9999994039535522
 40
0.9999994039535522
 40
0.9999994039535522
 40
0.9999994039535522
 40
1.999998807907104
 40
1.999998807907104
 40
1.999998807907104
 40
2.999998807907104
 40
2.999998807907104
 40
2.999998807907104
 40
3.999998807907104
 40
3.999998807907104
 40
3.999998807907104
 40
4.999998807907104
 40
4.999998807907104
 40
4.999998807907104
 40
5.999998807907104
 40
5.999998807907104
 40
5.999998807907104
 40
6.999998807907104
 40
6.999998807907104
 40
6.999998807907104
 40
7.999998807907104
 40
7.999998807907104
 40
7.999998807907104
 40
8.999998807907104
 40
8.999998807907104
 40
8.999998807907104
 40
9.999998807907104
 40
9.999998807907104
 40
9.999998807907104
 40
9.999999403953552
 40
9.999999403953552
 40
9.999999403953552
 40
9.999999403953552
 10
642.2088283648382
 20
21.5998787182283
 10
642.2088284442845
 20
21.5998768939385
 10
642.2754727950777
 20
20.06955168736945
 10
642.2754727950777
 20
20.06955168736945
 10
642.2754727950777
 20
20.06955168736945
 10
641.7523541649461
 20
20.06955168736945
 10
641.7523541649461
 20
20.06955168736945
 10
641.7523541649461
 20
20.06955168736945
 10
641.1856757716765
 20
18.98313850336968
 10
641.1856757716765
 20
18.98313850336968
 10
641.1856757716765
 20
18.98313850336968
 10
642.3271480374576
 20
18.98313850336968
 10
642.3271480374576
 20
18.98313850336968
 10
642.3271480374576
 20
18.98313850336968
 10
642.378966662863
 20
18.14033307964647
 10
642.378966662863
 20
18.14033307964647
 10
642.378966662863
 20
18.14033307964647
 10
643.9536564018045
 20
18.14033307964647
 10
643.9536564018045
 20
18.14033307964647
 10
643.9536564018045
 20
18.14033307964647
 10
643.5617341788798
 20
23.36652965167302
 10
643.5617341788798
 20
23.36652965167302
 10
643.5617341788798
 20
23.36652965167302
 10
641.8170494808646
 20
23.36652965167302
 10
641.8170494808646
 20
23.36652965167302
 10
641.8170494808646
 20
23.36652965167302
 10
638.431431235389
 20
18.14033307964647
 10
638.431431235389
 20
18.14033307964647
 10
638.431431235389
 20
18.14033307964647
 10
638.4314312353896
 20
18.14033307964647
 10
638.4314312353908
 20
18.14033307964647
 97
        0
 72
     4
 94
        3
 73
     0
 74
     0
 95
       17
 96
       13
 40
9.999999403953552
 40
9.999999403953552
 40
9.999999403953552
 40
9.999999403953552
 40
10.9999988079071
 40
10.9999988079071
 40
10.9999988079071
 40
11.9999988079071
 40
11.9999988079071
 40
11.9999988079071
 40
12.9999988079071
 40
12.9999988079071
 40
12.9999988079071
 40
12.99999940395355
 40
12.99999940395355
 40
12.99999940395355
 40
12.99999940395355
 10
638.4314312353908
 20
18.14033307964647
 10
638.4314332533052
 20
18.14033307964647
 10
640.1241825575039
 20
18.14033307964647
 10
640.1241825575039
 20
18.14033307964647
 10
640.1241825575039
 20
18.14033307964647
 10
640.1325856550689
 20
18.15209048773523
 10
640.1325856550689
 20
18.15209048773523
 10
640.1325856550689
 20
18.15209048773523
 10
642.2088283648382
 20
21.59987871822993
 10
642.2088283648382
 20
21.59987871822993
 10
642.2088283648382
 20
21.59987871822993
 10
642.2088283648382
 20
21.59987871822939
 10
642.2088283648382
 20
21.5998787182283
 97
        0
 97
        0
 75
     1
 76
     1
 47
0.0269459378258844
 98
        1
 10
643.3053045189953
 20
20.29797084004375
450
        0
451
        0
460
0.0
461
0.0
452
        0
462
1.0
453
        2
463
0.0
 63
     5
421
      255
463
1.0
 63
     2
421
 16776960
470
LINEAR
1001
GRADIENTCOLOR1ACI
1070
     5
1001
GRADIENTCOLOR2ACI
1070
     2
1001
ACAD
1010
0.0
1020
0.0
1030
0.0
  0
SPLINE
  5
1DC99
330
2
100
AcDbEntity
  8
Layer 1
100
AcDbSpline
210
0.0
220
0.0
230
1.0
 70
    11
 71
     3
 72
    41
 73
    37
 74
     0
 42
0.000000001
 43
0.0000000001
 40
0.0
 40
0.0
 40
0.0
 40
0.0
 40
1.0
 40
1.0
 40
1.0
 40
2.0
 40
2.0
 40
2.0
 40
3.0
 40
3.0
 40
3.0
 40
4.0
 40
4.0
 40
4.0
 40
5.0
 40
5.0
 40
5.0
 40
6.0
 40
6.0
 40
6.0
 40
7.0
 40
7.0
 40
7.0
 40
8.0
 40
8.0
 40
8.0
 40
9.0
 40
9.0
 40
9.0
 40
10.0
 40
10.0
 40
10.0
 40
11.0
 40
11.0
 40
11.0
 40
12.0
 40
12.0
 40
12.0
 40
12.0
 10
640.1241825575039
 20
18.14033307964647
 30
0.0
 10
640.1241825575039
 20
18.14033307964647
 30
0.0
 10
638.431431235389
 20
18.14033307964647
 30
0.0
 10
638.431431235389
 20
18.14033307964647
 30
0.0
 10
638.431431235389
 20
18.14033307964647
 30
0.0
 10
641.8170494808646
 20
23.36652965167302
 30
0.0
 10
641.8170494808646
 20
23.36652965167302
 30
0.0
 10
641.8170494808646
 20
23.36652965167302
 30
0.0
 10
643.5617341788798
 20
23.36652965167302
 30
0.0
 10
643.5617341788798
 20
23.36652965167302
 30
0.0
 10
643.5617341788798
 20
23.36652965167302
 30
0.0
 10
643.9536564018045
 20
18.14033307964647
 30
0.0
 10
643.9536564018045
 20
18.14033307964647
 30
0.0
 10
643.9536564018045
 20
18.14033307964647
 30
0.0
 10
642.378966662863
 20
18.14033307964647
 30
0.0
 10
642.378966662863
 20
18.14033307964647
 30
0.0
 10
642.378966662863
 20
18.14033307964647
 30
0.0
 10
642.3271480374576
 20
18.98313850336968
 30
0.0
 10
642.3271480374576
 20
18.98313850336968
 30
0.0
 10
642.3271480374576
 20
18.98313850336968
 30
0.0
 10
641.1856757716765
 20
18.98313850336968
 30
0.0
 10
641.1856757716765
 20
18.98313850336968
 30
0.0
 10
641.1856757716765
 20
18.98313850336968
 30
0.0
 10
641.7523541649461
 20
20.06955168736946
 30
0.0
 10
641.7523541649461
 20
20.06955168736946
 30
0.0
 10
641.7523541649461
 20
20.06955168736946
 30
0.0
 10
642.2754727950777
 20
20.06955168736946
 30
0.0
 10
642.2754727950777
 20
20.06955168736946
 30
0.0
 10
642.2754727950777
 20
20.06955168736946
 30
0.0
 10
642.2088283648382
 20
21.59987871822994
 30
0.0
 10
642.2088283648382
 20
21.59987871822994
 30
0.0
 10
642.2088283648382
 20
21.59987871822994
 30
0.0
 10
640.1325856550689
 20
18.15209048773523
 30
0.0
 10
640.1325856550689
 20
18.15209048773523
 30
0.0
 10
640.1325856550689
 20
18.15209048773523
 30
0.0
 10
640.1241825575039
 20
18.14033307964647
 30
0.0
 10
640.1241825575039
 20
18.14033307964647
 30
0.0
  0
HATCH
  5
1DC9A
330
2
100
AcDbEntity
  8
0
  6
Continuous
 62
     0
100
AcDbHatch
 10
0.0
 20
0.0
 30
0.0
210
0.0
220
0.0
230
1.0
  2
SOLID
 70
     1
 71
     1
 91
        1
 92
        5
 93
        1
 72
     4
 94
        3
 73
     0
 74
     0
 95
       17
 96
       13
 40
0.0
 40
0.0
 40
0.0
 40
0.0
 40
1.0
 40
1.0
 40
1.0
 40
2.0
 40
2.0
 40
2.0
 40
3.0
 40
3.0
 40
3.0
 40
4.0
 40
4.0
 40
4.0
 40
4.0
 10
651.1607479548014
 20
18.14033307964647
 10
651.1607479548014
 20
18.14033307964647
 10
649.5492363240515
 20
18.14033307964647
 10
649.5492363240515
 20
18.14033307964647
 10
649.5492363240515
 20
18.14033307964647
 10
650.9465039072741
 20
23.35924900773321
 10
650.9465039072741
 20
23.35924900773321
 10
650.9465039072741
 20
23.35924900773321
 10
652.5578997007361
 20
23.35924900773321
 10
652.5578997007361
 20
23.35924900773321
 10
652.5578997007361
 20
23.35924900773321
 10
651.1607479548014
 20
18.14033307964647
 10
651.1607479548014
 20
18.14033307964647
 97
        0
 97
        1
330
1DC9B
 75
     1
 76
     1
 47
0.0269459378258844
 98
        1
 10
650.4907208399012
 20
19.56596795017491
450
        0
451
        0
460
0.0
461
0.0
452
        0
462
1.0
453
        2
463
0.0
 63
     5
421
      255
463
1.0
 63
     2
421
 16776960
470
LINEAR
1001
GRADIENTCOLOR1ACI
1070
     5
1001
GRADIENTCOLOR2ACI
1070
     2
1001
ACAD
1010
0.0
1020
0.0
1030
0.0
  0
SPLINE
  5
1DC9B
102
{ACAD_REACTORS
330
1DC9A
102
}
330
2
100
AcDbEntity
  8
Layer 1
100
AcDbSpline
210
0.0
220
0.0
230
1.0
 70
    11
 71
     3
 72
    17
 73
    13
 74
     0
 42
0.000000001
 43
0.0000000001
 40
0.0
 40
0.0
 40
0.0
 40
0.0
 40
1.0
 40
1.0
 40
1.0
 40
2.0
 40
2.0
 40
2.0
 40
3.0
 40
3.0
 40
3.0
 40
4.0
 40
4.0
 40
4.0
 40
4.0
 10
651.1607479548014
 20
18.14033307964647
 30
0.0
 10
651.1607479548014
 20
18.14033307964647
 30
0.0
 10
649.5492363240515
 20
18.14033307964647
 30
0.0
 10
649.5492363240515
 20
18.14033307964647
 30
0.0
 10
649.5492363240515
 20
18.14033307964647
 30
0.0
 10
650.9465039072741
 20
23.35924900773321
 30
0.0
 10
650.9465039072741
 20
23.35924900773321
 30
0.0
 10
650.9465039072741
 20
23.35924900773321
 30
0.0
 10
652.5578997007361
 20
23.35924900773321
 30
0.0
 10
652.5578997007361
 20
23.35924900773321
 30
0.0
 10
652.5578997007361
 20
23.35924900773321
 30
0.0
 10
651.1607479548014
 20
18.14033307964647
 30
0.0
 10
651.1607479548014
 20
18.14033307964647
 30
0.0
  0
HATCH
  5
1DC9C
330
2
100
AcDbEntity
  8
0
  6
Continuous
 62
     0
100
AcDbHatch
 10
0.0
 20
0.0
 30
0.0
210
0.0
220
0.0
230
1.0
  2
SOLID
 70
     1
 71
     1
 91
        1
 92
        5
 93
       14
 72
     4
 94
        3
 73
     0
 74
     0
 95
        8
 96
        4
 40
12.0
 40
12.0
 40
12.0
 40
12.0
 40
13.0
 40
13.0
 40
13.0
 40
13.0
 10
648.3269820617197
 20
20.28898506955143
 10
648.5595493290349
 20
20.3597015777142
 10
648.7903099702293
 20
20.46359691797107
 10
648.994458721896
 20
20.61956897307928
 97
        0
 72
     4
 94
        3
 73
     0
 74
     0
 95
        8
 96
        4
 40
13.0
 40
13.0
 40
13.0
 40
13.0
 40
14.0
 40
14.0
 40
14.0
 40
14.0
 10
648.994458721896
 20
20.61956897307928
 10
649.44548436682
 20
20.96710075021776
 10
649.6821237120587
 20
21.46251777982798
 10
649.6821237120587
 20
21.95019212606263
 97
        0
 72
     4
 94
        3
 73
     0
 74
     0
 95
        8
 96
        4
 40
0.0
 40
0.0
 40
0.0
 40
0.0
 40
1.0
 40
1.0
 40
1.0
 40
1.0
 10
649.6821237120587
 20
21.95019212606263
 10
649.6821237120587
 20
22.99981322572632
 10
648.7581061427081
 20
23.36948334199769
 10
647.9524092957952
 20
23.36948334199769
 97
        0
 72
     4
 94
        3
 73
     0
 74
     0
 95
        8
 96
        4
 40
1.0
 40
1.0
 40
1.0
 40
1.0
 40
2.0
 40
2.0
 40
2.0
 40
2.0
 10
647.9524092957952
 20
23.36948334199769
 10
647.9524092957952
 20
23.36948334199769
 10
645.6459498897896
 20
23.36948334199769
 10
645.6459498897896
 20
23.36948334199769
 97
        0
 72
     4
 94
        3
 73
     0
 74
     0
 95
        8
 96
        4
 40
2.0
 40
2.0
 40
2.0
 40
2.0
 40
3.0
 40
3.0
 40
3.0
 40
3.0
 10
645.6459498897896
 20
23.36948334199769
 10
645.6459498897896
 20
23.36948334199769
 10
644.2413974573213
 20
18.15043032680785
 10
644.2413974573213
 20
18.15043032680785
 97
        0
 72
     4
 94
        3
 73
     0
 74
     0
 95
        8
 96
        4
 40
3.0
 40
3.0
 40
3.0
 40
3.0
 40
4.0
 40
4.0
 40
4.0
 40
4.0
 10
644.2413974573213
 20
18.15043032680785
 10
644.2413974573213
 20
18.15043032680785
 10
645.8975861079409
 20
18.15043032680785
 10
645.8975861079409
 20
18.15043032680785
 97
        0
 72
     4
 94
        3
 73
     0
 74
     0
 95
        8
 96
        4
 40
4.0
 40
4.0
 40
4.0
 40
4.0
 40
5.0
 40
5.0
 40
5.0
 40
5.0
 10
645.8975861079409
 20
18.15043032680785
 10
645.8975861079409
 20
18.15043032680785
 10
646.9838845855203
 20
22.2013991866892
 10
646.9838845855203
 20
22.2013991866892
 97
        0
 72
     4
 94
        3
 73
     0
 74
     0
 95
        8
 96
        4
 40
5.0
 40
5.0
 40
5.0
 40
5.0
 40
6.0
 40
6.0
 40
6.0
 40
6.0
 10
646.9838845855203
 20
22.2013991866892
 10
646.9838845855203
 20
22.2013991866892
 10
647.4718456978059
 20
22.2013991866892
 10
647.4718456978059
 20
22.2013991866892
 97
        0
 72
     4
 94
        3
 73
     0
 74
     0
 95
        8
 96
        4
 40
6.0
 40
6.0
 40
6.0
 40
6.0
 40
7.0
 40
7.0
 40
7.0
 40
7.0
 10
647.4718456978059
 20
22.2013991866892
 10
647.7600169023991
 20
22.2013991866892
 10
648.0559021137628
 20
22.13489813947534
 10
648.0559021137628
 20
21.78022588766832
 97
        0
 72
     4
 94
        3
 73
     0
 74
     0
 95
        8
 96
        4
 40
7.0
 40
7.0
 40
7.0
 40
7.0
 40
8.0
 40
8.0
 40
8.0
 40
8.0
 10
648.0559021137628
 20
21.78022588766832
 10
648.0559021137628
 20
21.58812131014126
 10
647.9081602443166
 20
21.27741029394382
 10
647.4201991320311
 20
21.29237948180305
 97
        0
 72
     4
 94
        3
 73
     0
 74
     0
 95
        8
 96
        4
 40
8.0
 40
8.0
 40
8.0
 40
8.0
 40
9.0
 40
9.0
 40
9.0
 40
9.0
 10
647.4201991320311
 20
21.29237948180305
 10
647.4201991320311
 20
21.29237948180305
 10
647.1076528131076
 20
20.14826896835351
 10
647.1076528131076
 20
20.14826896835351
 97
        0
 72
     4
 94
        3
 73
     0
 74
     0
 95
        8
 96
        4
 40
9.0
 40
9.0
 40
9.0
 40
9.0
 40
10.0
 40
10.0
 40
10.0
 40
10.0
 10
647.1076528131076
 20
20.14826896835351
 10
647.1076528131076
 20
20.14826896835351
 10
647.7045850247516
 20
18.07004672056011
 10
647.7045850247516
 20
18.07004672056011
 97
        0
 72
     4
 94
        3
 73
     0
 74
     0
 95
        8
 96
        4
 40
10.0
 40
10.0
 40
10.0
 40
10.0
 40
11.0
 40
11.0
 40
11.0
 40
11.0
 10
647.7045850247516
 20
18.07004672056011
 10
647.7045850247516
 20
18.07004672056011
 10
649.0702233906118
 20
18.07004672056011
 10
649.0702233906118
 20
18.07004672056011
 97
        0
 72
     4
 94
        3
 73
     0
 74
     0
 95
        8
 96
        4
 40
11.0
 40
11.0
 40
11.0
 40
11.0
 40
12.0
 40
12.0
 40
12.0
 40
12.0
 10
649.0702233906118
 20
18.07004672056011
 10
649.0702233906118
 20
18.07004672056011
 10
648.3269820617197
 20
20.28898506955143
 10
648.3269820617197
 20
20.28898506955143
 97
        0
 97
       13
330
1DCA7
330
1DC96
330
1DCA8
330
1DC9D
330
1DC9E
330
1DC9F
330
1DCA0
330
1DCA1
330
1DCA2
330
1DCA3
330
1DCA4
330
1DCA5
330
1DCA6
 75
     1
 76
     1
 47
0.0269459378258844
 98
        1
 10
647.9618737830405
 20
20.01911238050062
450
        0
451
        0
460
0.0
461
0.0
452
        0
462
1.0
453
        2
463
0.0
 63
     5
421
      255
463
1.0
 63
     2
421
 16776960
470
LINEAR
1001
GRADIENTCOLOR1ACI
1070
     5
1001
GRADIENTCOLOR2ACI
1070
     2
1001
ACAD
1010
0.0
1020
0.0
1030
0.0
  0
SPLINE
  5
1DC9D
102
{ACAD_REACTORS
330
1DC9C
102
}
330
2
100
AcDbEntity
  8
Layer 1
100
AcDbSpline
210
0.0
220
0.0
230
1.0
 70
     8
 71
     3
 72
     8
 73
     4
 74
     0
 42
0.000000001
 43
0.0000000001
 40
0.0
 40
0.0
 40
0.0
 40
0.0
 40
1.0
 40
1.0
 40
1.0
 40
1.0
 10
649.6821237120587
 20
21.95019212606263
 30
0.0
 10
649.6821237120587
 20
22.99981322572632
 30
0.0
 10
648.7581061427081
 20
23.36948334199769
 30
0.0
 10
647.9524092957952
 20
23.36948334199769
 30
0.0
  0
SPLINE
  5
1DC9E
102
{ACAD_REACTORS
330
1DC9C
102
}
330
2
100
AcDbEntity
  8
Layer 1
100
AcDbSpline
210
0.0
220
0.0
230
1.0
 70
    24
 71
     3
 72
     8
 73
     4
 74
     0
 42
0.000000001
 43
0.0000000001
 40
1.0
 40
1.0
 40
1.0
 40
1.0
 40
2.0
 40
2.0
 40
2.0
 40
2.0
 10
647.9524092957952
 20
23.36948334199769
 30
0.0
 10
647.9524092957952
 20
23.36948334199769
 30
0.0
 10
645.6459498897896
 20
23.36948334199769
 30
0.0
 10
645.6459498897896
 20
23.36948334199769
 30
0.0
  0
SPLINE
  5
1DC9F
102
{ACAD_REACTORS
330
1DC9C
102
}
330
2
100
AcDbEntity
  8
Layer 1
100
AcDbSpline
210
0.0
220
0.0
230
1.0
 70
    24
 71
     3
 72
     8
 73
     4
 74
     0
 42
0.000000001
 43
0.0000000001
 40
2.0
 40
2.0
 40
2.0
 40
2.0
 40
3.0
 40
3.0
 40
3.0
 40
3.0
 10
645.6459498897896
 20
23.36948334199769
 30
0.0
 10
645.6459498897896
 20
23.36948334199769
 30
0.0
 10
644.2413974573213
 20
18.15043032680785
 30
0.0
 10
644.2413974573213
 20
18.15043032680785
 30
0.0
  0
SPLINE
  5
1DCA0
102
{ACAD_REACTORS
330
1DC9C
102
}
330
2
100
AcDbEntity
  8
Layer 1
100
AcDbSpline
210
0.0
220
0.0
230
1.0
 70
    24
 71
     3
 72
     8
 73
     4
 74
     0
 42
0.000000001
 43
0.0000000001
 40
3.0
 40
3.0
 40
3.0
 40
3.0
 40
4.0
 40
4.0
 40
4.0
 40
4.0
 10
644.2413974573213
 20
18.15043032680785
 30
0.0
 10
644.2413974573213
 20
18.15043032680785
 30
0.0
 10
645.8975861079409
 20
18.15043032680785
 30
0.0
 10
645.8975861079409
 20
18.15043032680785
 30
0.0
  0
SPLINE
  5
1DCA1
102
{ACAD_REACTORS
330
1DC9C
102
}
330
2
100
AcDbEntity
  8
Layer 1
100
AcDbSpline
210
0.0
220
0.0
230
1.0
 70
    24
 71
     3
 72
     8
 73
     4
 74
     0
 42
0.000000001
 43
0.0000000001
 40
4.0
 40
4.0
 40
4.0
 40
4.0
 40
5.0
 40
5.0
 40
5.0
 40
5.0
 10
645.8975861079409
 20
18.15043032680785
 30
0.0
 10
645.8975861079409
 20
18.15043032680785
 30
0.0
 10
646.9838845855203
 20
22.2013991866892
 30
0.0
 10
646.9838845855203
 20
22.2013991866892
 30
0.0
  0
SPLINE
  5
1DCA2
102
{ACAD_REACTORS
330
1DC9C
102
}
330
2
100
AcDbEntity
  8
Layer 1
100
AcDbSpline
210
0.0
220
0.0
230
1.0
 70
    24
 71
     3
 72
     8
 73
     4
 74
     0
 42
0.000000001
 43
0.0000000001
 40
5.0
 40
5.0
 40
5.0
 40
5.0
 40
6.0
 40
6.0
 40
6.0
 40
6.0
 10
646.9838845855203
 20
22.2013991866892
 30
0.0
 10
646.9838845855203
 20
22.2013991866892
 30
0.0
 10
647.4718456978059
 20
22.2013991866892
 30
0.0
 10
647.4718456978059
 20
22.2013991866892
 30
0.0
  0
SPLINE
  5
1DCA3
102
{ACAD_REACTORS
330
1DC9C
102
}
330
2
100
AcDbEntity
  8
Layer 1
100
AcDbSpline
210
0.0
220
0.0
230
1.0
 70
     8
 71
     3
 72
    11
 73
     7
 74
     0
 42
0.000000001
 43
0.0000000001
 40
6.0
 40
6.0
 40
6.0
 40
6.0
 40
7.0
 40
7.0
 40
7.0
 40
8.0
 40
8.0
 40
8.0
 40
8.0
 10
647.4718456978059
 20
22.2013991866892
 30
0.0
 10
647.7600169023991
 20
22.2013991866892
 30
0.0
 10
648.0559021137628
 20
22.13489813947534
 30
0.0
 10
648.0559021137628
 20
21.78022588766832
 30
0.0
 10
648.0559021137628
 20
21.58812131014126
 30
0.0
 10
647.9081602443166
 20
21.27741029394382
 30
0.0
 10
647.4201991320311
 20
21.29237948180305
 30
0.0
  0
SPLINE
  5
1DCA4
102
{ACAD_REACTORS
330
1DC9C
102
}
330
2
100
AcDbEntity
  8
Layer 1
100
AcDbSpline
210
0.0
220
0.0
230
1.0
 70
    24
 71
     3
 72
     8
 73
     4
 74
     0
 42
0.000000001
 43
0.0000000001
 40
8.0
 40
8.0
 40
8.0
 40
8.0
 40
9.0
 40
9.0
 40
9.0
 40
9.0
 10
647.4201991320311
 20
21.29237948180305
 30
0.0
 10
647.4201991320311
 20
21.29237948180305
 30
0.0
 10
647.1076528131076
 20
20.14826896835351
 30
0.0
 10
647.1076528131076
 20
20.14826896835351
 30
0.0
  0
SPLINE
  5
1DCA5
102
{ACAD_REACTORS
330
1DC9C
102
}
330
2
100
AcDbEntity
  8
Layer 1
100
AcDbSpline
210
0.0
220
0.0
230
1.0
 70
    24
 71
     3
 72
     8
 73
     4
 74
     0
 42
0.000000001
 43
0.0000000001
 40
9.0
 40
9.0
 40
9.0
 40
9.0
 40
10.0
 40
10.0
 40
10.0
 40
10.0
 10
647.1076528131076
 20
20.14826896835351
 30
0.0
 10
647.1076528131076
 20
20.14826896835351
 30
0.0
 10
647.7045850247516
 20
18.07004672056011
 30
0.0
 10
647.7045850247516
 20
18.07004672056011
 30
0.0
  0
SPLINE
  5
1DCA6
102
{ACAD_REACTORS
330
1DC9C
102
}
330
2
100
AcDbEntity
  8
Layer 1
100
AcDbSpline
210
0.0
220
0.0
230
1.0
 70
    24
 71
     3
 72
     8
 73
     4
 74
     0
 42
0.000000001
 43
0.0000000001
 40
10.0
 40
10.0
 40
10.0
 40
10.0
 40
11.0
 40
11.0
 40
11.0
 40
11.0
 10
647.7045850247516
 20
18.07004672056011
 30
0.0
 10
647.7045850247516
 20
18.07004672056011
 30
0.0
 10
649.0702233906118
 20
18.07004672056011
 30
0.0
 10
649.0702233906118
 20
18.07004672056011
 30
0.0
  0
SPLINE
  5
1DCA7
102
{ACAD_REACTORS
330
1DC9C
102
}
330
2
100
AcDbEntity
  8
Layer 1
100
AcDbSpline
210
0.0
220
0.0
230
1.0
 70
    24
 71
     3
 72
     8
 73
     4
 74
     0
 42
0.000000001
 43
0.0000000001
 40
11.0
 40
11.0
 40
11.0
 40
11.0
 40
12.0
 40
12.0
 40
12.0
 40
12.0
 10
649.0702233906118
 20
18.07004672056011
 30
0.0
 10
649.0702233906118
 20
18.07004672056011
 30
0.0
 10
648.3269820617197
 20
20.28898506955143
 30
0.0
 10
648.3269820617197
 20
20.28898506955143
 30
0.0
  0
SPLINE
  5
1DCA8
102
{ACAD_REACTORS
330
1DC9C
102
}
330
2
100
AcDbEntity
  8
Layer 1
100
AcDbSpline
210
0.0
220
0.0
230
1.0
 70
     8
 71
     3
 72
     8
 73
     4
 74
     0
 42
0.000000001
 43
0.0000000001
 40
13.0
 40
13.0
 40
13.0
 40
13.0
 40
14.0
 40
14.0
 40
14.0
 40
14.0
 10
648.994458721896
 20
20.61956897307928
 30
0.0
 10
649.44548436682
 20
20.96710075021776
 30
0.0
 10
649.6821237120587
 20
21.46251777982798
 30
0.0
 10
649.6821237120587
 20
21.95019212606263
 30
0.0
  0
HATCH
  5
1DCA9
330
2
100
AcDbEntity
  8
0
  6
Continuous
 62
     0
100
AcDbHatch
 10
0.0
 20
0.0
 30
0.0
210
0.0
220
0.0
230
1.0
  2
SOLID
 70
     1
 71
     1
 91
        2
 92
        5
 93
        4
 72
     4
 94
        3
 73
     0
 74
     0
 95
        8
 96
        4
 40
0.0
 40
0.0
 40
0.0
 40
0.0
 40
1.0
 40
1.0
 40
1.0
 40
1.0
 10
656.150734199798
 20
20.25649447597952
 10
656.150734199798
 20
18.90401974991435
 10
657.0769885443458
 20
17.86741782896343
 10
658.6794085604136
 20
17.86741782896343
 97
        0
 72
     4
 94
        3
 73
     0
 74
     0
 95
        8
 96
        4
 40
3.0
 40
3.0
 40
3.0
 40
3.0
 40
4.0
 40
4.0
 40
4.0
 40
4.0
 10
658.6794085604136
 20
17.86741782896343
 10
660.8039435254344
 20
17.86741782896343
 10
661.8992177804082
 20
19.49197618416397
 10
661.8992177804082
 20
20.96219705074672
 97
        0
 72
     4
 94
        3
 73
     0
 74
     0
 95
        8
 96
        4
 40
2.0
 40
2.0
 40
2.0
 40
2.0
 40
3.0
 40
3.0
 40
3.0
 40
3.0
 10
661.8992177804082
 20
20.96219705074672
 10
661.8992177804082
 20
22.27814096836484
 10
660.9731068188859
 20
23.36609950259654
 10
659.3044438450501
 20
23.36609950259654
 97
        0
 72
     4
 94
        3
 73
     0
 74
     0
 95
        8
 96
        4
 40
1.0
 40
1.0
 40
1.0
 40
1.0
 40
2.0
 40
2.0
 40
2.0
 40
2.0
 10
659.3044438450501
 20
23.36609950259654
 10
657.2534070188863
 20
23.36609950259654
 10
656.150734199798
 20
21.73399920025624
 10
656.150734199798
 20
20.25649447597952
 97
        0
 97
        1
330
1DCAA
 92
       20
 93
        4
 72
     4
 94
        3
 73
     0
 74
     0
 95
        8
 96
        4
 40
2.0
 40
2.0
 40
2.0
 40
2.0
 40
3.0
 40
3.0
 40
3.0
 40
3.0
 10
658.7751597448236
 20
19.11714427897553
 10
658.2311932227886
 20
19.11714427897553
 10
657.7605814565853
 20
19.47740846877611
 10
657.7605814565853
 20
20.24192676059167
 97
        0
 72
     4
 94
        3
 73
     0
 74
     0
 95
        8
 96
        4
 40
1.0
 40
1.0
 40
1.0
 40
1.0
 40
2.0
 40
2.0
 40
2.0
 40
2.0
 10
657.7605814565853
 20
20.24192676059167
 10
657.7605814565853
 20
21.03587040429507
 10
658.3121199138915
 20
22.17521744623807
 10
659.3191549434635
 20
22.17521744623807
 97
        0
 72
     4
 94
        3
 73
     0
 74
     0
 95
        8
 96
        4
 40
0.0
 40
0.0
 40
0.0
 40
0.0
 40
1.0
 40
1.0
 40
1.0
 40
1.0
 10
659.3191549434635
 20
22.17521744623807
 10
659.8484390436901
 20
22.17521744623807
 10
660.30422500506
 20
21.81509663946307
 10
660.30422500506
 20
21.05783352873636
 97
        0
 72
     4
 94
        3
 73
     0
 74
     0
 95
        8
 96
        4
 40
3.0
 40
3.0
 40
3.0
 40
3.0
 40
4.0
 40
4.0
 40
4.0
 40
4.0
 10
660.30422500506
 20
21.05783352873636
 10
660.30422500506
 20
20.30074247764019
 10
659.8632935251291
 20
19.11714427897553
 10
658.7751597448236
 20
19.11714427897553
 97
        0
 97
        1
330
1DCAB
 75
     1
 76
     1
 47
0.0269459378258844
 98
        2
 10
657.2575676625945
 20
19.4613969719002
 10
657.2575676625945
 20
19.4613969719002
450
        0
451
        0
460
0.0
461
0.0
452
        0
462
1.0
453
        2
463
0.0
 63
     5
421
      255
463
1.0
 63
     2
421
 16776960
470
LINEAR
1001
GRADIENTCOLOR1ACI
1070
     5
1001
GRADIENTCOLOR2ACI
1070
     2
1001
ACAD
1010
0.0
1020
0.0
1030
0.0
  0
SPLINE
  5
1DCAA
102
{ACAD_REACTORS
330
1DCA9
102
}
330
2
100
AcDbEntity
  8
Layer 1
100
AcDbSpline
210
0.0
220
0.0
230
1.0
 70
     9
 71
     3
 72
    17
 73
    13
 74
     0
 42
0.000000001
 43
0.0000000001
 40
0.0
 40
0.0
 40
0.0
 40
0.0
 40
1.0
 40
1.0
 40
1.0
 40
2.0
 40
2.0
 40
2.0
 40
3.0
 40
3.0
 40
3.0
 40
4.0
 40
4.0
 40
4.0
 40
4.0
 10
658.6794085604136
 20
17.86741782896343
 30
0.0
 10
657.0769885443458
 20
17.86741782896343
 30
0.0
 10
656.150734199798
 20
18.90401974991435
 30
0.0
 10
656.150734199798
 20
20.25649447597952
 30
0.0
 10
656.150734199798
 20
21.73399920025624
 30
0.0
 10
657.2534070188863
 20
23.36609950259654
 30
0.0
 10
659.3044438450501
 20
23.36609950259654
 30
0.0
 10
660.9731068188859
 20
23.36609950259654
 30
0.0
 10
661.8992177804082
 20
22.27814096836484
 30
0.0
 10
661.8992177804082
 20
20.96219705074672
 30
0.0
 10
661.8992177804082
 20
19.49197618416397
 30
0.0
 10
660.8039435254344
 20
17.86741782896343
 30
0.0
 10
658.6794085604136
 20
17.86741782896343
 30
0.0
  0
SPLINE
  5
1DCAB
102
{ACAD_REACTORS
330
1DCA9
102
}
330
2
100
AcDbEntity
  8
Layer 1
100
AcDbSpline
210
0.0
220
0.0
230
1.0
 70
     9
 71
     3
 72
    17
 73
    13
 74
     0
 42
0.000000001
 43
0.0000000001
 40
0.0
 40
0.0
 40
0.0
 40
0.0
 40
1.0
 40
1.0
 40
1.0
 40
2.0
 40
2.0
 40
2.0
 40
3.0
 40
3.0
 40
3.0
 40
4.0
 40
4.0
 40
4.0
 40
4.0
 10
660.30422500506
 20
21.05783352873636
 30
0.0
 10
660.30422500506
 20
21.81509663946307
 30
0.0
 10
659.8484390436901
 20
22.17521744623807
 30
0.0
 10
659.3191549434635
 20
22.17521744623807
 30
0.0
 10
658.3121199138915
 20
22.17521744623807
 30
0.0
 10
657.7605814565853
 20
21.03587040429507
 30
0.0
 10
657.7605814565853
 20
20.24192676059167
 30
0.0
 10
657.7605814565853
 20
19.47740846877611
 30
0.0
 10
658.2311932227886
 20
19.11714427897553
 30
0.0
 10
658.7751597448236
 20
19.11714427897553
 30
0.0
 10
659.8632935251291
 20
19.11714427897553
 30
0.0
 10
660.30422500506
 20
20.30074247764019
 30
0.0
 10
660.30422500506
 20
21.05783352873636
 30
0.0
  0
HATCH
  5
1DCAC
330
2
100
AcDbEntity
  8
0
  6
Continuous
 62
     0
100
AcDbHatch
 10
0.0
 20
0.0
 30
0.0
210
0.0
220
0.0
230
1.0
  2
SOLID
 70
     1
 71
     1
 91
        2
 92
        5
 93
        4
 72
     4
 94
        3
 73
     0
 74
     0
 95
        8
 96
        4
 40
0.0
 40
0.0
 40
0.0
 40
0.0
 40
1.0
 40
1.0
 40
1.0
 40
1.0
 10
662.0787333282987
 20
20.25649447597952
 10
662.0787333282987
 20
18.90401974991435
 10
663.0051023792669
 20
17.86741782896343
 10
664.6073790123092
 20
17.86741782896343
 97
        0
 72
     4
 94
        3
 73
     0
 74
     0
 95
        8
 96
        4
 40
3.0
 40
3.0
 40
3.0
 40
3.0
 40
4.0
 40
4.0
 40
4.0
 40
4.0
 10
664.6073790123092
 20
17.86741782896343
 10
666.7319426539351
 20
17.86741782896343
 10
667.8272169089089
 20
19.49197618416397
 10
667.8272169089089
 20
20.96219705074672
 97
        0
 72
     4
 94
        3
 73
     0
 74
     0
 95
        8
 96
        4
 40
2.0
 40
2.0
 40
2.0
 40
2.0
 40
3.0
 40
3.0
 40
3.0
 40
3.0
 10
667.8272169089089
 20
20.96219705074672
 10
667.8272169089089
 20
22.27814096836484
 10
666.9009625643611
 20
23.36609950259654
 10
665.2324429735509
 20
23.36609950259654
 97
        0
 72
     4
 94
        3
 73
     0
 74
     0
 95
        8
 96
        4
 40
1.0
 40
1.0
 40
1.0
 40
1.0
 40
2.0
 40
2.0
 40
2.0
 40
2.0
 10
665.2324429735509
 20
23.36609950259654
 10
663.1812627643616
 20
23.36609950259654
 10
662.0787333282987
 20
21.73399920025624
 10
662.0787333282987
 20
20.25649447597952
 97
        0
 97
        1
330
1DCAE
 92
       20
 93
        4
 72
     4
 94
        3
 73
     0
 74
     0
 95
        8
 96
        4
 40
3.0
 40
3.0
 40
3.0
 40
3.0
 40
4.0
 40
4.0
 40
4.0
 40
4.0
 10
664.7028721072736
 20
19.11714427897553
 10
665.7908625045535
 20
19.11714427897553
 10
666.2320807505352
 20
20.30074247764019
 10
666.2320807505352
 20
21.05783352873636
 97
        0
 72
     4
 94
        3
 73
     0
 74
     0
 95
        8
 96
        4
 40
0.0
 40
0.0
 40
0.0
 40
0.0
 40
1.0
 40
1.0
 40
1.0
 40
1.0
 10
666.2320807505352
 20
21.05783352873636
 10
666.2320807505352
 20
21.81509663946307
 10
665.7762947891654
 20
22.17521744623807
 10
665.2467239228879
 20
22.17521744623807
 97
        0
 72
     4
 94
        3
 73
     0
 74
     0
 95
        8
 96
        4
 40
1.0
 40
1.0
 40
1.0
 40
1.0
 40
2.0
 40
2.0
 40
2.0
 40
2.0
 10
665.2467239228879
 20
22.17521744623807
 10
664.2399743478404
 20
22.17521744623807
 10
663.6886967388566
 20
21.03587040429507
 10
663.6886967388566
 20
20.24192676059167
 97
        0
 72
     4
 94
        3
 73
     0
 74
     0
 95
        8
 96
        4
 40
2.0
 40
2.0
 40
2.0
 40
2.0
 40
3.0
 40
3.0
 40
3.0
 40
3.0
 10
663.6886967388566
 20
20.24192676059167
 10
663.6886967388566
 20
19.47740846877611
 10
664.1589055852385
 20
19.11714427897553
 10
664.7028721072736
 20
19.11714427897553
 97
        0
 97
        1
330
1DCAD
 75
     1
 76
     1
 47
0.0269459378258844
 98
        2
 10
663.5884061709194
 20
19.87968390597197
 10
663.5884061709194
 20
19.87968390597197
450
        0
451
        0
460
0.0
461
0.0
452
        0
462
1.0
453
        2
463
0.0
 63
     5
421
      255
463
1.0
 63
     2
421
 16776960
470
LINEAR
1001
GRADIENTCOLOR1ACI
1070
     5
1001
GRADIENTCOLOR2ACI
1070
     2
1001
ACAD
1010
0.0
1020
0.0
1030
0.0
  0
SPLINE
  5
1DCAD
102
{ACAD_REACTORS
330
1DCAC
102
}
330
2
100
AcDbEntity
  8
Layer 1
100
AcDbSpline
210
0.0
220
0.0
230
1.0
 70
     9
 71
     3
 72
    17
 73
    13
 74
     0
 42
0.000000001
 43
0.0000000001
 40
0.0
 40
0.0
 40
0.0
 40
0.0
 40
1.0
 40
1.0
 40
1.0
 40
2.0
 40
2.0
 40
2.0
 40
3.0
 40
3.0
 40
3.0
 40
4.0
 40
4.0
 40
4.0
 40
4.0
 10
666.2320807505352
 20
21.05783352873636
 30
0.0
 10
666.2320807505352
 20
21.81509663946307
 30
0.0
 10
665.7762947891654
 20
22.17521744623807
 30
0.0
 10
665.2467239228879
 20
22.17521744623807
 30
0.0
 10
664.2399743478404
 20
22.17521744623807
 30
0.0
 10
663.6886967388566
 20
21.03587040429507
 30
0.0
 10
663.6886967388566
 20
20.24192676059167
 30
0.0
 10
663.6886967388566
 20
19.47740846877611
 30
0.0
 10
664.1589055852385
 20
19.11714427897553
 30
0.0
 10
664.7028721072736
 20
19.11714427897553
 30
0.0
 10
665.7908625045535
 20
19.11714427897553
 30
0.0
 10
666.2320807505352
 20
20.30074247764019
 30
0.0
 10
666.2320807505352
 20
21.05783352873636
 30
0.0
  0
SPLINE
  5
1DCAE
102
{ACAD_REACTORS
330
1DCAC
102
}
330
2
100
AcDbEntity
  8
Layer 1
100
AcDbSpline
210
0.0
220
0.0
230
1.0
 70
     9
 71
     3
 72
    17
 73
    13
 74
     0
 42
0.000000001
 43
0.0000000001
 40
0.0
 40
0.0
 40
0.0
 40
0.0
 40
1.0
 40
1.0
 40
1.0
 40
2.0
 40
2.0
 40
2.0
 40
3.0
 40
3.0
 40
3.0
 40
4.0
 40
4.0
 40
4.0
 40
4.0
 10
664.6073790123092
 20
17.86741782896343
 30
0.0
 10
663.0051023792669
 20
17.86741782896343
 30
0.0
 10
662.0787333282987
 20
18.90401974991435
 30
0.0
 10
662.0787333282987
 20
20.25649447597952
 30
0.0
 10
662.0787333282987
 20
21.73399920025624
 30
0.0
 10
663.1812627643616
 20
23.36609950259654
 30
0.0
 10
665.2324429735509
 20
23.36609950259654
 30
0.0
 10
666.9009625643611
 20
23.36609950259654
 30
0.0
 10
667.8272169089089
 20
22.27814096836484
 30
0.0
 10
667.8272169089089
 20
20.96219705074672
 30
0.0
 10
667.8272169089089
 20
19.49197618416397
 30
0.0
 10
666.7319426539351
 20
17.86741782896343
 30
0.0
 10
664.6073790123092
 20
17.86741782896343
 30
0.0
  0
HATCH
  5
1DCAF
330
2
100
AcDbEntity
  8
0
  6
Continuous
 62
     0
100
AcDbHatch
 10
0.0
 20
0.0
 30
0.0
210
0.0
220
0.0
230
1.0
  2
SOLID
 70
     1
 71
     1
 91
        1
 92
        5
 93
        6
 72
     4
 94
        3
 73
     0
 74
     0
 95
        8
 96
        4
 40
4.0
 40
4.0
 40
4.0
 40
4.0
 40
5.0
 40
5.0
 40
5.0
 40
5.0
 10
669.4177090493345
 20
19.22731979574815
 10
669.4177090493345
 20
19.22731979574815
 10
670.4837028984298
 20
23.21181936718891
 10
670.4837028984298
 20
23.21181936718891
 97
        0
 72
     4
 94
        3
 73
     0
 74
     0
 95
        8
 96
        4
 40
3.0
 40
3.0
 40
3.0
 40
3.0
 40
4.0
 40
4.0
 40
4.0
 40
4.0
 10
670.4837028984298
 20
23.21181936718891
 10
670.4837028984298
 20
23.21181936718891
 10
668.8514592130642
 20
23.21181936718891
 10
668.8514592130642
 20
23.21181936718891
 97
        0
 72
     4
 94
        3
 73
     0
 74
     0
 95
        8
 96
        4
 40
2.0
 40
2.0
 40
2.0
 40
2.0
 40
3.0
 40
3.0
 40
3.0
 40
3.0
 10
668.8514592130642
 20
23.21181936718891
 10
668.8514592130642
 20
23.21181936718891
 10
667.4623071090832
 20
18.0218700240016
 10
667.4623071090832
 20
18.0218700240016
 97
        0
 72
     4
 94
        3
 73
     0
 74
     0
 95
        8
 96
        4
 40
1.0
 40
1.0
 40
1.0
 40
1.0
 40
2.0
 40
2.0
 40
2.0
 40
2.0
 10
667.4623071090832
 20
18.0218700240016
 10
667.4623071090832
 20
18.0218700240016
 10
670.8220024362807
 20
18.0218700240016
 10
670.8220024362807
 20
18.0218700240016
 97
        0
 72
     4
 94
        3
 73
     0
 74
     0
 95
        8
 96
        4
 40
0.0
 40
0.0
 40
0.0
 40
0.0
 40
1.0
 40
1.0
 40
1.0
 40
1.0
 10
670.8220024362807
 20
18.0218700240016
 10
670.8220024362807
 20
18.0218700240016
 10
671.2207776791703
 20
19.22731979574815
 10
671.2207776791703
 20
19.22731979574815
 97
        0
 72
     4
 94
        3
 73
     0
 74
     0
 95
        8
 96
        4
 40
5.0
 40
5.0
 40
5.0
 40
5.0
 40
6.0
 40
6.0
 40
6.0
 40
6.0
 10
671.2207776791703
 20
19.22731979574815
 10
671.2207776791703
 20
19.22731979574815
 10
669.4177090493345
 20
19.22731979574815
 10
669.4177090493345
 20
19.22731979574815
 97
        0
 97
        6
330
1DCB4
330
1DCB3
330
1DCB2
330
1DCB1
330
1DCB0
330
1DCB5
 75
     1
 76
     1
 47
0.0168242271866721
 98
        1
 10
668.9178716948143
 20
19.56587127904095
450
        0
451
        0
460
0.0
461
0.0
452
        0
462
1.0
453
        2
463
0.0
 63
     5
421
      255
463
1.0
 63
     2
421
 16776960
470
LINEAR
1001
GRADIENTCOLOR1ACI
1070
     5
1001
GRADIENTCOLOR2ACI
1070
     2
1001
ACAD
1010
0.0
1020
0.0
1030
0.0
  0
SPLINE
  5
1DCB0
102
{ACAD_REACTORS
330
1DCAF
102
}
330
2
100
AcDbEntity
  8
Layer 1
100
AcDbSpline
210
0.0
220
0.0
230
1.0
 70
    24
 71
     3
 72
     8
 73
     4
 74
     0
 42
0.000000001
 43
0.0000000001
 40
0.0
 40
0.0
 40
0.0
 40
0.0
 40
1.0
 40
1.0
 40
1.0
 40
1.0
 10
671.2207776791703
 20
19.22731979574815
 30
0.0
 10
671.2207776791703
 20
19.22731979574815
 30
0.0
 10
670.8220024362807
 20
18.0218700240016
 30
0.0
 10
670.8220024362807
 20
18.0218700240016
 30
0.0
  0
SPLINE
  5
1DCB1
102
{ACAD_REACTORS
330
1DCAF
102
}
330
2
100
AcDbEntity
  8
Layer 1
100
AcDbSpline
210
0.0
220
0.0
230
1.0
 70
    24
 71
     3
 72
     8
 73
     4
 74
     0
 42
0.000000001
 43
0.0000000001
 40
1.0
 40
1.0
 40
1.0
 40
1.0
 40
2.0
 40
2.0
 40
2.0
 40
2.0
 10
670.8220024362807
 20
18.0218700240016
 30
0.0
 10
670.8220024362807
 20
18.0218700240016
 30
0.0
 10
667.4623071090832
 20
18.0218700240016
 30
0.0
 10
667.4623071090832
 20
18.0218700240016
 30
0.0
  0
SPLINE
  5
1DCB2
102
{ACAD_REACTORS
330
1DCAF
102
}
330
2
100
AcDbEntity
  8
Layer 1
100
AcDbSpline
210
0.0
220
0.0
230
1.0
 70
    24
 71
     3
 72
     8
 73
     4
 74
     0
 42
0.000000001
 43
0.0000000001
 40
2.0
 40
2.0
 40
2.0
 40
2.0
 40
3.0
 40
3.0
 40
3.0
 40
3.0
 10
667.4623071090832
 20
18.0218700240016
 30
0.0
 10
667.4623071090832
 20
18.0218700240016
 30
0.0
 10
668.8514592130642
 20
23.21181936718891
 30
0.0
 10
668.8514592130642
 20
23.21181936718891
 30
0.0
  0
SPLINE
  5
1DCB3
102
{ACAD_REACTORS
330
1DCAF
102
}
330
2
100
AcDbEntity
  8
Layer 1
100
AcDbSpline
210
0.0
220
0.0
230
1.0
 70
    24
 71
     3
 72
     8
 73
     4
 74
     0
 42
0.000000001
 43
0.0000000001
 40
3.0
 40
3.0
 40
3.0
 40
3.0
 40
4.0
 40
4.0
 40
4.0
 40
4.0
 10
668.8514592130642
 20
23.21181936718891
 30
0.0
 10
668.8514592130642
 20
23.21181936718891
 30
0.0
 10
670.4837028984298
 20
23.21181936718891
 30
0.0
 10
670.4837028984298
 20
23.21181936718891
 30
0.0
  0
SPLINE
  5
1DCB4
102
{ACAD_REACTORS
330
1DCAF
102
}
330
2
100
AcDbEntity
  8
Layer 1
100
AcDbSpline
210
0.0
220
0.0
230
1.0
 70
    24
 71
     3
 72
     8
 73
     4
 74
     0
 42
0.000000001
 43
0.0000000001
 40
4.0
 40
4.0
 40
4.0
 40
4.0
 40
5.0
 40
5.0
 40
5.0
 40
5.0
 10
670.4837028984298
 20
23.21181936718891
 30
0.0
 10
670.4837028984298
 20
23.21181936718891
 30
0.0
 10
669.4177090493345
 20
19.22731979574815
 30
0.0
 10
669.4177090493345
 20
19.22731979574815
 30
0.0
  0
SPLINE
  5
1DCB5
102
{ACAD_REACTORS
330
1DCAF
102
}
330
2
100
AcDbEntity
  8
Layer 1
100
AcDbSpline
210
0.0
220
0.0
230
1.0
 70
    24
 71
     3
 72
     8
 73
     4
 74
     0
 42
0.000000001
 43
0.0000000001
 40
5.0
 40
5.0
 40
5.0
 40
5.0
 40
6.0
 40
6.0
 40
6.0
 40
6.0
 10
669.4177090493345
 20
19.22731979574815
 30
0.0
 10
669.4177090493345
 20
19.22731979574815
 30
0.0
 10
671.2207776791703
 20
19.22731979574815
 30
0.0
 10
671.2207776791703
 20
19.22731979574815
 30
0.0
  0
TEXT
  5
1DCB6
330
2
100
AcDbEntity
  8
0
 62
     2
100
AcDbText
 10
636.602414775904
 20
11.92002032937522
 30
0.0
 40
2.535455999999999
  1
www.maritool.com
  7
굴림
100
AcDbText
  0
TEXT
  5
1DCB7
330
2
100
AcDbEntity
  8
0
 62
     2
100
AcDbText
 10
619.2677755846469
 20
3.427181975296476
 30
0.0
 40
2.028364799999999
  1
ITEM#
  7
굴림
100
AcDbText
  0
TEXT
  5
1DCB8
330
2
100
AcDbEntity
  8
0
 62
     2
100
AcDbText
 10
632.3088054400001
 20
2.945248156510893
 30
0.0
 40
3.042547199999999
  1
CAT40-SHC.375-5.0
  7
굴림
100
AcDbText
  0
TEXT
  5
1DCC0
330
2
100
AcDbEntity
  8
0
 62
     2
100
AcDbText
 10
514.4829947229044
 20
14.25575655529788
 30
0.0
 40
4.563820799999999
  1
T.I.R. ACCURACY .0001"
  7
굴림
100
AcDbText
  0
DIMENSION
  5
226AE
330
2
100
AcDbEntity
  8
0
  6
Continuous
 62
     7
100
AcDbDimension
280
     0
  2
*D0
 10
665.6320367174139
 20
109.7877796008251
 30
0.0
 11
663.5070367174139
 21
101.2877796008257
 31
0.0
 70
    32
  1
%%C0.67
 71
     5
 42
16.99999999999909
 73
     0
 74
     0
 75
     0
  3
Standard$0
100
AcDbAlignedDimension
 13
641.968277316357
 23
92.78777960082607
 33
0.0
 14
641.9682773163567
 24
109.7877796008251
 34
0.0
 50
90.0
100
AcDbRotatedDimension
1001
ACAD
1000
DSTYLE
1002
{
1070
    42
1040
0.625
1070
    43
1040
3.75
1070
    44
1040
1.25
1070
    48
1040
0.000000001
1070
    74
1070
     0
1070
    77
1070
     1
1070
    90
1070
     1
1070
   140
1040
3.0
1070
   141
1040
-0.5
1070
   143
1040
0.03937007874016
1070
   146
1040
0.7
1070
   147
1040
0.625
1070
   171
1070
     3
1070
   172
1070
     1
1070
   175
1070
     0
1070
   179
1070
     0
1070
   274
1070
     3
1070
   283
1070
     0
1070
   284
1070
     8
1070
   340
1005
25
1070
   371
1070
    -1
1070
   372
1070
    -1
1002
}
  0
DIMENSION
  5
226AF
330
2
100
AcDbEntity
  8
0
  6
Continuous
 62
     7
100
AcDbDimension
280
     0
  2
*D1
 10
657.6320367174139
 20
106.0502796008044
 30
0.0
 11
657.6320367174139
 21
101.2877796008254
 31
0.0
 70
   160
  1
%%C0.375
 71
     5
 42
9.524999999958254
 73
     0
 74
     0
 75
     0
  3
Standard$0
100
AcDbAlignedDimension
 13
641.5352646144447
 23
96.52527960084615
 33
0.0
 14
641.5352646144447
 24
106.0502796008044
 34
0.0
 50
90.0
100
AcDbRotatedDimension
1001
ACAD
1000
DSTYLE
1002
{
1070
    42
1040
0.625
1070
    43
1040
3.75
1070
    44
1040
1.25
1070
    48
1040
0.000000001
1070
    74
1070
     0
1070
    75
1070
     1
1070
    77
1070
     1
1070
    90
1070
     1
1070
   140
1040
3.0
1070
   141
1040
-0.5
1070
   143
1040
0.03937007874016
1070
   146
1040
0.7
1070
   147
1040
0.625
1070
   171
1070
     3
1070
   172
1070
     1
1070
   175
1070
     0
1070
   179
1070
     0
1070
   274
1070
     3
1070
   281
1070
     1
1070
   283
1070
     0
1070
   284
1070
     8
1070
   340
1005
25
1070
   371
1070
    -1
1070
   372
1070
    -1
1002
}
  0
DIMENSION
  5
226B5
330
2
100
AcDbEntity
  8
0
  6
Continuous
 62
     7
100
AcDbDimension
280
     0
  2
*D2
 10
641.9682773163565
 20
131.0699872700815
 30
0.0
 11
621.4682773163661
 21
133.1949872700815
 31
0.0
 70
    32
  1
1.61
 71
     5
 42
40.99999999998067
 73
     0
 74
     0
 75
     0
  3
Standard$0
100
AcDbAlignedDimension
 13
600.9682773163758
 23
105.8877796008262
 33
0.0
 14
641.9682773163565
 24
109.3132973174674
 34
0.0
100
AcDbRotatedDimension
1001
ACAD
1000
DSTYLE
1002
{
1070
    42
1040
0.625
1070
    43
1040
3.75
1070
    44
1040
1.25
1070
    48
1040
0.000000001
1070
    74
1070
     0
1070
    77
1070
     1
1070
    90
1070
     1
1070
   140
1040
3.0
1070
   141
1040
-0.5
1070
   143
1040
0.03937007874016
1070
   146
1040
0.7
1070
   147
1040
0.625
1070
   171
1070
     3
1070
   172
1070
     1
1070
   175
1070
     0
1070
   179
1070
     0
1070
   274
1070
     3
1070
   283
1070
     0
1070
   284
1070
     8
1070
   340
1005
25
1070
   371
1070
    -1
1070
   372
1070
    -1
1002
}
  0
DIMENSION
  5
226B6
330
2
100
AcDbEntity
  8
0
  6
Continuous
 62
     7
100
AcDbDimension
280
     0
  2
*D3
 10
673.6320367174139
 20
113.6659552677703
 30
0.0
 11
673.6320367174139
 21
101.2877796008139
 31
0.0
 70
   160
  1
%%C0.97
 71
     5
 42
24.75635133388939
 73
     0
 74
     0
 75
     0
  3
Standard$0
100
AcDbAlignedDimension
 13
567.9682773163567
 23
88.90960393388096
 33
0.0
 14
567.9682773163565
 24
113.6659552677703
 34
0.0
 50
90.0
100
AcDbRotatedDimension
1001
ACAD
1000
DSTYLE
1002
{
1070
    42
1040
0.625
1070
    43
1040
3.75
1070
    44
1040
1.25
1070
    48
1040
0.000000001
1070
    74
1070
     0
1070
    77
1070
     1
1070
    90
1070
     1
1070
   140
1040
3.0
1070
   141
1040
-0.5
1070
   143
1040
0.03937007874016
1070
   146
1040
0.7
1070
   147
1040
0.625
1070
   171
1070
     3
1070
   172
1070
     1
1070
   175
1070
     0
1070
   179
1070
     0
1070
   274
1070
     3
1070
   283
1070
     0
1070
   284
1070
     8
1070
   340
1005
25
1070
   371
1070
    -1
1070
   372
1070
    -1
1002
}
  0
LINE
  5
226B9
330
2
100
AcDbEntity
  8
0
  6
Continuous
 62
     3
100
AcDbLine
 10
514.9682773163476
 20
78.90599020288334
 30
0.0
 11
514.9682773163476
 21
51.9940258271912
 31
0.0
  0
MTEXT
  5
226BA
330
2
100
AcDbEntity
  8
0
  6
Continuous
 62
     2
100
AcDbMText
 10
514.9688114854952
 20
49.54521072339514
 30
0.0
 40
3.0
 41
0.0
 46
0.0
 71
     5
 72
     1
  1
0.00
 73
     1
 44
1.0
  0
LINE
  5
226BB
330
2
100
AcDbEntity
  8
0
  6
Continuous
 62
     3
100
AcDbLine
 10
534.0182773163478
 20
69.68731205362553
 30
0.0
 11
534.0182773163478
 21
51.55857384571788
 31
0.0
  0
MTEXT
  5
226BD
330
2
100
AcDbEntity
  8
0
  6
Continuous
 62
     2
100
AcDbMText
 10
533.7244633832003
 20
49.07700012133739
 30
0.0
 40
3.0
 41
0.0
 46
0.0
 71
     5
 72
     1
  1
0.75
 73
     1
 44
1.0
  0
DIMENSION
  5
226BF
330
2
100
AcDbEntity
  8
0
  6
Continuous
 62
     7
100
AcDbDimension
280
     0
  2
*D4
 10
502.1924745439625
 20
123.5127796008256
 30
0.0
 11
502.1924745439625
 21
141.9680827439196
 31
0.0
 70
   160
  1
%%C1.7500
 71
     5
 42
44.44999999999993
 73
     0
 74
     0
 75
     0
  3
Standard$0
100
AcDbAlignedDimension
 13
514.9682773163476
 23
79.0627796008257
 33
0.0
 14
514.9682773163476
 24
123.5127796008256
 34
0.0
 50
90.0
100
AcDbRotatedDimension
1001
ACAD
1000
DSTYLE
1002
{
1070
    42
1040
0.625
1070
    43
1040
3.75
1070
    44
1040
1.25
1070
    48
1040
0.000000001
1070
    74
1070
     0
1070
    77
1070
     1
1070
    90
1070
     1
1070
   140
1040
3.0
1070
   141
1040
-0.5
1070
   143
1040
0.03937007874016
1070
   146
1040
0.7
1070
   147
1040
0.625
1070
   171
1070
     3
1070
   172
1070
     1
1070
   175
1070
     0
1070
   179
1070
     0
1070
   274
1070
     3
1070
   283
1070
     0
1070
   284
1070
     8
1070
   340
1005
25
1070
   371
1070
    -1
1070
   372
1070
    -1
1002
}
  0
DIMENSION
  5
226C0
330
2
100
AcDbEntity
  8
0
  6
Continuous
 62
     7
100
AcDbDimension
280
     0
  2
*D5
 10
494.1924745439624
 20
133.0377796008257
 30
0.0
 11
494.1924745439624
 21
141.713960703188
 31
0.0
 70
   160
  1
%%C2.500
 71
     5
 42
63.49999999999994
 73
     0
 74
     0
 75
     0
  3
Standard$0
100
AcDbAlignedDimension
 13
518.6432773163476
 23
69.53777960082573
 33
0.0
 14
518.6432773163476
 24
133.0377796008257
 34
0.0
 50
90.0
100
AcDbRotatedDimension
1001
ACAD
1000
DSTYLE
1002
{
1070
    42
1040
0.625
1070
    43
1040
3.75
1070
    44
1040
1.25
1070
    48
1040
0.000000001
1070
    74
1070
     0
1070
    77
1070
     1
1070
    90
1070
     1
1070
   140
1040
3.0
1070
   141
1040
-0.5
1070
   143
1040
0.03937007874016
1070
   146
1040
0.7
1070
   147
1040
0.625
1070
   171
1070
     3
1070
   172
1070
     1
1070
   175
1070
     0
1070
   179
1070
     0
1070
   274
1070
     3
1070
   283
1070
     0
1070
   284
1070
     8
1070
   340
1005
25
1070
   371
1070
    -1
1070
   372
1070
    -1
1002
}
  0
DIMENSION
  5
226C1
330
2
100
AcDbEntity
  8
0
  6
Continuous
 62
     7
100
AcDbDimension
280
     0
  2
*D6
 10
586.8067700665208
 20
105.2877796008463
 30
0.0
 11
586.8067700665208
 21
141.9680827439196
 31
0.0
 70
   160
  1
M<>*1.0
 71
     5
 42
8.000000000051102
 73
     0
 74
     0
 75
     0
  3
Standard$0
100
AcDbAlignedDimension
 13
591.5825728389059
 23
97.2877796007952
 33
0.0
 14
597.9202860792088
 24
105.2877796008463
 34
0.0
 50
90.0
100
AcDbRotatedDimension
1001
ACAD
1000
DSTYLE
1002
{
1070
    42
1040
0.625
1070
    43
1040
3.75
1070
    44
1040
1.25
1070
    48
1040
0.000000001
1070
    74
1070
     0
1070
    75
1070
     1
1070
    77
1070
     1
1070
    90
1070
     1
1070
   140
1040
3.0
1070
   141
1040
-0.5
1070
   143
1040
0.03937007874016
1070
   146
1040
0.7
1070
   147
1040
0.625
1070
   171
1070
     3
1070
   172
1070
     1
1070
   175
1070
     0
1070
   179
1070
     0
1070
   274
1070
     3
1070
   281
1070
     1
1070
   283
1070
     0
1070
   284
1070
     8
1070
   340
1005
25
1070
   371
1070
    -1
1070
   372
1070
    -1
1002
}
  0
MULTILEADER
  5
226C2
330
2
100
AcDbEntity
  8
0
  6
Continuous
 62
     7
160
               736
310
E0020000190000000C00000016000000020000C30C00000033000000000000000C00000013000000993A00000C00000016000000020000C3E00000002600000063F04B5BB83C7C40E817993AD08A6040000000000000000000000000000000000000000000000000000000000000F03F000000000000F03F00000000000000
310
00000000000000000055004E00430035002F0038002D0031003100000009000000010000000000000000000840000000000000F03F0000000000000000000000000000F03F00000000000000000000000000000000000000000000000000000000010000000000000000000000690073006F00630070002E00730068007800
310
00007700680067007400780074002E00730068007800000000000C00000033000000000000000C00000010000000000000000C00000016000000030000C30C00000012000000000000000C00000013000000010000000C000000140000000100000054000000070000000300000034CCEBC3C95A7D4010873C3556485C4000
310
000000000000001081D8180D467D40288021FB6A525B400000000000000000EEFE1855BA457D40BCB7C924F2555C4000000000000000000C00000013000000891300003C00000006000000020000009165820C42507D40661F032D244F5C400000000000000000F4B2418414807D40B4E465079D7760400000000000000000
310
0C00000013000000112700003C0000000600000002000000F4B2418414807D40B4E465079D7760400000000000000000FE89E5F4517A7D40B4E465079D77604000000000000000000C00000016000000030000C30C00000012000000000000000C00000017000000000000000C000000130000009A3A00003C000000060000
310
000200000098237F8EEB437C40B4E465079D7760400000000000000000FE89E5F4517A7D40B4E465079D77604000000000000000000C00000016000000070000C30C00000012000000000000000C00000017000000FFFFFFFF0C0000003300000000000000
100
AcDbMLeader
270
     2
300
CONTEXT_DATA{
 40
1.0
 10
450.2450089422577
 20
133.8379185667138
 30
0.0
 41
3.0
140
4.0
145
2.0
174
     1
175
     6
176
     2
177
     0
290
     1
304
UNC5/8-11
 11
0.0
 21
0.0
 31
1.0
340
25
 12
469.6450089422576
 22
135.3379185667138
 32
0.0
 13
1.0
 23
0.0
 33
0.0
 42
0.0
 43
0.0
 44
0.0
 45
1.0
170
     1
 90
-1023410174
171
     3
172
     5
 91
-1073741824
141
0.0
 92
        0
291
     0
292
     0
173
     0
293
     0
142
0.0
143
0.0
294
     0
295
     0
296
     0
110
468.3781975228496
120
93.98850313686182
130
0.0
111
1.0
121
0.0
131
0.0
112
0.0
122
1.0
132
0.0
297
     0
302
LEADER{
290
     1
291
     1
 10
472.0050089422577
 20
131.7379185667138
 30
0.0
 11
-1.0
 21
0.0
 31
0.0
 90
        0
 40
0.36
304
LEADER_LINE{
 10
468.3781975228494
 20
109.2877796008257
 30
0.0
 91
        0
305
}
271
     0
303
}
272
     9
273
     9
301
}
340
BD9
 90
   279552
170
     1
 91
-1023410173
341
28
171
    -2
290
     1
291
     1
 41
0.36
 42
4.0
172
     2
343
25
173
     1
 95
        6
174
     1
175
     2
 92
-1023410174
292
     0
 93
-1056964608
 10
1.0
 20
1.0
 30
1.0
 43
0.0
176
     0
293
     0
294
     0
178
     0
179
     3
 45
1.0
271
     0
272
     9
273
     9
295
     1
  0
LINE
  5
226C3
330
2
100
AcDbEntity
  8
0
  6
Continuous
 62
     3
100
AcDbLine
 10
446.7182773163479
 20
89.59461406643379
 30
0.0
 11
446.7182773163479
 21
51.9940258271912
 31
0.0
  0
MTEXT
  5
226C4
330
2
100
AcDbEntity
  8
0
  6
Continuous
 62
     2
100
AcDbMText
 10
446.7188114854953
 20
49.54521072339514
 30
0.0
 40
3.0
 41
0.0
 46
0.0
 71
     5
 72
     1
  1
2.69
 73
     1
 44
1.0
  0
LINE
  5
226C6
330
2
100
AcDbEntity
  8
0
  6
Continuous
 62
     3
100
AcDbLine
 10
518.1432773163478
 20
69.52973137132733
 30
0.0
 11
518.1432773163478
 21
61.29974201308925
 31
0.0
  0
LINE
  5
226C7
330
2
100
AcDbEntity
  8
0
  6
Continuous
 62
     3
100
AcDbLine
 10
518.1432773163478
 20
61.29974201308925
 30
0.0
 11
524.411428106694
 21
59.55100084464527
 31
0.0
  0
LINE
  5
226C8
330
2
100
AcDbEntity
  8
0
  6
Continuous
 62
     3
100
AcDbLine
 10
524.411428106694
 20
59.55100084464527
 30
0.0
 11
524.411428106694
 21
46.7260755003009
 31
0.0
  0
MTEXT
  5
226C9
330
2
100
AcDbEntity
  8
0
  6
Continuous
 62
     2
100
AcDbMText
 10
524.355971336568
 20
44.24463123979205
 30
0.0
 40
3.0
 41
0.0
 46
0.0
 71
     5
 72
     1
  1
0.13
 73
     1
 44
1.0
  0
DIMENSION
  5
2273D
330
2
100
AcDbEntity
  8
0
  6
Continuous
 62
     7
100
AcDbDimension
280
     0
  2
*D7
 10
446.7182773163476
 20
122.5035576285606
 30
0.0
 11
440.3347059954827
 21
124.6288529041512
 31
0.0
 70
    32
  1
0.29
 71
     5
 42
7.400000000000545
 73
     0
 74
     0
 75
     0
  3
Standard$0
100
AcDbAlignedDimension
 13
454.1182773163482
 23
109.4377796008259
 33
0.0
 14
446.7182773163476
 24
112.0221396869231
 34
0.0
100
AcDbRotatedDimension
1001
ACAD
1000
DSTYLE
1002
{
1070
    42
1040
0.625
1070
    43
1040
3.75
1070
    44
1040
1.25
1070
    48
1040
0.000000001
1070
    74
1070
     0
1070
    77
1070
     1
1070
    90
1070
     1
1070
   140
1040
3.0
1070
   141
1040
-0.5
1070
   143
1040
0.03937007874016
1070
   146
1040
0.7
1070
   147
1040
0.625
1070
   171
1070
     3
1070
   172
1070
     1
1070
   175
1070
     0
1070
   274
1070
     3
1070
   283
1070
     0
1070
   284
1070
     8
1070
   340
1005
25
1070
   371
1070
    -1
1070
   372
1070
    -1
1002
}
  0
LINE
  5
22850
330
2
100
AcDbEntity
  8
0
  6
CENTER
 62
     3
100
AcDbLine
 10
444.7182773163476
 20
101.2877796008258
 30
0.0
 11
551.4682773163476
 21
101.2877796008258
 31
0.0
  0
HATCH
  5
22851
330
2
100
AcDbEntity
  8
0
  6
Continuous
 62
     4
100
AcDbHatch
 10
0.0
 20
0.0
 30
0.0
210
0.0
220
0.0
230
1.0
  2
ANSI31
 70
     0
 71
     0
 91
        4
 92
        7
 72
     1
 73
     1
 93
       51
 10
566.83638634383
 20
116.7758001560711
 42
0.0
 10
564.581219590671
 20
122.9718198874812
 42
0.31529878887906
 10
562.7018343490986
 20
124.2877796008299
 42
0.0
 10
534.4182773163477
 20
124.2877796008257
 42
-0.4142135623731679
 10
534.0182773163475
 20
124.6877796008257
 42
0.0
 10
534.0182773163475
 20
132.2377796008259
 42
0.4142135623730951
 10
533.2182773163476
 20
133.0377796008259
 42
0.0
 10
529.9590614849912
 20
133.0377796008258
 42
0.2679491924311082
 10
529.5260487830989
 20
132.7877796008258
 42
0.0
 10
528.0619773163476
 20
130.2519334345009
 42
0.0
 10
528.0619773163476
 20
129.4377796008257
 42
0.0
 10
524.2265773163476
 20
129.4377796008257
 42
0.0
 10
524.2265773163476
 20
130.2519334345009
 42
0.0
 10
522.7625058495964
 20
132.7877796008258
 42
0.2679491924311212
 10
522.3294931477044
 20
133.0377796008258
 42
0.0
 10
518.9432773163475
 20
133.0377796008259
 42
0.414213562373095
 10
518.1432773163476
 20
132.2377796008259
 42
0.0
 10
518.1432773163476
 20
124.98850736046
 42
0.0
 10
518.5432773163472
 20
124.2956870374346
 42
0.0
 10
518.5432773163479
 20
123.3885073604615
 42
-0.4142135623730951
 10
518.243277316348
 20
123.0885073604615
 42
0.0
 10
516.5516828736262
 20
123.088507360462
 42
0.0
 10
514.9682773163476
 20
123.5127796008257
 42
0.0
 10
448.2396996768493
 20
113.781529329643
 42
0.3724076148657627
 10
446.7182773163476
 20
112.0221396869233
 42
0.0
 10
446.7182773163476
 20
110.9377796008257
 42
0.0
 10
446.7182773163476
 20
110.4377796008257
 42
0.0
 10
448.4503281239167
 20
109.4377796008257
 42
0.0
 10
454.1182773163477
 20
109.4377796008261
 42
0.0
 10
454.2056391853462
 20
109.2877796008256
 42
0.0
 10
476.7182773163476
 20
109.2877796008258
 42
0.0
 10
478.5378803775781
 20
108.2877796008258
 42
0.0
 10
491.7182773163476
 20
108.2877796008258
 42
0.0
 10
491.7182773163476
 20
108.0377796008258
 42
0.0
 10
521.7182773163476
 20
108.0377796008258
 42
0.0
 10
523.739003258508
 20
104.5377796008315
 42
0.0
 10
537.4682773163567
 20
104.5377796008256
 42
0.0
 10
537.4682773163567
 20
104.837779600828
 42
0.0
 10
582.1888544529691
 20
104.837779600828
 42
0.0
 10
582.9682773163758
 20
105.2877796008286
 42
0.0
 10
600.8528072625185
 20
105.2877796008281
 42
0.0
 10
600.9682773163758
 20
105.4877796008616
 42
0.0
 10
600.9682773163754
 20
105.8877796008261
 42
-0.4142135623731784
 10
601.3682773163755
 20
106.2877796008262
 42
0.0
 10
608.0819152495385
 20
106.2877796008258
 42
0.0
 10
608.9682773163376
 20
106.0502796008252
 42
0.0
 10
641.5352646144656
 20
106.0502796008254
 42
0.0
 10
641.9682773163567
 20
106.3002796008256
 42
0.0
 10
641.9682773163567
 20
109.3132973174677
 42
0.3989595459737154
 10
641.4944452944783
 20
109.812612084845
 42
0.0
 10
571.2731696665448
 20
113.4927531989266
 42
-0.3009658391327272
 97
        0
 92
       22
 72
     0
 73
     1
 93
        8
 10
613.3682773163569
 20
108.0877796008254
 10
636.5682773163578
 20
108.0877796008255
 10
635.2182773163572
 20
106.7377796008254
 10
628.9182773163568
 20
106.7377796008254
 10
627.8682773163597
 20
107.7877796008258
 10
622.0682773163584
 20
107.7877796008258
 10
621.0182773163576
 20
106.7377796008254
 10
614.7182773163585
 20
106.737779600825
 97
        0
 92
       23
 72
     0
 73
     1
 93
        4
 10
476.7182773163476
 20
109.2877796008258
 10
454.2056391853462
 20
109.2877796008256
 10
454.7880516453339
 20
108.2877796008258
 10
476.7182773163476
 20
108.2877796008258
 97
        0
 92
       23
 72
     0
 73
     1
 93
        4
 10
600.8528072625185
 20
105.2877796008281
 10
582.9682773163758
 20
105.2877796008286
 10
582.9682773163758
 20
104.837779600828
 10
600.5929996413828
 20
104.837779600828
 97
        0
 75
     1
 76
     1
 52
0.0
 41
1.0
 77
     0
 78
     1
 53
45.0
 43
-173.5152294265003
 44
-337.547313735408
 45
-2.245064030267287
 46
2.245064030267288
 79
     0
 47
0.0945795725614128
 98
        4
 10
526.431596472792
 20
114.6612360589764
 10
526.431596472792
 20
114.6612360589764
 10
470.5107571419493
 20
108.6764764658133
 10
593.7017663980095
 20
105.1350355479916
1001
GRADIENTCOLOR1ACI
1070
     5
1001
GRADIENTCOLOR2ACI
1070
     2
1001
ACAD
1010
0.0
1020
0.0
1030
0.0
  0
LINE
  5
22852
330
2
100
AcDbEntity
  8
0
  6
Continuous
 62
     7
100
AcDbLine
 10
514.9682773163476
 20
123.5127796008257
 30
0.0
 11
448.2396996768493
 21
113.781529329643
 31
0.0
1001
ACAD
1000
ASC_BOUNDS
1002
{
1070
    19
1002
}
  0
ARC
  5
22853
330
2
100
AcDbEntity
  8
0
  6
Continuous
 62
     7
100
AcDbCircle
 10
448.4962773163476
 20
112.0221396869233
 30
0.0
 40
1.778
100
AcDbArc
 50
98.29714443631258
 51
180.0
1001
ACAD
1000
ASC_BOUNDS
1002
{
1070
    19
1002
}
  0
LINE
  5
22854
330
2
100
AcDbEntity
  8
0
  6
Continuous
100
AcDbLine
 10
448.4503281239167
 20
109.4377796008257
 30
0.0
 11
454.1182773163477
 21
109.4377796008261
 31
0.0
  0
LINE
  5
22855
330
2
100
AcDbEntity
  8
0
  6
Continuous
 62
     7
100
AcDbLine
 10
514.9682773163476
 20
79.0627796008257
 30
0.0
 11
448.2396996768493
 21
88.79402987200865
 31
0.0
1001
ACAD
1000
ASC_BOUNDS
1002
{
1070
    19
1002
}
  0
ARC
  5
22856
330
2
100
AcDbEntity
  8
0
  6
Continuous
 62
     7
100
AcDbCircle
 10
448.4962773163479
 20
90.55341951472838
 30
0.0
 40
1.778
100
AcDbArc
 50
180.0
 51
261.7028555636874
1001
ACAD
1000
ASC_BOUNDS
1002
{
1070
    19
1002
}
  0
LINE
  5
22857
330
2
100
AcDbEntity
  8
0
  6
Continuous
100
AcDbLine
 10
446.7182773163476
 20
101.2877796008258
 30
0.0
 11
446.7182773163476
 21
90.55341951472838
 31
0.0
  0
LINE
  5
22858
330
2
100
AcDbEntity
  8
0
  6
Continuous
100
AcDbLine
 10
446.7182773163476
 20
101.2877796008258
 30
0.0
 11
446.7182773163476
 21
112.0221396869233
 31
0.0
  0
POINT
  5
22859
330
2
100
AcDbEntity
  8
DEFPOINTS
  6
ByBlock
 62
     0
100
AcDbPoint
 10
446.7182773163476
 20
101.2877796008258
 30
0.0
  0
LINE
  5
2285A
330
2
100
AcDbEntity
  8
0
  6
Continuous
100
AcDbLine
 10
446.7182773163476
 20
110.9377796008257
 30
0.0
 11
446.7182773163476
 21
112.0221396869233
 31
0.0
  0
LINE
  5
2285B
330
2
100
AcDbEntity
  8
0
  6
Continuous
100
AcDbLine
 10
522.3294931477044
 20
69.53777960082584
 30
0.0
 11
518.9432773163475
 21
69.53777960082584
 31
0.0
  0
LINE
  5
2285C
330
2
100
AcDbEntity
  8
0
  6
Continuous
100
AcDbLine
 10
491.7182773163476
 20
108.2877796008258
 30
0.0
 11
454.7880516453338
 21
108.2877796008258
 31
0.0
  0
LINE
  5
2285D
330
2
100
AcDbEntity
  8
0
  6
Continuous
 62
     3
100
AcDbLine
 10
476.7182773163476
 20
109.2877796008258
 30
0.0
 11
454.2056391853462
 21
109.2877796008256
 31
0.0
  0
LINE
  5
2285E
330
2
100
AcDbEntity
  8
0
  6
Continuous
100
AcDbLine
 10
454.1182773163477
 20
109.4377796008261
 30
0.0
 11
454.7880516453338
 21
108.287779600826
 31
0.0
  0
POINT
  5
2285F
330
2
100
AcDbEntity
  8
DEFPOINTS
  6
ByBlock
 62
     0
100
AcDbPoint
 10
453.9682773163476
 20
109.4377796008257
 30
0.0
  0
LINE
  5
22860
330
2
100
AcDbEntity
  8
0
  6
Continuous
100
AcDbLine
 10
454.1182773163477
 20
101.2877796008258
 30
0.0
 11
454.1182773163477
 21
109.4377796008259
 31
0.0
1001
ACAD
1000
ASC_BOUNDS
1002
{
1070
    19
1005
0
1002
}
  0
LINE
  5
22861
330
2
100
AcDbEntity
  8
0
  6
Continuous
100
AcDbLine
 10
454.7880516453338
 20
108.287779600826
 30
0.0
 11
454.7880516453338
 21
101.287779600826
 31
0.0
  0
LINE
  5
22862
330
2
100
AcDbEntity
  8
0
  6
Continuous
 62
     3
100
AcDbLine
 10
476.7182773163476
 20
109.2877796008258
 30
0.0
 11
478.5378803775781
 21
108.2877796008258
 31
0.0
  0
LINE
  5
22863
330
2
100
AcDbEntity
  8
0
  6
Continuous
 62
     2
100
AcDbLine
 10
476.7182773163476
 20
109.2877796008258
 30
0.0
 11
476.7182773163476
 21
101.2877796008258
 31
0.0
  0
LINE
  5
22864
330
2
100
AcDbEntity
  8
0
  6
Continuous
100
AcDbLine
 10
491.7182773163476
 20
108.2877796008258
 30
0.0
 11
491.7182773163476
 21
101.2877796008258
 31
0.0
  0
LINE
  5
22865
330
2
100
AcDbEntity
  8
0
  6
Continuous
100
AcDbLine
 10
522.6181682822994
 20
69.62953131036215
 30
0.0
 11
522.6181682822989
 21
93.0962796008257
 31
0.0
  0
LINE
  5
22866
330
2
100
AcDbEntity
  8
0
  6
Continuous
100
AcDbLine
 10
524.2265773163476
 20
93.0962796008257
 30
0.0
 11
524.2265773163476
 21
72.32362576715058
 31
0.0
  0
LINE
  5
22867
330
2
100
AcDbEntity
  8
0
  6
Continuous
100
AcDbLine
 10
529.6703863503958
 20
69.62953131036215
 30
0.0
 11
529.6703863503962
 21
93.0962796008257
 31
0.0
  0
LINE
  5
22868
330
2
100
AcDbEntity
  8
0
  6
Continuous
100
AcDbLine
 10
528.0619773163476
 20
93.0962796008257
 30
0.0
 11
528.0619773163477
 21
72.32362576715058
 31
0.0
  0
LINE
  5
22869
330
2
100
AcDbEntity
  8
0
  6
Continuous
100
AcDbLine
 10
533.2182773163476
 20
69.53777960082584
 30
0.0
 11
529.9590614849912
 21
69.53777960082584
 31
0.0
  0
LINE
  5
2286A
330
2
100
AcDbEntity
  8
0
  6
Continuous
100
AcDbLine
 10
524.2442773163479
 20
73.13777960082598
 30
0.0
 11
528.0442773163477
 21
73.13777960082598
 31
0.0
  0
LINE
  5
2286B
330
2
100
AcDbEntity
  8
0
  6
Continuous
100
AcDbLine
 10
524.2265773163476
 20
72.32362576715058
 30
0.0
 11
522.7625058495964
 21
69.78777960082584
 31
0.0
  0
ARC
  5
2286C
330
2
100
AcDbEntity
  8
0
  6
Continuous
100
AcDbCircle
 10
522.3294931477044
 20
70.03777960082584
 30
0.0
 40
0.5
100
AcDbArc
 50
270.0
 51
330.0000000000111
  0
LINE
  5
2286D
330
2
100
AcDbEntity
  8
0
  6
Continuous
100
AcDbLine
 10
528.0619773163477
 20
72.32362576715058
 30
0.0
 11
529.5260487830987
 21
69.78777960082584
 31
0.0
  0
POINT
  5
2286E
330
2
100
AcDbEntity
  8
DEFPOINTS
  6
ByBlock
 62
     0
100
AcDbPoint
 10
528.0442773163477
 20
73.13777960082598
 30
0.0
  0
POINT
  5
2286F
330
2
100
AcDbEntity
  8
DEFPOINTS
  6
ByBlock
 62
     0
100
AcDbPoint
 10
528.0442773163477
 20
72.3459023043315
 30
0.0
  0
ARC
  5
22870
330
2
100
AcDbEntity
  8
0
  6
Continuous
100
AcDbCircle
 10
529.9590614849912
 20
70.03777960082584
 30
0.0
 40
0.5
100
AcDbArc
 50
209.9999999999889
 51
270.0
  0
LINE
  5
22871
330
2
100
AcDbEntity
  8
0
  6
Continuous
100
AcDbLine
 10
522.3294931477044
 20
133.0377796008258
 30
0.0
 11
518.9432773163475
 21
133.0377796008258
 31
0.0
  0
LINE
  5
22872
330
2
100
AcDbEntity
  8
0
  6
Continuous
100
AcDbLine
 10
524.2442773163479
 20
129.4377796008257
 30
0.0
 11
528.0442773163477
 21
129.4377796008257
 31
0.0
  0
ARC
  5
22873
330
2
100
AcDbEntity
  8
0
  6
Continuous
100
AcDbCircle
 10
522.3294931477044
 20
132.5377796008258
 30
0.0
 40
0.5
100
AcDbArc
 50
29.99999999998891
 51
90.0
  0
LINE
  5
22874
330
2
100
AcDbEntity
  8
0
  6
Continuous
100
AcDbLine
 10
524.2265773163476
 20
129.4377796008257
 30
0.0
 11
524.2265773163476
 21
130.2519334345008
 31
0.0
  0
POINT
  5
22875
330
2
100
AcDbEntity
  8
DEFPOINTS
  6
ByBlock
 62
     0
100
AcDbPoint
 10
524.2442773163479
 20
130.2296568973204
 30
0.0
  0
LINE
  5
22876
330
2
100
AcDbEntity
  8
0
  6
Continuous
100
AcDbLine
 10
524.2265773163476
 20
130.2519334345011
 30
0.0
 11
522.7625058495964
 21
132.7877796008258
 31
0.0
  0
LINE
  5
22877
330
2
100
AcDbEntity
  8
0
  6
Continuous
100
AcDbLine
 10
528.0619773163476
 20
129.4377796008257
 30
0.0
 11
528.0619773163476
 21
130.2519334345008
 31
0.0
  0
POINT
  5
22878
330
2
100
AcDbEntity
  8
DEFPOINTS
  6
ByBlock
 62
     0
100
AcDbPoint
 10
528.0442773163477
 20
130.2296568973204
 30
0.0
  0
POINT
  5
22879
330
2
100
AcDbEntity
  8
DEFPOINTS
  6
ByBlock
 62
     0
100
AcDbPoint
 10
528.0442773163477
 20
129.4377796008257
 30
0.0
  0
LINE
  5
2287A
330
2
100
AcDbEntity
  8
0
  6
Continuous
100
AcDbLine
 10
528.0619773163476
 20
130.2519334345011
 30
0.0
 11
529.5260487830987
 21
132.7877796008258
 31
0.0
  0
ARC
  5
2287B
330
2
100
AcDbEntity
  8
0
  6
Continuous
100
AcDbCircle
 10
529.9590614849912
 20
132.5377796008258
 30
0.0
 40
0.5
100
AcDbArc
 50
90.0
 51
150.0000000000111
  0
LINE
  5
2287C
330
2
100
AcDbEntity
  8
0
  6
Continuous
100
AcDbLine
 10
533.2182773163476
 20
133.0377796008258
 30
0.0
 11
529.9590614849912
 21
133.0377796008258
 31
0.0
  0
LINE
  5
2287D
330
2
100
AcDbEntity
  8
0
  6
ByBlock
 62
     0
100
AcDbLine
 10
491.7182773163476
 20
108.0377796008258
 30
0.0
 11
521.7182773163476
 21
108.0377796008258
 31
0.0
  0
LINE
  5
2287E
330
2
100
AcDbEntity
  8
0
  6
Continuous
100
AcDbLine
 10
446.7182773163476
 20
110.4377796008257
 30
0.0
 11
448.4503281239167
 21
109.4377796008257
 31
0.0
  0
LINE
  5
2287F
330
2
100
AcDbEntity
  8
0
  6
Continuous
100
AcDbLine
 10
448.4503281239167
 20
109.4377796008257
 30
0.0
 11
448.4503281239167
 21
101.2877796008258
 31
0.0
  0
LINE
  5
22880
330
2
100
AcDbEntity
  8
0
  6
Continuous
100
AcDbLine
 10
534.0182773163475
 20
70.3377796008258
 30
0.0
 11
534.0182773163478
 21
101.2877796008258
 31
0.0
  0
ARC
  5
22881
330
2
100
AcDbEntity
  8
0
  6
Continuous
100
AcDbCircle
 10
533.2182773163476
 20
70.3377796008258
 30
0.0
 40
0.8
100
AcDbArc
 50
270.0
 51
0.0
  0
LINE
  5
22882
330
2
100
AcDbEntity
  8
0
  6
Continuous
100
AcDbLine
 10
518.1432773163476
 20
93.0962796008257
 30
0.0
 11
534.0182773163478
 21
93.0962796008257
 31
0.0
  0
LINE
  5
22883
330
2
100
AcDbEntity
  8
0
  6
Continuous
100
AcDbLine
 10
534.0182773163475
 20
132.2377796008259
 30
0.0
 11
534.0182773163475
 21
124.6877796008257
 31
0.0
  0
ARC
  5
22884
330
2
100
AcDbEntity
  8
0
  6
Continuous
100
AcDbCircle
 10
533.2182773163476
 20
132.2377796008259
 30
0.0
 40
0.8
100
AcDbArc
 50
0.0
 51
90.0
  0
ARC
  5
22885
330
2
100
AcDbEntity
  8
0
  6
Continuous
100
AcDbCircle
 10
526.1442773163476
 20
101.2877796008258
 30
0.0
 40
4.7625
100
AcDbArc
 50
180.0
 51
0.0
  0
ARC
  5
22886
330
2
100
AcDbEntity
  8
0
  6
Continuous
100
AcDbCircle
 10
518.9432773163475
 20
70.3377796008258
 30
0.0
 40
0.8
100
AcDbArc
 50
180.0
 51
270.0
  0
ARC
  5
22887
330
2
100
AcDbEntity
  8
0
  6
Continuous
100
AcDbCircle
 10
518.9432773163475
 20
132.2377796008259
 30
0.0
 40
0.8
100
AcDbArc
 50
90.0
 51
180.0
  0
LINE
  5
22888
330
2
100
AcDbEntity
  8
0
  6
Continuous
100
AcDbLine
 10
514.9682773163476
 20
79.0627796008257
 30
0.0
 11
514.9682773163476
 21
101.2877796008258
 31
0.0
  0
LINE
  5
22889
330
2
100
AcDbEntity
  8
0
  6
Continuous
100
AcDbLine
 10
518.1432773163476
 20
123.088507360462
 30
0.0
 11
518.1432773163476
 21
132.2377796008259
 31
0.0
  0
LINE
  5
2288A
330
2
100
AcDbEntity
  8
0
  6
Continuous
100
AcDbLine
 10
518.1432773163476
 20
101.2877796008258
 30
0.0
 11
518.1432773163476
 21
70.3377796008258
 31
0.0
  0
ARC
  5
2288B
330
2
100
AcDbEntity
  8
0
  6
Continuous
100
AcDbCircle
 10
517.6432773163476
 20
78.98705184118944
 30
0.0
 40
0.5
100
AcDbArc
 50
0.0
 51
90.0
  0
LINE
  5
2288C
330
2
100
AcDbEntity
  8
0
  6
Continuous
100
AcDbLine
 10
514.9682773163476
 20
79.0627796008257
 30
0.0
 11
516.5516828736262
 21
79.48705184118967
 31
0.0
  0
LINE
  5
2288D
330
2
100
AcDbEntity
  8
0
  6
Continuous
100
AcDbLine
 10
516.5516828736262
 20
79.48705184118967
 30
0.0
 11
517.6432773163476
 21
79.48705184118944
 31
0.0
  0
LINE
  5
2288E
330
2
100
AcDbEntity
  8
0
  6
Continuous
100
AcDbLine
 10
516.5516828736262
 20
123.088507360462
 30
0.0
 11
518.243277316348
 21
123.088507360462
 31
0.0
  0
LINE
  5
2288F
330
2
100
AcDbEntity
  8
0
  6
Continuous
100
AcDbLine
 10
514.9682773163476
 20
123.5127796008257
 30
0.0
 11
516.5516828736262
 21
123.088507360462
 31
0.0
  0
LINE
  5
22890
330
2
100
AcDbEntity
  8
0
  6
Continuous
 62
     0
100
AcDbLine
 10
516.5516828736262
 20
79.48705184118967
 30
0.0
 11
516.5516828736262
 21
101.2877796008258
 31
0.0
  0
ARC
  5
22891
330
2
100
AcDbEntity
  8
0
  6
Continuous
100
AcDbCircle
 10
518.243277316348
 20
123.3885073604615
 30
0.0
 40
0.3
100
AcDbArc
 50
270.0
 51
0.0
1001
ACAD
1000
ASC_BOUNDS
1002
{
1070
    19
1002
}
  0
LINE
  5
22892
330
2
100
AcDbEntity
  8
0
  6
Continuous
100
AcDbLine
 10
518.5432773163472
 20
123.3885073604615
 30
0.0
 11
518.5432773163472
 21
124.2956870374364
 31
0.0
  0
LINE
  5
22893
330
2
100
AcDbEntity
  8
0
  6
Continuous
100
AcDbLine
 10
518.1432773163476
 20
124.98850736046
 30
0.0
 11
518.5432773163472
 21
124.2956870374346
 31
0.0
  0
ARC
  5
22894
330
2
100
AcDbEntity
  8
0
  6
Continuous
 62
     7
100
AcDbCircle
 10
534.4182773163474
 20
124.6877796008257
 30
0.0
 40
0.4
100
AcDbArc
 50
180.0
 51
270.0
  0
LINE
  5
22895
330
2
100
AcDbEntity
  8
0
  6
Continuous
 62
     7
100
AcDbLine
 10
521.7182773163476
 20
108.0377796008258
 30
0.0
 11
521.7182773163476
 21
101.2877796008258
 31
0.0
  0
ARC
  5
22896
330
2
100
AcDbEntity
  8
0
  6
Continuous
 62
     7
100
AcDbCircle
 10
534.4182773163477
 20
77.88777960082597
 30
0.0
 40
0.4
100
AcDbArc
 50
90.0
 51
180.0
  0
LINE
  5
22897
330
2
100
AcDbEntity
  8
0
100
AcDbLine
 10
523.739003258508
 20
104.5377796008315
 30
0.0
 11
537.4682773163567
 21
104.5377796008256
 31
0.0
  0
LINE
  5
22898
330
2
100
AcDbEntity
  8
0
  6
Continuous
 62
     7
100
AcDbLine
 10
521.7182773163476
 20
108.0377796008258
 30
0.0
 11
523.739003258508
 21
104.5377796008315
 31
0.0
  0
LINE
  5
22899
330
2
100
AcDbEntity
  8
0
  6
Continuous
 62
     7
100
AcDbLine
 10
523.739003258508
 20
104.5377796008315
 30
0.0
 11
523.739003258508
 21
101.2877796008258
 31
0.0
  0
LINE
  5
2289A
330
2
100
AcDbEntity
  8
0
  6
HIDDEN
 62
     2
100
AcDbLine
 10
541.9418182497038
 20
97.01694830001271
 30
0.0
 11
534.0182773163478
 21
97.01694830001271
 31
0.0
  0
ARC
  5
2289B
330
2
100
AcDbEntity
  8
0
  6
HIDDEN
 62
     2
100
AcDbCircle
 10
534.9517773163475
 20
101.2877796008258
 30
0.0
 40
8.191500000000019
100
AcDbArc
 50
328.5755694076252
 51
0.0
  0
LINE
  5
2289C
330
2
100
AcDbEntity
  8
0
  6
CENTER
 62
     3
100
AcDbLine
 10
535.4682773163567
 20
101.287779600826
 30
0.0
 11
643.9682773163568
 21
101.2877796008251
 31
0.0
  0
LINE
  5
2289D
330
2
100
AcDbEntity
  8
0
  6
ByBlock
 62
     0
100
AcDbLine
 10
613.3682773163569
 20
108.0877796008254
 30
0.0
 11
636.5682773163576
 21
108.0877796008255
 31
0.0
  0
LINE
  5
2289E
330
2
100
AcDbEntity
  8
0
  6
Continuous
 62
     7
100
AcDbLine
 10
534.4182773163479
 20
78.28777960082857
 30
0.0
 11
562.7018343490986
 21
78.28777960082067
 31
0.0
  0
LINE
  5
2289F
330
2
100
AcDbEntity
  8
0
  6
Continuous
 62
     7
100
AcDbLine
 10
534.4182773163477
 20
124.2877796008228
 30
0.0
 11
562.7018343490986
 21
124.2877796008306
 31
0.0
  0
LINE
  5
228A0
330
2
100
AcDbEntity
  8
0
  6
Continuous
 62
     7
100
AcDbLine
 10
641.9682773163567
 20
101.2877796008252
 30
0.0
 11
641.9682773163567
 21
93.26226188418351
 31
0.0
  0
ARC
  5
228A1
330
2
100
AcDbEntity
  8
0
  6
Continuous
 62
     7
100
AcDbCircle
 10
641.4682773163569
 20
93.26226188418349
 30
0.0
 40
0.5
100
AcDbArc
 50
272.9999999999991
 51
0.0
  0
LINE
  5
228A2
330
2
100
AcDbEntity
  8
0
  6
Continuous
 62
     7
100
AcDbLine
 10
567.9682773163567
 20
101.2877796008252
 30
0.0
 11
567.9682773163567
 21
87.59387910274654
 31
0.0
  0
LINE
  5
228B0
330
2
100
AcDbEntity
  8
0
  6
Continuous
 62
     7
100
AcDbLine
 10
641.4944452944783
 20
109.812612084845
 30
0.0
 11
571.2731696665448
 21
113.4927531989274
 31
0.0
  0
LINE
  5
228B1
330
2
100
AcDbEntity
  8
0
  6
Continuous
 62
     7
100
AcDbLine
 10
566.8363863438298
 20
85.79975904557944
 30
0.0
 11
564.5812195906708
 21
79.60373931416938
 31
0.0
  0
ARC
  5
228B2
330
2
100
AcDbEntity
  8
0
  6
Continuous
 62
     7
100
AcDbCircle
 10
562.701834349099
 20
80.28777960082067
 30
0.0
 40
2.0
100
AcDbArc
 50
269.999999999987
 51
339.9999999999988
  0
LINE
  5
228B3
330
2
100
AcDbEntity
  8
0
  6
Continuous
 62
     7
100
AcDbLine
 10
641.4944452944784
 20
92.76294711680622
 30
0.0
 11
571.2731696665448
 21
89.08280600272382
 31
0.0
  0
ARC
  5
228B4
330
2
100
AcDbEntity
  8
0
  6
Continuous
 62
     7
100
AcDbCircle
 10
571.5348494477596
 20
84.08965832895104
 30
0.0
 40
5.0
100
AcDbArc
 50
93.0000000000056
 51
159.9999999999988
  0
LINE
  5
228B5
330
2
100
AcDbEntity
  8
0
  6
Continuous
 62
     7
100
AcDbLine
 10
564.1022494255182
 20
78.85990088967691
 30
0.0
 11
564.1022494255182
 21
101.2877796008256
 31
0.0
  0
LINE
  5
228B6
330
2
100
AcDbEntity
  8
0
  6
Continuous
 62
     7
100
AcDbLine
 10
566.83638634383
 20
116.7758001560712
 30
0.0
 11
564.5812195906708
 21
122.9718198874811
 31
0.0
  0
ARC
  5
228B7
330
2
100
AcDbEntity
  8
0
  6
Continuous
 62
     7
100
AcDbCircle
 10
562.701834349099
 20
122.2877796008299
 30
0.0
 40
2.0
100
AcDbArc
 50
20.00000000000123
 51
90.00000000001303
  0
ARC
  5
228B8
330
2
100
AcDbEntity
  8
0
  6
Continuous
 62
     7
100
AcDbCircle
 10
571.5348494477596
 20
118.4859008726995
 30
0.0
 40
5.0
100
AcDbArc
 50
200.0000000000012
 51
266.9999999999944
  0
LINE
  5
228B9
330
2
100
AcDbEntity
  8
0
  6
Continuous
 62
     7
100
AcDbLine
 10
537.4682773163567
 20
101.2877796008256
 30
0.0
 11
537.4682773163567
 21
104.837779600828
 31
0.0
  0
LINE
  5
228BA
330
2
100
AcDbEntity
  8
0
  6
Continuous
 62
     0
100
AcDbLine
 10
608.9682773163576
 20
106.0502796008252
 30
0.0
 11
641.5352646144656
 21
106.0502796008254
 31
0.0
1001
ACAD
1000
ASC_BOUNDS
1002
{
1070
    19
1005
0
1002
}
  0
LINE
  5
228BB
330
2
100
AcDbEntity
  8
0
  6
Continuous
 62
     0
100
AcDbLine
 10
641.9682773163565
 20
109.3132973174677
 30
0.0
 11
641.9682773163567
 21
101.2877796008256
 31
0.0
1001
ACAD
1000
ASC_BOUNDS
1002
{
1070
    19
1005
0
1002
}
  0
ARC
  5
228BC
330
2
100
AcDbEntity
  8
0
  6
Continuous
 62
     0
100
AcDbCircle
 10
641.4682773163567
 20
109.3132973174677
 30
0.0
 40
0.5
100
AcDbArc
 50
0.0
 51
87.00000000000093
1001
ACAD
1000
ASC_BOUNDS
1002
{
1070
    19
1005
0
1002
}
  0
LINE
  5
228BD
330
2
100
AcDbEntity
  8
0
  6
Continuous
 62
     0
100
AcDbLine
 10
641.9682773163567
 20
106.3002796008256
 30
0.0
 11
641.5352646144656
 21
106.0502796008254
 31
0.0
  0
LINE
  5
228BE
330
2
100
AcDbEntity
  8
0
  6
Continuous
 62
     0
100
AcDbLine
 10
641.5352646144656
 20
106.0502796008256
 30
0.0
 11
641.5352646144656
 21
101.287779600824
 31
0.0
  0
LINE
  5
228BF
330
2
100
AcDbEntity
  8
0
100
AcDbLine
 10
537.4682773163567
 20
104.837779600828
 30
0.0
 11
600.5929996413828
 21
104.837779600828
 31
0.0
  0
LINE
  5
228C0
330
2
100
AcDbEntity
  8
0
 62
     3
100
AcDbLine
 10
582.9682773163758
 20
105.2877796008286
 30
0.0
 11
600.8528072625185
 21
105.2877796008281
 31
0.0
  0
LINE
  5
228C1
330
2
100
AcDbEntity
  8
0
  6
Continuous
 62
     7
100
AcDbLine
 10
600.5929996413828
 20
104.837779600828
 30
0.0
 11
600.5929996413828
 21
101.2877796008281
 31
0.0
  0
LINE
  5
228C2
330
2
100
AcDbEntity
  8
0
  6
Continuous
 62
     7
100
AcDbLine
 10
600.9682773163567
 20
105.4877796008284
 30
0.0
 11
600.5929996413828
 21
104.837779600828
 31
0.0
  0
LINE
  5
228C3
330
2
100
AcDbEntity
  8
0
  6
Continuous
 62
     7
100
AcDbLine
 10
600.9682773163758
 20
105.8877796008262
 30
0.0
 11
600.9682773163767
 21
101.2877796008251
 31
0.0
  0
LINE
  5
228C4
330
2
100
AcDbEntity
  8
0
  6
Continuous
 62
     2
100
AcDbLine
 10
582.9682773163758
 20
105.2877796008286
 30
0.0
 11
582.9682773163767
 21
101.2877796008217
 31
0.0
  0
LINE
  5
228C5
330
2
100
AcDbEntity
  8
0
  6
Continuous
 62
     7
100
AcDbLine
 10
608.0819152495385
 20
106.2877796008258
 30
0.0
 11
601.3682773163755
 21
106.287779600826
 31
0.0
  0
ARC
  5
228C6
330
2
100
AcDbEntity
  8
0
  6
Continuous
 62
     7
100
AcDbCircle
 10
601.3682773163755
 20
105.8877796008262
 30
0.0
 40
0.4
100
AcDbArc
 50
90.0
 51
180.0
  0
LINE
  5
228C7
330
2
100
AcDbEntity
  8
0
  6
Continuous
 62
     3
100
AcDbLine
 10
582.9682773163758
 20
105.2877796008286
 30
0.0
 11
582.1888544529691
 21
104.837779600828
 31
0.0
  0
LINE
  5
228C8
330
2
100
AcDbEntity
  8
0
  6
Continuous
 62
     0
100
AcDbLine
 10
608.9682773163376
 20
106.0502796008252
 30
0.0
 11
608.0819152495385
 21
106.2877796008258
 31
0.0
  0
LINE
  5
228C9
330
2
100
AcDbEntity
  8
0
  6
Continuous
 62
     0
100
AcDbLine
 10
608.9682773163576
 20
101.2877796008258
 30
0.0
 11
608.9682773163576
 21
106.05027960082
 31
0.0
  0
LINE
  5
228CA
330
2
100
AcDbEntity
  8
0
  6
Continuous
 62
     7
100
AcDbLine
 10
628.9182773163568
 20
106.7377796008254
 30
0.0
 11
635.2182773163572
 21
106.7377796008254
 31
0.0
1001
ACAD
1000
ASC_BOUNDS
1002
{
1070
    19
1005
0
1002
}
  0
LINE
  5
228CB
330
2
100
AcDbEntity
  8
0
  6
Continuous
 62
     7
100
AcDbLine
 10
614.7182773163585
 20
106.737779600825
 30
0.0
 11
621.0182773163576
 21
106.7377796008254
 31
0.0
1001
ACAD
1000
ASC_BOUNDS
1002
{
1070
    19
1005
0
1002
}
  0
LINE
  5
228CC
330
2
100
AcDbEntity
  8
0
  6
Continuous
 62
     7
100
AcDbLine
 10
613.3682773163569
 20
108.0877796008254
 30
0.0
 11
614.7182773163585
 21
106.737779600825
 31
0.0
1001
ACAD
1000
ASC_BOUNDS
1002
{
1070
    19
1005
0
1002
}
  0
LINE
  5
228CD
330
2
100
AcDbEntity
  8
0
  6
Continuous
 62
     7
100
AcDbLine
 10
627.8682773163597
 20
107.7877796008258
 30
0.0
 11
628.9182773163568
 21
106.7377796008254
 31
0.0
1001
ACAD
1000
ASC_BOUNDS
1002
{
1070
    19
1005
0
1002
}
  0
LINE
  5
228CE
330
2
100
AcDbEntity
  8
0
  6
Continuous
 62
     7
100
AcDbLine
 10
622.0682773163584
 20
107.7877796008258
 30
0.0
 11
621.0182773163576
 21
106.7377796008254
 31
0.0
1001
ACAD
1000
ASC_BOUNDS
1002
{
1070
    19
1005
0
1002
}
  0
LINE
  5
228CF
330
2
100
AcDbEntity
  8
0
  6
Continuous
 62
     7
100
AcDbLine
 10
622.0682773163584
 20
107.7877796008258
 30
0.0
 11
627.8682773163597
 21
107.7877796008258
 31
0.0
  0
LINE
  5
228D0
330
2
100
AcDbEntity
  8
0
  6
Continuous
 62
     7
100
AcDbLine
 10
636.5682773163585
 20
108.0877796008262
 30
0.0
 11
635.2182773163572
 21
106.7377796008254
 31
0.0
1001
ACAD
1000
ASC_BOUNDS
1002
{
1070
    19
1005
0
1002
}
  0
LINE
  5
228D1
330
2
100
AcDbEntity
  8
0
  6
Continuous
 62
     0
100
AcDbLine
 10
608.0819152495385
 20
106.2877796008258
 30
0.0
 11
608.0819152495385
 21
101.2877796008258
 31
0.0
  0
LINE
  5
22AC4
330
2
100
AcDbEntity
  8
0
  6
Continuous
 62
     3
100
AcDbLine
 10
567.9682773163567
 20
86.82612584646813
 30
0.0
 11
567.9682773163567
 21
51.55857384571789
 31
0.0
  0
MTEXT
  5
22AC5
330
2
100
AcDbEntity
  8
0
  6
Continuous
 62
     2
100
AcDbMText
 10
567.6744633832092
 20
49.0770001213374
 30
0.0
 40
3.0
 41
0.0
 46
0.0
 71
     5
 72
     1
  1
2.09
 73
     1
 44
1.0
  0
LINE
  5
22AC6
330
2
100
AcDbEntity
  8
0
  6
Continuous
 62
     3
100
AcDbLine
 10
641.9682773163567
 20
92.43762991513131
 30
0.0
 11
641.9682773163567
 21
51.55857384571788
 31
0.0
  0
MTEXT
  5
22AC7
330
2
100
AcDbEntity
  8
0
  6
Continuous
 62
     2
100
AcDbMText
 10
641.6744633832093
 20
49.07700012133739
 30
0.0
 40
3.0
 41
0.0
 46
0.0
 71
     5
 72
     1
  1
5.00
 73
     1
 44
1.0
  0
DIMENSION
  5
22AC8
330
2
100
AcDbEntity
  8
0
  6
Continuous
 62
     7
100
AcDbDimension
280
     0
  2
*D8
 10
552.7481285748394
 20
124.2877796008267
 30
0.0
 11
552.7481285748394
 21
133.2364348989192
 31
0.0
 70
   160
  1
%%C1.81
 71
     5
 42
46.0000000000021
 73
     0
 74
     0
 75
     0
  3
Standard$0
100
AcDbAlignedDimension
 13
548.5600558327233
 23
78.28777960082462
 33
0.0
 14
548.560055832723
 24
124.2877796008267
 34
0.0
 50
90.0
100
AcDbRotatedDimension
1001
ACAD
1000
DSTYLE
1002
{
1070
    42
1040
0.625
1070
    43
1040
3.75
1070
    44
1040
1.25
1070
    48
1040
0.000000001
1070
    74
1070
     0
1070
    77
1070
     1
1070
    90
1070
     1
1070
   140
1040
3.0
1070
   141
1040
-0.5
1070
   143
1040
0.03937007874016
1070
   146
1040
0.7
1070
   147
1040
0.625
1070
   171
1070
     3
1070
   172
1070
     1
1070
   175
1070
     0
1070
   179
1070
     0
1070
   274
1070
     3
1070
   283
1070
     0
1070
   284
1070
     8
1070
   340
1005
25
1070
   371
1070
    -1
1070
   372
1070
    -1
1002
}
  0
DIMENSION
  5
22B1C
330
2
100
AcDbEntity
  8
0
  6
Continuous
 62
     7
100
AcDbDimension
280
     0
  2
*D9
 10
641.4682773163576
 20
93.26226188418331
 30
0.0
 11
650.583662152524
 21
87.51354584868119
 31
0.0
 70
    36
  1
R0.02
 71
     5
 42
0.4999999999994884
 73
     0
 74
     0
 75
     0
  3
Standard
100
AcDbRadialDimension
 15
641.8302912396586
 25
92.91737651288485
 35
0.0
 40
0.0
1001
ACAD
1000
DSTYLE
1002
{
1070
    42
1040
0.625
1070
    43
1040
3.75
1070
    44
1040
1.25
1070
    48
1040
0.000000001
1070
    74
1070
     0
1070
    77
1070
     1
1070
    90
1070
     1
1070
   140
1040
3.0
1070
   141
1040
-0.5
1070
   143
1040
0.03937007874016
1070
   146
1040
0.7
1070
   147
1040
0.625
1070
   171
1070
     3
1070
   172
1070
     1
1070
   175
1070
     0
1070
   179
1070
     1
1070
   274
1070
     3
1070
   283
1070
     0
1070
   284
1070
     8
1070
   288
1070
     1
1070
   340
1005
25
1070
   371
1070
    -1
1070
   372
1070
    -1
1002
}
1001
ACAD_DSTYLE_DIMRADIAL_EXTENSION
1070
   387
1070
     1
1070
   388
1040
4.764748857944503
1070
   390
1040
0.0
  0
DIMENSION
  5
22B26
330
2
100
AcDbEntity
  8
0
  6
Continuous
 62
     7
100
AcDbDimension
280
     0
  2
*D10
 10
571.5348494477596
 20
84.08965832895081
 30
0.0
 11
574.8583062238587
 21
80.38600966568603
 31
0.0
 70
   164
  1
R0.20
 71
     5
 42
5.000000000000341
 73
     0
 74
     0
 75
     0
  3
Standard
100
AcDbRadialDimension
 15
568.1954846741161
 25
87.81103480930765
 35
0.0
 40
0.0
1001
ACAD
1000
DSTYLE
1002
{
1070
    42
1040
0.625
1070
    43
1040
3.75
1070
    44
1040
1.25
1070
    48
1040
0.000000001
1070
    74
1070
     0
1070
    77
1070
     1
1070
    90
1070
     1
1070
   140
1040
3.0
1070
   141
1040
-0.5
1070
   143
1040
0.03937007874016
1070
   146
1040
0.7
1070
   147
1040
0.625
1070
   171
1070
     3
1070
   172
1070
     1
1070
   175
1070
     0
1070
   179
1070
     1
1070
   274
1070
     3
1070
   283
1070
     0
1070
   284
1070
     8
1070
   288
1070
     1
1070
   340
1005
25
1070
   371
1070
    -1
1070
   372
1070
    -1
1002
}
1001
ACAD_DSTYLE_DIMRADIAL_EXTENSION
1070
   387
1070
     1
1070
   388
1040
1.623156204354823
1070
   390
1040
2.792526803190916
  0
DIMENSION
  5
22B2F
330
2
100
AcDbEntity
  8
0
  6
Continuous
 62
     7
100
AcDbDimension
280
     0
  2
*D11
 10
562.7018343490997
 20
80.2877796008209
 30
0.0
 11
572.1842011810414
 21
72.67194285989197
 31
0.0
 70
    36
  1
R0.08
 71
     5
 42
1.999999999999658
 73
     0
 74
     0
 75
     0
  3
Standard
100
AcDbRadialDimension
 15
564.0183589329506
 25
78.78220229622468
 35
0.0
 40
0.0
1001
ACAD
1000
DSTYLE
1002
{
1070
    42
1040
0.625
1070
    43
1040
3.75
1070
    44
1040
1.25
1070
    48
1040
0.000000001
1070
    74
1070
     0
1070
    77
1070
     1
1070
    90
1070
     1
1070
   140
1040
3.0
1070
   141
1040
-0.5
1070
   143
1040
0.03937007874016
1070
   146
1040
0.7
1070
   147
1040
0.625
1070
   171
1070
     3
1070
   172
1070
     1
1070
   175
1070
     0
1070
   179
1070
     1
1070
   274
1070
     3
1070
   283
1070
     0
1070
   284
1070
     8
1070
   288
1070
     1
1070
   340
1005
25
1070
   371
1070
    -1
1070
   372
1070
    -1
1002
}
1001
ACAD_DSTYLE_DIMRADIAL_EXTENSION
1070
   387
1070
     1
1070
   388
1040
4.712388980384462
1070
   390
1040
5.934119456780709
  0
ENDSEC
  0
SECTION
  2
OBJECTS
  0
DICTIONARY
  5
B
330
0
100
AcDbDictionary
281
     1
  3
ACAD_CIP_PREVIOUS_PRODUCT_INFO
350
BE4
  3
ACAD_COLOR
350
3F
  3
ACAD_DETAILVIEWSTYLE
350
BDC
  3
ACAD_GROUP
350
3A
  3
ACAD_LAYOUT
350
17
  3
ACAD_MATERIAL
350
D
  3
ACAD_MLEADERSTYLE
350
42
  3
ACAD_MLINESTYLE
350
3B
  3
ACAD_PLOTSETTINGS
350
3C
  3
ACAD_PLOTSTYLENAME
350
A
  3
ACAD_SCALELIST
350
40
  3
ACAD_SECTIONVIEWSTYLE
350
BDA
  3
ACAD_TABLESTYLE
350
41
  3
ACAD_VISUALSTYLE
350
2F
  3
ACDB_RECOMPOSE_DATA
350
22CF5
  3
AcDbVariableDictionary
350
BB8
  3
AEC_PROPERTY_SET_DEFS
350
24C9
  0
DICTIONARY
  5
31
330
2C
100
AcDbDictionary
280
     1
281
     1
  0
DICTIONARY
  5
22
330
21
100
AcDbDictionary
280
     1
281
     1
  3
ACAD_LAYERSTATES
360
23
  0
DICTIONARY
  5
7
330
6
100
AcDbDictionary
280
     1
281
     1
  3
ADSK_XREC_LAYER_RECONCILED
360
8
  0
DICTIONARY
  5
3
330
2
100
AcDbDictionary
280
     1
281
     1
  3
ACAD_SORTENTS
360
BB0
  0
XRECORD
  5
BE4
102
{ACAD_REACTORS
330
B
102
}
330
B
100
AcDbXrecord
280
     1
300
ACD
300
2014
300
ACD_F_S
  0
DICTIONARY
  5
3F
102
{ACAD_REACTORS
330
B
102
}
330
B
100
AcDbDictionary
281
     1
  0
DICTIONARY
  5
BDC
102
{ACAD_REACTORS
330
B
102
}
330
B
100
AcDbDictionary
281
     1
  3
Metric50
350
BDD
  0
DICTIONARY
  5
3A
102
{ACAD_REACTORS
330
B
102
}
330
B
100
AcDbDictionary
281
     1
  0
DICTIONARY
  5
17
102
{ACAD_REACTORS
330
B
102
}
330
B
100
AcDbDictionary
281
     1
  3
Model
350
16
  3
배치1
350
1E
  0
DICTIONARY
  5
D
102
{ACAD_REACTORS
330
B
102
}
330
B
100
AcDbDictionary
281
     1
  3
ByBlock
350
3E
  3
ByLayer
350
3D
  3
Global
350
C
  0
DICTIONARY
  5
42
102
{ACAD_REACTORS
330
B
102
}
330
B
100
AcDbDictionary
281
     1
  3
Standard
350
BD9
  0
DICTIONARY
  5
3B
102
{ACAD_REACTORS
330
B
102
}
330
B
100
AcDbDictionary
281
     1
  3
Standard
350
43
  0
DICTIONARY
  5
3C
102
{ACAD_REACTORS
330
B
102
}
330
B
100
AcDbDictionary
281
     1
  0
ACDBDICTIONARYWDFLT
  5
A
102
{ACAD_REACTORS
330
B
102
}
330
B
100
AcDbDictionary
281
     1
  3
Normal
350
9
100
AcDbDictionaryWithDefault
340
9
  0
DICTIONARY
  5
40
102
{ACAD_REACTORS
330
B
102
}
330
B
100
AcDbDictionary
281
     1
  3
A0
350
48
  3
A1
350
49
  3
A2
350
4A
  3
A3
350
4B
  3
A4
350
4C
  3
A5
350
4D
  3
A6
350
4E
  3
A7
350
4F
  3
A8
350
50
  3
A9
350
51
  3
B0
350
52
  3
B1
350
53
  3
B2
350
54
  3
B3
350
55
  3
B4
350
56
  3
B5
350
57
  3
B6
350
58
  0
DICTIONARY
  5
BDA
102
{ACAD_REACTORS
330
B
102
}
330
B
100
AcDbDictionary
281
     1
  3
Metric50
350
BDB
  0
DICTIONARY
  5
41
102
{ACAD_REACTORS
330
B
102
}
330
B
100
AcDbDictionary
281
     1
  3
Standard
350
44
  0
DICTIONARY
  5
2F
102
{ACAD_REACTORS
330
B
102
}
330
B
100
AcDbDictionary
281
     1
  3
2dWireframe
350
2E
  3
3D Hidden
350
1A64
  3
3dWireframe
350
47
  3
Basic
350
BC7
  3
Brighten
350
BCC
  3
ColorChange
350
BD0
  3
Conceptual
350
BCA
  3
Dim
350
BCB
  3
EdgeColorOff
350
BD8
  3
Facepattern
350
BCF
  3
Flat
350
BC3
  3
FlatWithEdges
350
BC4
  3
Gouraud
350
BC5
  3
GouraudWithEdges
350
BC6
  3
Hidden
350
BC9
  3
JitterOff
350
BD6
  3
Linepattern
350
BCE
  3
OverhangOff
350
BD7
  3
Realistic
350
46
  3
Shaded
350
BD5
  3
Shaded with edges
350
BD4
  3
Shades of Gray
350
BD1
  3
Sketchy
350
BD2
  3
Thicken
350
BCD
  3
Wireframe
350
BC8
  3
X-Ray
350
BD3
  0
XRECORD
  5
22CF5
102
{ACAD_REACTORS
330
B
102
}
330
B
100
AcDbXrecord
280
     1
 90
        1
330
44
330
BDB
330
BDD
  0
DICTIONARY
  5
BB8
102
{ACAD_REACTORS
330
B
102
}
330
B
100
AcDbDictionary
281
     1
  3
CANNOSCALE
350
BBE
  3
CMLEADERSTYLE
350
BBA
  3
CTABLESTYLE
350
BB9
  3
CVIEWDETAILSTYLE
350
BBB
  3
CVIEWSECTIONSTYLE
350
BBC
  3
DIMASSOC
350
C3B
  3
HIDETEXT
350
C39
  3
HPCOLOR
350
FF3
  3
INDEXCTL
350
C38
  3
LAYEREVAL
350
BC0
  3
LAYERNOTIFY
350
BC1
  3
LIGHTINGUNITS
350
BBF
  3
MSLTSCALE
350
BBD
  3
SOLIDHIST
350
C3C
  3
SORTENTS
350
C37
  0
DICTIONARY
  5
24C9
102
{ACAD_REACTORS
330
B
102
}
330
B
100
AcDbDictionary
281
     1
  0
DICTIONARY
  5
23
102
{ACAD_REACTORS
330
22
102
}
330
22
100
AcDbDictionary
281
     1
  0
XRECORD
  5
8
102
{ACAD_REACTORS
330
7
102
}
330
7
100
AcDbXrecord
280
     1
290
     1
  0
SORTENTSTABLE
  5
BB0
102
{ACAD_REACTORS
330
3
102
}
330
3
100
AcDbSortentsTable
330
2
331
1DC90
  5
1DC95
331
1DC8A
  5
1DC8F
331
1DCA4
  5
1DCA9
331
1DC67
  5
1DC6C
331
1DC9E
  5
1DCA3
331
1DC98
  5
1DC9D
331
1DC61
  5
1DC66
331
1DC5B
  5
1DC60
331
1DCB2
  5
1DCB7
331
1DCAC
  5
1DCB1
331
1DC75
  5
1DC7A
331
1DC6F
  5
1DC74
331
1DC69
  5
1DC6E
331
1DC83
  5
1DC88
331
1DC7D
  5
1DC82
331
1DC97
  5
1DC9C
331
1DC91
  5
1DC96
331
1DC8B
  5
1DC90
331
1DCA5
  5
1DCAA
331
1DC9F
  5
1DCA4
331
1DC62
  5
1DC67
331
1DC99
  5
1DC9E
331
1DC5C
  5
1DC61
331
1DCB3
  5
1DCB8
331
1DCAD
  5
1DCB2
331
1DC76
  5
1DC7B
331
1DC70
  5
1DC75
331
1DC6A
  5
1DC6F
331
1DC84
  5
1DC89
331
1DC7E
  5
1DC83
331
1DC78
  5
1DC7D
331
1DC92
  5
1DC97
331
1DC8C
  5
1DC91
331
1DCA6
  5
1DCAB
331
1DCA0
  5
1DCA5
331
1DC63
  5
1DC68
331
1DC9A
  5
1DC9F
331
1DC5D
  5
1DC62
331
1DCB4
  5
1DCC0
331
1DCAE
  5
1DCB3
331
1DC77
  5
1DC7C
331
1DCA8
  5
1DCAD
331
1DC71
  5
1DC76
331
1DC6B
  5
1DC70
331
1DC85
  5
1DC8A
331
1DC7F
  5
1DC84
331
1DC79
  5
1DC7E
331
1DC93
  5
1DC98
331
1DC8D
  5
1DC92
331
1DBC8
  5
1DC5E
331
1DCA7
  5
1DCAC
331
1DCA1
  5
1DCA6
331
1DC64
  5
1DC69
331
1DC9B
  5
1DCA0
331
1DC5E
  5
1DC63
331
1DCB5
  5
1DDD7
331
1DCAF
  5
1DCB4
331
1DCA9
  5
1DCAE
331
1DC72
  5
1DC77
331
1DC6C
  5
1DC71
331
1DC86
  5
1DC8B
331
1DC80
  5
1DC85
331
1DC7A
  5
1DC7F
331
1DC94
  5
1DC99
331
1DC8E
  5
1DC93
331
1DC88
  5
1DC8D
331
1DCA2
  5
1DCA7
331
1DC65
  5
1DC6A
331
1DC9C
  5
1DCA1
331
1DC5F
  5
1DC64
331
1DCB6
  5
1DE45
331
1DCB0
  5
1DCB5
331
1DCAA
  5
1DCAF
331
1DC73
  5
1DC78
331
1DC6D
  5
1DC72
331
1DC87
  5
1DC8C
331
1DC81
  5
1DC86
331
1DCB8
  5
1DE48
331
1DC7B
  5
1DC80
331
1DC95
  5
1DC9A
331
1DC8F
  5
1DC94
331
1DC89
  5
1DC8E
331
1DCA3
  5
1DCA8
331
1DC66
  5
1DC6B
331
1DC9D
  5
1DCA2
331
1DC60
  5
1DC65
331
1DCB7
  5
1DE46
331
1DC5A
  5
1DC5F
331
1DCC0
  5
1DE49
331
1DCB1
  5
1DCB6
331
1DCAB
  5
1DCB0
331
1DC74
  5
1DC79
331
1DC6E
  5
1DC73
331
1DC68
  5
1DC6D
331
1DC82
  5
1DC87
331
1DC7C
  5
1DC81
331
1DC96
  5
1DC9B
  0
ACDBDETAILVIEWSTYLE
  5
BDD
102
{ACAD_XDICTIONARY
360
22CF3
102
}
102
{ACAD_REACTORS
330
BDC
102
}
330
BDC
100
AcDbModelDocViewStyle
 70
     0
  3
Metric50
290
     0
100
AcDbDetailViewStyle
 70
     0
 71
     0
 90
        3
 71
     1
340
25
 62
   256
 40
5.0
340
0
 62
   256
 40
5.0
300

 40
0.0
280
     1
 71
     2
340
14
 90
       25
 62
   256
 71
     3
340
25
 62
   256
 40
5.0
 90
        0
 40
15.0
 90
        1
300
%<\AcVar ViewDetailId>% (%<\AcVar ViewScale \f "%sn">%)
 71
     4
340
14
 90
       25
 62
   256
340
14
 90
       25
 62
   256
280
     0
  0
LAYOUT
  5
16
102
{ACAD_XDICTIONARY
360
18
102
}
102
{ACAD_REACTORS
330
17
102
}
330
17
100
AcDbPlotSettings
  1

  2
Samsung M267x 287x Series
  4
A4
  6

 40
5.027082920074462
 41
5.027099609375
 42
5.027069091796875
 43
5.027069091796875
 44
209.9733276367187
 45
296.9259948730469
 46
0.0
 47
0.3443247085572807
 48
5290.957610138349
 49
-1180.058350911508
140
5701.957610138348
141
-892.9458025305684
142
1.0
143
1.436143118755716
 70
 11956
 72
     1
 73
     1
 74
     4
  7
ksm0910.ctb
 75
     0
147
0.6963094324933345
 76
     0
 77
     2
 78
   300
148
-5290.957610138349
149
1180.058350911508
100
AcDbLayout
  1
Model
 70
     1
 71
     0
 10
0.0
 20
0.0
 11
12.0
 21
9.0
 12
0.0
 22
0.0
 32
0.0
 14
0.0
 24
0.0
 34
0.0
 15
0.0
 25
0.0
 35
0.0
146
0.0
 13
0.0
 23
0.0
 33
0.0
 16
1.0
 26
0.0
 36
0.0
 17
0.0
 27
1.0
 37
0.0
 76
     0
330
2
331
2D
1001
ACAD_PSEXT
1000
Samsung M267x 287x Series
1000
Samsung M267x 287x Series
1000
USB001
1000

1070
     0
  0
LAYOUT
  5
1E
102
{ACAD_XDICTIONARY
360
1F
102
}
102
{ACAD_REACTORS
330
17
102
}
330
17
100
AcDbPlotSettings
  1

  2
none_device
  4
ISO_A4_(210.00_x_297.00_MM)
  6

 40
7.5
 41
20.0
 42
7.5
 43
20.0
 44
210.0
 45
297.0
 46
0.0
 47
0.0
 48
0.0
 49
0.0
140
0.0
141
0.0
142
1.0
143
1.0
 70
   688
 72
     1
 73
     1
 74
     5
  7
ksm0910.ctb
 75
    16
147
1.0
 76
     0
 77
     2
 78
   300
148
0.0
149
0.0
100
AcDbLayout
  1
배치1
 70
     1
 71
     1
 10
-20.0
 20
-7.5
 11
277.0
 21
202.5
 12
0.0
 22
0.0
 32
0.0
 14
1.000000000000000E+20
 24
1.000000000000000E+20
 34
1.000000000000000E+20
 15
-1.000000000000000E+20
 25
-1.000000000000000E+20
 35
-1.000000000000000E+20
146
0.0
 13
0.0
 23
0.0
 33
0.0
 16
1.0
 26
0.0
 36
0.0
 17
0.0
 27
1.0
 37
0.0
 76
     0
330
1B
1001
ACAD_PSEXT
1000
없음
1000
없음
1000
해당 없음
1000
배치가 새로운 플로터 구성을 선택할 때까지 플롯되지 않습니다.
1070
     0
  0
MATERIAL
  5
3E
102
{ACAD_REACTORS
330
D
102
}
330
D
100
AcDbMaterial
  1
ByBlock
 94
       63
  0
MATERIAL
  5
3D
102
{ACAD_REACTORS
330
D
102
}
330
D
100
AcDbMaterial
  1
ByLayer
 94
       63
  0
MATERIAL
  5
C
102
{ACAD_XDICTIONARY
360
E
102
}
102
{ACAD_REACTORS
330
D
102
}
330
D
100
AcDbMaterial
  1
Global
 43
0.0007999999797903
 43
0.0
 43
0.0
 43
0.0
 43
0.0
 43
0.0007999999797903
 43
0.0
 43
0.0
 43
0.0
 43
0.0
 43
1.0
 43
0.0
 43
0.0
 43
0.0
 43
0.0
 43
1.0
 49
0.0007999999797903
 49
0.0
 49
0.0
 49
0.0
 49
0.0
 49
0.0007999999797903
 49
0.0
 49
0.0
 49
0.0
 49
0.0
 49
1.0
 49
0.0
 49
0.0
 49
0.0
 49
0.0
 49
1.0
142
0.0007999999797903
142
0.0
142
0.0
142
0.0
142
0.0
142
0.0007999999797903
142
0.0
142
0.0
142
0.0
142
0.0
142
1.0
142
0.0
142
0.0
142
0.0
142
0.0
142
1.0
144
0.0007999999797903
144
0.0
144
0.0
144
0.0
144
0.0
144
0.0007999999797903
144
0.0
144
0.0
144
0.0
144
0.0
144
1.0
144
0.0
144
0.0
144
0.0
144
0.0
144
1.0
 94
       63
1001
ACAD
1070
    -1
1070
     3
1070
     0
1000

1071
        0
1070
     0
  0
MLEADERSTYLE
  5
BD9
102
{ACAD_REACTORS
330
42
330
226C2
102
}
330
42
100
AcDbMLeaderStyle
179
     2
170
     2
171
     1
172
     0
 90
        2
 40
0.0
 41
0.0
173
     1
 91
-1056964608
340
28
 92
       -2
290
     1
 42
2.0
291
     1
 43
0.36
  3
Standard
 44
4.0
300

342
25
174
     1
178
     6
175
     1
176
     0
 93
-1056964608
 45
4.0
292
     0
297
     0
 46
4.0
 94
-1056964608
 47
1.0
 49
1.0
140
1.0
293
     1
141
0.0
294
     1
177
     0
142
1.0
295
     0
296
     0
143
0.125
271
     0
272
     9
273
     9
298
     1
  0
MLINESTYLE
  5
43
102
{ACAD_REACTORS
330
3B
102
}
330
3B
100
AcDbMlineStyle
  2
STANDARD
 70
     0
  3

 62
   256
 51
90.0
 52
90.0
 71
     2
 49
0.5
 62
   256
  6
BYLAYER
 49
-0.5
 62
   256
  6
BYLAYER
  0
ACDBPLACEHOLDER
  5
9
102
{ACAD_REACTORS
330
A
102
}
330
A
  0
SCALE
  5
48
102
{ACAD_REACTORS
330
40
102
}
330
40
100
AcDbScale
 70
     0
300
1:1
140
1.0
141
1.0
290
     1
  0
SCALE
  5
49
102
{ACAD_REACTORS
330
40
102
}
330
40
100
AcDbScale
 70
     0
300
1:2
140
1.0
141
2.0
290
     0
  0
SCALE
  5
4A
102
{ACAD_REACTORS
330
40
102
}
330
40
100
AcDbScale
 70
     0
300
1:4
140
1.0
141
4.0
290
     0
  0
SCALE
  5
4B
102
{ACAD_REACTORS
330
40
102
}
330
40
100
AcDbScale
 70
     0
300
1:5
140
1.0
141
5.0
290
     0
  0
SCALE
  5
4C
102
{ACAD_REACTORS
330
40
102
}
330
40
100
AcDbScale
 70
     0
300
1:8
140
1.0
141
8.0
290
     0
  0
SCALE
  5
4D
102
{ACAD_REACTORS
330
40
102
}
330
40
100
AcDbScale
 70
     0
300
1:10
140
1.0
141
10.0
290
     0
  0
SCALE
  5
4E
102
{ACAD_REACTORS
330
40
102
}
330
40
100
AcDbScale
 70
     0
300
1:16
140
1.0
141
16.0
290
     0
  0
SCALE
  5
4F
102
{ACAD_REACTORS
330
40
102
}
330
40
100
AcDbScale
 70
     0
300
1:20
140
1.0
141
20.0
290
     0
  0
SCALE
  5
50
102
{ACAD_REACTORS
330
40
102
}
330
40
100
AcDbScale
 70
     0
300
1:30
140
1.0
141
30.0
290
     0
  0
SCALE
  5
51
102
{ACAD_REACTORS
330
40
102
}
330
40
100
AcDbScale
 70
     0
300
1:40
140
1.0
141
40.0
290
     0
  0
SCALE
  5
52
102
{ACAD_REACTORS
330
40
102
}
330
40
100
AcDbScale
 70
     0
300
1:50
140
1.0
141
50.0
290
     0
  0
SCALE
  5
53
102
{ACAD_REACTORS
330
40
102
}
330
40
100
AcDbScale
 70
     0
300
1:100
140
1.0
141
100.0
290
     0
  0
SCALE
  5
54
102
{ACAD_REACTORS
330
40
102
}
330
40
100
AcDbScale
 70
     0
300
2:1
140
2.0
141
1.0
290
     0
  0
SCALE
  5
55
102
{ACAD_REACTORS
330
40
102
}
330
40
100
AcDbScale
 70
     0
300
4:1
140
4.0
141
1.0
290
     0
  0
SCALE
  5
56
102
{ACAD_REACTORS
330
40
102
}
330
40
100
AcDbScale
 70
     0
300
8:1
140
8.0
141
1.0
290
     0
  0
SCALE
  5
57
102
{ACAD_REACTORS
330
40
102
}
330
40
100
AcDbScale
 70
     0
300
10:1
140
10.0
141
1.0
290
     0
  0
SCALE
  5
58
102
{ACAD_REACTORS
330
40
102
}
330
40
100
AcDbScale
 70
     0
300
100:1
140
100.0
141
1.0
290
     0
  0
ACDBSECTIONVIEWSTYLE
  5
BDB
102
{ACAD_XDICTIONARY
360
22CF1
102
}
102
{ACAD_REACTORS
330
BDA
102
}
330
BDA
100
AcDbModelDocViewStyle
 70
     0
  3
Metric50
290
     0
100
AcDbSectionViewStyle
 70
     0
 71
     0
 90
      102
 71
     1
340
25
 62
   256
 40
5.0
340
0
340
0
 62
   256
 40
5.0
300
I, O, Q, S, X, Z
 40
10.0
 90
        0
 40
2.5
 90
        0
 71
     2
340
14
 90
       25
 62
   256
340
14
 90
       50
 62
   256
 40
5.0
 40
2.5
 40
5.0
 71
     3
340
25
 62
   256
 40
5.0
 90
        0
 40
15.0
 90
        1
300
%<\AcVar ViewSectionStartId>%-%<\AcVar ViewSectionEndId>% (%<\AcVar ViewScale \f "%sn">%)
 71
     4
 62
   256
 62
   257
300
ANSI31
 40
1.0
 90
        0
290
     0
290
     0
 90
        6
 40
0.0
 40
1.570796326794896
 40
0.2617993877991494
 40
1.308996938995747
 40
-0.2617993877991494
 40
1.832595714594046
  0
TABLESTYLE
  5
44
102
{ACAD_XDICTIONARY
360
45
102
}
102
{ACAD_REACTORS
330
41
102
}
330
41
100
AcDbTableStyle
280
     0
  3
Standard
 70
     0
 71
     0
 40
1.5
 41
1.5
280
     0
281
     0
  7
Standard
140
4.5
170
     2
 62
     0
 63
     7
283
     0
 90
      512
 91
        0
  1

274
    -2
284
     1
 64
     0
275
    -2
285
     1
 65
     0
276
    -2
286
     1
 66
     0
277
    -2
287
     1
 67
     0
278
    -2
288
     1
 68
     0
279
    -2
289
     1
 69
     0
  7
Standard
140
6.0
170
     5
 62
     0
 63
     7
283
     0
 90
      512
 91
        0
  1

274
    -2
284
     1
 64
     0
275
    -2
285
     1
 65
     0
276
    -2
286
     1
 66
     0
277
    -2
287
     1
 67
     0
278
    -2
288
     1
 68
     0
279
    -2
289
     1
 69
     0
  7
Standard
140
4.5
170
     5
 62
     0
 63
     7
283
     0
 90
      512
 91
        0
  1

274
    -2
284
     1
 64
     0
275
    -2
285
     1
 65
     0
276
    -2
286
     1
 66
     0
277
    -2
287
     1
 67
     0
278
    -2
288
     1
 68
     0
279
    -2
289
     1
 69
     0
  0
VISUALSTYLE
  5
2E
102
{ACAD_REACTORS
330
2F
102
}
330
2F
100
AcDbVisualStyle
  2
2dWireframe
 70
     4
177
     3
291
     0
 70
    58
 90
        0
176
     1
 90
        2
176
     1
 90
        1
176
     1
 90
        0
176
     1
 40
0.6
176
     1
 40
30.0
176
     1
 62
     7
176
     1
 90
        1
176
     1
 90
        4
176
     1
 62
     7
176
     1
 62
   257
176
     1
 90
        1
176
     1
 90
        1
176
     1
 40
1.0
176
     1
 90
        0
176
     1
 62
   257
176
     1
 40
1.0
176
     1
 90
        1
176
     1
 90
        6
176
     1
 90
        2
176
     1
 62
     7
176
     1
 90
        5
176
     1
 90
        0
176
     1
 90
        0
176
     1
290
     0
176
     1
 90
        1
176
     1
 40
0.0
176
     1
 90
        0
176
     1
290
     1
176
     1
290
     1
176
     1
290
     0
176
     1
290
     0
176
     1
290
     0
176
     1
290
     0
176
     1
290
     0
176
     1
290
     0
176
     1
290
     0
176
     1
 90
       50
176
     1
 40
0.0
176
     1
 40
1.0
176
     1
 90
        0
176
     1
 62
    18
420
        0
176
     1
 90
       50
176
     1
 90
        3
176
     1
 62
     5
420
      255
176
     1
290
     0
176
     1
 90
       50
176
     1
 90
       50
176
     1
 90
       50
176
     1
290
     0
176
     1
 90
       50
176
     1
 62
   256
176
     0
 40
1.0
176
     0
 90
        2
176
     1
  1
strokes_ogs.tif
176
     1
290
     0
176
     1
 40
1.0
176
     1
 40
1.0
176
     1
  0
VISUALSTYLE
  5
1A64
102
{ACAD_REACTORS
330
2F
102
}
330
2F
100
AcDbVisualStyle
  2
3D Hidden
 70
     6
177
     3
291
     0
 70
    58
 90
        1
176
     1
 90
        2
176
     1
 90
        2
176
     1
 90
        0
176
     1
 40
0.6
176
     1
 40
30.0
176
     1
 62
     7
176
     1
 90
        2
176
     1
 90
        2
176
     1
 62
     7
176
     1
 62
   257
176
     1
 90
        2
176
     1
 90
        1
176
     1
 40
40.0
176
     1
 90
        0
176
     1
 62
   257
176
     1
 40
1.0
176
     1
 90
        1
176
     1
 90
        6
176
     1
 90
        2
176
     1
 62
     7
176
     1
 90
        3
176
     1
 90
        0
176
     1
 90
        0
176
     1
290
     0
176
     1
 90
        1
176
     1
 40
0.0
176
     1
 90
        0
176
     1
290
     0
176
     1
290
     1
176
     1
290
     1
176
     1
290
     0
176
     1
290
     0
176
     1
290
     0
176
     1
290
     0
176
     1
290
     0
176
     1
290
     0
176
     1
 90
       50
176
     1
 40
0.0
176
     1
 40
1.0
176
     1
 90
        0
176
     1
 62
    18
420
        0
176
     1
 90
       50
176
     1
 90
        3
176
     1
 62
     5
420
      255
176
     1
290
     0
176
     1
 90
       50
176
     1
 90
       50
176
     1
 90
       50
176
     1
290
     0
176
     1
 90
       50
176
     1
 62
   256
176
     0
 40
1.0
176
     0
 90
        2
176
     1
  1
strokes_ogs.tif
176
     1
290
     0
176
     1
 40
1.0
176
     1
 40
1.0
176
     1
  0
VISUALSTYLE
  5
47
102
{ACAD_REACTORS
330
2F
102
}
330
2F
100
AcDbVisualStyle
  2
3dWireframe
 70
     5
177
     3
291
     0
 70
    58
 90
        0
176
     1
 90
        2
176
     1
 90
        1
176
     1
 90
        0
176
     1
 40
0.6
176
     1
 40
30.0
176
     1
 62
     7
176
     1
 90
        1
176
     1
 90
        4
176
     1
 62
     7
176
     1
 62
   257
176
     1
 90
        1
176
     1
 90
        1
176
     1
 40
1.0
176
     1
 90
        0
176
     1
 62
   257
176
     1
 40
1.0
176
     1
 90
        1
176
     1
 90
        6
176
     1
 90
        2
176
     1
 62
     7
176
     1
 90
        5
176
     1
 90
        0
176
     1
 90
        0
176
     1
290
     0
176
     1
 90
        1
176
     1
 40
0.0
176
     1
 90
        0
176
     1
290
     0
176
     1
290
     1
176
     1
290
     1
176
     1
290
     0
176
     1
290
     0
176
     1
290
     0
176
     1
290
     0
176
     1
290
     0
176
     1
290
     0
176
     1
 90
       50
176
     1
 40
0.0
176
     1
 40
1.0
176
     1
 90
        0
176
     1
 62
    18
420
        0
176
     1
 90
       50
176
     1
 90
        3
176
     1
 62
     5
420
      255
176
     1
290
     0
176
     1
 90
       50
176
     1
 90
       50
176
     1
 90
       50
176
     1
290
     0
176
     1
 90
       50
176
     1
 62
   256
176
     0
 40
1.0
176
     0
 90
        2
176
     1
  1
strokes_ogs.tif
176
     1
290
     0
176
     1
 40
1.0
176
     1
 40
1.0
176
     1
  0
VISUALSTYLE
  5
BC7
102
{ACAD_REACTORS
330
2F
102
}
330
2F
100
AcDbVisualStyle
  2
Basic
 70
     7
177
     3
291
     1
 70
    58
 90
        1
176
     1
 90
        0
176
     1
 90
        1
176
     1
 90
        0
176
     1
 40
0.6
176
     1
 40
30.0
176
     1
 62
     7
176
     1
 90
        0
176
     1
 90
        4
176
     1
 62
     7
176
     1
 62
   257
176
     1
 90
        1
176
     1
 90
        1
176
     1
 40
1.0
176
     1
 90
        8
176
     1
 62
     7
176
     1
 40
1.0
176
     1
 90
        1
176
     1
 90
        6
176
     1
 90
        2
176
     1
 62
     7
176
     1
 90
        5
176
     1
 90
        0
176
     1
 90
        0
176
     1
290
     0
176
     1
 90
        1
176
     1
 40
0.0
176
     1
 90
        0
176
     1
290
     0
176
     1
290
     1
176
     1
290
     1
176
     1
290
     0
176
     1
290
     0
176
     1
290
     0
176
     1
290
     0
176
     1
290
     0
176
     1
290
     0
176
     1
 90
       50
176
     1
 40
0.0
176
     1
 40
1.0
176
     1
 90
        0
176
     1
 62
    18
420
        0
176
     1
 90
       50
176
     1
 90
        3
176
     1
 62
     5
420
      255
176
     1
290
     0
176
     1
 90
       50
176
     1
 90
       50
176
     1
 90
       50
176
     1
290
     0
176
     1
 90
       50
176
     1
 62
   256
176
     0
 40
1.0
176
     0
 90
        2
176
     1
  1
strokes_ogs.tif
176
     1
290
     0
176
     1
 40
1.0
176
     1
 40
1.0
176
     1
  0
VISUALSTYLE
  5
BCC
102
{ACAD_REACTORS
330
2F
102
}
330
2F
100
AcDbVisualStyle
  2
Brighten
 70
    12
177
     3
291
     1
 70
    58
 90
        2
176
     1
 90
        2
176
     1
 90
        0
176
     1
 90
        0
176
     1
 40
0.6
176
     1
 40
30.0
176
     1
 62
     7
176
     1
 90
        1
176
     1
 90
        4
176
     1
 62
     7
176
     1
 62
   257
176
     1
 90
        1
176
     1
 90
        1
176
     1
 40
1.0
176
     1
 90
        8
176
     1
 62
     7
176
     1
 40
1.0
176
     1
 90
        1
176
     1
 90
        6
176
     1
 90
        2
176
     1
 62
     7
176
     1
 90
        5
176
     1
 90
        0
176
     1
 90
        0
176
     1
290
     0
176
     1
 90
        1
176
     1
 40
50.0
176
     1
 90
        0
176
     1
290
     0
176
     1
290
     1
176
     1
290
     1
176
     1
290
     0
176
     1
290
     0
176
     1
290
     0
176
     1
290
     0
176
     1
290
     0
176
     1
290
     0
176
     1
 90
       50
176
     1
 40
0.0
176
     1
 40
1.0
176
     1
 90
        0
176
     1
 62
    18
420
        0
176
     1
 90
       50
176
     1
 90
        3
176
     1
 62
     5
420
      255
176
     1
290
     0
176
     1
 90
       50
176
     1
 90
       50
176
     1
 90
       50
176
     1
290
     0
176
     1
 90
       50
176
     1
 62
   256
176
     0
 40
1.0
176
     0
 90
        2
176
     1
  1
strokes_ogs.tif
176
     1
290
     0
176
     1
 40
1.0
176
     1
 40
1.0
176
     1
  0
VISUALSTYLE
  5
BD0
102
{ACAD_REACTORS
330
2F
102
}
330
2F
100
AcDbVisualStyle
  2
ColorChange
 70
    16
177
     3
291
     1
 70
    58
 90
        2
176
     1
 90
        2
176
     1
 90
        3
176
     1
 90
        0
176
     1
 40
0.6
176
     1
 40
30.0
176
     1
 62
     8
176
     1
 90
        1
176
     1
 90
        4
176
     1
 62
     7
176
     1
 62
   257
176
     1
 90
        1
176
     1
 90
        1
176
     1
 40
1.0
176
     1
 90
        8
176
     1
 62
     8
176
     1
 40
1.0
176
     1
 90
        1
176
     1
 90
        6
176
     1
 90
        2
176
     1
 62
     7
176
     1
 90
        5
176
     1
 90
        0
176
     1
 90
        0
176
     1
290
     0
176
     1
 90
        1
176
     1
 40
0.0
176
     1
 90
        0
176
     1
290
     0
176
     1
290
     1
176
     1
290
     1
176
     1
290
     0
176
     1
290
     0
176
     1
290
     0
176
     1
290
     0
176
     1
290
     0
176
     1
290
     0
176
     1
 90
       50
176
     1
 40
0.0
176
     1
 40
1.0
176
     1
 90
        0
176
     1
 62
    18
420
        0
176
     1
 90
       50
176
     1
 90
        3
176
     1
 62
     5
420
      255
176
     1
290
     0
176
     1
 90
       50
176
     1
 90
       50
176
     1
 90
       50
176
     1
290
     0
176
     1
 90
       50
176
     1
 62
   256
176
     0
 40
1.0
176
     0
 90
        2
176
     1
  1
strokes_ogs.tif
176
     1
290
     0
176
     1
 40
1.0
176
     1
 40
1.0
176
     1
  0
VISUALSTYLE
  5
BCA
102
{ACAD_REACTORS
330
2F
102
}
330
2F
100
AcDbVisualStyle
  2
Conceptual
 70
     9
177
     3
291
     0
 70
    58
 90
        3
176
     1
 90
        2
176
     1
 90
        0
176
     1
 90
        0
176
     1
 40
0.6
176
     1
 40
30.0
176
     1
 62
     7
176
     1
 90
        2
176
     1
 90
        2
176
     1
 62
     7
176
     1
 62
   257
176
     1
 90
        1
176
     1
 90
        1
176
     1
 40
179.0
176
     1
 90
        8
176
     1
 62
     7
176
     1
 40
1.0
176
     1
 90
        1
176
     1
 90
        6
176
     1
 90
        2
176
     1
 62
     7
176
     1
 90
        3
176
     1
 90
        0
176
     1
 90
        0
176
     1
290
     0
176
     1
 90
        1
176
     1
 40
0.0
176
     1
 90
        0
176
     1
290
     0
176
     1
290
     1
176
     1
290
     1
176
     1
290
     0
176
     1
290
     0
176
     1
290
     0
176
     1
290
     0
176
     1
290
     0
176
     1
290
     0
176
     1
 90
       50
176
     1
 40
0.0
176
     1
 40
1.0
176
     1
 90
        0
176
     1
 62
    18
420
        0
176
     1
 90
       50
176
     1
 90
        3
176
     1
 62
     5
420
      255
176
     1
290
     0
176
     1
 90
       50
176
     1
 90
       50
176
     1
 90
       50
176
     1
290
     0
176
     1
 90
       50
176
     1
 62
   256
176
     0
 40
1.0
176
     0
 90
        2
176
     1
  1
strokes_ogs.tif
176
     1
290
     0
176
     1
 40
1.0
176
     1
 40
1.0
176
     1
  0
VISUALSTYLE
  5
BCB
102
{ACAD_REACTORS
330
2F
102
}
330
2F
100
AcDbVisualStyle
  2
Dim
 70
    11
177
     3
291
     1
 70
    58
 90
        2
176
     1
 90
        2
176
     1
 90
        0
176
     1
 90
        0
176
     1
 40
0.6
176
     1
 40
30.0
176
     1
 62
     7
176
     1
 90
        1
176
     1
 90
        4
176
     1
 62
     7
176
     1
 62
   257
176
     1
 90
        1
176
     1
 90
        1
176
     1
 40
1.0
176
     1
 90
        8
176
     1
 62
     7
176
     1
 40
1.0
176
     1
 90
        1
176
     1
 90
        6
176
     1
 90
        2
176
     1
 62
     7
176
     1
 90
        5
176
     1
 90
        0
176
     1
 90
        0
176
     1
290
     0
176
     1
 90
        1
176
     1
 40
-50.0
176
     1
 90
        0
176
     1
290
     0
176
     1
290
     1
176
     1
290
     1
176
     1
290
     0
176
     1
290
     0
176
     1
290
     0
176
     1
290
     0
176
     1
290
     0
176
     1
290
     0
176
     1
 90
       50
176
     1
 40
0.0
176
     1
 40
1.0
176
     1
 90
        0
176
     1
 62
    18
420
        0
176
     1
 90
       50
176
     1
 90
        3
176
     1
 62
     5
420
      255
176
     1
290
     0
176
     1
 90
       50
176
     1
 90
       50
176
     1
 90
       50
176
     1
290
     0
176
     1
 90
       50
176
     1
 62
   256
176
     0
 40
1.0
176
     0
 90
        2
176
     1
  1
strokes_ogs.tif
176
     1
290
     0
176
     1
 40
1.0
176
     1
 40
1.0
176
     1
  0
VISUALSTYLE
  5
BD8
102
{ACAD_REACTORS
330
2F
102
}
330
2F
100
AcDbVisualStyle
  2
EdgeColorOff
 70
    22
177
     3
291
     1
 70
    58
 90
        2
176
     0
 90
        2
176
     0
 90
        0
176
     0
 90
        0
176
     0
 40
0.6
176
     0
 40
30.0
176
     0
 62
     7
176
     0
 90
        1
176
     0
 90
        4
176
     0
 62
     7
176
     0
 62
   257
176
     0
 90
        1
176
     0
 90
        1
176
     0
 40
1.0
176
     0
 90
        8
176
     2
 62
     7
176
     0
 40
1.0
176
     0
 90
        1
176
     0
 90
        6
176
     0
 90
        2
176
     0
 62
     7
176
     0
 90
        5
176
     0
 90
        0
176
     0
 90
        0
176
     0
290
     0
176
     0
 90
        1
176
     0
 40
0.0
176
     0
 90
        0
176
     0
290
     0
176
     0
290
     1
176
     0
290
     1
176
     0
290
     0
176
     0
290
     0
176
     0
290
     0
176
     0
290
     0
176
     0
290
     0
176
     0
290
     0
176
     0
 90
       50
176
     0
 40
0.0
176
     0
 40
1.0
176
     0
 90
        0
176
     0
 62
    18
420
        0
176
     0
 90
       50
176
     0
 90
        3
176
     0
 62
     5
420
      255
176
     0
290
     0
176
     0
 90
       50
176
     0
 90
       50
176
     0
 90
       50
176
     0
290
     0
176
     0
 90
       50
176
     0
 62
   256
176
     0
 40
1.0
176
     0
 90
        2
176
     0
  1
strokes_ogs.tif
176
     0
290
     0
176
     0
 40
1.0
176
     0
 40
1.0
176
     0
  0
VISUALSTYLE
  5
BCF
102
{ACAD_REACTORS
330
2F
102
}
330
2F
100
AcDbVisualStyle
  2
Facepattern
 70
    15
177
     3
291
     1
 70
    58
 90
        2
176
     1
 90
        2
176
     1
 90
        0
176
     1
 90
        0
176
     1
 40
0.6
176
     1
 40
30.0
176
     1
 62
     7
176
     1
 90
        1
176
     1
 90
        4
176
     1
 62
     7
176
     1
 62
   257
176
     1
 90
        1
176
     1
 90
        1
176
     1
 40
1.0
176
     1
 90
        8
176
     1
 62
     7
176
     1
 40
1.0
176
     1
 90
        1
176
     1
 90
        6
176
     1
 90
        2
176
     1
 62
     7
176
     1
 90
        5
176
     1
 90
        0
176
     1
 90
        0
176
     1
290
     0
176
     1
 90
        1
176
     1
 40
0.0
176
     1
 90
        0
176
     1
290
     0
176
     1
290
     1
176
     1
290
     1
176
     1
290
     0
176
     1
290
     0
176
     1
290
     0
176
     1
290
     0
176
     1
290
     0
176
     1
290
     0
176
     1
 90
       50
176
     1
 40
0.0
176
     1
 40
1.0
176
     1
 90
        0
176
     1
 62
    18
420
        0
176
     1
 90
       50
176
     1
 90
        3
176
     1
 62
     5
420
      255
176
     1
290
     0
176
     1
 90
       50
176
     1
 90
       50
176
     1
 90
       50
176
     1
290
     0
176
     1
 90
       50
176
     1
 62
   256
176
     0
 40
1.0
176
     0
 90
        2
176
     1
  1
strokes_ogs.tif
176
     1
290
     0
176
     1
 40
1.0
176
     1
 40
1.0
176
     1
  0
VISUALSTYLE
  5
BC3
102
{ACAD_REACTORS
330
2F
102
}
330
2F
100
AcDbVisualStyle
  2
Flat
 70
     0
177
     3
291
     1
 70
    58
 90
        2
176
     1
 90
        1
176
     1
 90
        1
176
     1
 90
        2
176
     1
 40
0.6
176
     1
 40
30.0
176
     1
 62
     7
176
     1
 90
        0
176
     1
 90
        0
176
     1
 62
     7
176
     1
 62
   257
176
     1
 90
        1
176
     1
 90
        1
176
     1
 40
1.0
176
     1
 90
        8
176
     1
 62
     7
176
     1
 40
1.0
176
     1
 90
        1
176
     1
 90
        6
176
     1
 90
        2
176
     1
 62
     7
176
     1
 90
        5
176
     1
 90
        0
176
     1
 90
        0
176
     1
290
     0
176
     1
 90
       13
176
     1
 40
0.0
176
     1
 90
        0
176
     1
290
     0
176
     1
290
     1
176
     1
290
     1
176
     1
290
     0
176
     1
290
     0
176
     1
290
     0
176
     1
290
     0
176
     1
290
     0
176
     1
290
     0
176
     1
 90
       50
176
     1
 40
0.0
176
     1
 40
1.0
176
     1
 90
        0
176
     1
 62
    18
420
        0
176
     1
 90
       50
176
     1
 90
        3
176
     1
 62
     5
420
      255
176
     1
290
     0
176
     1
 90
       50
176
     1
 90
       50
176
     1
 90
       50
176
     1
290
     0
176
     1
 90
       50
176
     1
 62
   256
176
     0
 40
1.0
176
     0
 90
        2
176
     1
  1
strokes_ogs.tif
176
     1
290
     0
176
     1
 40
1.0
176
     1
 40
1.0
176
     1
  0
VISUALSTYLE
  5
BC4
102
{ACAD_REACTORS
330
2F
102
}
330
2F
100
AcDbVisualStyle
  2
FlatWithEdges
 70
     1
177
     3
291
     1
 70
    58
 90
        2
176
     1
 90
        1
176
     1
 90
        1
176
     1
 90
        2
176
     1
 40
0.6
176
     1
 40
30.0
176
     1
 62
     7
176
     1
 90
        1
176
     1
 90
        0
176
     1
 62
     7
176
     1
 62
   257
176
     1
 90
        1
176
     1
 90
        1
176
     1
 40
1.0
176
     1
 90
        0
176
     1
 62
   257
176
     1
 40
1.0
176
     1
 90
        1
176
     1
 90
        6
176
     1
 90
        2
176
     1
 62
     7
176
     1
 90
        5
176
     1
 90
        0
176
     1
 90
        0
176
     1
290
     0
176
     1
 90
       13
176
     1
 40
0.0
176
     1
 90
        0
176
     1
290
     0
176
     1
290
     1
176
     1
290
     1
176
     1
290
     0
176
     1
290
     0
176
     1
290
     0
176
     1
290
     0
176
     1
290
     0
176
     1
290
     0
176
     1
 90
       50
176
     1
 40
0.0
176
     1
 40
1.0
176
     1
 90
        0
176
     1
 62
    18
420
        0
176
     1
 90
       50
176
     1
 90
        3
176
     1
 62
     5
420
      255
176
     1
290
     0
176
     1
 90
       50
176
     1
 90
       50
176
     1
 90
       50
176
     1
290
     0
176
     1
 90
       50
176
     1
 62
   256
176
     0
 40
1.0
176
     0
 90
        2
176
     1
  1
strokes_ogs.tif
176
     1
290
     0
176
     1
 40
1.0
176
     1
 40
1.0
176
     1
  0
VISUALSTYLE
  5
BC5
102
{ACAD_REACTORS
330
2F
102
}
330
2F
100
AcDbVisualStyle
  2
Gouraud
 70
     2
177
     3
291
     1
 70
    58
 90
        2
176
     1
 90
        2
176
     1
 90
        1
176
     1
 90
        2
176
     1
 40
0.6
176
     1
 40
30.0
176
     1
 62
     7
176
     1
 90
        0
176
     1
 90
        0
176
     1
 62
     7
176
     1
 62
   257
176
     1
 90
        1
176
     1
 90
        1
176
     1
 40
1.0
176
     1
 90
        0
176
     1
 62
     7
176
     1
 40
1.0
176
     1
 90
        1
176
     1
 90
        6
176
     1
 90
        2
176
     1
 62
     7
176
     1
 90
        5
176
     1
 90
        0
176
     1
 90
        0
176
     1
290
     0
176
     1
 90
       13
176
     1
 40
0.0
176
     1
 90
        0
176
     1
290
     0
176
     1
290
     1
176
     1
290
     1
176
     1
290
     0
176
     1
290
     0
176
     1
290
     0
176
     1
290
     0
176
     1
290
     0
176
     1
290
     0
176
     1
 90
       50
176
     1
 40
0.0
176
     1
 40
1.0
176
     1
 90
        0
176
     1
 62
    18
420
        0
176
     1
 90
       50
176
     1
 90
        3
176
     1
 62
     5
420
      255
176
     1
290
     0
176
     1
 90
       50
176
     1
 90
       50
176
     1
 90
       50
176
     1
290
     0
176
     1
 90
       50
176
     1
 62
   256
176
     0
 40
1.0
176
     0
 90
        2
176
     1
  1
strokes_ogs.tif
176
     1
290
     0
176
     1
 40
1.0
176
     1
 40
1.0
176
     1
  0
VISUALSTYLE
  5
BC6
102
{ACAD_REACTORS
330
2F
102
}
330
2F
100
AcDbVisualStyle
  2
GouraudWithEdges
 70
     3
177
     3
291
     1
 70
    58
 90
        2
176
     1
 90
        2
176
     1
 90
        1
176
     1
 90
        2
176
     1
 40
0.6
176
     1
 40
30.0
176
     1
 62
     7
176
     1
 90
        1
176
     1
 90
        0
176
     1
 62
     7
176
     1
 62
   257
176
     1
 90
        1
176
     1
 90
        1
176
     1
 40
1.0
176
     1
 90
        0
176
     1
 62
   257
176
     1
 40
1.0
176
     1
 90
        1
176
     1
 90
        6
176
     1
 90
        2
176
     1
 62
     7
176
     1
 90
        5
176
     1
 90
        0
176
     1
 90
        0
176
     1
290
     0
176
     1
 90
       13
176
     1
 40
0.0
176
     1
 90
        0
176
     1
290
     0
176
     1
290
     1
176
     1
290
     1
176
     1
290
     0
176
     1
290
     0
176
     1
290
     0
176
     1
290
     0
176
     1
290
     0
176
     1
290
     0
176
     1
 90
       50
176
     1
 40
0.0
176
     1
 40
1.0
176
     1
 90
        0
176
     1
 62
    18
420
        0
176
     1
 90
       50
176
     1
 90
        3
176
     1
 62
     5
420
      255
176
     1
290
     0
176
     1
 90
       50
176
     1
 90
       50
176
     1
 90
       50
176
     1
290
     0
176
     1
 90
       50
176
     1
 62
   256
176
     0
 40
1.0
176
     0
 90
        2
176
     1
  1
strokes_ogs.tif
176
     1
290
     0
176
     1
 40
1.0
176
     1
 40
1.0
176
     1
  0
VISUALSTYLE
  5
BC9
102
{ACAD_REACTORS
330
2F
102
}
330
2F
100
AcDbVisualStyle
  2
Hidden
 70
     6
177
     3
291
     0
 70
    58
 90
        1
176
     1
 90
        2
176
     1
 90
        2
176
     1
 90
        0
176
     1
 40
0.6
176
     1
 40
30.0
176
     1
 62
     7
176
     1
 90
        2
176
     1
 90
        2
176
     1
 62
     7
176
     1
 62
   257
176
     1
 90
        2
176
     1
 90
        1
176
     1
 40
40.0
176
     1
 90
        0
176
     1
 62
   257
176
     1
 40
1.0
176
     1
 90
        1
176
     1
 90
        6
176
     1
 90
        2
176
     1
 62
     7
176
     1
 90
        3
176
     1
 90
        0
176
     1
 90
        0
176
     1
290
     0
176
     1
 90
        1
176
     1
 40
0.0
176
     1
 90
        0
176
     1
290
     0
176
     1
290
     1
176
     1
290
     1
176
     1
290
     0
176
     1
290
     0
176
     1
290
     0
176
     1
290
     0
176
     1
290
     0
176
     1
290
     0
176
     1
 90
       50
176
     1
 40
0.0
176
     1
 40
1.0
176
     1
 90
        0
176
     1
 62
    18
420
        0
176
     1
 90
       50
176
     1
 90
        3
176
     1
 62
     5
420
      255
176
     1
290
     0
176
     1
 90
       50
176
     1
 90
       50
176
     1
 90
       50
176
     1
290
     0
176
     1
 90
       50
176
     1
 62
   256
176
     0
 40
1.0
176
     0
 90
        2
176
     1
  1
strokes_ogs.tif
176
     1
290
     0
176
     1
 40
1.0
176
     1
 40
1.0
176
     1
  0
VISUALSTYLE
  5
BD6
102
{ACAD_REACTORS
330
2F
102
}
330
2F
100
AcDbVisualStyle
  2
JitterOff
 70
    20
177
     3
291
     1
 70
    58
 90
        2
176
     0
 90
        2
176
     0
 90
        0
176
     0
 90
        0
176
     0
 40
0.6
176
     0
 40
30.0
176
     0
 62
     7
176
     0
 90
        1
176
     0
 90
        4
176
     0
 62
     7
176
     0
 62
   257
176
     0
 90
        1
176
     0
 90
        1
176
     0
 40
1.0
176
     0
 90
       10
176
     2
 62
     7
176
     0
 40
1.0
176
     0
 90
        1
176
     0
 90
        6
176
     0
 90
        2
176
     0
 62
     7
176
     0
 90
        5
176
     0
 90
        0
176
     0
 90
        0
176
     0
290
     0
176
     0
 90
        1
176
     0
 40
0.0
176
     0
 90
        0
176
     0
290
     0
176
     0
290
     1
176
     0
290
     1
176
     0
290
     0
176
     0
290
     0
176
     0
290
     0
176
     0
290
     0
176
     0
290
     0
176
     0
290
     0
176
     0
 90
       50
176
     0
 40
0.0
176
     0
 40
1.0
176
     0
 90
        0
176
     0
 62
    18
420
        0
176
     0
 90
       50
176
     0
 90
        3
176
     0
 62
     5
420
      255
176
     0
290
     0
176
     0
 90
       50
176
     0
 90
       50
176
     0
 90
       50
176
     0
290
     0
176
     0
 90
       50
176
     0
 62
   256
176
     0
 40
1.0
176
     0
 90
        2
176
     0
  1
strokes_ogs.tif
176
     0
290
     0
176
     0
 40
1.0
176
     0
 40
1.0
176
     0
  0
VISUALSTYLE
  5
BCE
102
{ACAD_REACTORS
330
2F
102
}
330
2F
100
AcDbVisualStyle
  2
Linepattern
 70
    14
177
     3
291
     1
 70
    58
 90
        2
176
     1
 90
        2
176
     1
 90
        0
176
     1
 90
        0
176
     1
 40
0.6
176
     1
 40
30.0
176
     1
 62
     7
176
     1
 90
        1
176
     1
 90
        4
176
     1
 62
     7
176
     1
 62
   257
176
     1
 90
        7
176
     1
 90
        7
176
     1
 40
1.0
176
     1
 90
        8
176
     1
 62
     7
176
     1
 40
1.0
176
     1
 90
        1
176
     1
 90
        6
176
     1
 90
        2
176
     1
 62
     7
176
     1
 90
        5
176
     1
 90
        0
176
     1
 90
        0
176
     1
290
     0
176
     1
 90
        1
176
     1
 40
0.0
176
     1
 90
        0
176
     1
290
     0
176
     1
290
     1
176
     1
290
     1
176
     1
290
     0
176
     1
290
     0
176
     1
290
     0
176
     1
290
     0
176
     1
290
     0
176
     1
290
     0
176
     1
 90
       50
176
     1
 40
0.0
176
     1
 40
1.0
176
     1
 90
        0
176
     1
 62
    18
420
        0
176
     1
 90
       50
176
     1
 90
        3
176
     1
 62
     5
420
      255
176
     1
290
     0
176
     1
 90
       50
176
     1
 90
       50
176
     1
 90
       50
176
     1
290
     0
176
     1
 90
       50
176
     1
 62
   256
176
     0
 40
1.0
176
     0
 90
        2
176
     1
  1
strokes_ogs.tif
176
     1
290
     0
176
     1
 40
1.0
176
     1
 40
1.0
176
     1
  0
VISUALSTYLE
  5
BD7
102
{ACAD_REACTORS
330
2F
102
}
330
2F
100
AcDbVisualStyle
  2
OverhangOff
 70
    21
177
     3
291
     1
 70
    58
 90
        2
176
     0
 90
        2
176
     0
 90
        0
176
     0
 90
        0
176
     0
 40
0.6
176
     0
 40
30.0
176
     0
 62
     7
176
     0
 90
        1
176
     0
 90
        4
176
     0
 62
     7
176
     0
 62
   257
176
     0
 90
        1
176
     0
 90
        1
176
     0
 40
1.0
176
     0
 90
        9
176
     2
 62
     7
176
     0
 40
1.0
176
     0
 90
        1
176
     0
 90
        6
176
     0
 90
        2
176
     0
 62
     7
176
     0
 90
        5
176
     0
 90
        0
176
     0
 90
        0
176
     0
290
     0
176
     0
 90
        1
176
     0
 40
0.0
176
     0
 90
        0
176
     0
290
     0
176
     0
290
     1
176
     0
290
     1
176
     0
290
     0
176
     0
290
     0
176
     0
290
     0
176
     0
290
     0
176
     0
290
     0
176
     0
290
     0
176
     0
 90
       50
176
     0
 40
0.0
176
     0
 40
1.0
176
     0
 90
        0
176
     0
 62
    18
420
        0
176
     0
 90
       50
176
     0
 90
        3
176
     0
 62
     5
420
      255
176
     0
290
     0
176
     0
 90
       50
176
     0
 90
       50
176
     0
 90
       50
176
     0
290
     0
176
     0
 90
       50
176
     0
 62
   256
176
     0
 40
1.0
176
     0
 90
        2
176
     0
  1
strokes_ogs.tif
176
     0
290
     0
176
     0
 40
1.0
176
     0
 40
1.0
176
     0
  0
VISUALSTYLE
  5
46
102
{ACAD_REACTORS
330
2F
102
}
330
2F
100
AcDbVisualStyle
  2
Realistic
 70
     8
177
     3
291
     0
 70
    58
 90
        2
176
     1
 90
        2
176
     1
 90
        1
176
     1
 90
        0
176
     1
 40
0.6
176
     1
 40
30.0
176
     1
 62
     7
176
     1
 90
        1
176
     1
 90
        0
176
     1
 62
     7
176
     1
 62
   257
176
     1
 90
        1
176
     1
 90
        1
176
     1
 40
1.0
176
     1
 90
        8
176
     1
 62
     8
176
     1
 40
1.0
176
     1
 90
        1
176
     1
 90
        6
176
     1
 90
        2
176
     1
 62
     7
176
     1
 90
        5
176
     1
 90
        0
176
     1
 90
        0
176
     1
290
     0
176
     1
 90
       13
176
     1
 40
0.0
176
     1
 90
        0
176
     1
290
     0
176
     1
290
     1
176
     1
290
     1
176
     1
290
     0
176
     1
290
     0
176
     1
290
     0
176
     1
290
     0
176
     1
290
     0
176
     1
290
     0
176
     1
 90
       50
176
     1
 40
0.0
176
     1
 40
1.0
176
     1
 90
        0
176
     1
 62
    18
420
        0
176
     1
 90
       50
176
     1
 90
        3
176
     1
 62
     5
420
      255
176
     1
290
     0
176
     1
 90
       50
176
     1
 90
       50
176
     1
 90
       50
176
     1
290
     0
176
     1
 90
       50
176
     1
 62
   256
176
     0
 40
1.0
176
     0
 90
        2
176
     1
  1
strokes_ogs.tif
176
     1
290
     0
176
     1
 40
1.0
176
     1
 40
1.0
176
     1
  0
VISUALSTYLE
  5
BD5
102
{ACAD_REACTORS
330
2F
102
}
330
2F
100
AcDbVisualStyle
  2
Shaded
 70
    27
177
     3
291
     0
 70
    58
 90
        2
176
     1
 90
        2
176
     1
 90
        1
176
     1
 90
        2
176
     1
 40
0.6
176
     1
 40
30.0
176
     1
 62
     7
176
     1
 90
        0
176
     1
 90
        4
176
     1
 62
     7
176
     1
 62
   257
176
     1
 90
        1
176
     1
 90
        1
176
     1
 40
1.0
176
     1
 90
        8
176
     1
 62
   257
176
     1
 40
1.0
176
     1
 90
        1
176
     1
 90
        6
176
     1
 90
        2
176
     1
 62
     8
176
     1
 90
        3
176
     1
 90
        0
176
     1
 90
        0
176
     1
290
     0
176
     1
 90
        5
176
     1
 40
0.0
176
     1
 90
        0
176
     1
290
     0
176
     1
290
     1
176
     1
290
     1
176
     1
290
     0
176
     1
290
     0
176
     1
290
     0
176
     1
290
     0
176
     1
290
     0
176
     1
290
     0
176
     1
 90
       50
176
     1
 40
0.0
176
     1
 40
1.0
176
     1
 90
        0
176
     1
 62
    18
420
        0
176
     1
 90
       50
176
     1
 90
        3
176
     1
 62
     5
420
      255
176
     1
290
     0
176
     1
 90
       50
176
     1
 90
       50
176
     1
 90
       50
176
     1
290
     0
176
     1
 90
       50
176
     1
 62
   256
176
     0
 40
1.0
176
     0
 90
        2
176
     1
  1
strokes_ogs.tif
176
     1
290
     0
176
     1
 40
1.0
176
     1
 40
1.0
176
     1
  0
VISUALSTYLE
  5
BD4
102
{ACAD_REACTORS
330
2F
102
}
330
2F
100
AcDbVisualStyle
  2
Shaded with edges
 70
    26
177
     3
291
     0
 70
    58
 90
        2
176
     1
 90
        2
176
     1
 90
        1
176
     1
 90
        2
176
     1
 40
0.6
176
     1
 40
30.0
176
     1
 62
     7
176
     1
 90
        1
176
     1
 90
       10
176
     1
 62
     7
176
     1
 62
   257
176
     1
 90
        2
176
     1
 90
        1
176
     1
 40
1.0
176
     1
 90
        8
176
     1
 62
   257
176
     1
 40
1.0
176
     1
 90
        1
176
     1
 90
        6
176
     1
 90
        2
176
     1
 62
     7
176
     1
 90
        3
176
     1
 90
        0
176
     1
 90
        0
176
     1
290
     0
176
     1
 90
        5
176
     1
 40
0.0
176
     1
 90
        0
176
     1
290
     0
176
     1
290
     1
176
     1
290
     1
176
     1
290
     0
176
     1
290
     0
176
     1
290
     0
176
     1
290
     0
176
     1
290
     0
176
     1
290
     0
176
     1
 90
       50
176
     1
 40
0.0
176
     1
 40
1.0
176
     1
 90
        0
176
     1
 62
    18
420
        0
176
     1
 90
       50
176
     1
 90
        3
176
     1
 62
     5
420
      255
176
     1
290
     0
176
     1
 90
       50
176
     1
 90
       50
176
     1
 90
       50
176
     1
290
     0
176
     1
 90
       50
176
     1
 62
   256
176
     0
 40
1.0
176
     0
 90
        2
176
     1
  1
strokes_ogs.tif
176
     1
290
     0
176
     1
 40
1.0
176
     1
 40
1.0
176
     1
  0
VISUALSTYLE
  5
BD1
102
{ACAD_REACTORS
330
2F
102
}
330
2F
100
AcDbVisualStyle
  2
Shades of Gray
 70
    23
177
     3
291
     0
 70
    58
 90
        2
176
     1
 90
        2
176
     1
 90
        3
176
     1
 90
        0
176
     1
 40
0.6
176
     1
 40
30.0
176
     1
 62
     7
176
     1
 90
        2
176
     1
 90
        2
176
     1
 62
     7
176
     1
 62
     7
176
     1
 90
        1
176
     1
 90
        1
176
     1
 40
40.0
176
     1
 90
        8
176
     1
 62
     7
176
     1
 40
1.0
176
     1
 90
        1
176
     1
 90
        6
176
     1
 90
        2
176
     1
 62
     7
176
     1
 90
        3
176
     1
 90
        0
176
     1
 90
        0
176
     1
290
     0
176
     1
 90
        1
176
     1
 40
0.0
176
     1
 90
        0
176
     1
290
     0
176
     1
290
     1
176
     1
290
     1
176
     1
290
     0
176
     1
290
     0
176
     1
290
     0
176
     1
290
     0
176
     1
290
     0
176
     1
290
     0
176
     1
 90
       50
176
     1
 40
0.0
176
     1
 40
1.0
176
     1
 90
        0
176
     1
 62
    18
420
        0
176
     1
 90
       50
176
     1
 90
        3
176
     1
 62
     5
420
      255
176
     1
290
     0
176
     1
 90
       50
176
     1
 90
       50
176
     1
 90
       50
176
     1
290
     0
176
     1
 90
       50
176
     1
 62
   256
176
     0
 40
1.0
176
     0
 90
        2
176
     1
  1
strokes_ogs.tif
176
     1
290
     0
176
     1
 40
1.0
176
     1
 40
1.0
176
     1
  0
VISUALSTYLE
  5
BD2
102
{ACAD_REACTORS
330
2F
102
}
330
2F
100
AcDbVisualStyle
  2
Sketchy
 70
    24
177
     3
291
     0
 70
    58
 90
        1
176
     1
 90
        2
176
     1
 90
        2
176
     1
 90
        0
176
     1
 40
0.6
176
     1
 40
30.0
176
     1
 62
     7
176
     1
 90
        2
176
     1
 90
        2
176
     1
 62
     7
176
     1
 62
     7
176
     1
 90
        1
176
     1
 90
        1
176
     1
 40
40.0
176
     1
 90
       11
176
     1
 62
     7
176
     1
 40
1.0
176
     1
 90
        1
176
     1
 90
        6
176
     1
 90
        2
176
     1
 62
     7
176
     1
 90
        6
176
     1
 90
        0
176
     1
 90
        0
176
     1
290
     0
176
     1
 90
        1
176
     1
 40
0.0
176
     1
 90
        0
176
     1
290
     0
176
     1
290
     1
176
     1
290
     1
176
     1
290
     0
176
     1
290
     0
176
     1
290
     0
176
     1
290
     0
176
     1
290
     0
176
     1
290
     0
176
     1
 90
       50
176
     1
 40
0.0
176
     1
 40
1.0
176
     1
 90
        0
176
     1
 62
    18
420
        0
176
     1
 90
       50
176
     1
 90
        3
176
     1
 62
     5
420
      255
176
     1
290
     0
176
     1
 90
       50
176
     1
 90
       50
176
     1
 90
       50
176
     1
290
     0
176
     1
 90
       50
176
     1
 62
   256
176
     0
 40
1.0
176
     0
 90
        2
176
     1
  1
strokes_ogs.tif
176
     1
290
     0
176
     1
 40
1.0
176
     1
 40
1.0
176
     1
  0
VISUALSTYLE
  5
BCD
102
{ACAD_REACTORS
330
2F
102
}
330
2F
100
AcDbVisualStyle
  2
Thicken
 70
    13
177
     3
291
     1
 70
    58
 90
        2
176
     1
 90
        2
176
     1
 90
        0
176
     1
 90
        0
176
     1
 40
0.6
176
     1
 40
30.0
176
     1
 62
     7
176
     1
 90
        1
176
     1
 90
        4
176
     1
 62
     7
176
     1
 62
   257
176
     1
 90
        1
176
     1
 90
        1
176
     1
 40
1.0
176
     1
 90
       12
176
     1
 62
     7
176
     1
 40
1.0
176
     1
 90
        1
176
     1
 90
        6
176
     1
 90
        2
176
     1
 62
     7
176
     1
 90
        5
176
     1
 90
        0
176
     1
 90
        0
176
     1
290
     0
176
     1
 90
        1
176
     1
 40
0.0
176
     1
 90
        0
176
     1
290
     0
176
     1
290
     1
176
     1
290
     1
176
     1
290
     0
176
     1
290
     0
176
     1
290
     0
176
     1
290
     0
176
     1
290
     0
176
     1
290
     0
176
     1
 90
       50
176
     1
 40
0.0
176
     1
 40
1.0
176
     1
 90
        0
176
     1
 62
    18
420
        0
176
     1
 90
       50
176
     1
 90
        3
176
     1
 62
     5
420
      255
176
     1
290
     0
176
     1
 90
       50
176
     1
 90
       50
176
     1
 90
       50
176
     1
290
     0
176
     1
 90
       50
176
     1
 62
   256
176
     0
 40
1.0
176
     0
 90
        2
176
     1
  1
strokes_ogs.tif
176
     1
290
     0
176
     1
 40
1.0
176
     1
 40
1.0
176
     1
  0
VISUALSTYLE
  5
BC8
102
{ACAD_REACTORS
330
2F
102
}
330
2F
100
AcDbVisualStyle
  2
Wireframe
 70
     5
177
     3
291
     0
 70
    58
 90
        0
176
     1
 90
        2
176
     1
 90
        0
176
     1
 90
        0
176
     1
 40
0.6
176
     1
 40
30.0
176
     1
 62
     7
176
     1
 90
        1
176
     1
 90
        4
176
     1
 62
     7
176
     1
 62
   257
176
     1
 90
        1
176
     1
 90
        1
176
     1
 40
1.0
176
     1
 90
        0
176
     1
 62
   257
176
     1
 40
1.0
176
     1
 90
        1
176
     1
 90
        6
176
     1
 90
        2
176
     1
 62
     7
176
     1
 90
        3
176
     1
 90
        0
176
     1
 90
        0
176
     1
290
     0
176
     1
 90
        1
176
     1
 40
0.0
176
     1
 90
        0
176
     1
290
     0
176
     1
290
     1
176
     1
290
     1
176
     1
290
     0
176
     1
290
     0
176
     1
290
     0
176
     1
290
     0
176
     1
290
     0
176
     1
290
     0
176
     1
 90
       50
176
     1
 40
0.0
176
     1
 40
1.0
176
     1
 90
        0
176
     1
 62
    18
420
        0
176
     1
 90
       50
176
     1
 90
        3
176
     1
 62
     5
420
      255
176
     1
290
     0
176
     1
 90
       50
176
     1
 90
       50
176
     1
 90
       50
176
     1
290
     0
176
     1
 90
       50
176
     1
 62
   256
176
     0
 40
1.0
176
     0
 90
        2
176
     1
  1
strokes_ogs.tif
176
     1
290
     0
176
     1
 40
1.0
176
     1
 40
1.0
176
     1
  0
VISUALSTYLE
  5
BD3
102
{ACAD_REACTORS
330
2F
102
}
330
2F
100
AcDbVisualStyle
  2
X-Ray
 70
    25
177
     3
291
     0
 70
    58
 90
        2
176
     1
 90
        2
176
     1
 90
        1
176
     1
 90
        1
176
     1
 40
0.5
176
     1
 40
30.0
176
     1
 62
     7
176
     1
 90
        1
176
     1
 90
        0
176
     1
 62
     7
176
     1
 62
   257
176
     1
 90
        1
176
     1
 90
        1
176
     1
 40
1.0
176
     1
 90
        8
176
     1
 62
     7
176
     1
 40
1.0
176
     1
 90
        1
176
     1
 90
        6
176
     1
 90
        2
176
     1
 62
     7
176
     1
 90
        3
176
     1
 90
        0
176
     1
 90
        0
176
     1
290
     0
176
     1
 90
       13
176
     1
 40
0.0
176
     1
 90
        0
176
     1
290
     0
176
     1
290
     1
176
     1
290
     1
176
     1
290
     0
176
     1
290
     0
176
     1
290
     0
176
     1
290
     0
176
     1
290
     0
176
     1
290
     0
176
     1
 90
       50
176
     1
 40
0.0
176
     1
 40
1.0
176
     1
 90
        0
176
     1
 62
    18
420
        0
176
     1
 90
       50
176
     1
 90
        3
176
     1
 62
     5
420
      255
176
     1
290
     0
176
     1
 90
       50
176
     1
 90
       50
176
     1
 90
       50
176
     1
290
     0
176
     1
 90
       50
176
     1
 62
   256
176
     0
 40
1.0
176
     0
 90
        2
176
     1
  1
strokes_ogs.tif
176
     1
290
     0
176
     1
 40
1.0
176
     1
 40
1.0
176
     1
  0
DICTIONARYVAR
  5
BBE
102
{ACAD_REACTORS
330
BB8
102
}
330
BB8
100
DictionaryVariables
280
     0
  1
1:1
  0
DICTIONARYVAR
  5
BBA
102
{ACAD_REACTORS
330
BB8
102
}
330
BB8
100
DictionaryVariables
280
     0
  1
STANDARD
  0
DICTIONARYVAR
  5
BB9
102
{ACAD_REACTORS
330
BB8
102
}
330
BB8
100
DictionaryVariables
280
     0
  1
STANDARD
  0
DICTIONARYVAR
  5
BBB
102
{ACAD_REACTORS
330
BB8
102
}
330
BB8
100
DictionaryVariables
280
     0
  1
Metric50
  0
DICTIONARYVAR
  5
BBC
102
{ACAD_REACTORS
330
BB8
102
}
330
BB8
100
DictionaryVariables
280
     0
  1
Metric50
  0
DICTIONARYVAR
  5
C3B
102
{ACAD_REACTORS
330
BB8
102
}
330
BB8
100
DictionaryVariables
280
     0
  1
1
  0
DICTIONARYVAR
  5
C39
102
{ACAD_REACTORS
330
BB8
102
}
330
BB8
100
DictionaryVariables
280
     0
  1
1
  0
DICTIONARYVAR
  5
FF3
102
{ACAD_REACTORS
330
BB8
102
}
330
BB8
100
DictionaryVariables
280
     0
  1
4
  0
DICTIONARYVAR
  5
C38
102
{ACAD_REACTORS
330
BB8
102
}
330
BB8
100
DictionaryVariables
280
     0
  1
0
  0
DICTIONARYVAR
  5
BC0
102
{ACAD_REACTORS
330
BB8
102
}
330
BB8
100
DictionaryVariables
280
     0
  1
1
  0
DICTIONARYVAR
  5
BC1
102
{ACAD_REACTORS
330
BB8
102
}
330
BB8
100
DictionaryVariables
280
     0
  1
15
  0
DICTIONARYVAR
  5
BBF
102
{ACAD_REACTORS
330
BB8
102
}
330
BB8
100
DictionaryVariables
280
     0
  1
0
  0
DICTIONARYVAR
  5
BBD
102
{ACAD_REACTORS
330
BB8
102
}
330
BB8
100
DictionaryVariables
280
     0
  1
0
  0
DICTIONARYVAR
  5
C3C
102
{ACAD_REACTORS
330
BB8
102
}
330
BB8
100
DictionaryVariables
280
     0
  1
1
  0
DICTIONARYVAR
  5
C37
102
{ACAD_REACTORS
330
BB8
102
}
330
BB8
100
DictionaryVariables
280
     0
  1
127
  0
DICTIONARY
  5
22CF3
330
BDD
100
AcDbDictionary
280
     1
281
     1
  3
ACAD_XREC_ROUNDTRIP
360
22CF4
  0
DICTIONARY
  5
18
330
16
100
AcDbDictionary
280
     1
281
     1
  0
DICTIONARY
  5
1F
330
1E
100
AcDbDictionary
280
     1
281
     1
  0
DICTIONARY
  5
E
330
C
100
AcDbDictionary
280
     1
281
     1
  3
BUMPTILE
360
F
  3
DIFFUSETILE
360
10
  3
OPACITYTILE
360
11
  3
REFLECTIONTILE
360
12
  0
DICTIONARY
  5
22CF1
330
BDB
100
AcDbDictionary
280
     1
281
     1
  3
ACAD_XREC_ROUNDTRIP
360
22CF2
  0
DICTIONARY
  5
45
330
44
100
AcDbDictionary
280
     1
281
     1
  3
ACAD_ROUNDTRIP_2008_TABLESTYLE_CELLSTYLEMAP
360
22CF0
  0
XRECORD
  5
22CF4
102
{ACAD_REACTORS
330
22CF3
102
}
330
22CF3
100
AcDbXrecord
280
     1
102
DISPLAYNAME
  1
Metric50
102
FLAGS
 90
        0
  0
XRECORD
  5
F
102
{ACAD_REACTORS
330
E
102
}
330
E
100
AcDbXrecord
280
     1
270
     1
271
     1
  0
XRECORD
  5
10
102
{ACAD_REACTORS
330
E
102
}
330
E
100
AcDbXrecord
280
     1
270
     1
271
     1
  0
XRECORD
  5
11
102
{ACAD_REACTORS
330
E
102
}
330
E
100
AcDbXrecord
280
     1
270
     1
271
     1
  0
XRECORD
  5
12
102
{ACAD_REACTORS
330
E
102
}
330
E
100
AcDbXrecord
280
     1
270
     1
271
     1
  0
XRECORD
  5
22CF2
102
{ACAD_REACTORS
330
22CF1
102
}
330
22CF1
100
AcDbXrecord
280
     1
102
DISPLAYNAME
  1
Metric50
102
FLAGS
 90
        0
  0
CELLSTYLEMAP
  5
22CF0
102
{ACAD_REACTORS
330
45
102
}
330
45
100
AcDbCellStyleMap
 90
        3
300
CELLSTYLE
  1
TABLEFORMAT_BEGIN
 90
        5
170
     1
 91
        0
 92
    32768
 62
   257
 93
        1
300
CONTENTFORMAT
  1
CONTENTFORMAT_BEGIN
 90
        0
 91
        0
 92
      512
 93
        0
300

 40
0.0
140
1.0
 94
        5
 62
     0
340
25
144
6.0
309
CONTENTFORMAT_END
171
     1
301
MARGIN
  1
CELLMARGIN_BEGIN
 40
1.5
 40
1.5
 40
1.5
 40
1.5
 40
0.18
 40
0.18
309
CELLMARGIN_END
 94
        6
 95
        1
302
GRIDFORMAT
  1
GRIDFORMAT_BEGIN
 90
        0
 91
        1
 62
     0
 92
       -2
340
28
 93
        0
 40
1.125
309
GRIDFORMAT_END
 95
        2
302
GRIDFORMAT
  1
GRIDFORMAT_BEGIN
 90
        0
 91
        1
 62
     0
 92
       -2
340
28
 93
        0
 40
1.125
309
GRIDFORMAT_END
 95
        4
302
GRIDFORMAT
  1
GRIDFORMAT_BEGIN
 90
        0
 91
        1
 62
     0
 92
       -2
340
28
 93
        0
 40
1.125
309
GRIDFORMAT_END
 95
        8
302
GRIDFORMAT
  1
GRIDFORMAT_BEGIN
 90
        0
 91
        1
 62
     0
 92
       -2
340
28
 93
        0
 40
1.125
309
GRIDFORMAT_END
 95
       16
302
GRIDFORMAT
  1
GRIDFORMAT_BEGIN
 90
        0
 91
        1
 62
     0
 92
       -2
340
28
 93
        0
 40
1.125
309
GRIDFORMAT_END
 95
       32
302
GRIDFORMAT
  1
GRIDFORMAT_BEGIN
 90
        0
 91
        1
 62
     0
 92
       -2
340
28
 93
        0
 40
1.125
309
GRIDFORMAT_END
309
TABLEFORMAT_END
  1
CELLSTYLE_BEGIN
 90
        1
 91
        1
300
_TITLE
309
CELLSTYLE_END
300
CELLSTYLE
  1
TABLEFORMAT_BEGIN
 90
        5
170
     1
 91
        0
 92
        0
 62
   257
 93
        1
300
CONTENTFORMAT
  1
CONTENTFORMAT_BEGIN
 90
        0
 91
        0
 92
      512
 93
        0
300

 40
0.0
140
1.0
 94
        5
 62
     0
340
25
144
4.5
309
CONTENTFORMAT_END
171
     1
301
MARGIN
  1
CELLMARGIN_BEGIN
 40
1.5
 40
1.5
 40
1.5
 40
1.5
 40
0.18
 40
0.18
309
CELLMARGIN_END
 94
        6
 95
        1
302
GRIDFORMAT
  1
GRIDFORMAT_BEGIN
 90
        0
 91
        1
 62
     0
 92
       -2
340
28
 93
        0
 40
1.125
309
GRIDFORMAT_END
 95
        2
302
GRIDFORMAT
  1
GRIDFORMAT_BEGIN
 90
        0
 91
        1
 62
     0
 92
       -2
340
28
 93
        0
 40
1.125
309
GRIDFORMAT_END
 95
        4
302
GRIDFORMAT
  1
GRIDFORMAT_BEGIN
 90
        0
 91
        1
 62
     0
 92
       -2
340
28
 93
        0
 40
1.125
309
GRIDFORMAT_END
 95
        8
302
GRIDFORMAT
  1
GRIDFORMAT_BEGIN
 90
        0
 91
        1
 62
     0
 92
       -2
340
28
 93
        0
 40
1.125
309
GRIDFORMAT_END
 95
       16
302
GRIDFORMAT
  1
GRIDFORMAT_BEGIN
 90
        0
 91
        1
 62
     0
 92
       -2
340
28
 93
        0
 40
1.125
309
GRIDFORMAT_END
 95
       32
302
GRIDFORMAT
  1
GRIDFORMAT_BEGIN
 90
        0
 91
        1
 62
     0
 92
       -2
340
28
 93
        0
 40
1.125
309
GRIDFORMAT_END
309
TABLEFORMAT_END
  1
CELLSTYLE_BEGIN
 90
        2
 91
        1
300
_HEADER
309
CELLSTYLE_END
300
CELLSTYLE
  1
TABLEFORMAT_BEGIN
 90
        5
170
     1
 91
        0
 92
        0
 62
   257
 93
        1
300
CONTENTFORMAT
  1
CONTENTFORMAT_BEGIN
 90
        0
 91
        0
 92
      512
 93
        0
300

 40
0.0
140
1.0
 94
        2
 62
     0
340
25
144
4.5
309
CONTENTFORMAT_END
171
     1
301
MARGIN
  1
CELLMARGIN_BEGIN
 40
1.5
 40
1.5
 40
1.5
 40
1.5
 40
0.18
 40
0.18
309
CELLMARGIN_END
 94
        6
 95
        1
302
GRIDFORMAT
  1
GRIDFORMAT_BEGIN
 90
        0
 91
        1
 62
     0
 92
       -2
340
28
 93
        0
 40
1.125
309
GRIDFORMAT_END
 95
        2
302
GRIDFORMAT
  1
GRIDFORMAT_BEGIN
 90
        0
 91
        1
 62
     0
 92
       -2
340
28
 93
        0
 40
1.125
309
GRIDFORMAT_END
 95
        4
302
GRIDFORMAT
  1
GRIDFORMAT_BEGIN
 90
        0
 91
        1
 62
     0
 92
       -2
340
28
 93
        0
 40
1.125
309
GRIDFORMAT_END
 95
        8
302
GRIDFORMAT
  1
GRIDFORMAT_BEGIN
 90
        0
 91
        1
 62
     0
 92
       -2
340
28
 93
        0
 40
1.125
309
GRIDFORMAT_END
 95
       16
302
GRIDFORMAT
  1
GRIDFORMAT_BEGIN
 90
        0
 91
        1
 62
     0
 92
       -2
340
28
 93
        0
 40
1.125
309
GRIDFORMAT_END
 95
       32
302
GRIDFORMAT
  1
GRIDFORMAT_BEGIN
 90
        0
 91
        1
 62
     0
 92
       -2
340
28
 93
        0
 40
1.125
309
GRIDFORMAT_END
309
TABLEFORMAT_END
  1
CELLSTYLE_BEGIN
 90
        3
 91
        2
300
_DATA
309
CELLSTYLE_END
  0
ENDSEC
  0
SECTION
  2
ACDSDATA
 70
     2
 71
     6
  0
ACDSSCHEMA
 90
        0
  1
AcDb_Thumbnail_Schema
  2
AcDbDs::ID
280
    10
 91
        8
  2
Thumbnail_Data
280
    15
 91
        0
101
ACDSRECORD
 95
        0
 90
        1
  2
AcDbDs::TreatedAsObjectData
280
     1
291
     1
101
ACDSRECORD
 95
        0
 90
        2
  2
AcDbDs::Legacy
280
     1
291
     1
101
ACDSRECORD
  1
AcDbDs::ID
 90
        3
  2
AcDs:Indexable
280
     1
291
     1
101
ACDSRECORD
  1
AcDbDs::ID
 90
        4
  2
AcDbDs::HandleAttribute
280
     7
282
     1
  0
ACDSSCHEMA
 90
        1
  1
AcDbDs::TreatedAsObjectDataSchema
  2
AcDbDs::TreatedAsObjectData
280
     1
 91
        0
  0
ACDSSCHEMA
 90
        2
  1
AcDbDs::LegacySchema
  2
AcDbDs::Legacy
280
     1
 91
        0
  0
ACDSSCHEMA
 90
        3
  1
AcDbDs::IndexedPropertySchema
  2
AcDs:Indexable
280
     1
 91
        0
  0
ACDSSCHEMA
 90
        4
  1
AcDbDs::HandleAttributeSchema
  2
AcDbDs::HandleAttribute
280
     7
 91
        1
284
     1
  0
ACDSRECORD
 90
        0
  2
AcDbDs::ID
280
    10
320
16
  2
Thumbnail_Data
280
    15
 94
     1873
310
89504E470D0A1A0A0000000D4948445200000100000000730803000000406D2C8F00000300504C5445000000000000C8C8C80000000000000000000000000000000000000000000000000000330000660000990000CC0000FF0033000033330033660033990033CC0033FF0066000066330066660066990066CC0066FF0099
310
000099330099660099990099CC0099FF00CC0000CC3300CC6600CC9900CCCC00CCFF00FF0000FF3300FF6600FF9900FFCC00FFFF3300003300333300663300993300CC3300FF3333003333333333663333993333CC3333FF3366003366333366663366993366CC3366FF3399003399333399663399993399CC3399FF33CC00
310
33CC3333CC6633CC9933CCCC33CCFF33FF0033FF3333FF6633FF9933FFCC33FFFF6600006600336600666600996600CC6600FF6633006633336633666633996633CC6633FF6666006666336666666666996666CC6666FF6699006699336699666699996699CC6699FF66CC0066CC3366CC6666CC9966CCCC66CCFF66FF0066
310
FF3366FF6666FF9966FFCC66FFFF9900009900339900669900999900CC9900FF9933009933339933669933999933CC9933FF9966009966339966669966999966CC9966FF9999009999339999669999999999CC9999FF99CC0099CC3399CC6699CC9999CCCC99CCFF99FF0099FF3399FF6699FF9999FFCC99FFFFCC0000CC00
310
33CC0066CC0099CC00CCCC00FFCC3300CC3333CC3366CC3399CC33CCCC33FFCC6600CC6633CC6666CC6699CC66CCCC66FFCC9900CC9933CC9966CC9999CC99CCCC99FFCCCC00CCCC33CCCC66CCCC99CCCCCCCCCCFFCCFF00CCFF33CCFF66CCFF99CCFFCCCCFFFFFF0000FF0033FF0066FF0099FF00CCFF00FFFF3300FF3333
310
FF3366FF3399FF33CCFF33FFFF6600FF6633FF6666FF6699FF66CCFF66FFFF9900FF9933FF9966FF9999FF99CCFF99FFFFCC00FFCC33FFCC66FFCC99FFCCCCFFCCFFFFFF00FFFF33FFFF66FFFF99FFFFCCFFFFFF0000000D0D0D1A1A1A2828283535354343435050505D5D5D6B6B6B787878868686939393A1A1A1AEAEAEBB
310
BBBBC9C9C9D6D6D6E4E4E4F1F1F1FFFFFF00000000000000000000000000000000000000000000000000000000000008F1915C0000040C4944415478DAED9D597283300C86751CBD70B31E59D7D07B590CDE64B0438217A4C9341D621CF4F14B5E69017E64FCDD720CBD59AE63DD0160C18838C7328BE597930E56B9B34459
310
A76616CB2F5745293C44E4290005A00014800250000A4001280005A0000A2D77A052CB7E7E7DAF07A0394001280005A0001440A6E1D22C61F157E02000686993CB01D0ADA65C01F40F0014808640C3004A16DFB200E0B701FC7C75F0AB0024673B4C82642C8ADEC5F76200723F60A9BD7100EB9BEF08A36B66F1DA5DC3BE00
310
80FE57E4F494AA00F0DC8C3C398EF0B49ECD4E1D7280A050F102C0A26CB81538030030AD777F2A5740765FB96D00B304D6179FFBD20B00126E20C27908ACAF6914005408C0486072F619CD7932DEDAD31300DC32FD0980B9C0649C64E3FFFE6379C728287ACB01B3F76900EC7A0E82FF8051507407C0BB203C3AA446D8D659
310
D1FFE584F59DC70070386EF5BD8B5CF67F2B02BE043A0460A53E3B63FD442BF284FF5B91352F760220CEFBAED4576727D95F108F1FFA7008DC01F0FCDA203B3A0EE33D0801E9DD9EEAEE779D1B8E099757B6313E0420D2183B3A0EE3DD0F01F11D2D3AB0B5885B83B7F3120AC06A3960BB63AE5186FEC310704267B2BFF955
310
B80A896E7E4D00E10E72C2E4FEEE9883A08FE98062E223AA84C39E487D005E9A383EC240AFCC910E30F23F984110ED1823F336A2B6C3EAC601C4C18DA747407EA2829DE90433F146BD00086B1126456DD7BA0700B8E8D1CF4A64B3932FE765E8B71EE660B20CDD23E41E0DEB0EDBBC161470353B82CE7C353B3A206FF05074
310
E56D854011005E254D762A2101800705B0FF8C3A309F2BE0E96690EF0188CEB905C00CC53C00FC6BFF6F00909E6D2B0090EA090600B86505981C700980CF9F08441417A19E5040622CF00D009CBEC382B9EB24EE8A4C9D0911483CB4F9B1022E6C3E09495E54A904C013EE47005890F57968C904AA02F038140300CE5E18C7
310
F4DC470B000239640348DCD3F49418360DC07CE68CEA4E00CC07D7B62C934073B3C26717EA0CEC2D0037DD9BCFF6B81E0E80FD5D54806DDAC91B4ABF0E40D1D6A09E01700A0016101852014854D60FE81300F87B84BCCFB1B01F5007C0C5968820B161B84D0CFC5D627E3DDF50C0F34B63987DD1787A0E16D5550F40510894
310
02182E092A001FC031DFFF520000FB92C77B01800250000A40010C0580728730A6DCFA0C89D05DA382A1D069D91A00A01400750CE0EECA1342E317589E03CA4652F4EBC14ADB8FCFBF1EC003A60014800250000A4001280005301800CEB741014447FE027BECF2EAFC414596B5F017DFF741FFA2A40C006A00A81C02BE00FE
310
E2D06F370750BEE526411740FB49F01E80019A4105F02D00E7E55FD00F783D00ED0A6B57F88D0AD867D42F13A702D01068281F55B12AD330999D37B997FF7175D0CEBF3AB801006A03F807A1F0A7D02FD5C3940000000049454E44AE426082
  0
ACDSRECORD
 90
        0
  2
AcDbDs::ID
280
    10
320
1E
  2
Thumbnail_Data
280
    15
 94
     1014
310
89504E470D0A1A0A0000000D49484452000000B80000007F08030000006B00F8F900000300504C5445FFFFFF000000FFFFFF0000000000000000000000000000000000000000000000000000330000660000990000CC0000FF0033000033330033660033990033CC0033FF0066000066330066660066990066CC0066FF0099
310
000099330099660099990099CC0099FF00CC0000CC3300CC6600CC9900CCCC00CCFF00FF0000FF3300FF6600FF9900FFCC00FFFF3300003300333300663300993300CC3300FF3333003333333333663333993333CC3333FF3366003366333366663366993366CC3366FF3399003399333399663399993399CC3399FF33CC00
310
33CC3333CC6633CC9933CCCC33CCFF33FF0033FF3333FF6633FF9933FFCC33FFFF6600006600336600666600996600CC6600FF6633006633336633666633996633CC6633FF6666006666336666666666996666CC6666FF6699006699336699666699996699CC6699FF66CC0066CC3366CC6666CC9966CCCC66CCFF66FF0066
310
FF3366FF6666FF9966FFCC66FFFF9900009900339900669900999900CC9900FF9933009933339933669933999933CC9933FF9966009966339966669966999966CC9966FF9999009999339999669999999999CC9999FF99CC0099CC3399CC6699CC9999CCCC99CCFF99FF0099FF3399FF6699FF9999FFCC99FFFFCC0000CC00
310
33CC0066CC0099CC00CCCC00FFCC3300CC3333CC3366CC3399CC33CCCC33FFCC6600CC6633CC6666CC6699CC66CCCC66FFCC9900CC9933CC9966CC9999CC99CCCC99FFCCCC00CCCC33CCCC66CCCC99CCCCCCCCCCFFCCFF00CCFF33CCFF66CCFF99CCFFCCCCFFFFFF0000FF0033FF0066FF0099FF00CCFF00FFFF3300FF3333
310
FF3366FF3399FF33CCFF33FFFF6600FF6633FF6666FF6699FF66CCFF66FFFF9900FF9933FF9966FF9999FF99CCFF99FFFFCC00FFCC33FFCC66FFCC99FFCCCCFFCCFFFFFF00FFFF33FFFF66FFFF99FFFFCCFFFFFF0000000D0D0D1A1A1A2828283535354343435050505D5D5D6B6B6B787878868686939393A1A1A1AEAEAEBB
310
BBBBC9C9C9D6D6D6E4E4E4F1F1F1FFFFFF000000000000000000000000000000000000000000000000000000000000790CAC0F000000B14944415478DAEDDC3B0A80301004D0DCFF987B81ADEC258D4D8A547E46DE968AF01061B25338BAE2A6C79CAE236C72E105FE3EFCFAFED72BBB1B373FB2837FF62D838383833F0A97
310
9CE0E0E0E0E1E771C9090E0E0E0E0E0E0E0EAE9EB04880838383AB27443E3838383838383838B87A021C1C1C1C5CAF22F2C1C1C1C1C1C1C1C1C1F52A362070707070F5043838383838383838B87AC222010E0E0EAE9E909CE0E0E099F0D47F7A4A4EF05FC2F366BA4F0386279D40CB09810000000049454E44AE426082
  0
ENDSEC
  0
EOF
