  0
SECTION
  2
HEADER
  9
$ACADVER
  1
AC1027
  9
$ACADMAINTVER
 70
    55
  9
$DWGCODEPAGE
  3
ANSI_949
  9
$LASTSAVEDBY
  1
DESKTOP
  9
$REQUIREDVERSIONS
160
                 0
  9
$INSBASE
 10
0.0
 20
0.0
 30
0.0
  9
$EXTMIN
 10
417.7086390206873
 20
-3.254212040522816
 30
-0.0000000000112498
  9
$EXTMAX
 10
689.4298752947461
 20
188.2988684592524
 30
0.0000000000002956
  9
$LIMMIN
 10
0.0
 20
0.0
  9
$LIMMAX
 10
420.0
 20
297.0
  9
$ORTHOMODE
 70
     0
  9
$REGENMODE
 70
     1
  9
$FILLMODE
 70
     1
  9
$QTEXTMODE
 70
     0
  9
$MIRRTEXT
 70
     0
  9
$LTSCALE
 40
5.0
  9
$ATTMODE
 70
     1
  9
$TEXTSIZE
 40
3.0
  9
$TRACEWID
 40
1.0
  9
$TEXTSTYLE
  7
Standard
  9
$CLAYER
  8
0
  9
$CELTYPE
  6
Continuous
  9
$CECOLOR
 62
     7
  9
$CELTSCALE
 40
1.0
  9
$DISPSILH
 70
     0
  9
$DIMSCALE
 40
1.0
  9
$DIMASZ
 40
2.5
  9
$DIMEXO
 40
0.625
  9
$DIMDLI
 40
3.75
  9
$DIMRND
 40
0.0
  9
$DIMDLE
 40
0.0
  9
$DIMEXE
 40
1.25
  9
$DIMTP
 40
0.0
  9
$DIMTM
 40
0.000000001
  9
$DIMTXT
 40
3.0
  9
$DIMCEN
 40
-0.5
  9
$DIMTSZ
 40
0.0
  9
$DIMTOL
 70
     0
  9
$DIMLIM
 70
     0
  9
$DIMTIH
 70
     0
  9
$DIMTOH
 70
     0
  9
$DIMSE1
 70
     0
  9
$DIMSE2
 70
     0
  9
$DIMTAD
 70
     1
  9
$DIMZIN
 70
     8
  9
$DIMBLK
  1

  9
$DIMASO
 70
     1
  9
$DIMSHO
 70
     1
  9
$DIMPOST
  1

  9
$DIMAPOST
  1

  9
$DIMALT
 70
     0
  9
$DIMALTD
 70
     3
  9
$DIMALTF
 40
0.03937007874016
  9
$DIMLFAC
 40
1.0
  9
$DIMTOFL
 70
     1
  9
$DIMTVP
 40
0.0
  9
$DIMTIX
 70
     0
  9
$DIMSOXD
 70
     0
  9
$DIMSAH
 70
     0
  9
$DIMBLK1
  1

  9
$DIMBLK2
  1

  9
$DIMSTYLE
  2
Standard
  9
$DIMCLRD
 70
     3
  9
$DIMCLRE
 70
     3
  9
$DIMCLRT
 70
     2
  9
$DIMTFAC
 40
0.7
  9
$DIMGAP
 40
0.625
  9
$DIMJUST
 70
     0
  9
$DIMSD1
 70
     0
  9
$DIMSD2
 70
     0
  9
$DIMTOLJ
 70
     0
  9
$DIMTZIN
 70
     8
  9
$DIMALTZ
 70
     0
  9
$DIMALTTZ
 70
     0
  9
$DIMUPT
 70
     0
  9
$DIMDEC
 70
     8
  9
$DIMTDEC
 70
     8
  9
$DIMALTU
 70
     2
  9
$DIMALTTD
 70
     3
  9
$DIMTXSTY
  7
Standard
  9
$DIMAUNIT
 70
     1
  9
$DIMADEC
 70
     1
  9
$DIMALTRND
 40
0.0
  9
$DIMAZIN
 70
     0
  9
$DIMDSEP
 70
    46
  9
$DIMATFIT
 70
     3
  9
$DIMFRAC
 70
     0
  9
$DIMLDRBLK
  1

  9
$DIMLUNIT
 70
     2
  9
$DIMLWD
 70
    -1
  9
$DIMLWE
 70
    -1
  9
$DIMTMOVE
 70
     0
  9
$DIMFXL
 40
1.0
  9
$DIMFXLON
 70
     0
  9
$DIMJOGANG
 40
0.7853981633974483
  9
$DIMTFILL
 70
     0
  9
$DIMTFILLCLR
 70
     0
  9
$DIMARCSYM
 70
     1
  9
$DIMLTYPE
  6

  9
$DIMLTEX1
  6

  9
$DIMLTEX2
  6

  9
$DIMTXTDIRECTION
 70
     0
  9
$LUNITS
 70
     2
  9
$LUPREC
 70
     4
  9
$SKETCHINC
 40
0.0
  9
$FILLETRAD
 40
0.0
  9
$AUNITS
 70
     0
  9
$AUPREC
 70
     0
  9
$MENU
  1
.
  9
$ELEVATION
 40
0.0
  9
$PELEVATION
 40
0.0
  9
$THICKNESS
 40
0.0
  9
$LIMCHECK
 70
     0
  9
$CHAMFERA
 40
1.5
  9
$CHAMFERB
 40
1.5
  9
$CHAMFERC
 40
0.0
  9
$CHAMFERD
 40
0.0087266462599716
  9
$SKPOLY
 70
     0
  9
$TDCREATE
 40
2455072.745932974
  9
$TDUCREATE
 40
2455072.370932974
  9
$TDUPDATE
 40
2459766.358129872
  9
$TDUUPDATE
 40
2459765.983129873
  9
$TDINDWG
 40
131.6590102315
  9
$TDUSRTIMER
 40
131.6590100463
  9
$USRTIMER
 70
     1
  9
$ANGBASE
 50
0.0
  9
$ANGDIR
 70
     0
  9
$PDMODE
 70
     0
  9
$PDSIZE
 40
0.0
  9
$PLINEWID
 40
0.0
  9
$SPLFRAME
 70
     0
  9
$SPLINETYPE
 70
     6
  9
$SPLINESEGS
 70
     8
  9
$HANDSEED
  5
23C0C
  9
$SURFTAB1
 70
     6
  9
$SURFTAB2
 70
     6
  9
$SURFTYPE
 70
     6
  9
$SURFU
 70
     6
  9
$SURFV
 70
     6
  9
$UCSBASE
  2

  9
$UCSNAME
  2

  9
$UCSORG
 10
0.0
 20
0.0
 30
0.0
  9
$UCSXDIR
 10
1.0
 20
0.0
 30
0.0
  9
$UCSYDIR
 10
0.0
 20
1.0
 30
0.0
  9
$UCSORTHOREF
  2

  9
$UCSORTHOVIEW
 70
     0
  9
$UCSORGTOP
 10
0.0
 20
0.0
 30
0.0
  9
$UCSORGBOTTOM
 10
0.0
 20
0.0
 30
0.0
  9
$UCSORGLEFT
 10
0.0
 20
0.0
 30
0.0
  9
$UCSORGRIGHT
 10
0.0
 20
0.0
 30
0.0
  9
$UCSORGFRONT
 10
0.0
 20
0.0
 30
0.0
  9
$UCSORGBACK
 10
0.0
 20
0.0
 30
0.0
  9
$PUCSBASE
  2

  9
$PUCSNAME
  2

  9
$PUCSORG
 10
0.0
 20
0.0
 30
0.0
  9
$PUCSXDIR
 10
1.0
 20
0.0
 30
0.0
  9
$PUCSYDIR
 10
0.0
 20
1.0
 30
0.0
  9
$PUCSORTHOREF
  2

  9
$PUCSORTHOVIEW
 70
     0
  9
$PUCSORGTOP
 10
0.0
 20
0.0
 30
0.0
  9
$PUCSORGBOTTOM
 10
0.0
 20
0.0
 30
0.0
  9
$PUCSORGLEFT
 10
0.0
 20
0.0
 30
0.0
  9
$PUCSORGRIGHT
 10
0.0
 20
0.0
 30
0.0
  9
$PUCSORGFRONT
 10
0.0
 20
0.0
 30
0.0
  9
$PUCSORGBACK
 10
0.0
 20
0.0
 30
0.0
  9
$USERI1
 70
     0
  9
$USERI2
 70
     0
  9
$USERI3
 70
     0
  9
$USERI4
 70
     0
  9
$USERI5
 70
     0
  9
$USERR1
 40
0.0
  9
$USERR2
 40
0.0
  9
$USERR3
 40
0.0
  9
$USERR4
 40
0.0
  9
$USERR5
 40
0.0
  9
$WORLDVIEW
 70
     1
  9
$SHADEDGE
 70
     3
  9
$SHADEDIF
 70
    70
  9
$TILEMODE
 70
     1
  9
$MAXACTVP
 70
    64
  9
$PINSBASE
 10
0.0
 20
0.0
 30
0.0
  9
$PLIMCHECK
 70
     0
  9
$PEXTMIN
 10
1.000000000000000E+20
 20
1.000000000000000E+20
 30
1.000000000000000E+20
  9
$PEXTMAX
 10
-1.000000000000000E+20
 20
-1.000000000000000E+20
 30
-1.000000000000000E+20
  9
$PLIMMIN
 10
-20.0
 20
-7.5
  9
$PLIMMAX
 10
277.0
 20
202.5
  9
$UNITMODE
 70
     0
  9
$VISRETAIN
 70
     1
  9
$PLINEGEN
 70
     0
  9
$PSLTSCALE
 70
     1
  9
$TREEDEPTH
 70
  3020
  9
$CMLSTYLE
  2
Standard
  9
$CMLJUST
 70
     0
  9
$CMLSCALE
 40
20.0
  9
$PROXYGRAPHICS
 70
     1
  9
$MEASUREMENT
 70
     1
  9
$CELWEIGHT
370
    -1
  9
$ENDCAPS
280
     0
  9
$JOINSTYLE
280
     0
  9
$LWDISPLAY
290
     0
  9
$INSUNITS
 70
     4
  9
$HYPERLINKBASE
  1

  9
$STYLESHEET
  1
ksm0910.ctb
  9
$XEDIT
290
     1
  9
$CEPSNTYPE
380
     0
  9
$PSTYLEMODE
290
     1
  9
$FINGERPRINTGUID
  2
{D2C70C36-9B4F-4E20-9CCB-531AA1EE4AC8}
  9
$VERSIONGUID
  2
{89389E5B-E01B-406C-AB3C-D66A6BC41A00}
  9
$EXTNAMES
290
     1
  9
$PSVPSCALE
 40
0.0
  9
$OLESTARTUP
290
     0
  9
$SORTENTS
280
   127
  9
$INDEXCTL
280
     0
  9
$HIDETEXT
280
     1
  9
$XCLIPFRAME
280
     2
  9
$HALOGAP
280
     0
  9
$OBSCOLOR
 70
   257
  9
$OBSLTYPE
280
     0
  9
$INTERSECTIONDISPLAY
280
     0
  9
$INTERSECTIONCOLOR
 70
   257
  9
$DIMASSOC
280
     1
  9
$PROJECTNAME
  1

  9
$CAMERADISPLAY
290
     0
  9
$LENSLENGTH
 40
50.0
  9
$CAMERAHEIGHT
 40
0.0
  9
$STEPSPERSEC
 40
2.0
  9
$STEPSIZE
 40
6.0
  9
$3DDWFPREC
 40
2.0
  9
$PSOLWIDTH
 40
5.0
  9
$PSOLHEIGHT
 40
80.0
  9
$LOFTANG1
 40
1.570796326794896
  9
$LOFTANG2
 40
1.570796326794896
  9
$LOFTMAG1
 40
0.0
  9
$LOFTMAG2
 40
0.0
  9
$LOFTPARAM
 70
     7
  9
$LOFTNORMALS
280
     1
  9
$LATITUDE
 40
37.795
  9
$LONGITUDE
 40
-122.394
  9
$NORTHDIRECTION
 40
0.0
  9
$TIMEZONE
 70
 -8000
  9
$LIGHTGLYPHDISPLAY
280
     1
  9
$TILEMODELIGHTSYNCH
280
     1
  9
$CMATERIAL
347
3D
  9
$SOLIDHIST
280
     1
  9
$SHOWHIST
280
     1
  9
$DWFFRAME
280
     2
  9
$DGNFRAME
280
     0
  9
$REALWORLDSCALE
290
     1
  9
$INTERFERECOLOR
 62
     1
  9
$INTERFEREOBJVS
345
46
  9
$INTERFEREVPVS
346
47
  9
$CSHADOW
280
     0
  9
$SHADOWPLANELOCATION
 40
0.0
  0
ENDSEC
  0
SECTION
  2
CLASSES
  0
CLASS
  1
ACDBDICTIONARYWDFLT
  2
AcDbDictionaryWithDefault
  3
ObjectDBX Classes
 90
        0
 91
        1
280
     0
281
     0
  0
CLASS
  1
DICTIONARYVAR
  2
AcDbDictionaryVar
  3
ObjectDBX Classes
 90
        0
 91
       21
280
     0
281
     0
  0
CLASS
  1
TABLESTYLE
  2
AcDbTableStyle
  3
ObjectDBX Classes
 90
     4095
 91
        1
280
     0
281
     0
  0
CLASS
  1
MATERIAL
  2
AcDbMaterial
  3
ObjectDBX Classes
 90
     1153
 91
        3
280
     0
281
     0
  0
CLASS
  1
VISUALSTYLE
  2
AcDbVisualStyle
  3
ObjectDBX Classes
 90
     4095
 91
       26
280
     0
281
     0
  0
CLASS
  1
SCALE
  2
AcDbScale
  3
ObjectDBX Classes
 90
     1153
 91
       17
280
     0
281
     0
  0
CLASS
  1
MLEADERSTYLE
  2
AcDbMLeaderStyle
  3
ACDB_MLEADERSTYLE_CLASS
 90
     4095
 91
        1
280
     0
281
     0
  0
CLASS
  1
CELLSTYLEMAP
  2
AcDbCellStyleMap
  3
ObjectDBX Classes
 90
     1152
 91
        3
280
     0
281
     0
  0
CLASS
  1
SORTENTSTABLE
  2
AcDbSortentsTable
  3
ObjectDBX Classes
 90
        0
 91
        2
280
     0
281
     0
  0
CLASS
  1
DIMASSOC
  2
AcDbDimAssoc
  3
"AcDbDimAssoc|Product Desc:     AcDim ARX App For Dimension|Company:          Autodesk, Inc.|WEB Address:      www.autodesk.com"
 90
        0
 91
        0
280
     0
281
     0
  0
CLASS
  1
SOLID_BACKGROUND
  2
AcDbSolidBackground
  3
SCENEOE
 90
     4095
 91
        0
280
     0
281
     0
  0
CLASS
  1
NPOCOLLECTION
  2
AcDbImpNonPersistentObjectsCollection
  3
ObjectDBX Classes
 90
     1153
 91
        0
280
     0
281
     0
  0
CLASS
  1
ACAD_EVALUATION_GRAPH
  2
AcDbEvalGraph
  3
ObjectDBX Classes
 90
     1153
 91
        0
280
     0
281
     0
  0
CLASS
  1
ACAECUSTOBJ
  2
AcAeEditorObj
  3
AcAeEditorObj
 90
     1024
 91
        0
280
     1
281
     0
  0
CLASS
  1
ACDB_DYNAMICBLOCKPURGEPREVENTER_VERSION
  2
AcDbDynamicBlockPurgePreventer
  3
ObjectDBX Classes
 90
     1153
 91
        0
280
     0
281
     0
  0
CLASS
  1
HELIX
  2
AcDbHelix
  3
ObjectDBX Classes
 90
     4095
 91
        0
280
     0
281
     1
  0
CLASS
  1
MULTILEADER
  2
AcDbMLeader
  3
ACDB_MLEADER_CLASS
 90
     1025
 91
        1
280
     0
281
     1
  0
CLASS
  1
ACMDIMBREAKPERSREACTOR
  2
AcmDimBreakPersReactor
  3
amgDimApp().moduleName()
 90
     1023
 91
        0
280
     1
281
     0
  0
CLASS
  1
ACDB_MTEXTOBJECTCONTEXTDATA_CLASS
  2
AcDbMTextObjectContextData
  3
ObjectDBX Classes
 90
     1153
 91
        0
280
     0
281
     0
  0
CLASS
  1
BREAKDATA
  2
AcDbBreakData
  3
ObjectDBX Classes
 90
     1024
 91
        0
280
     0
281
     0
  0
CLASS
  1
EXACXREFPANELOBJECT
  2
ExAcXREFPanelObject
  3
EXAC_ESW
 90
     1025
 91
        0
280
     1
281
     0
  0
CLASS
  1
ACDBSECTIONVIEWSTYLE
  2
AcDbSectionViewStyle
  3
ObjectDBX Classes
 90
     1025
 91
        1
280
     0
281
     0
  0
CLASS
  1
ACDBDETAILVIEWSTYLE
  2
AcDbDetailViewStyle
  3
ObjectDBX Classes
 90
     1025
 91
        1
280
     0
281
     0
  0
ENDSEC
  0
SECTION
  2
TABLES
  0
TABLE
  2
VPORT
  5
2C
102
{ACAD_XDICTIONARY
360
31
102
}
330
0
100
AcDbSymbolTable
 70
     1
  0
VPORT
  5
2D
330
2C
100
AcDbSymbolTableRecord
100
AcDbViewportTableRecord
  2
*Active
 70
     0
 10
0.0
 20
0.0
 11
1.0
 21
1.0
 12
553.5692571577166
 22
92.52232820936479
 13
0.0
 23
0.0
 14
2.0
 24
2.0
 15
2.0
 25
2.0
 16
0.0
 26
0.0
 36
1.0
 17
0.0
 27
0.0
 37
0.0
 40
192.9581153200669
 41
2.214198286413708
 42
50.0
 43
0.0
 44
0.0
 50
0.0
 51
0.0
 71
     0
 72
  1000
 73
     1
 74
     3
 75
     0
 76
     0
 77
     0
 78
     1
281
     0
 65
     1
110
0.0
120
0.0
130
0.0
111
1.0
121
0.0
131
0.0
112
0.0
122
1.0
132
0.0
 79
     0
146
0.0
348
2E
 60
     3
 61
     5
292
     1
282
     1
141
0.0
142
0.0
 63
   250
421
  3355443
1001
ACAD_NAV_VCDISPLAY
1070
     3
  0
ENDTAB
  0
TABLE
  2
LTYPE
  5
27
330
0
100
AcDbSymbolTable
 70
     4
  0
LTYPE
  5
28
330
27
100
AcDbSymbolTableRecord
100
AcDbLinetypeTableRecord
  2
ByBlock
 70
     0
  3

 72
    65
 73
     0
 40
0.0
  0
LTYPE
  5
29
330
27
100
AcDbSymbolTableRecord
100
AcDbLinetypeTableRecord
  2
ByLayer
 70
     0
  3

 72
    65
 73
     0
 40
0.0
  0
LTYPE
  5
14
330
27
100
AcDbSymbolTableRecord
100
AcDbLinetypeTableRecord
  2
Continuous
 70
     0
  3
Solid line
 72
    65
 73
     0
 40
0.0
  0
LTYPE
  5
4DD
330
27
100
AcDbSymbolTableRecord
100
AcDbLinetypeTableRecord
  2
CENTER
 70
     0
  3
____ _ ____ _ ____ _ ____ _ ____ _ ____ _ ____ 
 72
    65
 73
     4
 40
2.0
 49
1.25
 74
     0
 49
-0.25
 74
     0
 49
0.25
 74
     0
 49
-0.25
 74
     0
  0
LTYPE
  5
2159F
330
27
100
AcDbSymbolTableRecord
100
AcDbLinetypeTableRecord
  2
HIDDEN
 70
     0
  3
Hidden __ __ __ __ __ __ __ __ __ __ __ __ __ _
 72
    65
 73
     2
 40
0.375
 49
0.25
 74
     0
 49
-0.125
 74
     0
  0
ENDTAB
  0
TABLE
  2
LAYER
  5
21
102
{ACAD_XDICTIONARY
360
22
102
}
330
0
100
AcDbSymbolTable
 70
     6
  0
LAYER
  5
6
102
{ACAD_XDICTIONARY
360
7
102
}
330
21
100
AcDbSymbolTableRecord
100
AcDbLayerTableRecord
  2
0
 70
     0
 62
     7
  6
Continuous
370
    -3
390
9
347
C
348
0
  0
LAYER
  5
1A4
330
21
100
AcDbSymbolTableRecord
100
AcDbLayerTableRecord
  2
DEFPOINTS
 70
     0
 62
     7
  6
Continuous
290
     0
370
    -3
390
9
347
C
348
0
  0
LAYER
  5
1DAC5
330
21
100
AcDbSymbolTableRecord
100
AcDbLayerTableRecord
  2
Layer 1
 70
     0
 62
     7
  6
Continuous
370
     0
390
9
347
C
348
0
  0
ENDTAB
  0
TABLE
  2
STYLE
  5
24
330
0
100
AcDbSymbolTable
 70
     5
  0
STYLE
  5
25
330
24
100
AcDbSymbolTableRecord
100
AcDbTextStyleTableRecord
  2
Standard
 70
     0
 40
3.0
 41
1.0
 50
0.0
 71
     0
 42
3.0
  3
isocp.shx
  4
whgtxt.shx
  0
STYLE
  5
35
330
24
100
AcDbSymbolTableRecord
100
AcDbTextStyleTableRecord
  2
ROMANS
 70
     0
 40
2.5
 41
1.0
 50
0.0
 71
     0
 42
2.5
  3
romans.shx
  4

  0
STYLE
  5
5C
330
24
100
AcDbSymbolTableRecord
100
AcDbTextStyleTableRecord
  2
굴림
 70
     0
 40
3.0
 41
1.0
 50
0.0
 71
     0
 42
3.0
  3

  4

1001
ACAD
1000
Gulim
1071
    33074
  0
ENDTAB
  0
TABLE
  2
VIEW
  5
2A
330
0
100
AcDbSymbolTable
 70
     1
  0
ENDTAB
  0
TABLE
  2
UCS
  5
2B
330
0
100
AcDbSymbolTable
 70
     0
  0
ENDTAB
  0
TABLE
  2
APPID
  5
32
330
0
100
AcDbSymbolTable
 70
    44
  0
APPID
  5
13
330
32
100
AcDbSymbolTableRecord
100
AcDbRegAppTableRecord
  2
ACAD
 70
     0
  0
APPID
  5
1A
330
32
100
AcDbSymbolTableRecord
100
AcDbRegAppTableRecord
  2
ACAD_PSEXT
 70
     0
  0
APPID
  5
37
330
32
100
AcDbSymbolTableRecord
100
AcDbRegAppTableRecord
  2
ACAD_DSTYLE_DIMJAG
 70
     0
  0
APPID
  5
38
330
32
100
AcDbSymbolTableRecord
100
AcDbRegAppTableRecord
  2
ACAD_DSTYLE_DIMTALN
 70
     0
  0
APPID
  5
36
330
32
100
AcDbSymbolTableRecord
100
AcDbRegAppTableRecord
  2
ACAD_DSTYLE_DIMJOGGED_JOGANGLE_SYMBOL
 70
     0
  0
APPID
  5
183
330
32
100
AcDbSymbolTableRecord
100
AcDbRegAppTableRecord
  2
AcAecLayerStandard
 70
     0
  0
APPID
  5
3DE
330
32
100
AcDbSymbolTableRecord
100
AcDbRegAppTableRecord
  2
ACAD_DSTYLE_DIMRADIAL_EXTENSION
 70
     0
  0
APPID
  5
530
330
32
100
AcDbSymbolTableRecord
100
AcDbRegAppTableRecord
  2
GRADIENTCOLOR1ACI
 70
     0
  0
APPID
  5
531
330
32
100
AcDbSymbolTableRecord
100
AcDbRegAppTableRecord
  2
GRADIENTCOLOR2ACI
 70
     0
  0
APPID
  5
30
330
32
100
AcDbSymbolTableRecord
100
AcDbRegAppTableRecord
  2
ACAD_NAV_VCDISPLAY
 70
     0
  0
APPID
  5
C34
330
32
100
AcDbSymbolTableRecord
100
AcDbRegAppTableRecord
  2
ACAD_MLEADERVER
 70
     0
  0
APPID
  5
C97
330
32
100
AcDbSymbolTableRecord
100
AcDbRegAppTableRecord
  2
ACAD_EXEMPT_FROM_CAD_STANDARDS
 70
     0
  0
APPID
  5
D79
330
32
100
AcDbSymbolTableRecord
100
AcDbRegAppTableRecord
  2
AcadAnnoMonitorAlertIconDisabled
 70
     0
  0
APPID
  5
1A45
330
32
100
AcDbSymbolTableRecord
100
AcDbRegAppTableRecord
  2
GENIUS_GENODEF_13
 70
     0
  0
APPID
  5
1A46
330
32
100
AcDbSymbolTableRecord
100
AcDbRegAppTableRecord
  2
GENIUS_GENOBJ-N-FIL_13
 70
     0
  0
APPID
  5
1A47
330
32
100
AcDbSymbolTableRecord
100
AcDbRegAppTableRecord
  2
ACAD_DSTYLE_DIMBREAK
 70
     0
  0
APPID
  5
1A48
330
32
100
AcDbSymbolTableRecord
100
AcDbRegAppTableRecord
  2
GENIUS_GENOBJ-N-HTC_13
 70
     0
  0
APPID
  5
1A49
330
32
100
AcDbSymbolTableRecord
100
AcDbRegAppTableRecord
  2
GENIUS_GENHATCH_13
 70
     0
  0
APPID
  5
1A4A
330
32
100
AcDbSymbolTableRecord
100
AcDbRegAppTableRecord
  2
GENIUS_GENREC_14
 70
     0
  0
APPID
  5
1A4B
330
32
100
AcDbSymbolTableRecord
100
AcDbRegAppTableRecord
  2
GENIUS_GENOBJ-N-REC_13
 70
     0
  0
APPID
  5
1A4C
330
32
100
AcDbSymbolTableRecord
100
AcDbRegAppTableRecord
  2
ACAUTHENVIRON
 70
     0
  0
APPID
  5
1A4D
330
32
100
AcDbSymbolTableRecord
100
AcDbRegAppTableRecord
  2
AcDbDynamicBlockTrueName
 70
     0
  0
APPID
  5
1A4E
330
32
100
AcDbSymbolTableRecord
100
AcDbRegAppTableRecord
  2
AcDbDynamicBlockGUID
 70
     0
  0
APPID
  5
1A4F
330
32
100
AcDbSymbolTableRecord
100
AcDbRegAppTableRecord
  2
AcDbBlockRepETag
 70
     0
  0
APPID
  5
1A50
330
32
100
AcDbSymbolTableRecord
100
AcDbRegAppTableRecord
  2
DCO15
 70
     0
  0
APPID
  5
1A51
330
32
100
AcDbSymbolTableRecord
100
AcDbRegAppTableRecord
  2
ACAD_DSTYLE_DIMTEXT_FILL
 70
     0
  0
APPID
  5
1A52
330
32
100
AcDbSymbolTableRecord
100
AcDbRegAppTableRecord
  2
ACAD_DSTYLE_DIM_LINETYPE
 70
     0
  0
APPID
  5
1A53
330
32
100
AcDbSymbolTableRecord
100
AcDbRegAppTableRecord
  2
ACAD_DSTYLE_DIM_EXT1_LINETYPE
 70
     0
  0
APPID
  5
1A54
330
32
100
AcDbSymbolTableRecord
100
AcDbRegAppTableRecord
  2
ACAD_DSTYLE_DIM_EXT2_LINETYPE
 70
     0
  0
APPID
  5
1A55
330
32
100
AcDbSymbolTableRecord
100
AcDbRegAppTableRecord
  2
ACAD_DSTYLE_DIMINSPECT
 70
     0
  0
APPID
  5
1A56
330
32
100
AcDbSymbolTableRecord
100
AcDbRegAppTableRecord
  2
AcadAnnotative
 70
     0
  0
APPID
  5
1A57
330
32
100
AcDbSymbolTableRecord
100
AcDbRegAppTableRecord
  2
GENIUS_GENDTOL_13
 70
     0
  0
APPID
  5
1A58
330
32
100
AcDbSymbolTableRecord
100
AcDbRegAppTableRecord
  2
GENIUS_GENFIL_13
 70
     0
  0
APPID
  5
1A59
330
32
100
AcDbSymbolTableRecord
100
AcDbRegAppTableRecord
  2
GENIUS_GENOBJ-N-CHA_13
 70
     0
  0
APPID
  5
1A5A
330
32
100
AcDbSymbolTableRecord
100
AcDbRegAppTableRecord
  2
AcadAnnotativeDecomposition
 70
     0
  0
APPID
  5
1A5B
330
32
100
AcDbSymbolTableRecord
100
AcDbRegAppTableRecord
  2
MCAD_NO_VIS
 70
     0
  0
APPID
  5
1A5C
330
32
100
AcDbSymbolTableRecord
100
AcDbRegAppTableRecord
  2
ACAD_TEMP_GRAPHIC
 70
     0
  0
APPID
  5
1A5D
330
32
100
AcDbSymbolTableRecord
100
AcDbRegAppTableRecord
  2
ACATTRIBSERVICES
 70
     0
  0
APPID
  5
1A5E
330
32
100
AcDbSymbolTableRecord
100
AcDbRegAppTableRecord
  2
DESIGNERASSEMBLIES
 70
     0
  0
APPID
  5
1A5F
330
32
100
AcDbSymbolTableRecord
100
AcDbRegAppTableRecord
  2
GENIUS_GENDIMSH_14
 70
     0
  0
APPID
  5
1A60
330
32
100
AcDbSymbolTableRecord
100
AcDbRegAppTableRecord
  2
ACAD_DSTYLE_DIMARC_LENGTH_SYMBOL
 70
     0
  0
APPID
  5
1A61
330
32
100
AcDbSymbolTableRecord
100
AcDbRegAppTableRecord
  2
ACAD_SPLINE_DATA
 70
     0
  0
APPID
  5
1A62
330
32
100
AcDbSymbolTableRecord
100
AcDbRegAppTableRecord
  2
GENIUS_GENOREF_13
 70
     0
  0
APPID
  5
1A63
330
32
100
AcDbSymbolTableRecord
100
AcDbRegAppTableRecord
  2
ACAD_DSTYLE_DIMANGULAR_EXTENSION
 70
     0
  0
ENDTAB
  0
TABLE
  2
DIMSTYLE
  5
33
330
0
100
AcDbSymbolTable
 70
     4
100
AcDbDimStyleTable
 71
     1
340
34
  0
DIMSTYLE
105
34
102
{ACAD_REACTORS
330
23AA5
330
23AAF
330
23AB8
102
}
330
33
100
AcDbSymbolTableRecord
100
AcDbDimStyleTableRecord
  2
Standard
 70
     0
 41
2.5
 73
     0
 77
     3
 78
     8
140
2.5
141
-1.0
147
1.0
175
     1
176
     3
177
     3
178
     2
179
     8
271
     8
272
     8
275
     1
340
35
1001
ACAD_DSTYLE_DIMJOGGED_JOGANGLE_SYMBOL
1070
   384
1040
0.7853981633974483
1001
ACAD_DSTYLE_DIMJAG
1070
   388
1040
1.5
1001
ACAD_DSTYLE_DIMTALN
1070
   392
1070
     0
  0
DIMSTYLE
105
1A8
102
{ACAD_REACTORS
330
23822
330
23823
330
23824
330
23825
330
2382A
330
2382B
330
2382C
330
23834
330
238AE
102
}
330
33
100
AcDbSymbolTableRecord
100
AcDbDimStyleTableRecord
  2
Standard$0
 70
     0
 41
2.5
 73
     0
 77
     3
 78
     8
140
2.5
141
-1.0
147
1.0
175
     1
176
     3
177
     3
178
     2
179
     8
271
     8
272
     8
275
     1
340
35
  0
ENDTAB
  0
TABLE
  2
BLOCK_RECORD
  5
1
330
0
100
AcDbSymbolTable
 70
    30
  0
BLOCK_RECORD
  5
2
102
{ACAD_XDICTIONARY
360
3
102
}
330
1
100
AcDbSymbolTableRecord
100
AcDbBlockTableRecord
  2
*Model_Space
340
16
 70
     0
280
     1
281
     0
  0
BLOCK_RECORD
  5
1B
330
1
100
AcDbSymbolTableRecord
100
AcDbBlockTableRecord
  2
*Paper_Space
340
1E
 70
     0
280
     1
281
     0
  0
BLOCK_RECORD
  5
238B2
330
1
100
AcDbSymbolTableRecord
100
AcDbBlockTableRecord
  2
*D18
340
0
 70
     0
280
     1
281
     0
  0
BLOCK_RECORD
  5
238BE
330
1
100
AcDbSymbolTableRecord
100
AcDbBlockTableRecord
  2
*D19
340
0
 70
     0
280
     1
281
     0
  0
BLOCK_RECORD
  5
238C8
330
1
100
AcDbSymbolTableRecord
100
AcDbBlockTableRecord
  2
*D20
340
0
 70
     0
280
     1
281
     0
  0
BLOCK_RECORD
  5
238D4
330
1
100
AcDbSymbolTableRecord
100
AcDbBlockTableRecord
  2
*D21
340
0
 70
     0
280
     1
281
     0
  0
BLOCK_RECORD
  5
238E0
330
1
100
AcDbSymbolTableRecord
100
AcDbBlockTableRecord
  2
*D22
340
0
 70
     0
280
     1
281
     0
  0
BLOCK_RECORD
  5
238ED
330
1
100
AcDbSymbolTableRecord
100
AcDbBlockTableRecord
  2
*D23
340
0
 70
     0
280
     1
281
     0
  0
BLOCK_RECORD
  5
238FA
330
1
100
AcDbSymbolTableRecord
100
AcDbBlockTableRecord
  2
*D24
340
0
 70
     0
280
     1
281
     0
  0
BLOCK_RECORD
  5
23905
330
1
100
AcDbSymbolTableRecord
100
AcDbBlockTableRecord
  2
*D25
340
0
 70
     0
280
     1
281
     0
  0
BLOCK_RECORD
  5
23912
330
1
100
AcDbSymbolTableRecord
100
AcDbBlockTableRecord
  2
*D26
340
0
 70
     0
280
     1
281
     0
  0
BLOCK_RECORD
  5
23AA6
330
1
100
AcDbSymbolTableRecord
100
AcDbBlockTableRecord
  2
*D27
340
0
 70
     0
280
     1
281
     0
  0
BLOCK_RECORD
  5
23AB0
330
1
100
AcDbSymbolTableRecord
100
AcDbBlockTableRecord
  2
*D28
340
0
 70
     0
280
     1
281
     0
  0
BLOCK_RECORD
  5
23AB9
330
1
100
AcDbSymbolTableRecord
100
AcDbBlockTableRecord
  2
*D29
340
0
 70
     0
280
     1
281
     0
  0
ENDTAB
  0
ENDSEC
  0
SECTION
  2
BLOCKS
  0
BLOCK
  5
5
330
2
100
AcDbEntity
  8
0
100
AcDbBlockBegin
  2
*Model_Space
 70
     0
 10
0.0
 20
0.0
 30
0.0
  3
*Model_Space
  1

  0
ENDBLK
  5
15
330
2
100
AcDbEntity
  8
0
100
AcDbBlockEnd
  0
BLOCK
  5
1C
330
1B
100
AcDbEntity
 67
     1
  8
0
100
AcDbBlockBegin
  2
*Paper_Space
 70
     0
 10
0.0
 20
0.0
 30
0.0
  3
*Paper_Space
  1

  0
ENDBLK
  5
1D
330
1B
100
AcDbEntity
 67
     1
  8
0
100
AcDbBlockEnd
  0
BLOCK
  5
238B3
330
238B2
100
AcDbEntity
  8
0
 62
     7
100
AcDbBlockBegin
  2
*D18
 70
     1
 10
0.0
 20
0.0
 30
0.0
  3
*D18
  1

  0
LINE
  5
23AE4
330
238B2
100
AcDbEntity
  8
0
  6
Continuous
 62
     3
440
 16777216
100
AcDbLine
 10
638.53427896846
 20
88.73342388347346
 30
0.0
 11
662.8230383695168
 21
88.73342388347346
 31
0.0
  0
LINE
  5
23AE5
330
238B2
100
AcDbEntity
  8
0
  6
Continuous
 62
     3
440
 16777216
100
AcDbLine
 10
638.5342789684519
 20
109.2334238834729
 30
0.0
 11
662.8230383695168
 21
109.2334238834729
 31
0.0
  0
LINE
  5
23AE6
330
238B2
100
AcDbEntity
  8
0
  6
Continuous
 62
     3
440
 16777216
100
AcDbLine
 10
661.5730383695168
 20
91.23342388347346
 30
0.0
 11
661.5730383695168
 21
106.7334238834729
 31
0.0
  0
SOLID
  5
23AE7
330
238B2
100
AcDbEntity
  8
0
  6
Continuous
 62
     3
440
 16777216
100
AcDbTrace
 10
661.1563717028501
 20
91.23342388347346
 30
0.0
 11
661.9897050361834
 21
91.23342388347346
 31
0.0
 12
661.5730383695168
 22
88.73342388347346
 32
0.0
 13
661.5730383695168
 23
88.73342388347346
 33
0.0
  0
SOLID
  5
23AE8
330
238B2
100
AcDbEntity
  8
0
  6
Continuous
 62
     3
440
 16777216
100
AcDbTrace
 10
661.1563717028501
 20
106.7334238834729
 30
0.0
 11
661.9897050361834
 21
106.7334238834729
 31
0.0
 12
661.5730383695168
 22
109.2334238834729
 32
0.0
 13
661.5730383695168
 23
109.2334238834729
 33
0.0
  0
MTEXT
  5
23AE9
330
238B2
100
AcDbEntity
  8
0
  6
Continuous
 62
     2
440
 16777216
100
AcDbMText
 10
659.4480383695167
 20
98.98342388347328
 30
0.0
 40
3.0
 41
0.0
 46
0.0
 71
     5
 72
     1
  1
%%C0.81
 11
0.0000000000000001
 21
1.0
 31
0.0
 73
     1
 44
1.0
  0
POINT
  5
23AEA
330
238B2
100
AcDbEntity
  8
DEFPOINTS
  6
Continuous
 62
     0
440
 16777216
100
AcDbPoint
 10
637.90927896846
 20
88.73342388347346
 30
0.0
  0
POINT
  5
23AEB
330
238B2
100
AcDbEntity
  8
DEFPOINTS
  6
Continuous
 62
     0
440
 16777216
100
AcDbPoint
 10
637.9092789684518
 20
109.2334238834729
 30
0.0
  0
POINT
  5
23AEC
330
238B2
100
AcDbEntity
  8
DEFPOINTS
  6
Continuous
 62
     0
440
 16777216
100
AcDbPoint
 10
661.5730383695168
 20
109.2334238834729
 30
0.0
  0
ENDBLK
  5
238B4
330
238B2
100
AcDbEntity
  8
0
 62
     7
100
AcDbBlockEnd
  0
BLOCK
  5
238BF
330
238BE
100
AcDbEntity
  8
0
 62
     7
100
AcDbBlockBegin
  2
*D19
 70
     1
 10
0.0
 20
0.0
 30
0.0
  3
*D19
  1

  0
LINE
  5
23AED
330
238BE
100
AcDbEntity
  8
0
  6
Continuous
 62
     3
440
 16777216
100
AcDbLine
 10
638.1012662665598
 20
105.3334238834737
 30
0.0
 11
654.8230383695168
 21
105.3334238834737
 31
0.0
  0
LINE
  5
23AEE
330
238BE
100
AcDbEntity
  8
0
  6
Continuous
 62
     3
440
 16777216
100
AcDbLine
 10
653.5730383695168
 20
102.8334238834737
 30
0.0
 11
653.5730383695168
 21
92.80724278111051
 31
0.0
  0
SOLID
  5
23AEF
330
238BE
100
AcDbEntity
  8
0
  6
Continuous
 62
     3
440
 16777216
100
AcDbTrace
 10
653.1563717028501
 20
102.8334238834737
 30
0.0
 11
653.9897050361834
 21
102.8334238834737
 31
0.0
 12
653.5730383695168
 22
105.3334238834737
 32
0.0
 13
653.5730383695168
 23
105.3334238834737
 33
0.0
  0
MTEXT
  5
23AF0
330
238BE
100
AcDbEntity
  8
0
  6
Continuous
 62
     2
440
 16777216
100
AcDbMText
 10
651.4480383695167
 20
98.98342388347282
 30
0.0
 40
3.0
 41
0.0
 46
0.0
 71
     5
 72
     1
  1
%%C0.500
 11
0.0000000000000001
 21
1.0
 31
0.0
 73
     1
 44
1.0
  0
POINT
  5
23AF1
330
238BE
100
AcDbEntity
  8
DEFPOINTS
  6
Continuous
 62
     0
440
 16777216
100
AcDbPoint
 10
637.4762662665475
 20
94.22092388349353
 30
0.0
  0
POINT
  5
23AF2
330
238BE
100
AcDbEntity
  8
DEFPOINTS
  6
Continuous
 62
     0
440
 16777216
100
AcDbPoint
 10
637.4762662665598
 20
105.3334238834737
 30
0.0
  0
POINT
  5
23AF3
330
238BE
100
AcDbEntity
  8
DEFPOINTS
  6
Continuous
 62
     0
440
 16777216
100
AcDbPoint
 10
653.5730383695168
 20
105.3334238834737
 30
0.0
  0
ENDBLK
  5
238C0
330
238BE
100
AcDbEntity
  8
0
 62
     7
100
AcDbBlockEnd
  0
BLOCK
  5
238C9
330
238C8
100
AcDbEntity
  8
0
 62
     7
100
AcDbBlockBegin
  2
*D20
 70
     1
 10
0.0
 20
0.0
 30
0.0
  3
*D20
  1

  0
LINE
  5
23AF4
330
238C8
100
AcDbEntity
  8
0
  6
Continuous
 62
     3
440
 16777216
100
AcDbLine
 10
591.9092789684377
 20
105.7584238834752
 30
0.0
 11
591.9092789684377
 21
130.0156315527289
 31
0.0
  0
LINE
  5
23AF5
330
238C8
100
AcDbEntity
  8
0
  6
Continuous
 62
     3
440
 16777216
100
AcDbLine
 10
637.9092789684518
 20
109.3839416001155
 30
0.0
 11
637.9092789684518
 21
130.0156315527289
 31
0.0
  0
LINE
  5
23AF6
330
238C8
100
AcDbEntity
  8
0
  6
Continuous
 62
     3
440
 16777216
100
AcDbLine
 10
594.4092789684377
 20
128.7656315527289
 30
0.0
 11
635.4092789684519
 21
128.7656315527289
 31
0.0
  0
SOLID
  5
23AF7
330
238C8
100
AcDbEntity
  8
0
  6
Continuous
 62
     3
440
 16777216
100
AcDbTrace
 10
594.4092789684377
 20
129.1822982193955
 30
0.0
 11
594.4092789684377
 21
128.3489648860622
 31
0.0
 12
591.9092789684377
 22
128.7656315527289
 32
0.0
 13
591.9092789684377
 23
128.7656315527289
 33
0.0
  0
SOLID
  5
23AF8
330
238C8
100
AcDbEntity
  8
0
  6
Continuous
 62
     3
440
 16777216
100
AcDbTrace
 10
635.4092789684519
 20
129.1822982193955
 30
0.0
 11
635.4092789684519
 21
128.3489648860622
 31
0.0
 12
637.9092789684518
 22
128.7656315527289
 32
0.0
 13
637.9092789684518
 23
128.7656315527289
 33
0.0
  0
MTEXT
  5
23AF9
330
238C8
100
AcDbEntity
  8
0
  6
Continuous
 62
     2
440
 16777216
100
AcDbMText
 10
614.9092789684448
 20
130.8906315527289
 30
0.0
 40
3.0
 41
0.0
 46
0.0
 71
     5
 72
     1
  1
1.81
 73
     1
 44
1.0
  0
POINT
  5
23AFA
330
238C8
100
AcDbEntity
  8
DEFPOINTS
  6
Continuous
 62
     0
440
 16777216
100
AcDbPoint
 10
591.9092789684377
 20
105.1334238834752
 30
0.0
  0
POINT
  5
23AFB
330
238C8
100
AcDbEntity
  8
DEFPOINTS
  6
Continuous
 62
     0
440
 16777216
100
AcDbPoint
 10
637.9092789684518
 20
108.7589416001154
 30
0.0
  0
POINT
  5
23AFC
330
238C8
100
AcDbEntity
  8
DEFPOINTS
  6
Continuous
 62
     0
440
 16777216
100
AcDbPoint
 10
637.9092789684518
 20
128.7656315527289
 30
0.0
  0
ENDBLK
  5
238CA
330
238C8
100
AcDbEntity
  8
0
 62
     7
100
AcDbBlockEnd
  0
BLOCK
  5
238D5
330
238D4
100
AcDbEntity
  8
0
 62
     7
100
AcDbBlockBegin
  2
*D21
 70
     1
 10
0.0
 20
0.0
 30
0.0
  3
*D21
  1

  0
LINE
  5
23AFD
330
238D4
100
AcDbEntity
  8
0
  6
Continuous
 62
     3
440
 16777216
100
AcDbLine
 10
563.5342789684592
 20
84.80284043724532
 30
0.0
 11
670.8230383695167
 21
84.8028404372453
 31
0.0
  0
LINE
  5
23AFE
330
238D4
100
AcDbEntity
  8
0
  6
Continuous
 62
     3
440
 16777216
100
AcDbLine
 10
563.5342789684588
 20
113.1640073297007
 30
0.0
 11
670.8230383695167
 21
113.1640073297007
 31
0.0
  0
LINE
  5
23AFF
330
238D4
100
AcDbEntity
  8
0
  6
Continuous
 62
     3
440
 16777216
100
AcDbLine
 10
669.5730383695168
 20
87.3028404372453
 30
0.0
 11
669.5730383695168
 21
110.6640073297007
 31
0.0
  0
SOLID
  5
23B00
330
238D4
100
AcDbEntity
  8
0
  6
Continuous
 62
     3
440
 16777216
100
AcDbTrace
 10
669.1563717028501
 20
87.3028404372453
 30
0.0
 11
669.9897050361833
 21
87.3028404372453
 31
0.0
 12
669.5730383695168
 22
84.8028404372453
 32
0.0
 13
669.5730383695168
 23
84.8028404372453
 33
0.0
  0
SOLID
  5
23B01
330
238D4
100
AcDbEntity
  8
0
  6
Continuous
 62
     3
440
 16777216
100
AcDbTrace
 10
669.1563717028501
 20
110.6640073297007
 30
0.0
 11
669.9897050361833
 21
110.6640073297007
 31
0.0
 12
669.5730383695168
 22
113.1640073297007
 32
0.0
 13
669.5730383695168
 23
113.1640073297007
 33
0.0
  0
MTEXT
  5
23B02
330
238D4
100
AcDbEntity
  8
0
  6
Continuous
 62
     2
440
 16777216
100
AcDbMText
 10
667.4477430939262
 20
98.98342388346129
 30
0.0
 40
3.0
 41
0.0
 46
0.0
 71
     5
 72
     1
  1
%%C1.12
 11
0.0000000000000001
 21
1.0
 31
0.0
 73
     1
 44
1.0
  0
POINT
  5
23B03
330
238D4
100
AcDbEntity
  8
DEFPOINTS
  6
Continuous
 62
     0
440
 16777216
100
AcDbPoint
 10
562.9092789684592
 20
84.80284043724532
 30
0.0
  0
POINT
  5
23B04
330
238D4
100
AcDbEntity
  8
DEFPOINTS
  6
Continuous
 62
     0
440
 16777216
100
AcDbPoint
 10
562.9092789684587
 20
113.1640073297007
 30
0.0
  0
POINT
  5
23B05
330
238D4
100
AcDbEntity
  8
DEFPOINTS
  6
Continuous
 62
     0
440
 16777216
100
AcDbPoint
 10
669.5730383695168
 20
113.1640073297007
 30
0.0
  0
ENDBLK
  5
238D6
330
238D4
100
AcDbEntity
  8
0
 62
     7
100
AcDbBlockEnd
  0
BLOCK
  5
238E1
330
238E0
100
AcDbEntity
  8
0
 62
     7
100
AcDbBlockBegin
  2
*D22
 70
     1
 10
0.0
 20
0.0
 30
0.0
  3
*D22
  1

  0
LINE
  5
23B06
330
238E0
100
AcDbEntity
  8
0
  6
Continuous
 62
     3
440
 16777216
100
AcDbLine
 10
510.2842789684505
 20
76.7584238834731
 30
0.0
 11
496.8834761960654
 21
76.7584238834731
 31
0.0
  0
LINE
  5
23B07
330
238E0
100
AcDbEntity
  8
0
  6
Continuous
 62
     3
440
 16777216
100
AcDbLine
 10
510.2842789684505
 20
121.208423883473
 30
0.0
 11
496.8834761960654
 21
121.208423883473
 31
0.0
  0
LINE
  5
23B08
330
238E0
100
AcDbEntity
  8
0
  6
Continuous
 62
     3
440
 16777216
100
AcDbLine
 10
498.1334761960654
 20
79.2584238834731
 30
0.0
 11
498.1334761960654
 21
118.708423883473
 31
0.0
  0
LINE
  5
23B09
330
238E0
100
AcDbEntity
  8
0
  6
Continuous
 62
     3
440
 16777216
100
AcDbLine
 10
498.1334761960654
 20
121.208423883473
 30
0.0
 11
498.1334761960654
 21
146.5899081289291
 31
0.0
  0
SOLID
  5
23B0A
330
238E0
100
AcDbEntity
  8
0
  6
Continuous
 62
     3
440
 16777216
100
AcDbTrace
 10
497.7168095293987
 20
79.2584238834731
 30
0.0
 11
498.5501428627321
 21
79.2584238834731
 31
0.0
 12
498.1334761960654
 22
76.7584238834731
 32
0.0
 13
498.1334761960654
 23
76.7584238834731
 33
0.0
  0
SOLID
  5
23B0B
330
238E0
100
AcDbEntity
  8
0
  6
Continuous
 62
     3
440
 16777216
100
AcDbTrace
 10
497.7168095293987
 20
118.708423883473
 30
0.0
 11
498.5501428627321
 21
118.708423883473
 31
0.0
 12
498.1334761960654
 22
121.208423883473
 32
0.0
 13
498.1334761960654
 23
121.208423883473
 33
0.0
  0
MTEXT
  5
23B0C
330
238E0
100
AcDbEntity
  8
0
  6
Continuous
 62
     2
440
 16777216
100
AcDbMText
 10
496.0084761960654
 20
139.6637270265669
 30
0.0
 40
3.0
 41
0.0
 46
0.0
 71
     5
 72
     1
  1
%%C1.7500
 11
0.0000000000000001
 21
1.0
 31
0.0
 73
     1
 44
1.0
  0
POINT
  5
23B0D
330
238E0
100
AcDbEntity
  8
DEFPOINTS
  6
Continuous
 62
     0
440
 16777216
100
AcDbPoint
 10
510.9092789684504
 20
76.7584238834731
 30
0.0
  0
POINT
  5
23B0E
330
238E0
100
AcDbEntity
  8
DEFPOINTS
  6
Continuous
 62
     0
440
 16777216
100
AcDbPoint
 10
510.9092789684504
 20
121.208423883473
 30
0.0
  0
POINT
  5
23B0F
330
238E0
100
AcDbEntity
  8
DEFPOINTS
  6
Continuous
 62
     0
440
 16777216
100
AcDbPoint
 10
498.1334761960654
 20
121.208423883473
 30
0.0
  0
ENDBLK
  5
238E2
330
238E0
100
AcDbEntity
  8
0
 62
     7
100
AcDbBlockEnd
  0
BLOCK
  5
238EE
330
238ED
100
AcDbEntity
  8
0
 62
     7
100
AcDbBlockBegin
  2
*D23
 70
     1
 10
0.0
 20
0.0
 30
0.0
  3
*D23
  1

  0
LINE
  5
23B10
330
238ED
100
AcDbEntity
  8
0
  6
Continuous
 62
     3
440
 16777216
100
AcDbLine
 10
513.9592789684504
 20
67.23342388347312
 30
0.0
 11
488.8834761960652
 21
67.23342388347312
 31
0.0
  0
LINE
  5
23B11
330
238ED
100
AcDbEntity
  8
0
  6
Continuous
 62
     3
440
 16777216
100
AcDbLine
 10
513.9592789684504
 20
130.733423883473
 30
0.0
 11
488.8834761960652
 21
130.733423883473
 31
0.0
  0
LINE
  5
23B12
330
238ED
100
AcDbEntity
  8
0
  6
Continuous
 62
     3
440
 16777216
100
AcDbLine
 10
490.1334761960652
 20
69.73342388347312
 30
0.0
 11
490.1334761960653
 21
128.233423883473
 31
0.0
  0
LINE
  5
23B13
330
238ED
100
AcDbEntity
  8
0
  6
Continuous
 62
     3
440
 16777216
100
AcDbLine
 10
490.1334761960653
 20
130.733423883473
 30
0.0
 11
490.1334761960653
 21
145.5857860881976
 31
0.0
  0
SOLID
  5
23B14
330
238ED
100
AcDbEntity
  8
0
  6
Continuous
 62
     3
440
 16777216
100
AcDbTrace
 10
489.7168095293984
 20
69.73342388347312
 30
0.0
 11
490.5501428627318
 21
69.73342388347312
 31
0.0
 12
490.1334761960652
 22
67.23342388347312
 32
0.0
 13
490.1334761960652
 23
67.23342388347312
 33
0.0
  0
SOLID
  5
23B15
330
238ED
100
AcDbEntity
  8
0
  6
Continuous
 62
     3
440
 16777216
100
AcDbTrace
 10
489.7168095293985
 20
128.233423883473
 30
0.0
 11
490.5501428627319
 21
128.233423883473
 31
0.0
 12
490.1334761960653
 22
130.733423883473
 32
0.0
 13
490.1334761960653
 23
130.733423883473
 33
0.0
  0
MTEXT
  5
23B16
330
238ED
100
AcDbEntity
  8
0
  6
Continuous
 62
     2
440
 16777216
100
AcDbMText
 10
488.0081809204746
 20
139.4096049858355
 30
0.0
 40
3.0
 41
0.0
 46
0.0
 71
     5
 72
     1
  1
%%C2.500
 11
0.0000000000000001
 21
1.0
 31
0.0
 73
     1
 44
1.0
  0
POINT
  5
23B17
330
238ED
100
AcDbEntity
  8
DEFPOINTS
  6
Continuous
 62
     0
440
 16777216
100
AcDbPoint
 10
514.5842789684504
 20
67.23342388347312
 30
0.0
  0
POINT
  5
23B18
330
238ED
100
AcDbEntity
  8
DEFPOINTS
  6
Continuous
 62
     0
440
 16777216
100
AcDbPoint
 10
514.5842789684504
 20
130.733423883473
 30
0.0
  0
POINT
  5
23B19
330
238ED
100
AcDbEntity
  8
DEFPOINTS
  6
Continuous
 62
     0
440
 16777216
100
AcDbPoint
 10
490.1334761960653
 20
130.733423883473
 30
0.0
  0
ENDBLK
  5
238EF
330
238ED
100
AcDbEntity
  8
0
 62
     7
100
AcDbBlockEnd
  0
BLOCK
  5
238FB
330
238FA
100
AcDbEntity
  8
0
 62
     7
100
AcDbBlockBegin
  2
*D24
 70
     1
 10
0.0
 20
0.0
 30
0.0
  3
*D24
  1

  0
LINE
  5
23B1A
330
238FA
100
AcDbEntity
  8
0
  6
Continuous
 62
     3
440
 16777216
100
AcDbLine
 10
585.8973805612968
 20
102.9834238834937
 30
0.0
 11
581.4977717186236
 21
102.9834238834937
 31
0.0
  0
LINE
  5
23B1B
330
238FA
100
AcDbEntity
  8
0
  6
Continuous
 62
     3
440
 16777216
100
AcDbLine
 10
582.7477717186236
 20
97.9834238834937
 30
0.0
 11
582.7477717186236
 21
100.4834238834937
 31
0.0
  0
LINE
  5
23B1C
330
238FA
100
AcDbEntity
  8
0
  6
Continuous
 62
     3
440
 16777216
100
AcDbLine
 10
582.7477717186236
 20
102.9834238834937
 30
0.0
 11
582.7477717186236
 21
145.539908128929
 31
0.0
  0
SOLID
  5
23B1D
330
238FA
100
AcDbEntity
  8
0
  6
Continuous
 62
     3
440
 16777216
100
AcDbTrace
 10
582.331105051957
 20
100.4834238834937
 30
0.0
 11
583.1644383852903
 21
100.4834238834937
 31
0.0
 12
582.7477717186236
 22
102.9834238834937
 32
0.0
 13
582.7477717186236
 23
102.9834238834937
 33
0.0
  0
MTEXT
  5
23B1E
330
238FA
100
AcDbEntity
  8
0
  6
Continuous
 62
     2
440
 16777216
100
AcDbMText
 10
580.6227717186236
 20
139.6637270265669
 30
0.0
 40
3.0
 41
0.0
 46
0.0
 71
     5
 72
     1
  1
M8*1.0
 11
0.0000000000000001
 21
1.0
 31
0.0
 73
     1
 44
1.0
  0
POINT
  5
23B1F
330
238FA
100
AcDbEntity
  8
DEFPOINTS
  6
Continuous
 62
     0
440
 16777216
100
AcDbPoint
 10
587.5235744910087
 20
94.9834238834426
 30
0.0
  0
POINT
  5
23B20
330
238FA
100
AcDbEntity
  8
DEFPOINTS
  6
Continuous
 62
     0
440
 16777216
100
AcDbPoint
 10
586.5223805612968
 20
102.9834238834937
 30
0.0
  0
POINT
  5
23B21
330
238FA
100
AcDbEntity
  8
DEFPOINTS
  6
Continuous
 62
     0
440
 16777216
100
AcDbPoint
 10
582.7477717186236
 20
102.9834238834937
 30
0.0
  0
ENDBLK
  5
238FC
330
238FA
100
AcDbEntity
  8
0
 62
     7
100
AcDbBlockEnd
  0
BLOCK
  5
23906
330
23905
100
AcDbEntity
  8
0
 62
     7
100
AcDbBlockBegin
  2
*D25
 70
     1
 10
0.0
 20
0.0
 30
0.0
  3
*D25
  1

  0
LINE
  5
23B22
330
23905
100
AcDbEntity
  8
0
  6
Continuous
 62
     3
440
 16777216
100
AcDbLine
 10
450.059278968451
 20
107.7584238834733
 30
0.0
 11
450.059278968451
 21
121.449201911208
 31
0.0
  0
LINE
  5
23B23
330
23905
100
AcDbEntity
  8
0
  6
Continuous
 62
     3
440
 16777216
100
AcDbLine
 10
442.6592789684504
 20
110.3427839695704
 30
0.0
 11
442.6592789684504
 21
121.449201911208
 31
0.0
  0
LINE
  5
23B24
330
23905
100
AcDbEntity
  8
0
  6
Continuous
 62
     3
440
 16777216
100
AcDbLine
 10
447.559278968451
 20
120.199201911208
 30
0.0
 11
445.1592789684505
 21
120.199201911208
 31
0.0
  0
LINE
  5
23B25
330
23905
100
AcDbEntity
  8
0
  6
Continuous
 62
     3
440
 16777216
100
AcDbLine
 10
442.6592789684504
 20
120.199201911208
 30
0.0
 11
432.3921363267208
 21
120.199201911208
 31
0.0
  0
SOLID
  5
23B26
330
23905
100
AcDbEntity
  8
0
  6
Continuous
 62
     3
440
 16777216
100
AcDbTrace
 10
447.559278968451
 20
120.6158685778747
 30
0.0
 11
447.559278968451
 21
119.7825352445414
 31
0.0
 12
450.059278968451
 22
120.199201911208
 32
0.0
 13
450.059278968451
 23
120.199201911208
 33
0.0
  0
SOLID
  5
23B27
330
23905
100
AcDbEntity
  8
0
  6
Continuous
 62
     3
440
 16777216
100
AcDbTrace
 10
445.1592789684505
 20
120.6158685778747
 30
0.0
 11
445.1592789684505
 21
119.7825352445414
 31
0.0
 12
442.6592789684504
 22
120.199201911208
 32
0.0
 13
442.6592789684504
 23
120.199201911208
 33
0.0
  0
MTEXT
  5
23B28
330
23905
100
AcDbEntity
  8
0
  6
Continuous
 62
     2
440
 16777216
100
AcDbMText
 10
436.2757076475856
 20
122.3244971867986
 30
0.0
 40
3.0
 41
0.0
 46
0.0
 71
     5
 72
     1
  1
0.29
 73
     1
 44
1.0
  0
POINT
  5
23B29
330
23905
100
AcDbEntity
  8
DEFPOINTS
  6
Continuous
 62
     0
440
 16777216
100
AcDbPoint
 10
450.059278968451
 20
107.1334238834733
 30
0.0
  0
POINT
  5
23B2A
330
23905
100
AcDbEntity
  8
DEFPOINTS
  6
Continuous
 62
     0
440
 16777216
100
AcDbPoint
 10
442.6592789684504
 20
109.7177839695705
 30
0.0
  0
POINT
  5
23B2B
330
23905
100
AcDbEntity
  8
DEFPOINTS
  6
Continuous
 62
     0
440
 16777216
100
AcDbPoint
 10
442.6592789684504
 20
120.199201911208
 30
0.0
  0
ENDBLK
  5
23907
330
23905
100
AcDbEntity
  8
0
 62
     7
100
AcDbBlockEnd
  0
BLOCK
  5
23913
330
23912
100
AcDbEntity
  8
0
 62
     7
100
AcDbBlockBegin
  2
*D26
 70
     1
 10
0.0
 20
0.0
 30
0.0
  3
*D26
  1

  0
LINE
  5
23B2C
330
23912
100
AcDbEntity
  8
0
  6
Continuous
 62
     3
440
 16777216
100
AcDbLine
 10
544.2261284071281
 20
71.98342388347254
 30
0.0
 11
549.9391302269422
 21
71.98342388347254
 31
0.0
  0
LINE
  5
23B2D
330
23912
100
AcDbEntity
  8
0
  6
Continuous
 62
     3
440
 16777216
100
AcDbLine
 10
545.126057484826
 20
125.9834238834739
 30
0.0
 11
549.9391302269422
 21
125.9834238834739
 31
0.0
  0
LINE
  5
23B2E
330
23912
100
AcDbEntity
  8
0
  6
Continuous
 62
     3
440
 16777216
100
AcDbLine
 10
548.6891302269423
 20
74.48342388347254
 30
0.0
 11
548.6891302269423
 21
123.4834238834739
 31
0.0
  0
LINE
  5
23B2F
330
23912
100
AcDbEntity
  8
0
  6
Continuous
 62
     3
440
 16777216
100
AcDbLine
 10
548.6891302269423
 20
125.9834238834739
 30
0.0
 11
548.6891302269423
 21
138.2576879521859
 31
0.0
  0
SOLID
  5
23B30
330
23912
100
AcDbEntity
  8
0
  6
Continuous
 62
     3
440
 16777216
100
AcDbTrace
 10
548.2724635602757
 20
74.48342388347254
 30
0.0
 11
549.1057968936089
 21
74.48342388347254
 31
0.0
 12
548.6891302269423
 22
71.98342388347254
 32
0.0
 13
548.6891302269423
 23
71.98342388347254
 33
0.0
  0
SOLID
  5
23B31
330
23912
100
AcDbEntity
  8
0
  6
Continuous
 62
     3
440
 16777216
100
AcDbTrace
 10
548.2724635602757
 20
123.4834238834739
 30
0.0
 11
549.1057968936089
 21
123.4834238834739
 31
0.0
 12
548.6891302269423
 22
125.9834238834739
 32
0.0
 13
548.6891302269423
 23
125.9834238834739
 33
0.0
  0
MTEXT
  5
23B32
330
23912
100
AcDbEntity
  8
0
  6
Continuous
 62
     2
440
 16777216
100
AcDbMText
 10
546.5638349513517
 20
133.37055591783
 30
0.0
 40
3.0
 41
0.0
 46
0.0
 71
     5
 72
     1
  1
%%C2.13
 11
0.0000000000000001
 21
1.0
 31
0.0
 73
     1
 44
1.0
  0
POINT
  5
23B33
330
23912
100
AcDbEntity
  8
DEFPOINTS
  6
Continuous
 62
     0
440
 16777216
100
AcDbPoint
 10
543.6011284071281
 20
71.98342388347255
 30
0.0
  0
POINT
  5
23B34
330
23912
100
AcDbEntity
  8
DEFPOINTS
  6
Continuous
 62
     0
440
 16777216
100
AcDbPoint
 10
544.501057484826
 20
125.9834238834739
 30
0.0
  0
POINT
  5
23B35
330
23912
100
AcDbEntity
  8
DEFPOINTS
  6
Continuous
 62
     0
440
 16777216
100
AcDbPoint
 10
548.6891302269423
 20
125.9834238834739
 30
0.0
  0
ENDBLK
  5
23914
330
23912
100
AcDbEntity
  8
0
 62
     7
100
AcDbBlockEnd
  0
BLOCK
  5
23AA7
330
23AA6
100
AcDbEntity
  8
0
 62
     7
100
AcDbBlockBegin
  2
*D27
 70
     1
 10
0.0
 20
0.0
 30
0.0
  3
*D27
  1

  0
LINE
  5
23B36
330
23AA6
100
AcDbEntity
  8
0
  6
Continuous
 62
     3
440
 16777216
100
AcDbLine
 10
648.9872908389027
 20
78.70780715071418
 30
0.0
 11
639.6315209330821
 21
87.19255491936252
 31
0.0
  0
MTEXT
  5
23B37
330
23AA6
100
AcDbEntity
  8
0
  6
Continuous
 62
     2
440
 16777216
100
AcDbMText
 10
646.6630788662184
 20
83.68475813146984
 30
0.0
 40
3.0
 41
0.0
 46
0.0
 71
     5
 72
     1
  1
R0.02
 11
0.7407473215406762
 21
-0.6717837491561657
 31
0.0
 73
     1
 44
1.0
  0
LINE
  5
23B38
330
23AA6
100
AcDbEntity
  8
0
  6
Continuous
 62
     3
440
 16777216
100
AcDbLine
 10
637.40927896846
 20
89.20790616683104
 30
0.0
 11
637.7796526292304
 21
88.8720142922529
 31
0.0
  0
SOLID
  5
23B39
330
23AA6
100
AcDbEntity
  8
0
  6
Continuous
 62
     3
440
 16777216
100
AcDbTrace
 10
639.9114308285638
 20
87.50119963667117
 30
0.0
 11
639.3516110376004
 21
86.88391020205392
 31
0.0
 12
637.7796526292304
 22
88.8720142922529
 32
0.0
 13
637.7796526292304
 23
88.8720142922529
 33
0.0
  0
POINT
  5
23B3A
330
23AA6
100
AcDbEntity
  8
DEFPOINTS
  6
Continuous
 62
     0
440
 16777216
100
AcDbPoint
 10
637.7796526292304
 20
88.8720142922529
 30
0.0
  0
POINT
  5
23B3B
330
23AA6
100
AcDbEntity
  8
DEFPOINTS
  6
Continuous
 62
     0
440
 16777216
100
AcDbPoint
 10
637.40927896846
 20
89.20790616683104
 30
0.0
  0
ENDBLK
  5
23AA8
330
23AA6
100
AcDbEntity
  8
0
 62
     7
100
AcDbBlockEnd
  0
BLOCK
  5
23AB1
330
23AB0
100
AcDbEntity
  8
0
 62
     7
100
AcDbBlockBegin
  2
*D28
 70
     1
 10
0.0
 20
0.0
 30
0.0
  3
*D28
  1

  0
LINE
  5
23B3C
330
23AB0
100
AcDbEntity
  8
0
  6
Continuous
 62
     3
440
 16777216
100
AcDbLine
 10
573.1197347260343
 20
72.5728797300429
 30
0.0
 11
564.8069298202941
 21
81.8442657686432
 31
0.0
  0
MTEXT
  5
23B3D
330
23AB0
100
AcDbEntity
  8
0
  6
Continuous
 62
     2
440
 16777216
100
AcDbMText
 10
571.3801780557878
 20
77.69666748549823
 30
0.0
 40
3.0
 41
0.0
 46
0.0
 71
     5
 72
     1
  1
R0.20
 11
0.6675685118271227
 21
-0.7445483745311119
 31
0.0
 73
     1
 44
1.0
  0
SOLID
  5
23B3E
330
23AB0
100
AcDbEntity
  8
0
  6
Continuous
 62
     3
440
 16777216
100
AcDbTrace
 10
565.117158309682
 20
82.12241931523783
 30
0.0
 11
564.4967013309061
 21
81.56611222204857
 31
0.0
 12
563.1380085407263
 22
83.70563670497096
 32
0.0
 13
563.1380085407263
 23
83.70563670497096
 33
0.0
  0
POINT
  5
23B3F
330
23AB0
100
AcDbEntity
  8
DEFPOINTS
  6
Continuous
 62
     0
440
 16777216
100
AcDbPoint
 10
563.1380085407263
 20
83.70563670497096
 30
0.0
  0
POINT
  5
23B40
330
23AB0
100
AcDbEntity
  8
DEFPOINTS
  6
Continuous
 62
     0
440
 16777216
100
AcDbPoint
 10
566.475851099862
 20
79.98289483231539
 30
0.0
  0
ENDBLK
  5
23AB2
330
23AB0
100
AcDbEntity
  8
0
 62
     7
100
AcDbBlockEnd
  0
BLOCK
  5
23ABA
330
23AB9
100
AcDbEntity
  8
0
 62
     7
100
AcDbBlockBegin
  2
*D29
 70
     1
 10
0.0
 20
0.0
 30
0.0
  3
*D29
  1

  0
LINE
  5
23B41
330
23AB9
100
AcDbEntity
  8
0
  6
Continuous
 62
     3
440
 16777216
100
AcDbLine
 10
567.7583543770703
 20
61.01588536682436
 30
0.0
 11
559.7408654204778
 21
70.54071454276862
 31
0.0
  0
MTEXT
  5
23B42
330
23AB9
100
AcDbEntity
  8
0
  6
Continuous
 62
     2
440
 16777216
100
AcDbMText
 10
566.1803025248481
 20
66.19043871486304
 30
0.0
 40
3.0
 41
0.0
 46
0.0
 71
     5
 72
     1
  1
R0.08
 11
0.6439750165937703
 21
-0.7650465201561624
 31
0.0
 73
     1
 44
1.0
  0
LINE
  5
23B43
330
23AB9
100
AcDbEntity
  8
0
  6
Continuous
 62
     3
440
 16777216
100
AcDbLine
 10
556.8429778458059
 20
73.98342388347123
 30
0.0
 11
558.1309278789935
 21
72.45333084315902
 31
0.0
  0
SOLID
  5
23B44
330
23AB9
100
AcDbEntity
  8
0
  6
Continuous
 62
     3
440
 16777216
100
AcDbTrace
 10
560.0596348038761
 20
70.80903746634937
 30
0.0
 11
559.4220960370794
 21
70.27239161918789
 31
0.0
 12
558.1309278789935
 22
72.45333084315902
 32
0.0
 13
558.1309278789935
 23
72.45333084315902
 33
0.0
  0
POINT
  5
23B45
330
23AB9
100
AcDbEntity
  8
DEFPOINTS
  6
Continuous
 62
     0
440
 16777216
100
AcDbPoint
 10
558.1309278789935
 20
72.45333084315902
 30
0.0
  0
POINT
  5
23B46
330
23AB9
100
AcDbEntity
  8
DEFPOINTS
  6
Continuous
 62
     0
440
 16777216
100
AcDbPoint
 10
556.8429778458059
 20
73.98342388347123
 30
0.0
  0
ENDBLK
  5
23ABB
330
23AB9
100
AcDbEntity
  8
0
 62
     7
100
AcDbBlockEnd
  0
ENDSEC
  0
SECTION
  2
ENTITIES
  0
LWPOLYLINE
  5
1DBC8
330
2
100
AcDbEntity
  8
0
 62
     0
100
AcDbPolyline
 90
        4
 70
     1
 43
0.0
 10
421.0
 20
0.0
 10
421.0
 20
185.0575962927926
 10
686.1880000000001
 20
185.0575962927926
 10
686.1880000000001
 20
0.0
  0
LINE
  5
1DC5A
330
2
100
AcDbEntity
  8
0
  6
Continuous
 62
     7
100
AcDbLine
 10
619.8909999999999
 20
-3.233999999999999
 30
0.0
 11
619.8909999999999
 21
0.0
 31
0.0
  0
LINE
  5
1DC5B
330
2
100
AcDbEntity
  8
0
  6
Continuous
 62
     7
100
AcDbLine
 10
616.6570000000001
 20
-0.0000000000000006
 30
0.0
 11
616.6570000000001
 21
26.02372447867397
 31
0.0
  0
LINE
  5
1DC5C
330
2
100
AcDbEntity
  8
0
  6
Continuous
 62
     7
100
AcDbLine
 10
487.297
 20
-3.233999999999999
 30
0.0
 11
487.297
 21
0.0
 31
0.0
  0
LINE
  5
1DC5D
330
2
100
AcDbEntity
  8
0
  6
Continuous
 62
     7
100
AcDbLine
 10
619.8909999999999
 20
188.2915962927926
 30
0.0
 11
619.8909999999999
 21
185.0575962927926
 31
0.0
  0
LINE
  5
1DC5E
330
2
100
AcDbEntity
  8
0
  6
Continuous
 62
     7
100
AcDbLine
 10
487.297
 20
188.2915962927926
 30
0.0
 11
487.297
 21
185.0575962927926
 31
0.0
  0
LINE
  5
1DC5F
330
2
100
AcDbEntity
  8
0
  6
Continuous
 62
     7
100
AcDbLine
 10
417.766
 20
46.26439907319816
 30
0.0
 11
421.0
 21
46.26439907319816
 31
0.0
  0
LINE
  5
1DC60
330
2
100
AcDbEntity
  8
0
  6
Continuous
 62
     7
100
AcDbLine
 10
417.766
 20
138.7931972195945
 30
0.0
 11
421.0
 21
138.7931972195945
 31
0.0
  0
LINE
  5
1DC61
330
2
100
AcDbEntity
  8
0
  6
Continuous
 62
     7
100
AcDbLine
 10
689.422
 20
46.26439907319816
 30
0.0
 11
686.1880000000001
 21
46.26439907319816
 31
0.0
  0
LINE
  5
1DC62
330
2
100
AcDbEntity
  8
0
  6
Continuous
 62
     7
100
AcDbLine
 10
689.422
 20
138.7931972195945
 30
0.0
 11
686.1880000000001
 21
138.7931972195945
 31
0.0
  0
LINE
  5
1DC63
330
2
100
AcDbEntity
  8
0
  6
Continuous
 62
     7
100
AcDbLine
 10
686.1880000000001
 20
26.02372447867397
 30
0.0
 11
616.6569999999999
 21
26.02372447867397
 31
0.0
  0
LINE
  5
1DC64
330
2
100
AcDbEntity
  8
0
  6
Continuous
 62
     7
100
AcDbLine
 10
616.6570000000001
 20
8.674574826224658
 30
0.0
 11
686.1880000000001
 21
8.674574826224658
 31
0.0
  0
LINE
  5
1DC65
330
2
100
AcDbEntity
  8
0
  6
Continuous
 62
     7
100
AcDbLine
 10
616.6570000000001
 20
17.34914965244931
 30
0.0
 11
686.1880000000001
 21
17.34914965244931
 31
0.0
  0
LINE
  5
1DC66
330
2
100
AcDbEntity
  8
0
  6
Continuous
 62
     7
100
AcDbLine
 10
616.6570000000001
 20
-0.0000000000000012
 30
0.0
 11
686.1880000000001
 21
0.0000000000000035
 31
0.0
  0
LINE
  5
1DC67
330
2
100
AcDbEntity
  8
0
  6
Continuous
 62
     7
100
AcDbLine
 10
686.1880000000001
 20
92.52879814639632
 30
0.0
 11
689.422
 21
92.52879814639632
 31
0.0
  0
LINE
  5
1DC68
330
2
100
AcDbEntity
  8
0
  6
Continuous
 62
     7
100
AcDbLine
 10
687.805
 20
91.4292381463963
 30
0.0
 11
687.805
 21
93.62835814639632
 31
0.0
  0
LINE
  5
1DC69
330
2
100
AcDbEntity
  8
0
  6
Continuous
 62
     7
100
AcDbLine
 10
687.805
 20
91.4292381463963
 30
0.0
 11
686.1880000000001
 21
92.52879814639632
 31
0.0
  0
LINE
  5
1DC6A
330
2
100
AcDbEntity
  8
0
  6
Continuous
 62
     7
100
AcDbLine
 10
686.1880000000001
 20
92.52879814639632
 30
0.0
 11
687.805
 21
93.62835814639632
 31
0.0
  0
LINE
  5
1DC6B
330
2
100
AcDbEntity
  8
0
  6
Continuous
 62
     7
100
AcDbLine
 10
421.0
 20
92.52879814639632
 30
0.0
 11
417.766
 21
92.52879814639632
 31
0.0
  0
LINE
  5
1DC6C
330
2
100
AcDbEntity
  8
0
  6
Continuous
 62
     7
100
AcDbLine
 10
419.383
 20
91.4292381463963
 30
0.0
 11
419.383
 21
93.62835814639632
 31
0.0
  0
LINE
  5
1DC6D
330
2
100
AcDbEntity
  8
0
  6
Continuous
 62
     7
100
AcDbLine
 10
419.383
 20
91.4292381463963
 30
0.0
 11
421.0
 21
92.52879814639632
 31
0.0
  0
LINE
  5
1DC6E
330
2
100
AcDbEntity
  8
0
  6
Continuous
 62
     7
100
AcDbLine
 10
421.0
 20
92.52879814639632
 30
0.0
 11
419.383
 21
93.62835814639632
 31
0.0
  0
LINE
  5
1DC6F
330
2
100
AcDbEntity
  8
0
  6
Continuous
 62
     7
100
AcDbLine
 10
553.5940000000001
 20
185.0575962927926
 30
0.0
 11
553.5940000000001
 21
188.2915962927926
 31
0.0
  0
LINE
  5
1DC70
330
2
100
AcDbEntity
  8
0
  6
Continuous
 62
     7
100
AcDbLine
 10
552.49444
 20
186.6745962927926
 30
0.0
 11
554.69356
 21
186.6745962927926
 31
0.0
  0
LINE
  5
1DC71
330
2
100
AcDbEntity
  8
0
  6
Continuous
 62
     7
100
AcDbLine
 10
552.49444
 20
186.6745962927926
 30
0.0
 11
553.5940000000001
 21
185.0575962927926
 31
0.0
  0
LINE
  5
1DC72
330
2
100
AcDbEntity
  8
0
  6
Continuous
 62
     7
100
AcDbLine
 10
553.5940000000001
 20
185.0575962927926
 30
0.0
 11
554.69356
 21
186.6745962927926
 31
0.0
  0
LINE
  5
1DC73
330
2
100
AcDbEntity
  8
0
  6
Continuous
 62
     7
100
AcDbLine
 10
553.5940000000001
 20
0.0
 30
0.0
 11
553.5940000000001
 21
-3.233999999999999
 31
0.0
  0
LINE
  5
1DC74
330
2
100
AcDbEntity
  8
0
  6
Continuous
 62
     7
100
AcDbLine
 10
552.49444
 20
-1.616999999999999
 30
0.0
 11
554.69356
 21
-1.616999999999999
 31
0.0
  0
LINE
  5
1DC75
330
2
100
AcDbEntity
  8
0
  6
Continuous
 62
     7
100
AcDbLine
 10
552.49444
 20
-1.616999999999999
 30
0.0
 11
553.5940000000001
 21
0.0
 31
0.0
  0
LINE
  5
1DC76
330
2
100
AcDbEntity
  8
0
  6
Continuous
 62
     7
100
AcDbLine
 10
553.5940000000001
 20
0.0
 30
0.0
 11
554.69356
 21
-1.616999999999999
 31
0.0
  0
TEXT
  5
1DC77
330
2
100
AcDbEntity
  8
0
 62
     2
100
AcDbText
 10
453.4712721368002
 20
-2.620310394522521
 30
0.0
 40
1.81104
  1
4
  7
굴림
100
AcDbText
  0
TEXT
  5
1DC78
330
2
100
AcDbEntity
  8
0
 62
     2
100
AcDbText
 10
519.8297382438149
 20
-2.620310394522521
 30
0.0
 40
1.81104
  1
3
  7
굴림
100
AcDbText
  0
TEXT
  5
1DC79
330
2
100
AcDbEntity
  8
0
 62
     2
100
AcDbText
 10
586.0409804990502
 20
-2.620310394522521
 30
0.0
 40
1.81104
  1
2
  7
굴림
100
AcDbText
  0
TEXT
  5
1DC7A
330
2
100
AcDbEntity
  8
0
 62
     2
100
AcDbText
 10
652.5401790189191
 20
-2.620310394522521
 30
0.0
 40
1.81104
  1
1
  7
굴림
100
AcDbText
  0
TEXT
  5
1DC7B
330
2
100
AcDbEntity
  8
0
 62
     2
100
AcDbText
 10
453.4712721368002
 20
186.0887141464059
 30
0.0
 40
1.81104
  1
4
  7
굴림
100
AcDbText
  0
LWPOLYLINE
  5
1DC7C
102
{ACAD_REACTORS
330
1DC82
102
}
330
2
100
AcDbEntity
  8
Layer 1
 62
   103
100
AcDbPolyline
 90
        8
 70
     1
 43
0.0
 10
671.0145355353315
 20
25.05982582928472
 10
646.2152942157813
 20
25.06080083385792
 10
645.8453660100643
 20
23.84402380309918
 10
654.4395151440023
 20
23.84359688001262
 10
652.7947971354206
 20
18.14033307964649
 10
654.4064796949337
 20
18.14033307964649
 10
656.0508822608595
 20
23.84359688001262
 10
670.6427736499133
 20
23.8428767388954
  0
TEXT
  5
1DC7D
330
2
100
AcDbEntity
  8
0
 62
     2
100
AcDbText
 10
519.8297382438149
 20
186.0887141464059
 30
0.0
 40
1.81104
  1
3
  7
굴림
100
AcDbText
  0
TEXT
  5
1DC7E
330
2
100
AcDbEntity
  8
0
 62
     2
100
AcDbText
 10
586.0409804990502
 20
186.0887141464059
 30
0.0
 40
1.81104
  1
2
  7
굴림
100
AcDbText
  0
TEXT
  5
1DC7F
330
2
100
AcDbEntity
  8
0
 62
     2
100
AcDbText
 10
652.5401790189191
 20
186.0887141464059
 30
0.0
 40
1.81104
  1
1
  7
굴림
100
AcDbText
  0
TEXT
  5
1DC80
330
2
100
AcDbEntity
  8
0
 62
     2
100
AcDbText
 10
418.385514261335
 20
22.52916999211228
 30
0.0
 40
1.81104
  1
A
  7
굴림
100
AcDbText
  0
TEXT
  5
1DC81
330
2
100
AcDbEntity
  8
0
 62
     2
100
AcDbText
 10
418.385514261335
 20
68.4097584582514
 30
0.0
 40
1.81104
  1
B
  7
굴림
100
AcDbText
  0
HATCH
  5
1DC82
330
2
100
AcDbEntity
  8
0
  6
Continuous
 62
    93
100
AcDbHatch
 10
0.0
 20
0.0
 30
0.0
210
0.0
220
0.0
230
1.0
  2
SOLID
 70
     1
 71
     1
 91
        1
 92
        7
 72
     0
 73
     1
 93
        8
 10
646.2152942157813
 20
25.06080083385792
 10
645.8453660100643
 20
23.84402380309918
 10
654.4395151440023
 20
23.84359688001262
 10
652.7947971354206
 20
18.14033307964649
 10
654.4064796949337
 20
18.14033307964649
 10
656.0508822608595
 20
23.84359688001262
 10
670.6427736499133
 20
23.8428767388954
 10
671.0145355353315
 20
25.05982582928472
 97
        1
330
1DC7C
 75
     1
 76
     1
 47
0.0428322549537331
 98
        1
 10
657.1280771621619
 20
24.45956648932724
450
        0
451
        0
460
0.0
461
0.0
452
        0
462
1.0
453
        2
463
0.0
 63
     5
421
      255
463
1.0
 63
     2
421
 16776960
470
LINEAR
1001
GRADIENTCOLOR1ACI
1070
     5
1001
GRADIENTCOLOR2ACI
1070
     2
1001
ACAD
1010
0.0
1020
0.0
1030
0.0
  0
TEXT
  5
1DC83
330
2
100
AcDbEntity
  8
0
 62
     2
100
AcDbText
 10
418.385514261335
 20
114.728153875106
 30
0.0
 40
1.81104
  1
C
  7
굴림
100
AcDbText
  0
TEXT
  5
1DC84
330
2
100
AcDbEntity
  8
0
 62
     2
100
AcDbText
 10
418.385514261335
 20
161.3317684100266
 30
0.0
 40
1.81104
  1
D
  7
굴림
100
AcDbText
  0
TEXT
  5
1DC85
330
2
100
AcDbEntity
  8
0
 62
     2
100
AcDbText
 10
687.1567919131296
 20
22.52916999211228
 30
0.0
 40
1.81104
  1
A
  7
굴림
100
AcDbText
  0
TEXT
  5
1DC86
330
2
100
AcDbEntity
  8
0
 62
     2
100
AcDbText
 10
687.1567919131296
 20
68.4097584582514
 30
0.0
 40
1.81104
  1
B
  7
굴림
100
AcDbText
  0
TEXT
  5
1DC87
330
2
100
AcDbEntity
  8
0
 62
     2
100
AcDbText
 10
687.1567919131296
 20
114.728153875106
 30
0.0
 40
1.81104
  1
C
  7
굴림
100
AcDbText
  0
TEXT
  5
1DC88
330
2
100
AcDbEntity
  8
0
 62
     2
100
AcDbText
 10
687.1567919131296
 20
161.3317684100266
 30
0.0
 40
1.81104
  1
D
  7
굴림
100
AcDbText
  0
HATCH
  5
1DC89
330
2
100
AcDbEntity
  8
0
  6
Continuous
 62
     0
100
AcDbHatch
 10
0.0
 20
0.0
 30
0.0
210
0.0
220
0.0
230
1.0
  2
SOLID
 70
     1
 71
     1
 91
        1
 92
        5
 93
       13
 72
     4
 94
        3
 73
     0
 74
     0
 95
        8
 96
        4
 40
1.0
 40
1.0
 40
1.0
 40
1.0
 40
2.0
 40
2.0
 40
2.0
 40
2.0
 10
637.3821255783812
 20
21.52606513671701
 10
637.3821255783812
 20
21.52606513671701
 10
636.6427853458384
 20
18.14033307964647
 10
636.6427853458384
 20
18.14033307964647
 97
        0
 72
     4
 94
        3
 73
     0
 74
     0
 95
        8
 96
        4
 40
0.0
 40
0.0
 40
0.0
 40
0.0
 40
1.0
 40
1.0
 40
1.0
 40
1.0
 10
636.6427853458384
 20
18.14033307964647
 10
636.6427853458384
 20
18.14033307964647
 10
638.2690069441345
 20
18.14033307964647
 10
638.2690069441345
 20
18.14033307964647
 97
        0
 72
     4
 94
        3
 73
     0
 74
     0
 95
        8
 96
        4
 40
12.0
 40
12.0
 40
12.0
 40
12.0
 40
13.0
 40
13.0
 40
13.0
 40
13.0
 10
638.2690069441345
 20
18.14033307964647
 10
638.2690069441345
 20
18.14033307964647
 10
639.1193829916026
 20
23.35924900773321
 10
639.1193829916026
 20
23.35924900773321
 97
        0
 72
     4
 94
        3
 73
     0
 74
     0
 95
        8
 96
        4
 40
11.0
 40
11.0
 40
11.0
 40
11.0
 40
12.0
 40
12.0
 40
12.0
 40
12.0
 10
639.1193829916026
 20
23.35924900773321
 10
639.1193829916026
 20
23.35924900773321
 10
637.3671277139168
 20
23.35924900773321
 10
637.3671277139168
 20
23.35924900773321
 97
        0
 72
     4
 94
        3
 73
     0
 74
     0
 95
        8
 96
        4
 40
10.0
 40
10.0
 40
10.0
 40
10.0
 40
11.0
 40
11.0
 40
11.0
 40
11.0
 10
637.3671277139168
 20
23.35924900773321
 10
637.3671277139168
 20
23.35924900773321
 10
635.5633692534816
 20
20.49118381207179
 10
635.5633692534816
 20
20.49118381207179
 97
        0
 72
     4
 94
        3
 73
     0
 74
     0
 95
        8
 96
        4
 40
9.0
 40
9.0
 40
9.0
 40
9.0
 40
10.0
 40
10.0
 40
10.0
 40
10.0
 10
635.5633692534816
 20
20.49118381207179
 10
635.5633692534816
 20
20.49118381207179
 10
635.2458052574887
 20
23.35924900773321
 10
635.2458052574887
 20
23.35924900773321
 97
        0
 72
     4
 94
        3
 73
     0
 74
     0
 95
        8
 96
        4
 40
8.0
 40
8.0
 40
8.0
 40
8.0
 40
9.0
 40
9.0
 40
9.0
 40
9.0
 10
635.2458052574887
 20
23.35924900773321
 10
635.2458052574887
 20
23.35924900773321
 10
633.5230868395306
 20
23.35924900773321
 10
633.5230868395306
 20
23.35924900773321
 97
        0
 72
     4
 94
        3
 73
     0
 74
     0
 95
        8
 96
        4
 40
7.0
 40
7.0
 40
7.0
 40
7.0
 40
8.0
 40
8.0
 40
8.0
 40
8.0
 10
633.5230868395306
 20
23.35924900773321
 10
633.5230868395306
 20
23.35924900773321
 10
631.6234050870652
 20
18.14033307964647
 10
631.6234050870652
 20
18.14033307964647
 97
        0
 72
     4
 94
        3
 73
     0
 74
     0
 95
        8
 96
        4
 40
6.0
 40
6.0
 40
6.0
 40
6.0
 40
7.0
 40
7.0
 40
7.0
 40
7.0
 10
631.6234050870652
 20
18.14033307964647
 10
631.6234050870652
 20
18.14033307964647
 10
633.2126625815423
 20
18.14033307964647
 10
633.2126625815423
 20
18.14033307964647
 97
        0
 72
     4
 94
        3
 73
     0
 74
     0
 95
        8
 96
        4
 40
5.0
 40
5.0
 40
5.0
 40
5.0
 40
6.0
 40
6.0
 40
6.0
 40
6.0
 10
633.2126625815423
 20
18.14033307964647
 10
633.2126625815423
 20
18.14033307964647
 10
634.284680136866
 20
21.59987871822994
 10
634.284680136866
 20
21.59987871822994
 97
        0
 72
     4
 94
        3
 73
     0
 74
     0
 95
        8
 96
        4
 40
4.0
 40
4.0
 40
4.0
 40
4.0
 40
5.0
 40
5.0
 40
5.0
 40
5.0
 10
634.284680136866
 20
21.59987871822994
 10
634.284680136866
 20
21.59987871822994
 10
634.6764599255626
 20
18.14033307964647
 10
634.6764599255626
 20
18.14033307964647
 97
        0
 72
     4
 94
        3
 73
     0
 74
     0
 95
        8
 96
        4
 40
3.0
 40
3.0
 40
3.0
 40
3.0
 40
4.0
 40
4.0
 40
4.0
 40
4.0
 10
634.6764599255626
 20
18.14033307964647
 10
634.6764599255626
 20
18.14033307964647
 10
635.1939859032613
 20
18.14033307964647
 10
635.1939859032613
 20
18.14033307964647
 97
        0
 72
     4
 94
        3
 73
     0
 74
     0
 95
        8
 96
        4
 40
2.0
 40
2.0
 40
2.0
 40
2.0
 40
3.0
 40
3.0
 40
3.0
 40
3.0
 10
635.1939859032613
 20
18.14033307964647
 10
635.1939859032613
 20
18.14033307964647
 10
637.3821255783812
 20
21.52606513671701
 10
637.3821255783812
 20
21.52606513671701
 97
        0
 97
       13
330
1DC97
330
1DC95
330
1DC94
330
1DC93
330
1DC92
330
1DC91
330
1DC90
330
1DC8F
330
1DC8E
330
1DC8D
330
1DC8C
330
1DC8B
330
1DC8A
 75
     1
 76
     1
 47
0.0269459378258844
 98
        1
 10
637.4764502074318
 20
19.91468942989974
450
        0
451
        0
460
0.0
461
0.0
452
        0
462
1.0
453
        2
463
0.0
 63
     5
421
      255
463
1.0
 63
     2
421
 16776960
470
LINEAR
1001
GRADIENTCOLOR1ACI
1070
     5
1001
GRADIENTCOLOR2ACI
1070
     2
1001
ACAD
1010
0.0
1020
0.0
1030
0.0
  0
SPLINE
  5
1DC8A
102
{ACAD_REACTORS
330
1DC89
102
}
330
2
100
AcDbEntity
  8
Layer 1
100
AcDbSpline
210
0.0
220
0.0
230
1.0
 70
    24
 71
     3
 72
     8
 73
     4
 74
     0
 42
0.000000001
 43
0.0000000001
 40
0.0
 40
0.0
 40
0.0
 40
0.0
 40
1.0
 40
1.0
 40
1.0
 40
1.0
 10
638.2690069441345
 20
18.14033307964647
 30
0.0
 10
638.2690069441345
 20
18.14033307964647
 30
0.0
 10
636.6427853458384
 20
18.14033307964647
 30
0.0
 10
636.6427853458384
 20
18.14033307964647
 30
0.0
  0
SPLINE
  5
1DC8B
102
{ACAD_REACTORS
330
1DC89
102
}
330
2
100
AcDbEntity
  8
Layer 1
100
AcDbSpline
210
0.0
220
0.0
230
1.0
 70
    24
 71
     3
 72
     8
 73
     4
 74
     0
 42
0.000000001
 43
0.0000000001
 40
1.0
 40
1.0
 40
1.0
 40
1.0
 40
2.0
 40
2.0
 40
2.0
 40
2.0
 10
636.6427853458384
 20
18.14033307964647
 30
0.0
 10
636.6427853458384
 20
18.14033307964647
 30
0.0
 10
637.3821255783812
 20
21.52606513671701
 30
0.0
 10
637.3821255783812
 20
21.52606513671701
 30
0.0
  0
SPLINE
  5
1DC8C
102
{ACAD_REACTORS
330
1DC89
102
}
330
2
100
AcDbEntity
  8
Layer 1
100
AcDbSpline
210
0.0
220
0.0
230
1.0
 70
    24
 71
     3
 72
     8
 73
     4
 74
     0
 42
0.000000001
 43
0.0000000001
 40
2.0
 40
2.0
 40
2.0
 40
2.0
 40
3.0
 40
3.0
 40
3.0
 40
3.0
 10
637.3821255783812
 20
21.52606513671701
 30
0.0
 10
637.3821255783812
 20
21.52606513671701
 30
0.0
 10
635.1939859032613
 20
18.14033307964647
 30
0.0
 10
635.1939859032613
 20
18.14033307964647
 30
0.0
  0
SPLINE
  5
1DC8D
102
{ACAD_REACTORS
330
1DC89
102
}
330
2
100
AcDbEntity
  8
Layer 1
100
AcDbSpline
210
0.0
220
0.0
230
1.0
 70
    24
 71
     3
 72
     8
 73
     4
 74
     0
 42
0.000000001
 43
0.0000000001
 40
3.0
 40
3.0
 40
3.0
 40
3.0
 40
4.0
 40
4.0
 40
4.0
 40
4.0
 10
635.1939859032613
 20
18.14033307964647
 30
0.0
 10
635.1939859032613
 20
18.14033307964647
 30
0.0
 10
634.6764599255626
 20
18.14033307964647
 30
0.0
 10
634.6764599255626
 20
18.14033307964647
 30
0.0
  0
SPLINE
  5
1DC8E
102
{ACAD_REACTORS
330
1DC89
102
}
330
2
100
AcDbEntity
  8
Layer 1
100
AcDbSpline
210
0.0
220
0.0
230
1.0
 70
    24
 71
     3
 72
     8
 73
     4
 74
     0
 42
0.000000001
 43
0.0000000001
 40
4.0
 40
4.0
 40
4.0
 40
4.0
 40
5.0
 40
5.0
 40
5.0
 40
5.0
 10
634.6764599255626
 20
18.14033307964647
 30
0.0
 10
634.6764599255626
 20
18.14033307964647
 30
0.0
 10
634.284680136866
 20
21.59987871822994
 30
0.0
 10
634.284680136866
 20
21.59987871822994
 30
0.0
  0
SPLINE
  5
1DC8F
102
{ACAD_REACTORS
330
1DC89
102
}
330
2
100
AcDbEntity
  8
Layer 1
100
AcDbSpline
210
0.0
220
0.0
230
1.0
 70
    24
 71
     3
 72
     8
 73
     4
 74
     0
 42
0.000000001
 43
0.0000000001
 40
5.0
 40
5.0
 40
5.0
 40
5.0
 40
6.0
 40
6.0
 40
6.0
 40
6.0
 10
634.284680136866
 20
21.59987871822994
 30
0.0
 10
634.284680136866
 20
21.59987871822994
 30
0.0
 10
633.2126625815423
 20
18.14033307964647
 30
0.0
 10
633.2126625815423
 20
18.14033307964647
 30
0.0
  0
SPLINE
  5
1DC90
102
{ACAD_REACTORS
330
1DC89
102
}
330
2
100
AcDbEntity
  8
Layer 1
100
AcDbSpline
210
0.0
220
0.0
230
1.0
 70
    24
 71
     3
 72
     8
 73
     4
 74
     0
 42
0.000000001
 43
0.0000000001
 40
6.0
 40
6.0
 40
6.0
 40
6.0
 40
7.0
 40
7.0
 40
7.0
 40
7.0
 10
633.2126625815423
 20
18.14033307964647
 30
0.0
 10
633.2126625815423
 20
18.14033307964647
 30
0.0
 10
631.6234050870652
 20
18.14033307964647
 30
0.0
 10
631.6234050870652
 20
18.14033307964647
 30
0.0
  0
SPLINE
  5
1DC91
102
{ACAD_REACTORS
330
1DC89
102
}
330
2
100
AcDbEntity
  8
Layer 1
100
AcDbSpline
210
0.0
220
0.0
230
1.0
 70
    24
 71
     3
 72
     8
 73
     4
 74
     0
 42
0.000000001
 43
0.0000000001
 40
7.0
 40
7.0
 40
7.0
 40
7.0
 40
8.0
 40
8.0
 40
8.0
 40
8.0
 10
631.6234050870652
 20
18.14033307964647
 30
0.0
 10
631.6234050870652
 20
18.14033307964647
 30
0.0
 10
633.5230868395306
 20
23.35924900773321
 30
0.0
 10
633.5230868395306
 20
23.35924900773321
 30
0.0
  0
SPLINE
  5
1DC92
102
{ACAD_REACTORS
330
1DC89
102
}
330
2
100
AcDbEntity
  8
Layer 1
100
AcDbSpline
210
0.0
220
0.0
230
1.0
 70
    24
 71
     3
 72
     8
 73
     4
 74
     0
 42
0.000000001
 43
0.0000000001
 40
8.0
 40
8.0
 40
8.0
 40
8.0
 40
9.0
 40
9.0
 40
9.0
 40
9.0
 10
633.5230868395306
 20
23.35924900773321
 30
0.0
 10
633.5230868395306
 20
23.35924900773321
 30
0.0
 10
635.2458052574887
 20
23.35924900773321
 30
0.0
 10
635.2458052574887
 20
23.35924900773321
 30
0.0
  0
SPLINE
  5
1DC93
102
{ACAD_REACTORS
330
1DC89
102
}
330
2
100
AcDbEntity
  8
Layer 1
100
AcDbSpline
210
0.0
220
0.0
230
1.0
 70
    24
 71
     3
 72
     8
 73
     4
 74
     0
 42
0.000000001
 43
0.0000000001
 40
9.0
 40
9.0
 40
9.0
 40
9.0
 40
10.0
 40
10.0
 40
10.0
 40
10.0
 10
635.2458052574887
 20
23.35924900773321
 30
0.0
 10
635.2458052574887
 20
23.35924900773321
 30
0.0
 10
635.5633692534816
 20
20.49118381207179
 30
0.0
 10
635.5633692534816
 20
20.49118381207179
 30
0.0
  0
SPLINE
  5
1DC94
102
{ACAD_REACTORS
330
1DC89
102
}
330
2
100
AcDbEntity
  8
Layer 1
100
AcDbSpline
210
0.0
220
0.0
230
1.0
 70
    24
 71
     3
 72
     8
 73
     4
 74
     0
 42
0.000000001
 43
0.0000000001
 40
10.0
 40
10.0
 40
10.0
 40
10.0
 40
11.0
 40
11.0
 40
11.0
 40
11.0
 10
635.5633692534816
 20
20.49118381207179
 30
0.0
 10
635.5633692534816
 20
20.49118381207179
 30
0.0
 10
637.3671277139168
 20
23.35924900773321
 30
0.0
 10
637.3671277139168
 20
23.35924900773321
 30
0.0
  0
SPLINE
  5
1DC95
102
{ACAD_REACTORS
330
1DC89
102
}
330
2
100
AcDbEntity
  8
Layer 1
100
AcDbSpline
210
0.0
220
0.0
230
1.0
 70
    24
 71
     3
 72
     8
 73
     4
 74
     0
 42
0.000000001
 43
0.0000000001
 40
11.0
 40
11.0
 40
11.0
 40
11.0
 40
12.0
 40
12.0
 40
12.0
 40
12.0
 10
637.3671277139168
 20
23.35924900773321
 30
0.0
 10
637.3671277139168
 20
23.35924900773321
 30
0.0
 10
639.1193829916026
 20
23.35924900773321
 30
0.0
 10
639.1193829916026
 20
23.35924900773321
 30
0.0
  0
SPLINE
  5
1DC96
102
{ACAD_REACTORS
330
1DC9C
102
}
330
2
100
AcDbEntity
  8
Layer 1
100
AcDbSpline
210
0.0
220
0.0
230
1.0
 70
     8
 71
     3
 72
     8
 73
     4
 74
     0
 42
0.000000001
 43
0.0000000001
 40
12.0
 40
12.0
 40
12.0
 40
12.0
 40
13.0
 40
13.0
 40
13.0
 40
13.0
 10
648.3269820617197
 20
20.28898506955143
 30
0.0
 10
648.5595493290349
 20
20.3597015777142
 30
0.0
 10
648.7903099702293
 20
20.46359691797107
 30
0.0
 10
648.994458721896
 20
20.61956897307928
 30
0.0
  0
SPLINE
  5
1DC97
102
{ACAD_REACTORS
330
1DC89
102
}
330
2
100
AcDbEntity
  8
Layer 1
100
AcDbSpline
210
0.0
220
0.0
230
1.0
 70
    24
 71
     3
 72
     8
 73
     4
 74
     0
 42
0.000000001
 43
0.0000000001
 40
12.0
 40
12.0
 40
12.0
 40
12.0
 40
13.0
 40
13.0
 40
13.0
 40
13.0
 10
639.1193829916026
 20
23.35924900773321
 30
0.0
 10
639.1193829916026
 20
23.35924900773321
 30
0.0
 10
638.2690069441345
 20
18.14033307964647
 30
0.0
 10
638.2690069441345
 20
18.14033307964647
 30
0.0
  0
HATCH
  5
1DC98
330
2
100
AcDbEntity
  8
0
  6
Continuous
 62
     0
100
AcDbHatch
 10
0.0
 20
0.0
 30
0.0
210
0.0
220
0.0
230
1.0
  2
SOLID
 70
     1
 71
     0
 91
        1
 92
        5
 93
        2
 72
     4
 94
        3
 73
     0
 74
     0
 95
       35
 96
       31
 40
0.9999994039535522
 40
0.9999994039535522
 40
0.9999994039535522
 40
0.9999994039535522
 40
1.999998807907104
 40
1.999998807907104
 40
1.999998807907104
 40
2.999998807907104
 40
2.999998807907104
 40
2.999998807907104
 40
3.999998807907104
 40
3.999998807907104
 40
3.999998807907104
 40
4.999998807907104
 40
4.999998807907104
 40
4.999998807907104
 40
5.999998807907104
 40
5.999998807907104
 40
5.999998807907104
 40
6.999998807907104
 40
6.999998807907104
 40
6.999998807907104
 40
7.999998807907104
 40
7.999998807907104
 40
7.999998807907104
 40
8.999998807907104
 40
8.999998807907104
 40
8.999998807907104
 40
9.999998807907104
 40
9.999998807907104
 40
9.999998807907104
 40
9.999999403953552
 40
9.999999403953552
 40
9.999999403953552
 40
9.999999403953552
 10
642.2088283648382
 20
21.5998787182283
 10
642.2088284442845
 20
21.5998768939385
 10
642.2754727950777
 20
20.06955168736945
 10
642.2754727950777
 20
20.06955168736945
 10
642.2754727950777
 20
20.06955168736945
 10
641.7523541649461
 20
20.06955168736945
 10
641.7523541649461
 20
20.06955168736945
 10
641.7523541649461
 20
20.06955168736945
 10
641.1856757716765
 20
18.98313850336968
 10
641.1856757716765
 20
18.98313850336968
 10
641.1856757716765
 20
18.98313850336968
 10
642.3271480374576
 20
18.98313850336968
 10
642.3271480374576
 20
18.98313850336968
 10
642.3271480374576
 20
18.98313850336968
 10
642.378966662863
 20
18.14033307964647
 10
642.378966662863
 20
18.14033307964647
 10
642.378966662863
 20
18.14033307964647
 10
643.9536564018045
 20
18.14033307964647
 10
643.9536564018045
 20
18.14033307964647
 10
643.9536564018045
 20
18.14033307964647
 10
643.5617341788798
 20
23.36652965167302
 10
643.5617341788798
 20
23.36652965167302
 10
643.5617341788798
 20
23.36652965167302
 10
641.8170494808646
 20
23.36652965167302
 10
641.8170494808646
 20
23.36652965167302
 10
641.8170494808646
 20
23.36652965167302
 10
638.431431235389
 20
18.14033307964647
 10
638.431431235389
 20
18.14033307964647
 10
638.431431235389
 20
18.14033307964647
 10
638.4314312353896
 20
18.14033307964647
 10
638.4314312353908
 20
18.14033307964647
 97
        0
 72
     4
 94
        3
 73
     0
 74
     0
 95
       17
 96
       13
 40
9.999999403953552
 40
9.999999403953552
 40
9.999999403953552
 40
9.999999403953552
 40
10.9999988079071
 40
10.9999988079071
 40
10.9999988079071
 40
11.9999988079071
 40
11.9999988079071
 40
11.9999988079071
 40
12.9999988079071
 40
12.9999988079071
 40
12.9999988079071
 40
12.99999940395355
 40
12.99999940395355
 40
12.99999940395355
 40
12.99999940395355
 10
638.4314312353908
 20
18.14033307964647
 10
638.4314332533052
 20
18.14033307964647
 10
640.1241825575039
 20
18.14033307964647
 10
640.1241825575039
 20
18.14033307964647
 10
640.1241825575039
 20
18.14033307964647
 10
640.1325856550689
 20
18.15209048773523
 10
640.1325856550689
 20
18.15209048773523
 10
640.1325856550689
 20
18.15209048773523
 10
642.2088283648382
 20
21.59987871822993
 10
642.2088283648382
 20
21.59987871822993
 10
642.2088283648382
 20
21.59987871822993
 10
642.2088283648382
 20
21.59987871822939
 10
642.2088283648382
 20
21.5998787182283
 97
        0
 97
        0
 75
     1
 76
     1
 47
0.0269459378258844
 98
        1
 10
643.3053045189953
 20
20.29797084004375
450
        0
451
        0
460
0.0
461
0.0
452
        0
462
1.0
453
        2
463
0.0
 63
     5
421
      255
463
1.0
 63
     2
421
 16776960
470
LINEAR
1001
GRADIENTCOLOR1ACI
1070
     5
1001
GRADIENTCOLOR2ACI
1070
     2
1001
ACAD
1010
0.0
1020
0.0
1030
0.0
  0
SPLINE
  5
1DC99
330
2
100
AcDbEntity
  8
Layer 1
100
AcDbSpline
210
0.0
220
0.0
230
1.0
 70
    11
 71
     3
 72
    41
 73
    37
 74
     0
 42
0.000000001
 43
0.0000000001
 40
0.0
 40
0.0
 40
0.0
 40
0.0
 40
1.0
 40
1.0
 40
1.0
 40
2.0
 40
2.0
 40
2.0
 40
3.0
 40
3.0
 40
3.0
 40
4.0
 40
4.0
 40
4.0
 40
5.0
 40
5.0
 40
5.0
 40
6.0
 40
6.0
 40
6.0
 40
7.0
 40
7.0
 40
7.0
 40
8.0
 40
8.0
 40
8.0
 40
9.0
 40
9.0
 40
9.0
 40
10.0
 40
10.0
 40
10.0
 40
11.0
 40
11.0
 40
11.0
 40
12.0
 40
12.0
 40
12.0
 40
12.0
 10
640.1241825575039
 20
18.14033307964647
 30
0.0
 10
640.1241825575039
 20
18.14033307964647
 30
0.0
 10
638.431431235389
 20
18.14033307964647
 30
0.0
 10
638.431431235389
 20
18.14033307964647
 30
0.0
 10
638.431431235389
 20
18.14033307964647
 30
0.0
 10
641.8170494808646
 20
23.36652965167302
 30
0.0
 10
641.8170494808646
 20
23.36652965167302
 30
0.0
 10
641.8170494808646
 20
23.36652965167302
 30
0.0
 10
643.5617341788798
 20
23.36652965167302
 30
0.0
 10
643.5617341788798
 20
23.36652965167302
 30
0.0
 10
643.5617341788798
 20
23.36652965167302
 30
0.0
 10
643.9536564018045
 20
18.14033307964647
 30
0.0
 10
643.9536564018045
 20
18.14033307964647
 30
0.0
 10
643.9536564018045
 20
18.14033307964647
 30
0.0
 10
642.378966662863
 20
18.14033307964647
 30
0.0
 10
642.378966662863
 20
18.14033307964647
 30
0.0
 10
642.378966662863
 20
18.14033307964647
 30
0.0
 10
642.3271480374576
 20
18.98313850336968
 30
0.0
 10
642.3271480374576
 20
18.98313850336968
 30
0.0
 10
642.3271480374576
 20
18.98313850336968
 30
0.0
 10
641.1856757716765
 20
18.98313850336968
 30
0.0
 10
641.1856757716765
 20
18.98313850336968
 30
0.0
 10
641.1856757716765
 20
18.98313850336968
 30
0.0
 10
641.7523541649461
 20
20.06955168736946
 30
0.0
 10
641.7523541649461
 20
20.06955168736946
 30
0.0
 10
641.7523541649461
 20
20.06955168736946
 30
0.0
 10
642.2754727950777
 20
20.06955168736946
 30
0.0
 10
642.2754727950777
 20
20.06955168736946
 30
0.0
 10
642.2754727950777
 20
20.06955168736946
 30
0.0
 10
642.2088283648382
 20
21.59987871822994
 30
0.0
 10
642.2088283648382
 20
21.59987871822994
 30
0.0
 10
642.2088283648382
 20
21.59987871822994
 30
0.0
 10
640.1325856550689
 20
18.15209048773523
 30
0.0
 10
640.1325856550689
 20
18.15209048773523
 30
0.0
 10
640.1325856550689
 20
18.15209048773523
 30
0.0
 10
640.1241825575039
 20
18.14033307964647
 30
0.0
 10
640.1241825575039
 20
18.14033307964647
 30
0.0
  0
HATCH
  5
1DC9A
330
2
100
AcDbEntity
  8
0
  6
Continuous
 62
     0
100
AcDbHatch
 10
0.0
 20
0.0
 30
0.0
210
0.0
220
0.0
230
1.0
  2
SOLID
 70
     1
 71
     1
 91
        1
 92
        5
 93
        1
 72
     4
 94
        3
 73
     0
 74
     0
 95
       17
 96
       13
 40
0.0
 40
0.0
 40
0.0
 40
0.0
 40
1.0
 40
1.0
 40
1.0
 40
2.0
 40
2.0
 40
2.0
 40
3.0
 40
3.0
 40
3.0
 40
4.0
 40
4.0
 40
4.0
 40
4.0
 10
651.1607479548014
 20
18.14033307964647
 10
651.1607479548014
 20
18.14033307964647
 10
649.5492363240515
 20
18.14033307964647
 10
649.5492363240515
 20
18.14033307964647
 10
649.5492363240515
 20
18.14033307964647
 10
650.9465039072741
 20
23.35924900773321
 10
650.9465039072741
 20
23.35924900773321
 10
650.9465039072741
 20
23.35924900773321
 10
652.5578997007361
 20
23.35924900773321
 10
652.5578997007361
 20
23.35924900773321
 10
652.5578997007361
 20
23.35924900773321
 10
651.1607479548014
 20
18.14033307964647
 10
651.1607479548014
 20
18.14033307964647
 97
        0
 97
        1
330
1DC9B
 75
     1
 76
     1
 47
0.0269459378258844
 98
        1
 10
650.4907208399012
 20
19.56596795017491
450
        0
451
        0
460
0.0
461
0.0
452
        0
462
1.0
453
        2
463
0.0
 63
     5
421
      255
463
1.0
 63
     2
421
 16776960
470
LINEAR
1001
GRADIENTCOLOR1ACI
1070
     5
1001
GRADIENTCOLOR2ACI
1070
     2
1001
ACAD
1010
0.0
1020
0.0
1030
0.0
  0
SPLINE
  5
1DC9B
102
{ACAD_REACTORS
330
1DC9A
102
}
330
2
100
AcDbEntity
  8
Layer 1
100
AcDbSpline
210
0.0
220
0.0
230
1.0
 70
    11
 71
     3
 72
    17
 73
    13
 74
     0
 42
0.000000001
 43
0.0000000001
 40
0.0
 40
0.0
 40
0.0
 40
0.0
 40
1.0
 40
1.0
 40
1.0
 40
2.0
 40
2.0
 40
2.0
 40
3.0
 40
3.0
 40
3.0
 40
4.0
 40
4.0
 40
4.0
 40
4.0
 10
651.1607479548014
 20
18.14033307964647
 30
0.0
 10
651.1607479548014
 20
18.14033307964647
 30
0.0
 10
649.5492363240515
 20
18.14033307964647
 30
0.0
 10
649.5492363240515
 20
18.14033307964647
 30
0.0
 10
649.5492363240515
 20
18.14033307964647
 30
0.0
 10
650.9465039072741
 20
23.35924900773321
 30
0.0
 10
650.9465039072741
 20
23.35924900773321
 30
0.0
 10
650.9465039072741
 20
23.35924900773321
 30
0.0
 10
652.5578997007361
 20
23.35924900773321
 30
0.0
 10
652.5578997007361
 20
23.35924900773321
 30
0.0
 10
652.5578997007361
 20
23.35924900773321
 30
0.0
 10
651.1607479548014
 20
18.14033307964647
 30
0.0
 10
651.1607479548014
 20
18.14033307964647
 30
0.0
  0
HATCH
  5
1DC9C
330
2
100
AcDbEntity
  8
0
  6
Continuous
 62
     0
100
AcDbHatch
 10
0.0
 20
0.0
 30
0.0
210
0.0
220
0.0
230
1.0
  2
SOLID
 70
     1
 71
     1
 91
        1
 92
        5
 93
       14
 72
     4
 94
        3
 73
     0
 74
     0
 95
        8
 96
        4
 40
12.0
 40
12.0
 40
12.0
 40
12.0
 40
13.0
 40
13.0
 40
13.0
 40
13.0
 10
648.3269820617197
 20
20.28898506955143
 10
648.5595493290349
 20
20.3597015777142
 10
648.7903099702293
 20
20.46359691797107
 10
648.994458721896
 20
20.61956897307928
 97
        0
 72
     4
 94
        3
 73
     0
 74
     0
 95
        8
 96
        4
 40
13.0
 40
13.0
 40
13.0
 40
13.0
 40
14.0
 40
14.0
 40
14.0
 40
14.0
 10
648.994458721896
 20
20.61956897307928
 10
649.44548436682
 20
20.96710075021776
 10
649.6821237120587
 20
21.46251777982798
 10
649.6821237120587
 20
21.95019212606263
 97
        0
 72
     4
 94
        3
 73
     0
 74
     0
 95
        8
 96
        4
 40
0.0
 40
0.0
 40
0.0
 40
0.0
 40
1.0
 40
1.0
 40
1.0
 40
1.0
 10
649.6821237120587
 20
21.95019212606263
 10
649.6821237120587
 20
22.99981322572632
 10
648.7581061427081
 20
23.36948334199769
 10
647.9524092957952
 20
23.36948334199769
 97
        0
 72
     4
 94
        3
 73
     0
 74
     0
 95
        8
 96
        4
 40
1.0
 40
1.0
 40
1.0
 40
1.0
 40
2.0
 40
2.0
 40
2.0
 40
2.0
 10
647.9524092957952
 20
23.36948334199769
 10
647.9524092957952
 20
23.36948334199769
 10
645.6459498897896
 20
23.36948334199769
 10
645.6459498897896
 20
23.36948334199769
 97
        0
 72
     4
 94
        3
 73
     0
 74
     0
 95
        8
 96
        4
 40
2.0
 40
2.0
 40
2.0
 40
2.0
 40
3.0
 40
3.0
 40
3.0
 40
3.0
 10
645.6459498897896
 20
23.36948334199769
 10
645.6459498897896
 20
23.36948334199769
 10
644.2413974573213
 20
18.15043032680785
 10
644.2413974573213
 20
18.15043032680785
 97
        0
 72
     4
 94
        3
 73
     0
 74
     0
 95
        8
 96
        4
 40
3.0
 40
3.0
 40
3.0
 40
3.0
 40
4.0
 40
4.0
 40
4.0
 40
4.0
 10
644.2413974573213
 20
18.15043032680785
 10
644.2413974573213
 20
18.15043032680785
 10
645.8975861079409
 20
18.15043032680785
 10
645.8975861079409
 20
18.15043032680785
 97
        0
 72
     4
 94
        3
 73
     0
 74
     0
 95
        8
 96
        4
 40
4.0
 40
4.0
 40
4.0
 40
4.0
 40
5.0
 40
5.0
 40
5.0
 40
5.0
 10
645.8975861079409
 20
18.15043032680785
 10
645.8975861079409
 20
18.15043032680785
 10
646.9838845855203
 20
22.2013991866892
 10
646.9838845855203
 20
22.2013991866892
 97
        0
 72
     4
 94
        3
 73
     0
 74
     0
 95
        8
 96
        4
 40
5.0
 40
5.0
 40
5.0
 40
5.0
 40
6.0
 40
6.0
 40
6.0
 40
6.0
 10
646.9838845855203
 20
22.2013991866892
 10
646.9838845855203
 20
22.2013991866892
 10
647.4718456978059
 20
22.2013991866892
 10
647.4718456978059
 20
22.2013991866892
 97
        0
 72
     4
 94
        3
 73
     0
 74
     0
 95
        8
 96
        4
 40
6.0
 40
6.0
 40
6.0
 40
6.0
 40
7.0
 40
7.0
 40
7.0
 40
7.0
 10
647.4718456978059
 20
22.2013991866892
 10
647.7600169023991
 20
22.2013991866892
 10
648.0559021137628
 20
22.13489813947534
 10
648.0559021137628
 20
21.78022588766832
 97
        0
 72
     4
 94
        3
 73
     0
 74
     0
 95
        8
 96
        4
 40
7.0
 40
7.0
 40
7.0
 40
7.0
 40
8.0
 40
8.0
 40
8.0
 40
8.0
 10
648.0559021137628
 20
21.78022588766832
 10
648.0559021137628
 20
21.58812131014126
 10
647.9081602443166
 20
21.27741029394382
 10
647.4201991320311
 20
21.29237948180305
 97
        0
 72
     4
 94
        3
 73
     0
 74
     0
 95
        8
 96
        4
 40
8.0
 40
8.0
 40
8.0
 40
8.0
 40
9.0
 40
9.0
 40
9.0
 40
9.0
 10
647.4201991320311
 20
21.29237948180305
 10
647.4201991320311
 20
21.29237948180305
 10
647.1076528131076
 20
20.14826896835351
 10
647.1076528131076
 20
20.14826896835351
 97
        0
 72
     4
 94
        3
 73
     0
 74
     0
 95
        8
 96
        4
 40
9.0
 40
9.0
 40
9.0
 40
9.0
 40
10.0
 40
10.0
 40
10.0
 40
10.0
 10
647.1076528131076
 20
20.14826896835351
 10
647.1076528131076
 20
20.14826896835351
 10
647.7045850247516
 20
18.07004672056011
 10
647.7045850247516
 20
18.07004672056011
 97
        0
 72
     4
 94
        3
 73
     0
 74
     0
 95
        8
 96
        4
 40
10.0
 40
10.0
 40
10.0
 40
10.0
 40
11.0
 40
11.0
 40
11.0
 40
11.0
 10
647.7045850247516
 20
18.07004672056011
 10
647.7045850247516
 20
18.07004672056011
 10
649.0702233906118
 20
18.07004672056011
 10
649.0702233906118
 20
18.07004672056011
 97
        0
 72
     4
 94
        3
 73
     0
 74
     0
 95
        8
 96
        4
 40
11.0
 40
11.0
 40
11.0
 40
11.0
 40
12.0
 40
12.0
 40
12.0
 40
12.0
 10
649.0702233906118
 20
18.07004672056011
 10
649.0702233906118
 20
18.07004672056011
 10
648.3269820617197
 20
20.28898506955143
 10
648.3269820617197
 20
20.28898506955143
 97
        0
 97
       13
330
1DCA7
330
1DC96
330
1DCA8
330
1DC9D
330
1DC9E
330
1DC9F
330
1DCA0
330
1DCA1
330
1DCA2
330
1DCA3
330
1DCA4
330
1DCA5
330
1DCA6
 75
     1
 76
     1
 47
0.0269459378258844
 98
        1
 10
647.9618737830405
 20
20.01911238050062
450
        0
451
        0
460
0.0
461
0.0
452
        0
462
1.0
453
        2
463
0.0
 63
     5
421
      255
463
1.0
 63
     2
421
 16776960
470
LINEAR
1001
GRADIENTCOLOR1ACI
1070
     5
1001
GRADIENTCOLOR2ACI
1070
     2
1001
ACAD
1010
0.0
1020
0.0
1030
0.0
  0
SPLINE
  5
1DC9D
102
{ACAD_REACTORS
330
1DC9C
102
}
330
2
100
AcDbEntity
  8
Layer 1
100
AcDbSpline
210
0.0
220
0.0
230
1.0
 70
     8
 71
     3
 72
     8
 73
     4
 74
     0
 42
0.000000001
 43
0.0000000001
 40
0.0
 40
0.0
 40
0.0
 40
0.0
 40
1.0
 40
1.0
 40
1.0
 40
1.0
 10
649.6821237120587
 20
21.95019212606263
 30
0.0
 10
649.6821237120587
 20
22.99981322572632
 30
0.0
 10
648.7581061427081
 20
23.36948334199769
 30
0.0
 10
647.9524092957952
 20
23.36948334199769
 30
0.0
  0
SPLINE
  5
1DC9E
102
{ACAD_REACTORS
330
1DC9C
102
}
330
2
100
AcDbEntity
  8
Layer 1
100
AcDbSpline
210
0.0
220
0.0
230
1.0
 70
    24
 71
     3
 72
     8
 73
     4
 74
     0
 42
0.000000001
 43
0.0000000001
 40
1.0
 40
1.0
 40
1.0
 40
1.0
 40
2.0
 40
2.0
 40
2.0
 40
2.0
 10
647.9524092957952
 20
23.36948334199769
 30
0.0
 10
647.9524092957952
 20
23.36948334199769
 30
0.0
 10
645.6459498897896
 20
23.36948334199769
 30
0.0
 10
645.6459498897896
 20
23.36948334199769
 30
0.0
  0
SPLINE
  5
1DC9F
102
{ACAD_REACTORS
330
1DC9C
102
}
330
2
100
AcDbEntity
  8
Layer 1
100
AcDbSpline
210
0.0
220
0.0
230
1.0
 70
    24
 71
     3
 72
     8
 73
     4
 74
     0
 42
0.000000001
 43
0.0000000001
 40
2.0
 40
2.0
 40
2.0
 40
2.0
 40
3.0
 40
3.0
 40
3.0
 40
3.0
 10
645.6459498897896
 20
23.36948334199769
 30
0.0
 10
645.6459498897896
 20
23.36948334199769
 30
0.0
 10
644.2413974573213
 20
18.15043032680785
 30
0.0
 10
644.2413974573213
 20
18.15043032680785
 30
0.0
  0
SPLINE
  5
1DCA0
102
{ACAD_REACTORS
330
1DC9C
102
}
330
2
100
AcDbEntity
  8
Layer 1
100
AcDbSpline
210
0.0
220
0.0
230
1.0
 70
    24
 71
     3
 72
     8
 73
     4
 74
     0
 42
0.000000001
 43
0.0000000001
 40
3.0
 40
3.0
 40
3.0
 40
3.0
 40
4.0
 40
4.0
 40
4.0
 40
4.0
 10
644.2413974573213
 20
18.15043032680785
 30
0.0
 10
644.2413974573213
 20
18.15043032680785
 30
0.0
 10
645.8975861079409
 20
18.15043032680785
 30
0.0
 10
645.8975861079409
 20
18.15043032680785
 30
0.0
  0
SPLINE
  5
1DCA1
102
{ACAD_REACTORS
330
1DC9C
102
}
330
2
100
AcDbEntity
  8
Layer 1
100
AcDbSpline
210
0.0
220
0.0
230
1.0
 70
    24
 71
     3
 72
     8
 73
     4
 74
     0
 42
0.000000001
 43
0.0000000001
 40
4.0
 40
4.0
 40
4.0
 40
4.0
 40
5.0
 40
5.0
 40
5.0
 40
5.0
 10
645.8975861079409
 20
18.15043032680785
 30
0.0
 10
645.8975861079409
 20
18.15043032680785
 30
0.0
 10
646.9838845855203
 20
22.2013991866892
 30
0.0
 10
646.9838845855203
 20
22.2013991866892
 30
0.0
  0
SPLINE
  5
1DCA2
102
{ACAD_REACTORS
330
1DC9C
102
}
330
2
100
AcDbEntity
  8
Layer 1
100
AcDbSpline
210
0.0
220
0.0
230
1.0
 70
    24
 71
     3
 72
     8
 73
     4
 74
     0
 42
0.000000001
 43
0.0000000001
 40
5.0
 40
5.0
 40
5.0
 40
5.0
 40
6.0
 40
6.0
 40
6.0
 40
6.0
 10
646.9838845855203
 20
22.2013991866892
 30
0.0
 10
646.9838845855203
 20
22.2013991866892
 30
0.0
 10
647.4718456978059
 20
22.2013991866892
 30
0.0
 10
647.4718456978059
 20
22.2013991866892
 30
0.0
  0
SPLINE
  5
1DCA3
102
{ACAD_REACTORS
330
1DC9C
102
}
330
2
100
AcDbEntity
  8
Layer 1
100
AcDbSpline
210
0.0
220
0.0
230
1.0
 70
     8
 71
     3
 72
    11
 73
     7
 74
     0
 42
0.000000001
 43
0.0000000001
 40
6.0
 40
6.0
 40
6.0
 40
6.0
 40
7.0
 40
7.0
 40
7.0
 40
8.0
 40
8.0
 40
8.0
 40
8.0
 10
647.4718456978059
 20
22.2013991866892
 30
0.0
 10
647.7600169023991
 20
22.2013991866892
 30
0.0
 10
648.0559021137628
 20
22.13489813947534
 30
0.0
 10
648.0559021137628
 20
21.78022588766832
 30
0.0
 10
648.0559021137628
 20
21.58812131014126
 30
0.0
 10
647.9081602443166
 20
21.27741029394382
 30
0.0
 10
647.4201991320311
 20
21.29237948180305
 30
0.0
  0
SPLINE
  5
1DCA4
102
{ACAD_REACTORS
330
1DC9C
102
}
330
2
100
AcDbEntity
  8
Layer 1
100
AcDbSpline
210
0.0
220
0.0
230
1.0
 70
    24
 71
     3
 72
     8
 73
     4
 74
     0
 42
0.000000001
 43
0.0000000001
 40
8.0
 40
8.0
 40
8.0
 40
8.0
 40
9.0
 40
9.0
 40
9.0
 40
9.0
 10
647.4201991320311
 20
21.29237948180305
 30
0.0
 10
647.4201991320311
 20
21.29237948180305
 30
0.0
 10
647.1076528131076
 20
20.14826896835351
 30
0.0
 10
647.1076528131076
 20
20.14826896835351
 30
0.0
  0
SPLINE
  5
1DCA5
102
{ACAD_REACTORS
330
1DC9C
102
}
330
2
100
AcDbEntity
  8
Layer 1
100
AcDbSpline
210
0.0
220
0.0
230
1.0
 70
    24
 71
     3
 72
     8
 73
     4
 74
     0
 42
0.000000001
 43
0.0000000001
 40
9.0
 40
9.0
 40
9.0
 40
9.0
 40
10.0
 40
10.0
 40
10.0
 40
10.0
 10
647.1076528131076
 20
20.14826896835351
 30
0.0
 10
647.1076528131076
 20
20.14826896835351
 30
0.0
 10
647.7045850247516
 20
18.07004672056011
 30
0.0
 10
647.7045850247516
 20
18.07004672056011
 30
0.0
  0
SPLINE
  5
1DCA6
102
{ACAD_REACTORS
330
1DC9C
102
}
330
2
100
AcDbEntity
  8
Layer 1
100
AcDbSpline
210
0.0
220
0.0
230
1.0
 70
    24
 71
     3
 72
     8
 73
     4
 74
     0
 42
0.000000001
 43
0.0000000001
 40
10.0
 40
10.0
 40
10.0
 40
10.0
 40
11.0
 40
11.0
 40
11.0
 40
11.0
 10
647.7045850247516
 20
18.07004672056011
 30
0.0
 10
647.7045850247516
 20
18.07004672056011
 30
0.0
 10
649.0702233906118
 20
18.07004672056011
 30
0.0
 10
649.0702233906118
 20
18.07004672056011
 30
0.0
  0
SPLINE
  5
1DCA7
102
{ACAD_REACTORS
330
1DC9C
102
}
330
2
100
AcDbEntity
  8
Layer 1
100
AcDbSpline
210
0.0
220
0.0
230
1.0
 70
    24
 71
     3
 72
     8
 73
     4
 74
     0
 42
0.000000001
 43
0.0000000001
 40
11.0
 40
11.0
 40
11.0
 40
11.0
 40
12.0
 40
12.0
 40
12.0
 40
12.0
 10
649.0702233906118
 20
18.07004672056011
 30
0.0
 10
649.0702233906118
 20
18.07004672056011
 30
0.0
 10
648.3269820617197
 20
20.28898506955143
 30
0.0
 10
648.3269820617197
 20
20.28898506955143
 30
0.0
  0
SPLINE
  5
1DCA8
102
{ACAD_REACTORS
330
1DC9C
102
}
330
2
100
AcDbEntity
  8
Layer 1
100
AcDbSpline
210
0.0
220
0.0
230
1.0
 70
     8
 71
     3
 72
     8
 73
     4
 74
     0
 42
0.000000001
 43
0.0000000001
 40
13.0
 40
13.0
 40
13.0
 40
13.0
 40
14.0
 40
14.0
 40
14.0
 40
14.0
 10
648.994458721896
 20
20.61956897307928
 30
0.0
 10
649.44548436682
 20
20.96710075021776
 30
0.0
 10
649.6821237120587
 20
21.46251777982798
 30
0.0
 10
649.6821237120587
 20
21.95019212606263
 30
0.0
  0
HATCH
  5
1DCA9
330
2
100
AcDbEntity
  8
0
  6
Continuous
 62
     0
100
AcDbHatch
 10
0.0
 20
0.0
 30
0.0
210
0.0
220
0.0
230
1.0
  2
SOLID
 70
     1
 71
     1
 91
        2
 92
        5
 93
        4
 72
     4
 94
        3
 73
     0
 74
     0
 95
        8
 96
        4
 40
0.0
 40
0.0
 40
0.0
 40
0.0
 40
1.0
 40
1.0
 40
1.0
 40
1.0
 10
656.150734199798
 20
20.25649447597952
 10
656.150734199798
 20
18.90401974991435
 10
657.0769885443458
 20
17.86741782896343
 10
658.6794085604136
 20
17.86741782896343
 97
        0
 72
     4
 94
        3
 73
     0
 74
     0
 95
        8
 96
        4
 40
3.0
 40
3.0
 40
3.0
 40
3.0
 40
4.0
 40
4.0
 40
4.0
 40
4.0
 10
658.6794085604136
 20
17.86741782896343
 10
660.8039435254344
 20
17.86741782896343
 10
661.8992177804082
 20
19.49197618416397
 10
661.8992177804082
 20
20.96219705074672
 97
        0
 72
     4
 94
        3
 73
     0
 74
     0
 95
        8
 96
        4
 40
2.0
 40
2.0
 40
2.0
 40
2.0
 40
3.0
 40
3.0
 40
3.0
 40
3.0
 10
661.8992177804082
 20
20.96219705074672
 10
661.8992177804082
 20
22.27814096836484
 10
660.9731068188859
 20
23.36609950259654
 10
659.3044438450501
 20
23.36609950259654
 97
        0
 72
     4
 94
        3
 73
     0
 74
     0
 95
        8
 96
        4
 40
1.0
 40
1.0
 40
1.0
 40
1.0
 40
2.0
 40
2.0
 40
2.0
 40
2.0
 10
659.3044438450501
 20
23.36609950259654
 10
657.2534070188863
 20
23.36609950259654
 10
656.150734199798
 20
21.73399920025624
 10
656.150734199798
 20
20.25649447597952
 97
        0
 97
        1
330
1DCAA
 92
       20
 93
        4
 72
     4
 94
        3
 73
     0
 74
     0
 95
        8
 96
        4
 40
2.0
 40
2.0
 40
2.0
 40
2.0
 40
3.0
 40
3.0
 40
3.0
 40
3.0
 10
658.7751597448236
 20
19.11714427897553
 10
658.2311932227886
 20
19.11714427897553
 10
657.7605814565853
 20
19.47740846877611
 10
657.7605814565853
 20
20.24192676059167
 97
        0
 72
     4
 94
        3
 73
     0
 74
     0
 95
        8
 96
        4
 40
1.0
 40
1.0
 40
1.0
 40
1.0
 40
2.0
 40
2.0
 40
2.0
 40
2.0
 10
657.7605814565853
 20
20.24192676059167
 10
657.7605814565853
 20
21.03587040429507
 10
658.3121199138915
 20
22.17521744623807
 10
659.3191549434635
 20
22.17521744623807
 97
        0
 72
     4
 94
        3
 73
     0
 74
     0
 95
        8
 96
        4
 40
0.0
 40
0.0
 40
0.0
 40
0.0
 40
1.0
 40
1.0
 40
1.0
 40
1.0
 10
659.3191549434635
 20
22.17521744623807
 10
659.8484390436901
 20
22.17521744623807
 10
660.30422500506
 20
21.81509663946307
 10
660.30422500506
 20
21.05783352873636
 97
        0
 72
     4
 94
        3
 73
     0
 74
     0
 95
        8
 96
        4
 40
3.0
 40
3.0
 40
3.0
 40
3.0
 40
4.0
 40
4.0
 40
4.0
 40
4.0
 10
660.30422500506
 20
21.05783352873636
 10
660.30422500506
 20
20.30074247764019
 10
659.8632935251291
 20
19.11714427897553
 10
658.7751597448236
 20
19.11714427897553
 97
        0
 97
        1
330
1DCAB
 75
     1
 76
     1
 47
0.0269459378258844
 98
        2
 10
657.2575676625945
 20
19.4613969719002
 10
657.2575676625945
 20
19.4613969719002
450
        0
451
        0
460
0.0
461
0.0
452
        0
462
1.0
453
        2
463
0.0
 63
     5
421
      255
463
1.0
 63
     2
421
 16776960
470
LINEAR
1001
GRADIENTCOLOR1ACI
1070
     5
1001
GRADIENTCOLOR2ACI
1070
     2
1001
ACAD
1010
0.0
1020
0.0
1030
0.0
  0
SPLINE
  5
1DCAA
102
{ACAD_REACTORS
330
1DCA9
102
}
330
2
100
AcDbEntity
  8
Layer 1
100
AcDbSpline
210
0.0
220
0.0
230
1.0
 70
     9
 71
     3
 72
    17
 73
    13
 74
     0
 42
0.000000001
 43
0.0000000001
 40
0.0
 40
0.0
 40
0.0
 40
0.0
 40
1.0
 40
1.0
 40
1.0
 40
2.0
 40
2.0
 40
2.0
 40
3.0
 40
3.0
 40
3.0
 40
4.0
 40
4.0
 40
4.0
 40
4.0
 10
658.6794085604136
 20
17.86741782896343
 30
0.0
 10
657.0769885443458
 20
17.86741782896343
 30
0.0
 10
656.150734199798
 20
18.90401974991435
 30
0.0
 10
656.150734199798
 20
20.25649447597952
 30
0.0
 10
656.150734199798
 20
21.73399920025624
 30
0.0
 10
657.2534070188863
 20
23.36609950259654
 30
0.0
 10
659.3044438450501
 20
23.36609950259654
 30
0.0
 10
660.9731068188859
 20
23.36609950259654
 30
0.0
 10
661.8992177804082
 20
22.27814096836484
 30
0.0
 10
661.8992177804082
 20
20.96219705074672
 30
0.0
 10
661.8992177804082
 20
19.49197618416397
 30
0.0
 10
660.8039435254344
 20
17.86741782896343
 30
0.0
 10
658.6794085604136
 20
17.86741782896343
 30
0.0
  0
SPLINE
  5
1DCAB
102
{ACAD_REACTORS
330
1DCA9
102
}
330
2
100
AcDbEntity
  8
Layer 1
100
AcDbSpline
210
0.0
220
0.0
230
1.0
 70
     9
 71
     3
 72
    17
 73
    13
 74
     0
 42
0.000000001
 43
0.0000000001
 40
0.0
 40
0.0
 40
0.0
 40
0.0
 40
1.0
 40
1.0
 40
1.0
 40
2.0
 40
2.0
 40
2.0
 40
3.0
 40
3.0
 40
3.0
 40
4.0
 40
4.0
 40
4.0
 40
4.0
 10
660.30422500506
 20
21.05783352873636
 30
0.0
 10
660.30422500506
 20
21.81509663946307
 30
0.0
 10
659.8484390436901
 20
22.17521744623807
 30
0.0
 10
659.3191549434635
 20
22.17521744623807
 30
0.0
 10
658.3121199138915
 20
22.17521744623807
 30
0.0
 10
657.7605814565853
 20
21.03587040429507
 30
0.0
 10
657.7605814565853
 20
20.24192676059167
 30
0.0
 10
657.7605814565853
 20
19.47740846877611
 30
0.0
 10
658.2311932227886
 20
19.11714427897553
 30
0.0
 10
658.7751597448236
 20
19.11714427897553
 30
0.0
 10
659.8632935251291
 20
19.11714427897553
 30
0.0
 10
660.30422500506
 20
20.30074247764019
 30
0.0
 10
660.30422500506
 20
21.05783352873636
 30
0.0
  0
HATCH
  5
1DCAC
330
2
100
AcDbEntity
  8
0
  6
Continuous
 62
     0
100
AcDbHatch
 10
0.0
 20
0.0
 30
0.0
210
0.0
220
0.0
230
1.0
  2
SOLID
 70
     1
 71
     1
 91
        2
 92
        5
 93
        4
 72
     4
 94
        3
 73
     0
 74
     0
 95
        8
 96
        4
 40
0.0
 40
0.0
 40
0.0
 40
0.0
 40
1.0
 40
1.0
 40
1.0
 40
1.0
 10
662.0787333282987
 20
20.25649447597952
 10
662.0787333282987
 20
18.90401974991435
 10
663.0051023792669
 20
17.86741782896343
 10
664.6073790123092
 20
17.86741782896343
 97
        0
 72
     4
 94
        3
 73
     0
 74
     0
 95
        8
 96
        4
 40
3.0
 40
3.0
 40
3.0
 40
3.0
 40
4.0
 40
4.0
 40
4.0
 40
4.0
 10
664.6073790123092
 20
17.86741782896343
 10
666.7319426539351
 20
17.86741782896343
 10
667.8272169089089
 20
19.49197618416397
 10
667.8272169089089
 20
20.96219705074672
 97
        0
 72
     4
 94
        3
 73
     0
 74
     0
 95
        8
 96
        4
 40
2.0
 40
2.0
 40
2.0
 40
2.0
 40
3.0
 40
3.0
 40
3.0
 40
3.0
 10
667.8272169089089
 20
20.96219705074672
 10
667.8272169089089
 20
22.27814096836484
 10
666.9009625643611
 20
23.36609950259654
 10
665.2324429735509
 20
23.36609950259654
 97
        0
 72
     4
 94
        3
 73
     0
 74
     0
 95
        8
 96
        4
 40
1.0
 40
1.0
 40
1.0
 40
1.0
 40
2.0
 40
2.0
 40
2.0
 40
2.0
 10
665.2324429735509
 20
23.36609950259654
 10
663.1812627643616
 20
23.36609950259654
 10
662.0787333282987
 20
21.73399920025624
 10
662.0787333282987
 20
20.25649447597952
 97
        0
 97
        1
330
1DCAE
 92
       20
 93
        4
 72
     4
 94
        3
 73
     0
 74
     0
 95
        8
 96
        4
 40
3.0
 40
3.0
 40
3.0
 40
3.0
 40
4.0
 40
4.0
 40
4.0
 40
4.0
 10
664.7028721072736
 20
19.11714427897553
 10
665.7908625045535
 20
19.11714427897553
 10
666.2320807505352
 20
20.30074247764019
 10
666.2320807505352
 20
21.05783352873636
 97
        0
 72
     4
 94
        3
 73
     0
 74
     0
 95
        8
 96
        4
 40
0.0
 40
0.0
 40
0.0
 40
0.0
 40
1.0
 40
1.0
 40
1.0
 40
1.0
 10
666.2320807505352
 20
21.05783352873636
 10
666.2320807505352
 20
21.81509663946307
 10
665.7762947891654
 20
22.17521744623807
 10
665.2467239228879
 20
22.17521744623807
 97
        0
 72
     4
 94
        3
 73
     0
 74
     0
 95
        8
 96
        4
 40
1.0
 40
1.0
 40
1.0
 40
1.0
 40
2.0
 40
2.0
 40
2.0
 40
2.0
 10
665.2467239228879
 20
22.17521744623807
 10
664.2399743478404
 20
22.17521744623807
 10
663.6886967388566
 20
21.03587040429507
 10
663.6886967388566
 20
20.24192676059167
 97
        0
 72
     4
 94
        3
 73
     0
 74
     0
 95
        8
 96
        4
 40
2.0
 40
2.0
 40
2.0
 40
2.0
 40
3.0
 40
3.0
 40
3.0
 40
3.0
 10
663.6886967388566
 20
20.24192676059167
 10
663.6886967388566
 20
19.47740846877611
 10
664.1589055852385
 20
19.11714427897553
 10
664.7028721072736
 20
19.11714427897553
 97
        0
 97
        1
330
1DCAD
 75
     1
 76
     1
 47
0.0269459378258844
 98
        2
 10
663.5884061709194
 20
19.87968390597197
 10
663.5884061709194
 20
19.87968390597197
450
        0
451
        0
460
0.0
461
0.0
452
        0
462
1.0
453
        2
463
0.0
 63
     5
421
      255
463
1.0
 63
     2
421
 16776960
470
LINEAR
1001
GRADIENTCOLOR1ACI
1070
     5
1001
GRADIENTCOLOR2ACI
1070
     2
1001
ACAD
1010
0.0
1020
0.0
1030
0.0
  0
SPLINE
  5
1DCAD
102
{ACAD_REACTORS
330
1DCAC
102
}
330
2
100
AcDbEntity
  8
Layer 1
100
AcDbSpline
210
0.0
220
0.0
230
1.0
 70
     9
 71
     3
 72
    17
 73
    13
 74
     0
 42
0.000000001
 43
0.0000000001
 40
0.0
 40
0.0
 40
0.0
 40
0.0
 40
1.0
 40
1.0
 40
1.0
 40
2.0
 40
2.0
 40
2.0
 40
3.0
 40
3.0
 40
3.0
 40
4.0
 40
4.0
 40
4.0
 40
4.0
 10
666.2320807505352
 20
21.05783352873636
 30
0.0
 10
666.2320807505352
 20
21.81509663946307
 30
0.0
 10
665.7762947891654
 20
22.17521744623807
 30
0.0
 10
665.2467239228879
 20
22.17521744623807
 30
0.0
 10
664.2399743478404
 20
22.17521744623807
 30
0.0
 10
663.6886967388566
 20
21.03587040429507
 30
0.0
 10
663.6886967388566
 20
20.24192676059167
 30
0.0
 10
663.6886967388566
 20
19.47740846877611
 30
0.0
 10
664.1589055852385
 20
19.11714427897553
 30
0.0
 10
664.7028721072736
 20
19.11714427897553
 30
0.0
 10
665.7908625045535
 20
19.11714427897553
 30
0.0
 10
666.2320807505352
 20
20.30074247764019
 30
0.0
 10
666.2320807505352
 20
21.05783352873636
 30
0.0
  0
SPLINE
  5
1DCAE
102
{ACAD_REACTORS
330
1DCAC
102
}
330
2
100
AcDbEntity
  8
Layer 1
100
AcDbSpline
210
0.0
220
0.0
230
1.0
 70
     9
 71
     3
 72
    17
 73
    13
 74
     0
 42
0.000000001
 43
0.0000000001
 40
0.0
 40
0.0
 40
0.0
 40
0.0
 40
1.0
 40
1.0
 40
1.0
 40
2.0
 40
2.0
 40
2.0
 40
3.0
 40
3.0
 40
3.0
 40
4.0
 40
4.0
 40
4.0
 40
4.0
 10
664.6073790123092
 20
17.86741782896343
 30
0.0
 10
663.0051023792669
 20
17.86741782896343
 30
0.0
 10
662.0787333282987
 20
18.90401974991435
 30
0.0
 10
662.0787333282987
 20
20.25649447597952
 30
0.0
 10
662.0787333282987
 20
21.73399920025624
 30
0.0
 10
663.1812627643616
 20
23.36609950259654
 30
0.0
 10
665.2324429735509
 20
23.36609950259654
 30
0.0
 10
666.9009625643611
 20
23.36609950259654
 30
0.0
 10
667.8272169089089
 20
22.27814096836484
 30
0.0
 10
667.8272169089089
 20
20.96219705074672
 30
0.0
 10
667.8272169089089
 20
19.49197618416397
 30
0.0
 10
666.7319426539351
 20
17.86741782896343
 30
0.0
 10
664.6073790123092
 20
17.86741782896343
 30
0.0
  0
HATCH
  5
1DCAF
330
2
100
AcDbEntity
  8
0
  6
Continuous
 62
     0
100
AcDbHatch
 10
0.0
 20
0.0
 30
0.0
210
0.0
220
0.0
230
1.0
  2
SOLID
 70
     1
 71
     1
 91
        1
 92
        5
 93
        6
 72
     4
 94
        3
 73
     0
 74
     0
 95
        8
 96
        4
 40
4.0
 40
4.0
 40
4.0
 40
4.0
 40
5.0
 40
5.0
 40
5.0
 40
5.0
 10
669.4177090493345
 20
19.22731979574815
 10
669.4177090493345
 20
19.22731979574815
 10
670.4837028984298
 20
23.21181936718891
 10
670.4837028984298
 20
23.21181936718891
 97
        0
 72
     4
 94
        3
 73
     0
 74
     0
 95
        8
 96
        4
 40
3.0
 40
3.0
 40
3.0
 40
3.0
 40
4.0
 40
4.0
 40
4.0
 40
4.0
 10
670.4837028984298
 20
23.21181936718891
 10
670.4837028984298
 20
23.21181936718891
 10
668.8514592130642
 20
23.21181936718891
 10
668.8514592130642
 20
23.21181936718891
 97
        0
 72
     4
 94
        3
 73
     0
 74
     0
 95
        8
 96
        4
 40
2.0
 40
2.0
 40
2.0
 40
2.0
 40
3.0
 40
3.0
 40
3.0
 40
3.0
 10
668.8514592130642
 20
23.21181936718891
 10
668.8514592130642
 20
23.21181936718891
 10
667.4623071090832
 20
18.0218700240016
 10
667.4623071090832
 20
18.0218700240016
 97
        0
 72
     4
 94
        3
 73
     0
 74
     0
 95
        8
 96
        4
 40
1.0
 40
1.0
 40
1.0
 40
1.0
 40
2.0
 40
2.0
 40
2.0
 40
2.0
 10
667.4623071090832
 20
18.0218700240016
 10
667.4623071090832
 20
18.0218700240016
 10
670.8220024362807
 20
18.0218700240016
 10
670.8220024362807
 20
18.0218700240016
 97
        0
 72
     4
 94
        3
 73
     0
 74
     0
 95
        8
 96
        4
 40
0.0
 40
0.0
 40
0.0
 40
0.0
 40
1.0
 40
1.0
 40
1.0
 40
1.0
 10
670.8220024362807
 20
18.0218700240016
 10
670.8220024362807
 20
18.0218700240016
 10
671.2207776791703
 20
19.22731979574815
 10
671.2207776791703
 20
19.22731979574815
 97
        0
 72
     4
 94
        3
 73
     0
 74
     0
 95
        8
 96
        4
 40
5.0
 40
5.0
 40
5.0
 40
5.0
 40
6.0
 40
6.0
 40
6.0
 40
6.0
 10
671.2207776791703
 20
19.22731979574815
 10
671.2207776791703
 20
19.22731979574815
 10
669.4177090493345
 20
19.22731979574815
 10
669.4177090493345
 20
19.22731979574815
 97
        0
 97
        6
330
1DCB4
330
1DCB3
330
1DCB2
330
1DCB1
330
1DCB0
330
1DCB5
 75
     1
 76
     1
 47
0.0168242271866721
 98
        1
 10
668.9178716948143
 20
19.56587127904095
450
        0
451
        0
460
0.0
461
0.0
452
        0
462
1.0
453
        2
463
0.0
 63
     5
421
      255
463
1.0
 63
     2
421
 16776960
470
LINEAR
1001
GRADIENTCOLOR1ACI
1070
     5
1001
GRADIENTCOLOR2ACI
1070
     2
1001
ACAD
1010
0.0
1020
0.0
1030
0.0
  0
SPLINE
  5
1DCB0
102
{ACAD_REACTORS
330
1DCAF
102
}
330
2
100
AcDbEntity
  8
Layer 1
100
AcDbSpline
210
0.0
220
0.0
230
1.0
 70
    24
 71
     3
 72
     8
 73
     4
 74
     0
 42
0.000000001
 43
0.0000000001
 40
0.0
 40
0.0
 40
0.0
 40
0.0
 40
1.0
 40
1.0
 40
1.0
 40
1.0
 10
671.2207776791703
 20
19.22731979574815
 30
0.0
 10
671.2207776791703
 20
19.22731979574815
 30
0.0
 10
670.8220024362807
 20
18.0218700240016
 30
0.0
 10
670.8220024362807
 20
18.0218700240016
 30
0.0
  0
SPLINE
  5
1DCB1
102
{ACAD_REACTORS
330
1DCAF
102
}
330
2
100
AcDbEntity
  8
Layer 1
100
AcDbSpline
210
0.0
220
0.0
230
1.0
 70
    24
 71
     3
 72
     8
 73
     4
 74
     0
 42
0.000000001
 43
0.0000000001
 40
1.0
 40
1.0
 40
1.0
 40
1.0
 40
2.0
 40
2.0
 40
2.0
 40
2.0
 10
670.8220024362807
 20
18.0218700240016
 30
0.0
 10
670.8220024362807
 20
18.0218700240016
 30
0.0
 10
667.4623071090832
 20
18.0218700240016
 30
0.0
 10
667.4623071090832
 20
18.0218700240016
 30
0.0
  0
SPLINE
  5
1DCB2
102
{ACAD_REACTORS
330
1DCAF
102
}
330
2
100
AcDbEntity
  8
Layer 1
100
AcDbSpline
210
0.0
220
0.0
230
1.0
 70
    24
 71
     3
 72
     8
 73
     4
 74
     0
 42
0.000000001
 43
0.0000000001
 40
2.0
 40
2.0
 40
2.0
 40
2.0
 40
3.0
 40
3.0
 40
3.0
 40
3.0
 10
667.4623071090832
 20
18.0218700240016
 30
0.0
 10
667.4623071090832
 20
18.0218700240016
 30
0.0
 10
668.8514592130642
 20
23.21181936718891
 30
0.0
 10
668.8514592130642
 20
23.21181936718891
 30
0.0
  0
SPLINE
  5
1DCB3
102
{ACAD_REACTORS
330
1DCAF
102
}
330
2
100
AcDbEntity
  8
Layer 1
100
AcDbSpline
210
0.0
220
0.0
230
1.0
 70
    24
 71
     3
 72
     8
 73
     4
 74
     0
 42
0.000000001
 43
0.0000000001
 40
3.0
 40
3.0
 40
3.0
 40
3.0
 40
4.0
 40
4.0
 40
4.0
 40
4.0
 10
668.8514592130642
 20
23.21181936718891
 30
0.0
 10
668.8514592130642
 20
23.21181936718891
 30
0.0
 10
670.4837028984298
 20
23.21181936718891
 30
0.0
 10
670.4837028984298
 20
23.21181936718891
 30
0.0
  0
SPLINE
  5
1DCB4
102
{ACAD_REACTORS
330
1DCAF
102
}
330
2
100
AcDbEntity
  8
Layer 1
100
AcDbSpline
210
0.0
220
0.0
230
1.0
 70
    24
 71
     3
 72
     8
 73
     4
 74
     0
 42
0.000000001
 43
0.0000000001
 40
4.0
 40
4.0
 40
4.0
 40
4.0
 40
5.0
 40
5.0
 40
5.0
 40
5.0
 10
670.4837028984298
 20
23.21181936718891
 30
0.0
 10
670.4837028984298
 20
23.21181936718891
 30
0.0
 10
669.4177090493345
 20
19.22731979574815
 30
0.0
 10
669.4177090493345
 20
19.22731979574815
 30
0.0
  0
SPLINE
  5
1DCB5
102
{ACAD_REACTORS
330
1DCAF
102
}
330
2
100
AcDbEntity
  8
Layer 1
100
AcDbSpline
210
0.0
220
0.0
230
1.0
 70
    24
 71
     3
 72
     8
 73
     4
 74
     0
 42
0.000000001
 43
0.0000000001
 40
5.0
 40
5.0
 40
5.0
 40
5.0
 40
6.0
 40
6.0
 40
6.0
 40
6.0
 10
669.4177090493345
 20
19.22731979574815
 30
0.0
 10
669.4177090493345
 20
19.22731979574815
 30
0.0
 10
671.2207776791703
 20
19.22731979574815
 30
0.0
 10
671.2207776791703
 20
19.22731979574815
 30
0.0
  0
TEXT
  5
1DCB6
330
2
100
AcDbEntity
  8
0
 62
     2
100
AcDbText
 10
636.602414775904
 20
11.92002032937522
 30
0.0
 40
2.535455999999999
  1
www.maritool.com
  7
굴림
100
AcDbText
  0
TEXT
  5
1DCB7
330
2
100
AcDbEntity
  8
0
 62
     2
100
AcDbText
 10
619.2677755846469
 20
3.427181975296476
 30
0.0
 40
2.028364799999999
  1
ITEM#
  7
굴림
100
AcDbText
  0
TEXT
  5
1DCB8
330
2
100
AcDbEntity
  8
0
 62
     2
100
AcDbText
 10
632.3088054400001
 20
2.945248156510893
 30
0.0
 40
3.042547199999999
  1
CAT40-SHC.5-5.0
  7
굴림
100
AcDbText
  0
TEXT
  5
1DCC0
330
2
100
AcDbEntity
  8
0
 62
     2
100
AcDbText
 10
514.4829947229044
 20
14.25575655529788
 30
0.0
 40
4.563820799999999
  1
T.I.R. ACCURACY .0001"
  7
굴림
100
AcDbText
  0
LINE
  5
2366A
330
2
100
AcDbEntity
  8
0
  6
CENTER
 62
     3
100
AcDbLine
 10
440.6592789684505
 20
98.98342388347323
 30
0.0
 11
639.7307648931705
 21
98.9834238834733
 31
0.0
  0
HATCH
  5
2366B
330
2
100
AcDbEntity
  8
0
  6
Continuous
 62
     4
100
AcDbHatch
 10
0.0
 20
0.0
 30
0.0
210
0.0
220
0.0
230
1.0
  2
ANSI31
 70
     0
 71
     0
 91
        4
 92
        7
 72
     1
 73
     1
 93
       51
 10
561.777387995932
 20
116.2738522180019
 42
0.0
 10
558.7223630873775
 20
124.6674641701254
 42
0.3152987888789634
 10
556.8429778458055
 20
125.9834238834739
 42
0.0
 10
530.3592789684505
 20
125.9834238834731
 42
-0.4142135623730951
 10
529.9592789684504
 20
126.3834238834731
 42
0.0
 10
529.9592789684504
 20
129.9334238834732
 42
0.4142135623731042
 10
529.1592789684504
 20
130.7334238834733
 42
0.0
 10
525.900063137094
 20
130.7334238834732
 42
0.2679491924311094
 10
525.4670504352018
 20
130.4834238834732
 42
0.0
 10
524.0029789684504
 20
127.9475777171481
 42
0.0
 10
524.0029789684506
 20
127.1334238834731
 42
0.0
 10
520.1675789684505
 20
127.1334238834731
 42
0.0
 10
520.1675789684506
 20
127.9475777171481
 42
0.0
 10
518.7035075016995
 20
130.4834238834732
 42
0.2679491924311335
 10
518.2704947998072
 20
130.7334238834732
 42
0.0
 10
514.8842789684504
 20
130.7334238834733
 42
0.414213562373095
 10
514.0842789684504
 20
129.9334238834732
 42
0.0
 10
514.0842789684507
 20
122.6841516431075
 42
0.0
 10
514.4842789684503
 20
121.991331320082
 42
0.0
 10
514.484278968451
 20
121.0841516431089
 42
-0.4142135623730951
 10
514.184278968451
 20
120.7841516431089
 42
0.0
 10
512.4926845257291
 20
120.7841516431094
 42
0.0
 10
510.9092789684504
 20
121.2084238834731
 42
0.0
 10
444.1807013289523
 20
111.4771736122904
 42
0.3724076148657662
 10
442.6592789684507
 20
109.7177839695706
 42
0.0
 10
442.6592789684504
 20
108.6334238834731
 42
0.0
 10
442.6592789684504
 20
108.1334238834731
 42
0.0
 10
444.3913297760196
 20
107.1334238834731
 42
0.0
 10
450.0592789684506
 20
107.1334238834735
 42
0.0
 10
450.1466408374491
 20
106.983423883473
 42
0.0
 10
472.6592789684505
 20
106.9834238834732
 42
0.0
 10
474.4788820296812
 20
105.9834238834732
 42
0.0
 10
487.6592789684507
 20
105.9834238834732
 42
0.0
 10
487.6592789684507
 20
105.7334238834732
 42
0.0
 10
512.6592789684504
 20
105.7334238834732
 42
0.0
 10
514.6800049106111
 20
102.2334238834787
 42
0.0
 10
527.9092789684523
 20
102.2334238834731
 42
0.0
 10
527.9092789684523
 20
103.4834238834738
 42
0.0
 10
580.9092789684519
 20
103.4834238834738
 42
0.0
 10
581.1979541030439
 20
102.983423883475
 42
0.0
 10
591.7938089145841
 20
102.9834238834747
 42
0.0
 10
591.9092789684393
 20
103.1834238835041
 42
0.0
 10
591.9092789684384
 20
105.1334238834752
 42
-0.4142135623733131
 10
592.3092789684383
 20
105.5334238834755
 42
0.0
 10
599.1628688069436
 20
105.5334238834727
 42
0.0
 10
599.9092789684525
 20
105.3334238834737
 42
0.0
 10
637.4762662665598
 20
105.3334238834737
 42
0.0
 10
637.9092789684518
 20
105.5834238834745
 42
0.0
 10
637.9092789684518
 20
108.7589416001155
 42
0.3989595459737191
 10
637.4354469465734
 20
109.2582563674928
 42
0.0
 10
566.2141713186468
 20
112.9908052608578
 42
-0.3009658391327079
 97
        0
 92
       22
 72
     0
 73
     1
 93
        8
 10
604.0592789684522
 20
107.3834238834729
 10
632.009278968452
 20
107.3834238834729
 10
630.6592789684527
 20
106.0334238834738
 10
624.0592789684519
 20
106.0334238834738
 10
623.0092789684552
 20
107.0834238834744
 10
613.0592789684531
 20
107.0834238834744
 10
612.0092789684522
 20
106.0334238834738
 10
605.4092789684532
 20
106.0334238834733
 97
        0
 92
       23
 72
     0
 73
     1
 93
        4
 10
472.6592789684505
 20
106.9834238834732
 10
450.1466408374491
 20
106.983423883473
 10
450.7290532974369
 20
105.9834238834732
 10
472.6592789684505
 20
105.9834238834732
 97
        0
 92
       23
 72
     0
 73
     1
 93
        4
 10
591.7938089145843
 20
102.9834238834747
 10
581.1979541030439
 20
102.983423883475
 10
581.4577617241771
 20
102.5334238834749
 10
591.5340012934485
 20
102.5334238834747
 97
        0
 75
     1
 76
     1
 52
0.0
 41
1.0
 77
     0
 78
     1
 53
45.0
 43
-238.6231374902454
 44
-368.0146865146419
 45
-2.245064030267287
 46
2.245064030267288
 79
     0
 47
0.023414085414023
 98
        4
 10
536.4877172684241
 20
113.3566012103337
 10
536.4877172684241
 20
113.3566012103337
 10
465.5263387852697
 20
106.3880129296103
 10
588.4835736285699
 20
102.7810362619231
1001
GRADIENTCOLOR1ACI
1070
     5
1001
GRADIENTCOLOR2ACI
1070
     2
1001
ACAD
1010
0.0
1020
0.0
1030
0.0
  0
LINE
  5
2366C
330
2
100
AcDbEntity
  8
0
  6
Continuous
 62
     7
100
AcDbLine
 10
510.9092789684504
 20
121.2084238834731
 30
0.0
 11
444.1807013289522
 21
111.4771736122904
 31
0.0
1001
ACAD
1000
ASC_BOUNDS
1002
{
1070
    19
1002
}
  0
ARC
  5
2366D
330
2
100
AcDbEntity
  8
0
  6
Continuous
 62
     7
100
AcDbCircle
 10
444.4372789684507
 20
109.7177839695707
 30
0.0
 40
1.778
100
AcDbArc
 50
98.29714443631914
 51
180.0
1001
ACAD
1000
ASC_BOUNDS
1002
{
1070
    19
1002
}
  0
LINE
  5
2366E
330
2
100
AcDbEntity
  8
0
  6
Continuous
100
AcDbLine
 10
444.3913297760196
 20
107.1334238834731
 30
0.0
 11
450.0592789684506
 21
107.1334238834735
 31
0.0
  0
LINE
  5
2366F
330
2
100
AcDbEntity
  8
0
  6
Continuous
 62
     7
100
AcDbLine
 10
510.9092789684504
 20
76.7584238834731
 30
0.0
 11
444.1807013289522
 21
86.48967415465603
 31
0.0
1001
ACAD
1000
ASC_BOUNDS
1002
{
1070
    19
1002
}
  0
ARC
  5
23670
330
2
100
AcDbEntity
  8
0
  6
Continuous
 62
     7
100
AcDbCircle
 10
444.4372789684507
 20
88.24906379737576
 30
0.0
 40
1.778
100
AcDbArc
 50
180.0
 51
261.7028555636808
1001
ACAD
1000
ASC_BOUNDS
1002
{
1070
    19
1002
}
  0
LINE
  5
23671
330
2
100
AcDbEntity
  8
0
  6
Continuous
100
AcDbLine
 10
442.6592789684504
 20
98.98342388347323
 30
0.0
 11
442.6592789684507
 21
88.24906379737576
 31
0.0
  0
LINE
  5
23672
330
2
100
AcDbEntity
  8
0
  6
Continuous
100
AcDbLine
 10
442.6592789684504
 20
98.98342388347323
 30
0.0
 11
442.6592789684504
 21
109.7177839695707
 31
0.0
  0
POINT
  5
23673
330
2
100
AcDbEntity
  8
DEFPOINTS
  6
ByBlock
 62
     0
100
AcDbPoint
 10
442.6592789684504
 20
98.98342388347323
 30
0.0
  0
LINE
  5
23674
330
2
100
AcDbEntity
  8
0
  6
Continuous
100
AcDbLine
 10
442.6592789684504
 20
108.6334238834731
 30
0.0
 11
442.6592789684504
 21
109.7177839695707
 31
0.0
  0
LINE
  5
23675
330
2
100
AcDbEntity
  8
0
  6
Continuous
100
AcDbLine
 10
518.2704947998072
 20
67.23342388347323
 30
0.0
 11
514.8842789684504
 21
67.23342388347323
 31
0.0
  0
LINE
  5
23676
330
2
100
AcDbEntity
  8
0
  6
Continuous
100
AcDbLine
 10
487.6592789684507
 20
105.9834238834732
 30
0.0
 11
450.7290532974368
 21
105.9834238834732
 31
0.0
  0
LINE
  5
23677
330
2
100
AcDbEntity
  8
0
  6
Continuous
 62
     3
100
AcDbLine
 10
472.6592789684505
 20
106.9834238834732
 30
0.0
 11
450.146640837449
 21
106.983423883473
 31
0.0
  0
LINE
  5
23678
330
2
100
AcDbEntity
  8
0
  6
Continuous
100
AcDbLine
 10
450.0592789684506
 20
107.1334238834735
 30
0.0
 11
450.7290532974368
 21
105.9834238834734
 31
0.0
  0
POINT
  5
23679
330
2
100
AcDbEntity
  8
DEFPOINTS
  6
ByBlock
 62
     0
100
AcDbPoint
 10
449.9092789684507
 20
107.1334238834731
 30
0.0
  0
LINE
  5
2367A
330
2
100
AcDbEntity
  8
0
  6
Continuous
100
AcDbLine
 10
450.0592789684506
 20
98.98342388347323
 30
0.0
 11
450.0592789684506
 21
107.1334238834733
 31
0.0
1001
ACAD
1000
ASC_BOUNDS
1002
{
1070
    19
1005
0
1002
}
  0
LINE
  5
2367B
330
2
100
AcDbEntity
  8
0
  6
Continuous
100
AcDbLine
 10
450.7290532974368
 20
105.9834238834734
 30
0.0
 11
450.7290532974368
 21
98.98342388347346
 31
0.0
  0
LINE
  5
2367C
330
2
100
AcDbEntity
  8
0
  6
Continuous
 62
     3
100
AcDbLine
 10
472.6592789684505
 20
106.9834238834732
 30
0.0
 11
474.4788820296812
 21
105.9834238834732
 31
0.0
  0
LINE
  5
2367D
330
2
100
AcDbEntity
  8
0
  6
Continuous
 62
     2
100
AcDbLine
 10
472.6592789684505
 20
106.9834238834732
 30
0.0
 11
472.6592789684505
 21
98.98342388347323
 31
0.0
  0
LINE
  5
2367E
330
2
100
AcDbEntity
  8
0
  6
Continuous
100
AcDbLine
 10
487.6592789684507
 20
105.9834238834732
 30
0.0
 11
487.6592789684507
 21
98.98342388347323
 31
0.0
  0
LINE
  5
2367F
330
2
100
AcDbEntity
  8
0
  6
Continuous
100
AcDbLine
 10
518.5591699344022
 20
67.32517559300955
 30
0.0
 11
518.559169934402
 21
90.7919238834731
 31
0.0
  0
LINE
  5
23680
330
2
100
AcDbEntity
  8
0
  6
Continuous
100
AcDbLine
 10
520.1675789684505
 20
90.7919238834731
 30
0.0
 11
520.1675789684505
 21
70.01927004979798
 31
0.0
  0
LINE
  5
23681
330
2
100
AcDbEntity
  8
0
  6
Continuous
100
AcDbLine
 10
525.6113880024988
 20
67.32517559300955
 30
0.0
 11
525.611388002499
 21
90.7919238834731
 31
0.0
  0
LINE
  5
23682
330
2
100
AcDbEntity
  8
0
  6
Continuous
100
AcDbLine
 10
524.0029789684506
 20
90.7919238834731
 30
0.0
 11
524.0029789684508
 21
70.01927004979798
 31
0.0
  0
LINE
  5
23683
330
2
100
AcDbEntity
  8
0
  6
Continuous
100
AcDbLine
 10
529.1592789684504
 20
67.23342388347323
 30
0.0
 11
525.900063137094
 21
67.23342388347323
 31
0.0
  0
LINE
  5
23684
330
2
100
AcDbEntity
  8
0
  6
Continuous
100
AcDbLine
 10
520.1852789684507
 20
70.83342388347337
 30
0.0
 11
523.9852789684505
 21
70.83342388347337
 31
0.0
  0
LINE
  5
23685
330
2
100
AcDbEntity
  8
0
  6
Continuous
100
AcDbLine
 10
520.1675789684505
 20
70.01927004979798
 30
0.0
 11
518.7035075016995
 21
67.48342388347324
 31
0.0
  0
ARC
  5
23686
330
2
100
AcDbEntity
  8
0
  6
Continuous
100
AcDbCircle
 10
518.2704947998072
 20
67.73342388347323
 30
0.0
 40
0.5
100
AcDbArc
 50
270.0
 51
330.0000000000111
  0
LINE
  5
23687
330
2
100
AcDbEntity
  8
0
  6
Continuous
100
AcDbLine
 10
524.0029789684508
 20
70.01927004979798
 30
0.0
 11
525.4670504352018
 21
67.48342388347324
 31
0.0
  0
POINT
  5
23688
330
2
100
AcDbEntity
  8
DEFPOINTS
  6
ByBlock
 62
     0
100
AcDbPoint
 10
523.9852789684505
 20
70.83342388347337
 30
0.0
  0
POINT
  5
23689
330
2
100
AcDbEntity
  8
DEFPOINTS
  6
ByBlock
 62
     0
100
AcDbPoint
 10
523.9852789684505
 20
70.04154658697889
 30
0.0
  0
ARC
  5
2368A
330
2
100
AcDbEntity
  8
0
  6
Continuous
100
AcDbCircle
 10
525.900063137094
 20
67.73342388347323
 30
0.0
 40
0.5
100
AcDbArc
 50
209.9999999999889
 51
270.0
  0
LINE
  5
2368B
330
2
100
AcDbEntity
  8
0
  6
Continuous
100
AcDbLine
 10
518.2704947998072
 20
130.7334238834732
 30
0.0
 11
514.8842789684504
 21
130.7334238834732
 31
0.0
  0
LINE
  5
2368C
330
2
100
AcDbEntity
  8
0
  6
Continuous
100
AcDbLine
 10
520.1852789684507
 20
127.1334238834731
 30
0.0
 11
523.9852789684505
 21
127.1334238834731
 31
0.0
  0
ARC
  5
2368D
330
2
100
AcDbEntity
  8
0
  6
Continuous
100
AcDbCircle
 10
518.2704947998072
 20
130.2334238834732
 30
0.0
 40
0.5
100
AcDbArc
 50
29.99999999998891
 51
90.0
  0
LINE
  5
2368E
330
2
100
AcDbEntity
  8
0
  6
Continuous
100
AcDbLine
 10
520.1675789684505
 20
127.1334238834731
 30
0.0
 11
520.1675789684506
 21
127.9475777171482
 31
0.0
  0
POINT
  5
2368F
330
2
100
AcDbEntity
  8
DEFPOINTS
  6
ByBlock
 62
     0
100
AcDbPoint
 10
520.1852789684507
 20
127.9253011799678
 30
0.0
  0
LINE
  5
23690
330
2
100
AcDbEntity
  8
0
  6
Continuous
100
AcDbLine
 10
520.1675789684505
 20
127.9475777171485
 30
0.0
 11
518.7035075016995
 21
130.4834238834732
 31
0.0
  0
LINE
  5
23691
330
2
100
AcDbEntity
  8
0
  6
Continuous
100
AcDbLine
 10
524.0029789684506
 20
127.1334238834731
 30
0.0
 11
524.0029789684504
 21
127.9475777171482
 31
0.0
  0
POINT
  5
23692
330
2
100
AcDbEntity
  8
DEFPOINTS
  6
ByBlock
 62
     0
100
AcDbPoint
 10
523.9852789684505
 20
127.1334238834731
 30
0.0
  0
LINE
  5
23693
330
2
100
AcDbEntity
  8
0
  6
Continuous
100
AcDbLine
 10
524.0029789684506
 20
127.9475777171485
 30
0.0
 11
525.4670504352018
 21
130.4834238834732
 31
0.0
  0
ARC
  5
23694
330
2
100
AcDbEntity
  8
0
  6
Continuous
100
AcDbCircle
 10
525.900063137094
 20
130.2334238834732
 30
0.0
 40
0.5
100
AcDbArc
 50
90.0
 51
150.0000000000111
  0
LINE
  5
23695
330
2
100
AcDbEntity
  8
0
  6
Continuous
100
AcDbLine
 10
529.1592789684504
 20
130.7334238834732
 30
0.0
 11
525.900063137094
 21
130.7334238834732
 31
0.0
  0
LINE
  5
23696
330
2
100
AcDbEntity
  8
0
  6
ByBlock
 62
     0
100
AcDbLine
 10
487.6592789684507
 20
105.7334238834732
 30
0.0
 11
512.6592789684504
 21
105.7334238834732
 31
0.0
  0
LINE
  5
23697
330
2
100
AcDbEntity
  8
0
  6
Continuous
100
AcDbLine
 10
442.6592789684504
 20
108.1334238834731
 30
0.0
 11
444.3913297760196
 21
107.1334238834731
 31
0.0
  0
LINE
  5
23698
330
2
100
AcDbEntity
  8
0
  6
Continuous
100
AcDbLine
 10
444.3913297760196
 20
107.1334238834731
 30
0.0
 11
444.3913297760196
 21
98.98342388347323
 31
0.0
  0
LINE
  5
23699
330
2
100
AcDbEntity
  8
0
  6
Continuous
100
AcDbLine
 10
529.9592789684506
 20
68.03342388347319
 30
0.0
 11
529.9592789684506
 21
98.98342388347323
 31
0.0
  0
ARC
  5
2369A
330
2
100
AcDbEntity
  8
0
  6
Continuous
100
AcDbCircle
 10
529.1592789684504
 20
68.03342388347319
 30
0.0
 40
0.8
100
AcDbArc
 50
270.0
 51
0.0
  0
LINE
  5
2369B
330
2
100
AcDbEntity
  8
0
  6
Continuous
100
AcDbLine
 10
514.0842789684507
 20
90.7919238834731
 30
0.0
 11
529.9592789684506
 21
90.7919238834731
 31
0.0
  0
LINE
  5
2369C
330
2
100
AcDbEntity
  8
0
  6
Continuous
100
AcDbLine
 10
529.9592789684506
 20
129.9334238834732
 30
0.0
 11
529.9592789684506
 21
126.3834238834731
 31
0.0
  0
ARC
  5
2369D
330
2
100
AcDbEntity
  8
0
  6
Continuous
100
AcDbCircle
 10
529.1592789684504
 20
129.9334238834732
 30
0.0
 40
0.8
100
AcDbArc
 50
0.0
 51
90.0
  0
ARC
  5
2369E
330
2
100
AcDbEntity
  8
0
  6
Continuous
100
AcDbCircle
 10
522.0852789684504
 20
98.98342388347323
 30
0.0
 40
4.7625
100
AcDbArc
 50
180.0
 51
0.0
  0
ARC
  5
2369F
330
2
100
AcDbEntity
  8
0
  6
Continuous
100
AcDbCircle
 10
514.8842789684504
 20
68.03342388347319
 30
0.0
 40
0.8
100
AcDbArc
 50
180.0
 51
270.0
  0
ARC
  5
236A0
330
2
100
AcDbEntity
  8
0
  6
Continuous
100
AcDbCircle
 10
514.8842789684504
 20
129.9334238834732
 30
0.0
 40
0.8
100
AcDbArc
 50
90.0
 51
180.0
  0
LINE
  5
236A1
330
2
100
AcDbEntity
  8
0
  6
Continuous
100
AcDbLine
 10
510.9092789684504
 20
76.7584238834731
 30
0.0
 11
510.9092789684504
 21
98.98342388347323
 31
0.0
  0
LINE
  5
236A2
330
2
100
AcDbEntity
  8
0
  6
Continuous
100
AcDbLine
 10
514.0842789684507
 20
120.7841516431094
 30
0.0
 11
514.0842789684507
 21
129.9334238834732
 31
0.0
  0
LINE
  5
236A3
330
2
100
AcDbEntity
  8
0
  6
Continuous
100
AcDbLine
 10
514.0842789684507
 20
98.98342388347323
 30
0.0
 11
514.0842789684507
 21
68.03342388347319
 31
0.0
  0
ARC
  5
236A4
330
2
100
AcDbEntity
  8
0
  6
Continuous
100
AcDbCircle
 10
513.5842789684507
 20
76.68269612383683
 30
0.0
 40
0.5
100
AcDbArc
 50
0.0
 51
90.0
  0
LINE
  5
236A5
330
2
100
AcDbEntity
  8
0
  6
Continuous
100
AcDbLine
 10
510.9092789684504
 20
76.7584238834731
 30
0.0
 11
512.4926845257291
 21
77.18269612383706
 31
0.0
  0
LINE
  5
236A6
330
2
100
AcDbEntity
  8
0
  6
Continuous
100
AcDbLine
 10
512.4926845257291
 20
77.18269612383706
 30
0.0
 11
513.5842789684507
 21
77.18269612383683
 31
0.0
  0
LINE
  5
236A7
330
2
100
AcDbEntity
  8
0
  6
Continuous
100
AcDbLine
 10
512.4926845257291
 20
120.7841516431094
 30
0.0
 11
514.184278968451
 21
120.7841516431094
 31
0.0
  0
LINE
  5
236A8
330
2
100
AcDbEntity
  8
0
  6
Continuous
100
AcDbLine
 10
510.9092789684504
 20
121.2084238834731
 30
0.0
 11
512.4926845257291
 21
120.7841516431094
 31
0.0
  0
LINE
  5
236A9
330
2
100
AcDbEntity
  8
0
  6
Continuous
 62
     0
100
AcDbLine
 10
512.4926845257291
 20
77.18269612383706
 30
0.0
 11
512.4926845257291
 21
98.98342388347323
 31
0.0
  0
ARC
  5
236AA
330
2
100
AcDbEntity
  8
0
  6
Continuous
100
AcDbCircle
 10
514.184278968451
 20
121.0841516431089
 30
0.0
 40
0.3
100
AcDbArc
 50
270.0
 51
0.0
1001
ACAD
1000
ASC_BOUNDS
1002
{
1070
    19
1002
}
  0
LINE
  5
236AB
330
2
100
AcDbEntity
  8
0
  6
Continuous
100
AcDbLine
 10
514.4842789684503
 20
121.0841516431089
 30
0.0
 11
514.4842789684503
 21
121.9913313200838
 31
0.0
  0
LINE
  5
236AC
330
2
100
AcDbEntity
  8
0
  6
Continuous
100
AcDbLine
 10
514.0842789684507
 20
122.6841516431074
 30
0.0
 11
514.4842789684503
 21
121.991331320082
 31
0.0
  0
ARC
  5
236AD
330
2
100
AcDbEntity
  8
0
  6
Continuous
 62
     7
100
AcDbCircle
 10
530.3592789684505
 20
126.3834238834731
 30
0.0
 40
0.4
100
AcDbArc
 50
180.0
 51
270.0
  0
ARC
  5
236AE
330
2
100
AcDbEntity
  8
0
  6
Continuous
 62
     7
100
AcDbCircle
 10
530.3592789684508
 20
71.58342388347337
 30
0.0
 40
0.4
100
AcDbArc
 50
90.0
 51
180.0
  0
LINE
  5
236AF
330
2
100
AcDbEntity
  8
0
  6
Continuous
 62
     7
100
AcDbLine
 10
512.6592789684504
 20
105.7334238834733
 30
0.0
 11
512.6592789684504
 21
98.9834238834733
 31
0.0
  0
LINE
  5
236B0
330
2
100
AcDbEntity
  8
0
100
AcDbLine
 10
514.6800049106111
 20
102.2334238834787
 30
0.0
 11
527.9092789684523
 21
102.2334238834731
 31
0.0
  0
LINE
  5
236B1
330
2
100
AcDbEntity
  8
0
  6
Continuous
 62
     7
100
AcDbLine
 10
512.6592789684504
 20
105.7334238834733
 30
0.0
 11
514.6800049106109
 21
102.233423883479
 31
0.0
  0
LINE
  5
236B2
330
2
100
AcDbEntity
  8
0
  6
Continuous
 62
     7
100
AcDbLine
 10
514.6800049106109
 20
102.233423883479
 30
0.0
 11
514.6800049106109
 21
98.9834238834733
 31
0.0
  0
ARC
  5
236B3
330
2
100
AcDbEntity
  8
0
  6
HIDDEN
 62
     2
100
AcDbCircle
 10
530.8927789684503
 20
98.98342388347323
 30
0.0
 40
8.191500000000132
100
AcDbArc
 50
270.0
 51
0.0
  0
LINE
  5
236B4
330
2
100
AcDbEntity
  8
0
  6
HIDDEN
 62
     2
100
AcDbLine
 10
529.9592789684506
 20
90.7919238834731
 30
0.0
 11
530.8927789684503
 21
90.7919238834731
 31
0.0
  0
LINE
  5
236B5
330
2
100
AcDbEntity
  8
0
  6
ByBlock
 62
     0
100
AcDbLine
 10
604.0592789684522
 20
107.3834238834729
 30
0.0
 11
632.009278968452
 21
107.3834238834729
 31
0.0
  0
LINE
  5
236B6
330
2
100
AcDbEntity
  8
0
  6
Continuous
 62
     7
100
AcDbLine
 10
637.9092789684595
 20
98.98342388347266
 30
0.0
 11
637.9092789684598
 21
89.2079061668309
 31
0.0
  0
ARC
  5
236B7
330
2
100
AcDbEntity
  8
0
  6
Continuous
 62
     7
100
AcDbCircle
 10
637.40927896846
 20
89.20790616683088
 30
0.0
 40
0.5
100
AcDbArc
 50
272.9999999999991
 51
0.0000000000032569
  0
LINE
  5
236C5
330
2
100
AcDbEntity
  8
0
  6
Continuous
 62
     7
100
AcDbLine
 10
637.4354469465734
 20
109.2582563674927
 30
0.0
 11
566.2141713186468
 21
112.9908052608579
 31
0.0
  0
ARC
  5
236C6
330
2
100
AcDbEntity
  8
0
  6
Continuous
 62
     7
100
AcDbCircle
 10
566.4758510998615
 20
117.9839529346306
 30
0.0
 40
5.0
100
AcDbArc
 50
200.0000000000036
 51
267.0000000000009
  0
LINE
  5
236C7
330
2
100
AcDbEntity
  8
0
  6
Continuous
 62
     7
100
AcDbLine
 10
637.4354469465815
 20
88.70859139945363
 30
0.0
 11
566.2141713186469
 21
84.97604250608818
 31
0.0
  0
ARC
  5
236C8
330
2
100
AcDbEntity
  8
0
  6
Continuous
 62
     7
100
AcDbCircle
 10
566.4758510998617
 20
79.98289483231538
 30
0.0
 40
5.0
100
AcDbArc
 50
92.99999999999908
 51
159.9999999999964
  0
LINE
  5
236C9
330
2
100
AcDbEntity
  8
0
  6
Continuous
 62
     7
100
AcDbLine
 10
561.777387995932
 20
116.2738522180019
 30
0.0
 11
558.7223630873775
 21
124.6674641701253
 31
0.0
  0
ARC
  5
236CA
330
2
100
AcDbEntity
  8
0
  6
Continuous
 62
     7
100
AcDbCircle
 10
556.8429778458055
 20
123.9834238834739
 30
0.0
 40
2.0
100
AcDbArc
 50
20.00000000000361
 51
90.0
  0
LINE
  5
236CB
330
2
100
AcDbEntity
  8
0
  6
Continuous
 62
     7
100
AcDbLine
 10
530.3592789684505
 20
125.9834238834739
 30
0.0
 11
556.8429778458055
 21
125.9834238834739
 31
0.0
  0
LINE
  5
236CC
330
2
100
AcDbEntity
  8
0
  6
Continuous
 62
     7
100
AcDbLine
 10
530.3592789684508
 20
71.98342388347267
 30
0.0
 11
556.8429778458055
 21
71.98342388347244
 31
0.0
  0
LINE
  5
236CD
330
2
100
AcDbEntity
  8
0
  6
Continuous
 62
     7
100
AcDbLine
 10
561.7773879959324
 20
81.69299554894399
 30
0.0
 11
558.7223630873775
 21
73.29938359681974
 31
0.0
  0
ARC
  5
236CE
330
2
100
AcDbEntity
  8
0
  6
Continuous
 62
     7
100
AcDbCircle
 10
556.8429778458055
 20
73.98342388347119
 30
0.0
 40
2.0
100
AcDbArc
 50
270.0
 51
339.9999999999963
  0
LINE
  5
236CF
330
2
100
AcDbEntity
  8
0
  6
Continuous
 62
     7
100
AcDbLine
 10
562.9092789684603
 20
83.48711560611226
 30
0.0
 11
562.9092789684603
 21
98.98342388347256
 31
0.0
  0
LINE
  5
236D0
330
2
100
AcDbEntity
  8
0
  6
Continuous
 62
     7
100
AcDbLine
 10
558.2433929222254
 20
72.55554517232794
 30
0.0
 11
558.2433929222254
 21
98.98342388347256
 31
0.0
  0
LINE
  5
236D1
330
2
100
AcDbEntity
  8
0
  6
Continuous
 62
     7
100
AcDbLine
 10
592.3092789684383
 20
105.5334238834727
 30
0.0
 11
599.1628688069436
 21
105.5334238834727
 31
0.0
1001
ACAD
1000
ASC_BOUNDS
1002
{
1070
    19
1005
0
1002
}
  0
LINE
  5
236D2
330
2
100
AcDbEntity
  8
0
  6
Continuous
 62
     0
100
AcDbLine
 10
637.9092789684518
 20
108.7589416001154
 30
0.0
 11
637.9092789684518
 21
98.98342388347387
 31
0.0
1001
ACAD
1000
ASC_BOUNDS
1002
{
1070
    19
1005
0
1002
}
  0
ARC
  5
236D3
330
2
100
AcDbEntity
  8
0
  6
Continuous
 62
     0
100
AcDbCircle
 10
637.4092789684518
 20
108.7589416001154
 30
0.0
 40
0.5
100
AcDbArc
 50
0.0
 51
87.00000000000093
1001
ACAD
1000
ASC_BOUNDS
1002
{
1070
    19
1005
0
1002
}
  0
LINE
  5
236D4
330
2
100
AcDbEntity
  8
0
  6
Continuous
 62
     0
100
AcDbLine
 10
637.9092789684509
 20
105.583423883474
 30
0.0
 11
637.4762662665598
 21
105.3334238834737
 31
0.0
  0
LINE
  5
236D5
330
2
100
AcDbEntity
  8
0
  6
Continuous
 62
     0
100
AcDbLine
 10
637.4762662665598
 20
105.3334238834737
 30
0.0
 11
637.4762662665598
 21
98.98342388347375
 31
0.0
  0
LINE
  5
236D6
330
2
100
AcDbEntity
  8
0
  6
Continuous
 62
     0
100
AcDbLine
 10
637.4762662665598
 20
105.3334238834737
 30
0.0
 11
599.9092789684527
 21
105.3334238834737
 31
0.0
  0
LINE
  5
236D7
330
2
100
AcDbEntity
  8
0
  6
Continuous
 62
     7
100
AcDbLine
 10
591.9092789684377
 20
105.1334238834752
 30
0.0
 11
591.9092789684423
 21
98.98342388347478
 31
0.0
  0
ARC
  5
236D8
330
2
100
AcDbEntity
  8
0
  6
Continuous
 62
     7
100
AcDbCircle
 10
592.3092789684383
 20
105.1334238834755
 30
0.0
 40
0.4
100
AcDbArc
 50
90.0
 51
180.0000000000391
  0
LINE
  5
236D9
330
2
100
AcDbEntity
  8
0
100
AcDbLine
 10
581.4577617241771
 20
102.5334238834749
 30
0.0
 11
591.5340012934485
 21
102.5334238834747
 31
0.0
  0
LINE
  5
236DA
330
2
100
AcDbEntity
  8
0
 62
     3
100
AcDbLine
 10
581.1979541030441
 20
102.983423883475
 30
0.0
 11
591.7938089145841
 21
102.9834238834747
 31
0.0
  0
LINE
  5
236DB
330
2
100
AcDbEntity
  8
0
  6
Continuous
 62
     7
100
AcDbLine
 10
581.4577617241771
 20
102.5334238834749
 30
0.0
 11
580.9092789684519
 21
103.4834238834738
 31
0.0
  0
LINE
  5
236DC
330
2
100
AcDbEntity
  8
0
  6
Continuous
 62
     7
100
AcDbLine
 10
581.4577617241771
 20
102.5334238834749
 30
0.0
 11
581.4577617241771
 21
98.98342388347749
 31
0.0
  0
LINE
  5
236DD
330
2
100
AcDbEntity
  8
0
  6
Continuous
 62
     7
100
AcDbLine
 10
580.9092789684519
 20
103.4834238834738
 30
0.0
 11
580.9092789684519
 21
98.98342388347568
 31
0.0
  0
LINE
  5
236DE
330
2
100
AcDbEntity
  8
0
  6
Continuous
 62
     7
100
AcDbLine
 10
591.5340012934485
 20
102.5334238834747
 30
0.0
 11
591.5340012934485
 21
98.98342388347478
 31
0.0
  0
LINE
  5
236DF
330
2
100
AcDbEntity
  8
0
  6
Continuous
 62
     7
100
AcDbLine
 10
591.9092789684222
 20
103.1834238834748
 30
0.0
 11
591.5340012934485
 21
102.5334238834747
 31
0.0
  0
LINE
  5
236E0
330
2
100
AcDbEntity
  8
0
  6
Continuous
 62
     7
100
AcDbLine
 10
580.9092789684519
 20
103.4834238834738
 30
0.0
 11
527.9092789684523
 21
103.4834238834738
 31
0.0
  0
LINE
  5
236E1
330
2
100
AcDbEntity
  8
0
  6
Continuous
 62
     7
100
AcDbLine
 10
599.9092789684525
 20
105.3334238834737
 30
0.0
 11
599.1628688069436
 21
105.5334238834727
 31
0.0
  0
LINE
  5
236E2
330
2
100
AcDbEntity
  8
0
  6
Continuous
 62
     7
100
AcDbLine
 10
599.1628688069436
 20
105.5334238834728
 30
0.0
 11
599.1628688069436
 21
98.98342388347431
 31
0.0
  0
LINE
  5
236E3
330
2
100
AcDbEntity
  8
0
  6
Continuous
 62
     7
100
AcDbLine
 10
624.0592789684519
 20
106.0334238834738
 30
0.0
 11
630.6592789684527
 21
106.0334238834738
 31
0.0
1001
ACAD
1000
ASC_BOUNDS
1002
{
1070
    19
1005
0
1002
}
  0
LINE
  5
236E4
330
2
100
AcDbEntity
  8
0
  6
Continuous
 62
     7
100
AcDbLine
 10
605.4092789684532
 20
106.0334238834733
 30
0.0
 11
612.0092789684522
 21
106.0334238834738
 31
0.0
1001
ACAD
1000
ASC_BOUNDS
1002
{
1070
    19
1005
0
1002
}
  0
LINE
  5
236E5
330
2
100
AcDbEntity
  8
0
  6
Continuous
 62
     7
100
AcDbLine
 10
604.0592789684522
 20
107.3834238834729
 30
0.0
 11
605.4092789684532
 21
106.0334238834733
 31
0.0
1001
ACAD
1000
ASC_BOUNDS
1002
{
1070
    19
1005
0
1002
}
  0
LINE
  5
236E6
330
2
100
AcDbEntity
  8
0
  6
Continuous
 62
     7
100
AcDbLine
 10
623.0092789684554
 20
107.0834238834742
 30
0.0
 11
624.0592789684519
 21
106.0334238834738
 31
0.0
1001
ACAD
1000
ASC_BOUNDS
1002
{
1070
    19
1005
0
1002
}
  0
LINE
  5
236E7
330
2
100
AcDbEntity
  8
0
  6
Continuous
 62
     7
100
AcDbLine
 10
613.0592789684528
 20
107.0834238834743
 30
0.0
 11
612.0092789684522
 21
106.0334238834738
 31
0.0
1001
ACAD
1000
ASC_BOUNDS
1002
{
1070
    19
1005
0
1002
}
  0
LINE
  5
236E8
330
2
100
AcDbEntity
  8
0
  6
Continuous
 62
     7
100
AcDbLine
 10
613.0592789684528
 20
107.0834238834744
 30
0.0
 11
623.0092789684554
 21
107.0834238834744
 31
0.0
  0
LINE
  5
236E9
330
2
100
AcDbEntity
  8
0
  6
Continuous
 62
     7
100
AcDbLine
 10
632.0092789684527
 20
107.3834238834737
 30
0.0
 11
630.6592789684527
 21
106.0334238834738
 31
0.0
1001
ACAD
1000
ASC_BOUNDS
1002
{
1070
    19
1005
0
1002
}
  0
LINE
  5
236EA
330
2
100
AcDbEntity
  8
0
  6
Continuous
 62
     7
100
AcDbLine
 10
599.9092789684527
 20
105.3334238834737
 30
0.0
 11
599.9092789684527
 21
98.98342388347415
 31
0.0
  0
LINE
  5
236EB
330
2
100
AcDbEntity
  8
0
  6
Continuous
 62
     7
100
AcDbLine
 10
527.9092789684523
 20
103.4834238834738
 30
0.0
 11
527.9092789684523
 21
98.9834238834733
 31
0.0
  0
DIMENSION
  5
23822
330
2
100
AcDbEntity
  8
0
  6
Continuous
 62
     7
100
AcDbDimension
280
     0
  2
*D18
 10
661.5730383695168
 20
109.2334238834729
 30
0.0
 11
659.4480383695167
 21
98.98342388347328
 31
0.0
 70
    32
  1
%%C0.81
 71
     5
 42
20.49999999999943
 73
     0
 74
     0
 75
     0
  3
Standard$0
100
AcDbAlignedDimension
 13
637.90927896846
 23
88.73342388347346
 33
0.0
 14
637.9092789684518
 24
109.2334238834729
 34
0.0
 50
90.0
100
AcDbRotatedDimension
1001
ACAD
1000
DSTYLE
1002
{
1070
    42
1040
0.625
1070
    43
1040
3.75
1070
    44
1040
1.25
1070
    48
1040
0.000000001
1070
    74
1070
     0
1070
    77
1070
     1
1070
    90
1070
     1
1070
   140
1040
3.0
1070
   141
1040
-0.5
1070
   143
1040
0.03937007874016
1070
   146
1040
0.7
1070
   147
1040
0.625
1070
   171
1070
     3
1070
   172
1070
     1
1070
   175
1070
     0
1070
   179
1070
     0
1070
   274
1070
     3
1070
   283
1070
     0
1070
   284
1070
     8
1070
   340
1005
25
1070
   371
1070
    -1
1070
   372
1070
    -1
1002
}
  0
DIMENSION
  5
23823
330
2
100
AcDbEntity
  8
0
  6
Continuous
 62
     7
100
AcDbDimension
280
     0
  2
*D19
 10
653.5730383695168
 20
105.3334238834737
 30
0.0
 11
653.5730383695168
 21
98.98342388347282
 31
0.0
 70
   160
  1
%%C0.500
 71
     5
 42
11.11249999998023
 73
     0
 74
     0
 75
     0
  3
Standard$0
100
AcDbAlignedDimension
 13
637.4762662665475
 23
94.22092388349353
 33
0.0
 14
637.4762662665598
 24
105.3334238834737
 34
0.0
 50
90.0
100
AcDbRotatedDimension
1001
ACAD
1000
DSTYLE
1002
{
1070
    42
1040
0.625
1070
    43
1040
3.75
1070
    44
1040
1.25
1070
    48
1040
0.000000001
1070
    74
1070
     0
1070
    75
1070
     1
1070
    77
1070
     1
1070
    90
1070
     1
1070
   140
1040
3.0
1070
   141
1040
-0.5
1070
   143
1040
0.03937007874016
1070
   146
1040
0.7
1070
   147
1040
0.625
1070
   171
1070
     3
1070
   172
1070
     1
1070
   175
1070
     0
1070
   179
1070
     0
1070
   274
1070
     3
1070
   281
1070
     1
1070
   283
1070
     0
1070
   284
1070
     8
1070
   340
1005
25
1070
   371
1070
    -1
1070
   372
1070
    -1
1002
}
  0
DIMENSION
  5
23824
330
2
100
AcDbEntity
  8
0
  6
Continuous
 62
     7
100
AcDbDimension
280
     0
  2
*D20
 10
637.9092789684518
 20
128.7656315527289
 30
0.0
 11
614.9092789684448
 21
130.8906315527289
 31
0.0
 70
    32
  1
1.81
 71
     5
 42
46.0000000000141
 73
     0
 74
     0
 75
     0
  3
Standard$0
100
AcDbAlignedDimension
 13
591.9092789684377
 23
105.1334238834752
 33
0.0
 14
637.9092789684518
 24
108.7589416001154
 34
0.0
100
AcDbRotatedDimension
1001
ACAD
1000
DSTYLE
1002
{
1070
    42
1040
0.625
1070
    43
1040
3.75
1070
    44
1040
1.25
1070
    48
1040
0.000000001
1070
    74
1070
     0
1070
    77
1070
     1
1070
    90
1070
     1
1070
   140
1040
3.0
1070
   141
1040
-0.5
1070
   143
1040
0.03937007874016
1070
   146
1040
0.7
1070
   147
1040
0.625
1070
   171
1070
     3
1070
   172
1070
     1
1070
   175
1070
     0
1070
   179
1070
     0
1070
   274
1070
     3
1070
   283
1070
     0
1070
   284
1070
     8
1070
   340
1005
25
1070
   371
1070
    -1
1070
   372
1070
    -1
1002
}
  0
DIMENSION
  5
23825
330
2
100
AcDbEntity
  8
0
  6
Continuous
 62
     7
100
AcDbDimension
280
     0
  2
*D21
 10
669.5730383695168
 20
113.1640073297007
 30
0.0
 11
669.5730383695168
 21
98.98342388346129
 31
0.0
 70
   160
  1
%%C1.12
 71
     5
 42
28.36116689245545
 73
     0
 74
     0
 75
     0
  3
Standard$0
100
AcDbAlignedDimension
 13
562.9092789684592
 23
84.80284043724532
 33
0.0
 14
562.9092789684587
 24
113.1640073297007
 34
0.0
 50
90.0
100
AcDbRotatedDimension
1001
ACAD
1000
DSTYLE
1002
{
1070
    42
1040
0.625
1070
    43
1040
3.75
1070
    44
1040
1.25
1070
    48
1040
0.000000001
1070
    74
1070
     0
1070
    77
1070
     1
1070
    90
1070
     1
1070
   140
1040
3.0
1070
   141
1040
-0.5
1070
   143
1040
0.03937007874016
1070
   146
1040
0.7
1070
   147
1040
0.625
1070
   171
1070
     3
1070
   172
1070
     1
1070
   175
1070
     0
1070
   179
1070
     0
1070
   274
1070
     3
1070
   283
1070
     0
1070
   284
1070
     8
1070
   340
1005
25
1070
   371
1070
    -1
1070
   372
1070
    -1
1002
}
  0
LINE
  5
23826
330
2
100
AcDbEntity
  8
0
  6
Continuous
 62
     3
100
AcDbLine
 10
510.9092789684504
 20
76.60163448553074
 30
0.0
 11
510.9092789684504
 21
49.68967010983859
 31
0.0
  0
MTEXT
  5
23827
330
2
100
AcDbEntity
  8
0
  6
Continuous
 62
     2
100
AcDbMText
 10
510.9098131375981
 20
47.24085500604253
 30
0.0
 40
3.0
 41
0.0
 46
0.0
 71
     5
 72
     1
  1
0.00
 73
     1
 44
1.0
  0
LINE
  5
23828
330
2
100
AcDbEntity
  8
0
  6
Continuous
 62
     3
100
AcDbLine
 10
529.9592789684506
 20
67.38295633627292
 30
0.0
 11
529.9592789684506
 21
49.25421812836528
 31
0.0
  0
MTEXT
  5
23829
330
2
100
AcDbEntity
  8
0
  6
Continuous
 62
     2
100
AcDbMText
 10
529.6654650353032
 20
46.77264440398478
 30
0.0
 40
3.0
 41
0.0
 46
0.0
 71
     5
 72
     1
  1
0.75
 73
     1
 44
1.0
  0
DIMENSION
  5
2382A
330
2
100
AcDbEntity
  8
0
  6
Continuous
 62
     7
100
AcDbDimension
280
     0
  2
*D22
 10
498.1334761960654
 20
121.208423883473
 30
0.0
 11
498.1334761960654
 21
139.6637270265669
 31
0.0
 70
   160
  1
%%C1.7500
 71
     5
 42
44.44999999999993
 73
     0
 74
     0
 75
     0
  3
Standard$0
100
AcDbAlignedDimension
 13
510.9092789684504
 23
76.7584238834731
 33
0.0
 14
510.9092789684504
 24
121.208423883473
 34
0.0
 50
90.0
100
AcDbRotatedDimension
1001
ACAD
1000
DSTYLE
1002
{
1070
    42
1040
0.625
1070
    43
1040
3.75
1070
    44
1040
1.25
1070
    48
1040
0.000000001
1070
    74
1070
     0
1070
    77
1070
     1
1070
    90
1070
     1
1070
   140
1040
3.0
1070
   141
1040
-0.5
1070
   143
1040
0.03937007874016
1070
   146
1040
0.7
1070
   147
1040
0.625
1070
   171
1070
     3
1070
   172
1070
     1
1070
   175
1070
     0
1070
   179
1070
     0
1070
   274
1070
     3
1070
   283
1070
     0
1070
   284
1070
     8
1070
   340
1005
25
1070
   371
1070
    -1
1070
   372
1070
    -1
1002
}
  0
DIMENSION
  5
2382B
330
2
100
AcDbEntity
  8
0
  6
Continuous
 62
     7
100
AcDbDimension
280
     0
  2
*D23
 10
490.1334761960653
 20
130.733423883473
 30
0.0
 11
490.1334761960652
 21
139.4096049858355
 31
0.0
 70
   160
  1
%%C2.500
 71
     5
 42
63.49999999999993
 73
     0
 74
     0
 75
     0
  3
Standard$0
100
AcDbAlignedDimension
 13
514.5842789684504
 23
67.23342388347312
 33
0.0
 14
514.5842789684504
 24
130.733423883473
 34
0.0
 50
90.0
100
AcDbRotatedDimension
1001
ACAD
1000
DSTYLE
1002
{
1070
    42
1040
0.625
1070
    43
1040
3.75
1070
    44
1040
1.25
1070
    48
1040
0.000000001
1070
    74
1070
     0
1070
    77
1070
     1
1070
    90
1070
     1
1070
   140
1040
3.0
1070
   141
1040
-0.5
1070
   143
1040
0.03937007874016
1070
   146
1040
0.7
1070
   147
1040
0.625
1070
   171
1070
     3
1070
   172
1070
     1
1070
   175
1070
     0
1070
   179
1070
     0
1070
   274
1070
     3
1070
   283
1070
     0
1070
   284
1070
     8
1070
   340
1005
25
1070
   371
1070
    -1
1070
   372
1070
    -1
1002
}
  0
DIMENSION
  5
2382C
330
2
100
AcDbEntity
  8
0
  6
Continuous
 62
     7
100
AcDbDimension
280
     0
  2
*D24
 10
582.7477717186236
 20
102.9834238834937
 30
0.0
 11
582.7477717186236
 21
139.6637270265669
 31
0.0
 70
   160
  1
M<>*1.0
 71
     5
 42
8.000000000051102
 73
     0
 74
     0
 75
     0
  3
Standard$0
100
AcDbAlignedDimension
 13
587.5235744910087
 23
94.9834238834426
 33
0.0
 14
586.5223805612968
 24
102.9834238834937
 34
0.0
 50
90.0
100
AcDbRotatedDimension
1001
ACAD
1000
DSTYLE
1002
{
1070
    42
1040
0.625
1070
    43
1040
3.75
1070
    44
1040
1.25
1070
    48
1040
0.000000001
1070
    74
1070
     0
1070
    75
1070
     1
1070
    77
1070
     1
1070
    90
1070
     1
1070
   140
1040
3.0
1070
   141
1040
-0.5
1070
   143
1040
0.03937007874016
1070
   146
1040
0.7
1070
   147
1040
0.625
1070
   171
1070
     3
1070
   172
1070
     1
1070
   175
1070
     0
1070
   179
1070
     0
1070
   274
1070
     3
1070
   281
1070
     1
1070
   283
1070
     0
1070
   284
1070
     8
1070
   340
1005
25
1070
   371
1070
    -1
1070
   372
1070
    -1
1002
}
  0
MULTILEADER
  5
2382D
330
2
100
AcDbEntity
  8
0
  6
Continuous
 62
     7
160
               736
310
E0020000190000000C00000016000000020000C30C00000033000000000000000C00000013000000993A00000C00000016000000020000C3E0000000260000009B840BB3C6FB7B40BE8B65F212416040000000000000000000000000000000000000000000000000000000000000F03F000000000000F03F00000000000000
310
00000000000000000055004E00430035002F0038002D0031003100000009000000010000000000000000000840000000000000F03F0000000000000000000000000000F03F00000000000000000000000000000000000000000000000000000000010000000000000000000000690073006F00630070002E00730068007800
310
00007700680067007400780074002E00730068007800000000000C00000033000000000000000C00000010000000000000000C00000016000000030000C30C00000012000000000000000C00000013000000010000000C00000014000000010000005400000007000000030000006C60AB1BD8197D40BD6ED5A4DBB45B4000
310
00000000000000481598701B057D40D567BA6AF0BE5A4000000000000000002693D8ACC8047D40699F629477C25B4000000000000000000C00000013000000891300003C0000000600000002000000C9F94164500F7D4013079C9CA9BB5B4000000000000000002C4701DC223F7D408A5832BFDF2D60400000000000000000
310
0C00000013000000112700003C00000006000000020000002C4701DC223F7D408A5832BFDF2D60400000000000000000361EA54C60397D408A5832BFDF2D604000000000000000000C00000016000000030000C30C00000012000000000000000C00000017000000000000000C000000130000009A3A00003C000000060000
310
0002000000D0B73EE6F9027C408A5832BFDF2D60400000000000000000361EA54C60397D408A5832BFDF2D604000000000000000000C00000016000000070000C30C00000012000000000000000C00000017000000FFFFFFFF0C0000003300000000000000
100
AcDbMLeader
270
     2
300
CONTEXT_DATA{
 40
1.0
 10
446.1860105943606
 20
131.5335628493611
 30
0.0
 41
3.0
140
4.0
145
2.0
174
     1
175
     6
176
     2
177
     0
290
     1
304
UNC5/8-11
 11
0.0
 21
0.0
 31
1.0
340
25
 12
465.5860105943604
 22
133.0335628493612
 32
0.0
 13
1.0
 23
0.0
 33
0.0
 42
0.0
 43
0.0
 44
0.0
 45
1.0
170
     1
 90
-1023410174
171
     3
172
     5
 91
-1073741824
141
0.0
 92
        0
291
     0
292
     0
173
     0
293
     0
142
0.0
143
0.0
294
     0
295
     0
296
     0
110
464.3191991749525
120
91.68414741950922
130
0.0
111
1.0
121
0.0
131
0.0
112
0.0
122
1.0
132
0.0
297
     0
302
LEADER{
290
     1
291
     1
 10
467.9460105943605
 20
129.4335628493612
 30
0.0
 11
-1.0
 21
0.0
 31
0.0
 90
        0
 40
0.36
304
LEADER_LINE{
 10
464.3191991749522
 20
106.9834238834731
 30
0.0
 91
        0
305
}
271
     0
303
}
272
     9
273
     9
301
}
340
BD9
 90
   279552
170
     1
 91
-1023410173
341
28
171
    -2
290
     1
291
     1
 41
0.36
 42
4.0
172
     2
343
25
173
     1
 95
        6
174
     1
175
     2
 92
-1023410174
292
     0
 93
-1056964608
 10
1.0
 20
1.0
 30
1.0
 43
0.0
176
     0
293
     0
294
     0
178
     0
179
     3
 45
1.0
271
     0
272
     9
273
     9
295
     1
  0
LINE
  5
2382E
330
2
100
AcDbEntity
  8
0
  6
Continuous
 62
     3
100
AcDbLine
 10
442.6592789684507
 20
87.29025834908119
 30
0.0
 11
442.6592789684507
 21
49.68967010983859
 31
0.0
  0
MTEXT
  5
2382F
330
2
100
AcDbEntity
  8
0
  6
Continuous
 62
     2
100
AcDbMText
 10
442.6598131375981
 20
47.24085500604253
 30
0.0
 40
3.0
 41
0.0
 46
0.0
 71
     5
 72
     1
  1
2.69
 73
     1
 44
1.0
  0
LINE
  5
23830
330
2
100
AcDbEntity
  8
0
  6
Continuous
 62
     3
100
AcDbLine
 10
514.0842789684507
 20
67.22537565397472
 30
0.0
 11
514.0842789684507
 21
58.99538629573665
 31
0.0
  0
LINE
  5
23831
330
2
100
AcDbEntity
  8
0
  6
Continuous
 62
     3
100
AcDbLine
 10
514.0842789684507
 20
58.99538629573665
 30
0.0
 11
520.3524297587969
 21
57.24664512729266
 31
0.0
  0
LINE
  5
23832
330
2
100
AcDbEntity
  8
0
  6
Continuous
 62
     3
100
AcDbLine
 10
520.3524297587969
 20
57.24664512729266
 30
0.0
 11
520.3524297587969
 21
44.4217197829483
 31
0.0
  0
MTEXT
  5
23833
330
2
100
AcDbEntity
  8
0
  6
Continuous
 62
     2
100
AcDbMText
 10
520.2969729886708
 20
41.94027552243944
 30
0.0
 40
3.0
 41
0.0
 46
0.0
 71
     5
 72
     1
  1
0.13
 73
     1
 44
1.0
  0
DIMENSION
  5
23834
330
2
100
AcDbEntity
  8
0
  6
Continuous
 62
     7
100
AcDbDimension
280
     0
  2
*D25
 10
442.6592789684504
 20
120.199201911208
 30
0.0
 11
436.2757076475856
 21
122.3244971867986
 31
0.0
 70
    32
  1
0.29
 71
     5
 42
7.400000000000545
 73
     0
 74
     0
 75
     0
  3
Standard$0
100
AcDbAlignedDimension
 13
450.059278968451
 23
107.1334238834733
 33
0.0
 14
442.6592789684504
 24
109.7177839695705
 34
0.0
100
AcDbRotatedDimension
1001
ACAD
1000
DSTYLE
1002
{
1070
    42
1040
0.625
1070
    43
1040
3.75
1070
    44
1040
1.25
1070
    48
1040
0.000000001
1070
    74
1070
     0
1070
    77
1070
     1
1070
    90
1070
     1
1070
   140
1040
3.0
1070
   141
1040
-0.5
1070
   143
1040
0.03937007874016
1070
   146
1040
0.7
1070
   147
1040
0.625
1070
   171
1070
     3
1070
   172
1070
     1
1070
   175
1070
     0
1070
   274
1070
     3
1070
   283
1070
     0
1070
   284
1070
     8
1070
   340
1005
25
1070
   371
1070
    -1
1070
   372
1070
    -1
1002
}
  0
LINE
  5
238AA
330
2
100
AcDbEntity
  8
0
  6
Continuous
 62
     3
100
AcDbLine
 10
562.9092789684603
 20
82.80399066889829
 30
0.0
 11
562.9092789684603
 21
49.25421812836527
 31
0.0
  0
MTEXT
  5
238AB
330
2
100
AcDbEntity
  8
0
  6
Continuous
 62
     2
100
AcDbMText
 10
562.6154650353128
 20
46.77264440398476
 30
0.0
 40
3.0
 41
0.0
 46
0.0
 71
     5
 72
     1
  1
2.05
 73
     1
 44
1.0
  0
LINE
  5
238AC
330
2
100
AcDbEntity
  8
0
  6
Continuous
 62
     3
100
AcDbLine
 10
637.9092789684595
 20
88.56410856539248
 30
0.0
 11
637.9092789684595
 21
49.25421812836528
 31
0.0
  0
MTEXT
  5
238AD
330
2
100
AcDbEntity
  8
0
  6
Continuous
 62
     2
100
AcDbMText
 10
637.6154650353121
 20
46.77264440398478
 30
0.0
 40
3.0
 41
0.0
 46
0.0
 71
     5
 72
     1
  1
5.00
 73
     1
 44
1.0
  0
DIMENSION
  5
238AE
330
2
100
AcDbEntity
  8
0
  6
Continuous
 62
     7
100
AcDbDimension
280
     0
  2
*D26
 10
548.6891302269423
 20
125.9834238834739
 30
0.0
 11
548.6891302269423
 21
133.37055591783
 31
0.0
 70
   160
  1
%%C2.13
 71
     5
 42
54.00000000000139
 73
     0
 74
     0
 75
     0
  3
Standard$0
100
AcDbAlignedDimension
 13
543.6011284071281
 23
71.98342388347255
 33
0.0
 14
544.501057484826
 24
125.9834238834739
 34
0.0
 50
90.0
100
AcDbRotatedDimension
1001
ACAD
1000
DSTYLE
1002
{
1070
    42
1040
0.625
1070
    43
1040
3.75
1070
    44
1040
1.25
1070
    48
1040
0.000000001
1070
    74
1070
     0
1070
    77
1070
     1
1070
    90
1070
     1
1070
   140
1040
3.0
1070
   141
1040
-0.5
1070
   143
1040
0.03937007874016
1070
   146
1040
0.7
1070
   147
1040
0.625
1070
   171
1070
     3
1070
   172
1070
     1
1070
   175
1070
     0
1070
   179
1070
     0
1070
   274
1070
     3
1070
   283
1070
     0
1070
   284
1070
     8
1070
   340
1005
25
1070
   371
1070
    -1
1070
   372
1070
    -1
1002
}
  0
DIMENSION
  5
23AA5
330
2
100
AcDbEntity
  8
0
  6
Continuous
 62
     7
100
AcDbDimension
280
     0
  2
*D27
 10
637.40927896846
 20
89.20790616683104
 30
0.0
 11
646.6630788662184
 21
83.68475813146984
 31
0.0
 70
    36
  1
R0.02
 71
     5
 42
0.5000000000000569
 73
     0
 74
     0
 75
     0
  3
Standard
100
AcDbRadialDimension
 15
637.7796526292304
 25
88.8720142922529
 35
0.0
 40
0.0
1001
ACAD
1000
DSTYLE
1002
{
1070
    42
1040
0.625
1070
    43
1040
3.75
1070
    44
1040
1.25
1070
    48
1040
0.000000001
1070
    74
1070
     0
1070
    77
1070
     1
1070
    90
1070
     1
1070
   140
1040
3.0
1070
   141
1040
-0.5
1070
   143
1040
0.03937007874016
1070
   146
1040
0.7
1070
   147
1040
0.625
1070
   171
1070
     3
1070
   172
1070
     1
1070
   175
1070
     0
1070
   179
1070
     1
1070
   274
1070
     3
1070
   283
1070
     0
1070
   284
1070
     8
1070
   288
1070
     1
1070
   340
1005
25
1070
   371
1070
    -1
1070
   372
1070
    -1
1002
}
1001
ACAD_DSTYLE_DIMRADIAL_EXTENSION
1070
   387
1070
     1
1070
   388
1040
4.764748857944503
1070
   390
1040
0.0000000000000568
  0
DIMENSION
  5
23AAF
330
2
100
AcDbEntity
  8
0
  6
Continuous
 62
     7
100
AcDbDimension
280
     0
  2
*D28
 10
566.475851099862
 20
79.98289483231539
 30
0.0
 11
569.7977929129482
 21
76.27788728117903
 31
0.0
 70
   164
  1
R0.20
 71
     5
 42
5.000000000000056
 73
     0
 74
     0
 75
     0
  3
Standard
100
AcDbRadialDimension
 15
563.1380085407263
 25
83.70563670497096
 35
0.0
 40
0.0
1001
ACAD
1000
DSTYLE
1002
{
1070
    42
1040
0.625
1070
    43
1040
3.75
1070
    44
1040
1.25
1070
    48
1040
0.000000001
1070
    74
1070
     0
1070
    77
1070
     1
1070
    90
1070
     1
1070
   140
1040
3.0
1070
   141
1040
-0.5
1070
   143
1040
0.03937007874016
1070
   146
1040
0.7
1070
   147
1040
0.625
1070
   171
1070
     3
1070
   172
1070
     1
1070
   175
1070
     0
1070
   179
1070
     1
1070
   274
1070
     3
1070
   283
1070
     0
1070
   284
1070
     8
1070
   288
1070
     1
1070
   340
1005
25
1070
   371
1070
    -1
1070
   372
1070
    -1
1002
}
1001
ACAD_DSTYLE_DIMRADIAL_EXTENSION
1070
   387
1070
     1
1070
   388
1040
1.62315620435471
1070
   390
1040
2.792526803190867
  0
DIMENSION
  5
23AB8
330
2
100
AcDbEntity
  8
0
  6
Continuous
 62
     7
100
AcDbDimension
280
     0
  2
*D29
 10
556.8429778458059
 20
73.98342388347123
 30
0.0
 11
566.1803025248481
 21
66.19043871486304
 31
0.0
 70
    36
  1
R0.08
 71
     5
 42
1.999999999999772
 73
     0
 74
     0
 75
     0
  3
Standard
100
AcDbRadialDimension
 15
558.1309278789935
 25
72.45333084315902
 35
0.0
 40
0.0
1001
ACAD
1000
DSTYLE
1002
{
1070
    42
1040
0.625
1070
    43
1040
3.75
1070
    44
1040
1.25
1070
    48
1040
0.000000001
1070
    74
1070
     0
1070
    77
1070
     1
1070
    90
1070
     1
1070
   140
1040
3.0
1070
   141
1040
-0.5
1070
   143
1040
0.03937007874016
1070
   146
1040
0.7
1070
   147
1040
0.625
1070
   171
1070
     3
1070
   172
1070
     1
1070
   175
1070
     0
1070
   179
1070
     1
1070
   274
1070
     3
1070
   283
1070
     0
1070
   284
1070
     8
1070
   288
1070
     1
1070
   340
1005
25
1070
   371
1070
    -1
1070
   372
1070
    -1
1002
}
1001
ACAD_DSTYLE_DIMRADIAL_EXTENSION
1070
   387
1070
     1
1070
   388
1040
4.712388980384689
1070
   390
1040
5.93411945678066
  0
ENDSEC
  0
SECTION
  2
OBJECTS
  0
DICTIONARY
  5
B
330
0
100
AcDbDictionary
281
     1
  3
ACAD_CIP_PREVIOUS_PRODUCT_INFO
350
BE4
  3
ACAD_COLOR
350
3F
  3
ACAD_DETAILVIEWSTYLE
350
BDC
  3
ACAD_GROUP
350
3A
  3
ACAD_LAYOUT
350
17
  3
ACAD_MATERIAL
350
D
  3
ACAD_MLEADERSTYLE
350
42
  3
ACAD_MLINESTYLE
350
3B
  3
ACAD_PLOTSETTINGS
350
3C
  3
ACAD_PLOTSTYLENAME
350
A
  3
ACAD_SCALELIST
350
40
  3
ACAD_SECTIONVIEWSTYLE
350
BDA
  3
ACAD_TABLESTYLE
350
41
  3
ACAD_VISUALSTYLE
350
2F
  3
ACDB_RECOMPOSE_DATA
350
23C0B
  3
AcDbVariableDictionary
350
BB8
  3
AEC_PROPERTY_SET_DEFS
350
24C9
  0
DICTIONARY
  5
31
330
2C
100
AcDbDictionary
280
     1
281
     1
  0
DICTIONARY
  5
22
330
21
100
AcDbDictionary
280
     1
281
     1
  3
ACAD_LAYERSTATES
360
23
  0
DICTIONARY
  5
7
330
6
100
AcDbDictionary
280
     1
281
     1
  3
ADSK_XREC_LAYER_RECONCILED
360
8
  0
DICTIONARY
  5
3
330
2
100
AcDbDictionary
280
     1
281
     1
  3
ACAD_SORTENTS
360
BB0
  0
XRECORD
  5
BE4
102
{ACAD_REACTORS
330
B
102
}
330
B
100
AcDbXrecord
280
     1
300
ACD
300
2014
300
ACD_F_S
  0
DICTIONARY
  5
3F
102
{ACAD_REACTORS
330
B
102
}
330
B
100
AcDbDictionary
281
     1
  0
DICTIONARY
  5
BDC
102
{ACAD_REACTORS
330
B
102
}
330
B
100
AcDbDictionary
281
     1
  3
Metric50
350
BDD
  0
DICTIONARY
  5
3A
102
{ACAD_REACTORS
330
B
102
}
330
B
100
AcDbDictionary
281
     1
  0
DICTIONARY
  5
17
102
{ACAD_REACTORS
330
B
102
}
330
B
100
AcDbDictionary
281
     1
  3
Model
350
16
  3
배치1
350
1E
  0
DICTIONARY
  5
D
102
{ACAD_REACTORS
330
B
102
}
330
B
100
AcDbDictionary
281
     1
  3
ByBlock
350
3E
  3
ByLayer
350
3D
  3
Global
350
C
  0
DICTIONARY
  5
42
102
{ACAD_REACTORS
330
B
102
}
330
B
100
AcDbDictionary
281
     1
  3
Standard
350
BD9
  0
DICTIONARY
  5
3B
102
{ACAD_REACTORS
330
B
102
}
330
B
100
AcDbDictionary
281
     1
  3
Standard
350
43
  0
DICTIONARY
  5
3C
102
{ACAD_REACTORS
330
B
102
}
330
B
100
AcDbDictionary
281
     1
  0
ACDBDICTIONARYWDFLT
  5
A
102
{ACAD_REACTORS
330
B
102
}
330
B
100
AcDbDictionary
281
     1
  3
Normal
350
9
100
AcDbDictionaryWithDefault
340
9
  0
DICTIONARY
  5
40
102
{ACAD_REACTORS
330
B
102
}
330
B
100
AcDbDictionary
281
     1
  3
A0
350
48
  3
A1
350
49
  3
A2
350
4A
  3
A3
350
4B
  3
A4
350
4C
  3
A5
350
4D
  3
A6
350
4E
  3
A7
350
4F
  3
A8
350
50
  3
A9
350
51
  3
B0
350
52
  3
B1
350
53
  3
B2
350
54
  3
B3
350
55
  3
B4
350
56
  3
B5
350
57
  3
B6
350
58
  0
DICTIONARY
  5
BDA
102
{ACAD_REACTORS
330
B
102
}
330
B
100
AcDbDictionary
281
     1
  3
Metric50
350
BDB
  0
DICTIONARY
  5
41
102
{ACAD_REACTORS
330
B
102
}
330
B
100
AcDbDictionary
281
     1
  3
Standard
350
44
  0
DICTIONARY
  5
2F
102
{ACAD_REACTORS
330
B
102
}
330
B
100
AcDbDictionary
281
     1
  3
2dWireframe
350
2E
  3
3D Hidden
350
1A64
  3
3dWireframe
350
47
  3
Basic
350
BC7
  3
Brighten
350
BCC
  3
ColorChange
350
BD0
  3
Conceptual
350
BCA
  3
Dim
350
BCB
  3
EdgeColorOff
350
BD8
  3
Facepattern
350
BCF
  3
Flat
350
BC3
  3
FlatWithEdges
350
BC4
  3
Gouraud
350
BC5
  3
GouraudWithEdges
350
BC6
  3
Hidden
350
BC9
  3
JitterOff
350
BD6
  3
Linepattern
350
BCE
  3
OverhangOff
350
BD7
  3
Realistic
350
46
  3
Shaded
350
BD5
  3
Shaded with edges
350
BD4
  3
Shades of Gray
350
BD1
  3
Sketchy
350
BD2
  3
Thicken
350
BCD
  3
Wireframe
350
BC8
  3
X-Ray
350
BD3
  0
XRECORD
  5
23C0B
102
{ACAD_REACTORS
330
B
102
}
330
B
100
AcDbXrecord
280
     1
 90
        1
330
44
330
BDB
330
BDD
  0
DICTIONARY
  5
BB8
102
{ACAD_REACTORS
330
B
102
}
330
B
100
AcDbDictionary
281
     1
  3
CANNOSCALE
350
BBE
  3
CMLEADERSTYLE
350
BBA
  3
CTABLESTYLE
350
BB9
  3
CVIEWDETAILSTYLE
350
BBB
  3
CVIEWSECTIONSTYLE
350
BBC
  3
DIMASSOC
350
C3B
  3
HIDETEXT
350
C39
  3
HPCOLOR
350
FF3
  3
INDEXCTL
350
C38
  3
LAYEREVAL
350
BC0
  3
LAYERNOTIFY
350
BC1
  3
LIGHTINGUNITS
350
BBF
  3
MSLTSCALE
350
BBD
  3
SOLIDHIST
350
C3C
  3
SORTENTS
350
C37
  0
DICTIONARY
  5
24C9
102
{ACAD_REACTORS
330
B
102
}
330
B
100
AcDbDictionary
281
     1
  0
DICTIONARY
  5
23
102
{ACAD_REACTORS
330
22
102
}
330
22
100
AcDbDictionary
281
     1
  0
XRECORD
  5
8
102
{ACAD_REACTORS
330
7
102
}
330
7
100
AcDbXrecord
280
     1
290
     1
  0
SORTENTSTABLE
  5
BB0
102
{ACAD_REACTORS
330
3
102
}
330
3
100
AcDbSortentsTable
330
2
331
1DC81
  5
1DC86
331
1DCB8
  5
1DE48
331
1DC7B
  5
1DC80
331
1DC95
  5
1DC9A
331
1DC8F
  5
1DC94
331
1DC89
  5
1DC8E
331
1DCA3
  5
1DCA8
331
1DC66
  5
1DC6B
331
1DC9D
  5
1DCA2
331
1DC60
  5
1DC65
331
1DCB7
  5
1DE46
331
1DC5A
  5
1DC5F
331
1DCB1
  5
1DCB6
331
1DCAB
  5
1DCB0
331
1DC74
  5
1DC79
331
1DC6E
  5
1DC73
331
1DC68
  5
1DC6D
331
1DC82
  5
1DC87
331
1DC7C
  5
1DC81
331
1DC96
  5
1DC9B
331
1DC90
  5
1DC95
331
1DC8A
  5
1DC8F
331
1DCA4
  5
1DCA9
331
1DC67
  5
1DC6C
331
1DC9E
  5
1DCA3
331
1DC98
  5
1DC9D
331
1DC61
  5
1DC66
331
1DC5B
  5
1DC60
331
1DCB2
  5
1DCB7
331
1DCAC
  5
1DCB1
331
1DC75
  5
1DC7A
331
1DC6F
  5
1DC74
331
1DC69
  5
1DC6E
331
1DC83
  5
1DC88
331
1DC7D
  5
1DC82
331
1DC97
  5
1DC9C
331
1DC91
  5
1DC96
331
1DC8B
  5
1DC90
331
1DCA5
  5
1DCAA
331
1DC9F
  5
1DCA4
331
1DC62
  5
1DC67
331
1DC99
  5
1DC9E
331
1DC5C
  5
1DC61
331
1DCB3
  5
1DCB8
331
1DCAD
  5
1DCB2
331
1DC76
  5
1DC7B
331
1DC70
  5
1DC75
331
1DC6A
  5
1DC6F
331
1DC84
  5
1DC89
331
1DC7E
  5
1DC83
331
1DC78
  5
1DC7D
331
1DC92
  5
1DC97
331
1DC8C
  5
1DC91
331
1DCA6
  5
1DCAB
331
1DCA0
  5
1DCA5
331
1DC63
  5
1DC68
331
1DC9A
  5
1DC9F
331
1DC5D
  5
1DC62
331
1DCB4
  5
1DCC0
331
1DCAE
  5
1DCB3
331
1DC77
  5
1DC7C
331
1DCA8
  5
1DCAD
331
1DC71
  5
1DC76
331
1DC6B
  5
1DC70
331
1DC85
  5
1DC8A
331
1DC7F
  5
1DC84
331
1DC79
  5
1DC7E
331
1DC93
  5
1DC98
331
1DC8D
  5
1DC92
331
1DBC8
  5
1DC5E
331
1DCA7
  5
1DCAC
331
1DCA1
  5
1DCA6
331
1DC64
  5
1DC69
331
1DC9B
  5
1DCA0
331
1DC5E
  5
1DC63
331
1DCB5
  5
1DDD7
331
1DCAF
  5
1DCB4
331
1DCA9
  5
1DCAE
331
1DC72
  5
1DC77
331
1DC6C
  5
1DC71
331
1DC86
  5
1DC8B
331
1DC80
  5
1DC85
331
1DC7A
  5
1DC7F
331
1DC94
  5
1DC99
331
1DC8E
  5
1DC93
331
1DC88
  5
1DC8D
331
1DCA2
  5
1DCA7
331
1DC65
  5
1DC6A
331
1DC9C
  5
1DCA1
331
1DC5F
  5
1DC64
331
1DCB6
  5
1DE45
331
1DCB0
  5
1DCB5
331
1DCAA
  5
1DCAF
331
1DC73
  5
1DC78
331
1DC6D
  5
1DC72
331
1DCC0
  5
1DE49
331
1DC87
  5
1DC8C
  0
ACDBDETAILVIEWSTYLE
  5
BDD
102
{ACAD_XDICTIONARY
360
23C09
102
}
102
{ACAD_REACTORS
330
BDC
102
}
330
BDC
100
AcDbModelDocViewStyle
 70
     0
  3
Metric50
290
     0
100
AcDbDetailViewStyle
 70
     0
 71
     0
 90
        3
 71
     1
340
25
 62
   256
 40
5.0
340
0
 62
   256
 40
5.0
300

 40
0.0
280
     1
 71
     2
340
14
 90
       25
 62
   256
 71
     3
340
25
 62
   256
 40
5.0
 90
        0
 40
15.0
 90
        1
300
%<\AcVar ViewDetailId>% (%<\AcVar ViewScale \f "%sn">%)
 71
     4
340
14
 90
       25
 62
   256
340
14
 90
       25
 62
   256
280
     0
  0
LAYOUT
  5
16
102
{ACAD_XDICTIONARY
360
18
102
}
102
{ACAD_REACTORS
330
17
102
}
330
17
100
AcDbPlotSettings
  1

  2
Samsung M267x 287x Series
  4
A4
  6

 40
5.027082920074462
 41
5.027099609375
 42
5.027069091796875
 43
5.027069091796875
 44
209.9733276367187
 45
296.9259948730469
 46
0.0
 47
0.3443247085572807
 48
5290.957610138349
 49
-1180.058350911508
140
5701.957610138348
141
-892.9458025305684
142
1.0
143
1.436143118755716
 70
 11956
 72
     1
 73
     1
 74
     4
  7
ksm0910.ctb
 75
     0
147
0.6963094324933345
 76
     0
 77
     2
 78
   300
148
-5290.957610138349
149
1180.058350911508
100
AcDbLayout
  1
Model
 70
     1
 71
     0
 10
0.0
 20
0.0
 11
12.0
 21
9.0
 12
0.0
 22
0.0
 32
0.0
 14
0.0
 24
0.0
 34
0.0
 15
0.0
 25
0.0
 35
0.0
146
0.0
 13
0.0
 23
0.0
 33
0.0
 16
1.0
 26
0.0
 36
0.0
 17
0.0
 27
1.0
 37
0.0
 76
     0
330
2
331
2D
1001
ACAD_PSEXT
1000
Samsung M267x 287x Series
1000
Samsung M267x 287x Series
1000
USB001
1000

1070
     0
  0
LAYOUT
  5
1E
102
{ACAD_XDICTIONARY
360
1F
102
}
102
{ACAD_REACTORS
330
17
102
}
330
17
100
AcDbPlotSettings
  1

  2
none_device
  4
ISO_A4_(210.00_x_297.00_MM)
  6

 40
7.5
 41
20.0
 42
7.5
 43
20.0
 44
210.0
 45
297.0
 46
0.0
 47
0.0
 48
0.0
 49
0.0
140
0.0
141
0.0
142
1.0
143
1.0
 70
   688
 72
     1
 73
     1
 74
     5
  7
ksm0910.ctb
 75
    16
147
1.0
 76
     0
 77
     2
 78
   300
148
0.0
149
0.0
100
AcDbLayout
  1
배치1
 70
     1
 71
     1
 10
-20.0
 20
-7.5
 11
277.0
 21
202.5
 12
0.0
 22
0.0
 32
0.0
 14
1.000000000000000E+20
 24
1.000000000000000E+20
 34
1.000000000000000E+20
 15
-1.000000000000000E+20
 25
-1.000000000000000E+20
 35
-1.000000000000000E+20
146
0.0
 13
0.0
 23
0.0
 33
0.0
 16
1.0
 26
0.0
 36
0.0
 17
0.0
 27
1.0
 37
0.0
 76
     0
330
1B
1001
ACAD_PSEXT
1000
없음
1000
없음
1000
해당 없음
1000
배치가 새로운 플로터 구성을 선택할 때까지 플롯되지 않습니다.
1070
     0
  0
MATERIAL
  5
3E
102
{ACAD_REACTORS
330
D
102
}
330
D
100
AcDbMaterial
  1
ByBlock
 94
       63
  0
MATERIAL
  5
3D
102
{ACAD_REACTORS
330
D
102
}
330
D
100
AcDbMaterial
  1
ByLayer
 94
       63
  0
MATERIAL
  5
C
102
{ACAD_XDICTIONARY
360
E
102
}
102
{ACAD_REACTORS
330
D
102
}
330
D
100
AcDbMaterial
  1
Global
 43
0.0007999999797903
 43
0.0
 43
0.0
 43
0.0
 43
0.0
 43
0.0007999999797903
 43
0.0
 43
0.0
 43
0.0
 43
0.0
 43
1.0
 43
0.0
 43
0.0
 43
0.0
 43
0.0
 43
1.0
 49
0.0007999999797903
 49
0.0
 49
0.0
 49
0.0
 49
0.0
 49
0.0007999999797903
 49
0.0
 49
0.0
 49
0.0
 49
0.0
 49
1.0
 49
0.0
 49
0.0
 49
0.0
 49
0.0
 49
1.0
142
0.0007999999797903
142
0.0
142
0.0
142
0.0
142
0.0
142
0.0007999999797903
142
0.0
142
0.0
142
0.0
142
0.0
142
1.0
142
0.0
142
0.0
142
0.0
142
0.0
142
1.0
144
0.0007999999797903
144
0.0
144
0.0
144
0.0
144
0.0
144
0.0007999999797903
144
0.0
144
0.0
144
0.0
144
0.0
144
1.0
144
0.0
144
0.0
144
0.0
144
0.0
144
1.0
 94
       63
1001
ACAD
1070
    -1
1070
     3
1070
     0
1000

1071
        0
1070
     0
  0
MLEADERSTYLE
  5
BD9
102
{ACAD_REACTORS
330
42
330
2382D
102
}
330
42
100
AcDbMLeaderStyle
179
     2
170
     2
171
     1
172
     0
 90
        2
 40
0.0
 41
0.0
173
     1
 91
-1056964608
340
28
 92
       -2
290
     1
 42
2.0
291
     1
 43
0.36
  3
Standard
 44
4.0
300

342
25
174
     1
178
     6
175
     1
176
     0
 93
-1056964608
 45
4.0
292
     0
297
     0
 46
4.0
 94
-1056964608
 47
1.0
 49
1.0
140
1.0
293
     1
141
0.0
294
     1
177
     0
142
1.0
295
     0
296
     0
143
0.125
271
     0
272
     9
273
     9
298
     1
  0
MLINESTYLE
  5
43
102
{ACAD_REACTORS
330
3B
102
}
330
3B
100
AcDbMlineStyle
  2
STANDARD
 70
     0
  3

 62
   256
 51
90.0
 52
90.0
 71
     2
 49
0.5
 62
   256
  6
BYLAYER
 49
-0.5
 62
   256
  6
BYLAYER
  0
ACDBPLACEHOLDER
  5
9
102
{ACAD_REACTORS
330
A
102
}
330
A
  0
SCALE
  5
48
102
{ACAD_REACTORS
330
40
102
}
330
40
100
AcDbScale
 70
     0
300
1:1
140
1.0
141
1.0
290
     1
  0
SCALE
  5
49
102
{ACAD_REACTORS
330
40
102
}
330
40
100
AcDbScale
 70
     0
300
1:2
140
1.0
141
2.0
290
     0
  0
SCALE
  5
4A
102
{ACAD_REACTORS
330
40
102
}
330
40
100
AcDbScale
 70
     0
300
1:4
140
1.0
141
4.0
290
     0
  0
SCALE
  5
4B
102
{ACAD_REACTORS
330
40
102
}
330
40
100
AcDbScale
 70
     0
300
1:5
140
1.0
141
5.0
290
     0
  0
SCALE
  5
4C
102
{ACAD_REACTORS
330
40
102
}
330
40
100
AcDbScale
 70
     0
300
1:8
140
1.0
141
8.0
290
     0
  0
SCALE
  5
4D
102
{ACAD_REACTORS
330
40
102
}
330
40
100
AcDbScale
 70
     0
300
1:10
140
1.0
141
10.0
290
     0
  0
SCALE
  5
4E
102
{ACAD_REACTORS
330
40
102
}
330
40
100
AcDbScale
 70
     0
300
1:16
140
1.0
141
16.0
290
     0
  0
SCALE
  5
4F
102
{ACAD_REACTORS
330
40
102
}
330
40
100
AcDbScale
 70
     0
300
1:20
140
1.0
141
20.0
290
     0
  0
SCALE
  5
50
102
{ACAD_REACTORS
330
40
102
}
330
40
100
AcDbScale
 70
     0
300
1:30
140
1.0
141
30.0
290
     0
  0
SCALE
  5
51
102
{ACAD_REACTORS
330
40
102
}
330
40
100
AcDbScale
 70
     0
300
1:40
140
1.0
141
40.0
290
     0
  0
SCALE
  5
52
102
{ACAD_REACTORS
330
40
102
}
330
40
100
AcDbScale
 70
     0
300
1:50
140
1.0
141
50.0
290
     0
  0
SCALE
  5
53
102
{ACAD_REACTORS
330
40
102
}
330
40
100
AcDbScale
 70
     0
300
1:100
140
1.0
141
100.0
290
     0
  0
SCALE
  5
54
102
{ACAD_REACTORS
330
40
102
}
330
40
100
AcDbScale
 70
     0
300
2:1
140
2.0
141
1.0
290
     0
  0
SCALE
  5
55
102
{ACAD_REACTORS
330
40
102
}
330
40
100
AcDbScale
 70
     0
300
4:1
140
4.0
141
1.0
290
     0
  0
SCALE
  5
56
102
{ACAD_REACTORS
330
40
102
}
330
40
100
AcDbScale
 70
     0
300
8:1
140
8.0
141
1.0
290
     0
  0
SCALE
  5
57
102
{ACAD_REACTORS
330
40
102
}
330
40
100
AcDbScale
 70
     0
300
10:1
140
10.0
141
1.0
290
     0
  0
SCALE
  5
58
102
{ACAD_REACTORS
330
40
102
}
330
40
100
AcDbScale
 70
     0
300
100:1
140
100.0
141
1.0
290
     0
  0
ACDBSECTIONVIEWSTYLE
  5
BDB
102
{ACAD_XDICTIONARY
360
23C07
102
}
102
{ACAD_REACTORS
330
BDA
102
}
330
BDA
100
AcDbModelDocViewStyle
 70
     0
  3
Metric50
290
     0
100
AcDbSectionViewStyle
 70
     0
 71
     0
 90
      102
 71
     1
340
25
 62
   256
 40
5.0
340
0
340
0
 62
   256
 40
5.0
300
I, O, Q, S, X, Z
 40
10.0
 90
        0
 40
2.5
 90
        0
 71
     2
340
14
 90
       25
 62
   256
340
14
 90
       50
 62
   256
 40
5.0
 40
2.5
 40
5.0
 71
     3
340
25
 62
   256
 40
5.0
 90
        0
 40
15.0
 90
        1
300
%<\AcVar ViewSectionStartId>%-%<\AcVar ViewSectionEndId>% (%<\AcVar ViewScale \f "%sn">%)
 71
     4
 62
   256
 62
   257
300
ANSI31
 40
1.0
 90
        0
290
     0
290
     0
 90
        6
 40
0.0
 40
1.570796326794896
 40
0.2617993877991494
 40
1.308996938995747
 40
-0.2617993877991494
 40
1.832595714594046
  0
TABLESTYLE
  5
44
102
{ACAD_XDICTIONARY
360
45
102
}
102
{ACAD_REACTORS
330
41
102
}
330
41
100
AcDbTableStyle
280
     0
  3
Standard
 70
     0
 71
     0
 40
1.5
 41
1.5
280
     0
281
     0
  7
Standard
140
4.5
170
     2
 62
     0
 63
     7
283
     0
 90
      512
 91
        0
  1

274
    -2
284
     1
 64
     0
275
    -2
285
     1
 65
     0
276
    -2
286
     1
 66
     0
277
    -2
287
     1
 67
     0
278
    -2
288
     1
 68
     0
279
    -2
289
     1
 69
     0
  7
Standard
140
6.0
170
     5
 62
     0
 63
     7
283
     0
 90
      512
 91
        0
  1

274
    -2
284
     1
 64
     0
275
    -2
285
     1
 65
     0
276
    -2
286
     1
 66
     0
277
    -2
287
     1
 67
     0
278
    -2
288
     1
 68
     0
279
    -2
289
     1
 69
     0
  7
Standard
140
4.5
170
     5
 62
     0
 63
     7
283
     0
 90
      512
 91
        0
  1

274
    -2
284
     1
 64
     0
275
    -2
285
     1
 65
     0
276
    -2
286
     1
 66
     0
277
    -2
287
     1
 67
     0
278
    -2
288
     1
 68
     0
279
    -2
289
     1
 69
     0
  0
VISUALSTYLE
  5
2E
102
{ACAD_REACTORS
330
2F
102
}
330
2F
100
AcDbVisualStyle
  2
2dWireframe
 70
     4
177
     3
291
     0
 70
    58
 90
        0
176
     1
 90
        2
176
     1
 90
        1
176
     1
 90
        0
176
     1
 40
0.6
176
     1
 40
30.0
176
     1
 62
     7
176
     1
 90
        1
176
     1
 90
        4
176
     1
 62
     7
176
     1
 62
   257
176
     1
 90
        1
176
     1
 90
        1
176
     1
 40
1.0
176
     1
 90
        0
176
     1
 62
   257
176
     1
 40
1.0
176
     1
 90
        1
176
     1
 90
        6
176
     1
 90
        2
176
     1
 62
     7
176
     1
 90
        5
176
     1
 90
        0
176
     1
 90
        0
176
     1
290
     0
176
     1
 90
        1
176
     1
 40
0.0
176
     1
 90
        0
176
     1
290
     1
176
     1
290
     1
176
     1
290
     0
176
     1
290
     0
176
     1
290
     0
176
     1
290
     0
176
     1
290
     0
176
     1
290
     0
176
     1
290
     0
176
     1
 90
       50
176
     1
 40
0.0
176
     1
 40
1.0
176
     1
 90
        0
176
     1
 62
    18
420
        0
176
     1
 90
       50
176
     1
 90
        3
176
     1
 62
     5
420
      255
176
     1
290
     0
176
     1
 90
       50
176
     1
 90
       50
176
     1
 90
       50
176
     1
290
     0
176
     1
 90
       50
176
     1
 62
   256
176
     0
 40
1.0
176
     0
 90
        2
176
     1
  1
strokes_ogs.tif
176
     1
290
     0
176
     1
 40
1.0
176
     1
 40
1.0
176
     1
  0
VISUALSTYLE
  5
1A64
102
{ACAD_REACTORS
330
2F
102
}
330
2F
100
AcDbVisualStyle
  2
3D Hidden
 70
     6
177
     3
291
     0
 70
    58
 90
        1
176
     1
 90
        2
176
     1
 90
        2
176
     1
 90
        0
176
     1
 40
0.6
176
     1
 40
30.0
176
     1
 62
     7
176
     1
 90
        2
176
     1
 90
        2
176
     1
 62
     7
176
     1
 62
   257
176
     1
 90
        2
176
     1
 90
        1
176
     1
 40
40.0
176
     1
 90
        0
176
     1
 62
   257
176
     1
 40
1.0
176
     1
 90
        1
176
     1
 90
        6
176
     1
 90
        2
176
     1
 62
     7
176
     1
 90
        3
176
     1
 90
        0
176
     1
 90
        0
176
     1
290
     0
176
     1
 90
        1
176
     1
 40
0.0
176
     1
 90
        0
176
     1
290
     0
176
     1
290
     1
176
     1
290
     1
176
     1
290
     0
176
     1
290
     0
176
     1
290
     0
176
     1
290
     0
176
     1
290
     0
176
     1
290
     0
176
     1
 90
       50
176
     1
 40
0.0
176
     1
 40
1.0
176
     1
 90
        0
176
     1
 62
    18
420
        0
176
     1
 90
       50
176
     1
 90
        3
176
     1
 62
     5
420
      255
176
     1
290
     0
176
     1
 90
       50
176
     1
 90
       50
176
     1
 90
       50
176
     1
290
     0
176
     1
 90
       50
176
     1
 62
   256
176
     0
 40
1.0
176
     0
 90
        2
176
     1
  1
strokes_ogs.tif
176
     1
290
     0
176
     1
 40
1.0
176
     1
 40
1.0
176
     1
  0
VISUALSTYLE
  5
47
102
{ACAD_REACTORS
330
2F
102
}
330
2F
100
AcDbVisualStyle
  2
3dWireframe
 70
     5
177
     3
291
     0
 70
    58
 90
        0
176
     1
 90
        2
176
     1
 90
        1
176
     1
 90
        0
176
     1
 40
0.6
176
     1
 40
30.0
176
     1
 62
     7
176
     1
 90
        1
176
     1
 90
        4
176
     1
 62
     7
176
     1
 62
   257
176
     1
 90
        1
176
     1
 90
        1
176
     1
 40
1.0
176
     1
 90
        0
176
     1
 62
   257
176
     1
 40
1.0
176
     1
 90
        1
176
     1
 90
        6
176
     1
 90
        2
176
     1
 62
     7
176
     1
 90
        5
176
     1
 90
        0
176
     1
 90
        0
176
     1
290
     0
176
     1
 90
        1
176
     1
 40
0.0
176
     1
 90
        0
176
     1
290
     0
176
     1
290
     1
176
     1
290
     1
176
     1
290
     0
176
     1
290
     0
176
     1
290
     0
176
     1
290
     0
176
     1
290
     0
176
     1
290
     0
176
     1
 90
       50
176
     1
 40
0.0
176
     1
 40
1.0
176
     1
 90
        0
176
     1
 62
    18
420
        0
176
     1
 90
       50
176
     1
 90
        3
176
     1
 62
     5
420
      255
176
     1
290
     0
176
     1
 90
       50
176
     1
 90
       50
176
     1
 90
       50
176
     1
290
     0
176
     1
 90
       50
176
     1
 62
   256
176
     0
 40
1.0
176
     0
 90
        2
176
     1
  1
strokes_ogs.tif
176
     1
290
     0
176
     1
 40
1.0
176
     1
 40
1.0
176
     1
  0
VISUALSTYLE
  5
BC7
102
{ACAD_REACTORS
330
2F
102
}
330
2F
100
AcDbVisualStyle
  2
Basic
 70
     7
177
     3
291
     1
 70
    58
 90
        1
176
     1
 90
        0
176
     1
 90
        1
176
     1
 90
        0
176
     1
 40
0.6
176
     1
 40
30.0
176
     1
 62
     7
176
     1
 90
        0
176
     1
 90
        4
176
     1
 62
     7
176
     1
 62
   257
176
     1
 90
        1
176
     1
 90
        1
176
     1
 40
1.0
176
     1
 90
        8
176
     1
 62
     7
176
     1
 40
1.0
176
     1
 90
        1
176
     1
 90
        6
176
     1
 90
        2
176
     1
 62
     7
176
     1
 90
        5
176
     1
 90
        0
176
     1
 90
        0
176
     1
290
     0
176
     1
 90
        1
176
     1
 40
0.0
176
     1
 90
        0
176
     1
290
     0
176
     1
290
     1
176
     1
290
     1
176
     1
290
     0
176
     1
290
     0
176
     1
290
     0
176
     1
290
     0
176
     1
290
     0
176
     1
290
     0
176
     1
 90
       50
176
     1
 40
0.0
176
     1
 40
1.0
176
     1
 90
        0
176
     1
 62
    18
420
        0
176
     1
 90
       50
176
     1
 90
        3
176
     1
 62
     5
420
      255
176
     1
290
     0
176
     1
 90
       50
176
     1
 90
       50
176
     1
 90
       50
176
     1
290
     0
176
     1
 90
       50
176
     1
 62
   256
176
     0
 40
1.0
176
     0
 90
        2
176
     1
  1
strokes_ogs.tif
176
     1
290
     0
176
     1
 40
1.0
176
     1
 40
1.0
176
     1
  0
VISUALSTYLE
  5
BCC
102
{ACAD_REACTORS
330
2F
102
}
330
2F
100
AcDbVisualStyle
  2
Brighten
 70
    12
177
     3
291
     1
 70
    58
 90
        2
176
     1
 90
        2
176
     1
 90
        0
176
     1
 90
        0
176
     1
 40
0.6
176
     1
 40
30.0
176
     1
 62
     7
176
     1
 90
        1
176
     1
 90
        4
176
     1
 62
     7
176
     1
 62
   257
176
     1
 90
        1
176
     1
 90
        1
176
     1
 40
1.0
176
     1
 90
        8
176
     1
 62
     7
176
     1
 40
1.0
176
     1
 90
        1
176
     1
 90
        6
176
     1
 90
        2
176
     1
 62
     7
176
     1
 90
        5
176
     1
 90
        0
176
     1
 90
        0
176
     1
290
     0
176
     1
 90
        1
176
     1
 40
50.0
176
     1
 90
        0
176
     1
290
     0
176
     1
290
     1
176
     1
290
     1
176
     1
290
     0
176
     1
290
     0
176
     1
290
     0
176
     1
290
     0
176
     1
290
     0
176
     1
290
     0
176
     1
 90
       50
176
     1
 40
0.0
176
     1
 40
1.0
176
     1
 90
        0
176
     1
 62
    18
420
        0
176
     1
 90
       50
176
     1
 90
        3
176
     1
 62
     5
420
      255
176
     1
290
     0
176
     1
 90
       50
176
     1
 90
       50
176
     1
 90
       50
176
     1
290
     0
176
     1
 90
       50
176
     1
 62
   256
176
     0
 40
1.0
176
     0
 90
        2
176
     1
  1
strokes_ogs.tif
176
     1
290
     0
176
     1
 40
1.0
176
     1
 40
1.0
176
     1
  0
VISUALSTYLE
  5
BD0
102
{ACAD_REACTORS
330
2F
102
}
330
2F
100
AcDbVisualStyle
  2
ColorChange
 70
    16
177
     3
291
     1
 70
    58
 90
        2
176
     1
 90
        2
176
     1
 90
        3
176
     1
 90
        0
176
     1
 40
0.6
176
     1
 40
30.0
176
     1
 62
     8
176
     1
 90
        1
176
     1
 90
        4
176
     1
 62
     7
176
     1
 62
   257
176
     1
 90
        1
176
     1
 90
        1
176
     1
 40
1.0
176
     1
 90
        8
176
     1
 62
     8
176
     1
 40
1.0
176
     1
 90
        1
176
     1
 90
        6
176
     1
 90
        2
176
     1
 62
     7
176
     1
 90
        5
176
     1
 90
        0
176
     1
 90
        0
176
     1
290
     0
176
     1
 90
        1
176
     1
 40
0.0
176
     1
 90
        0
176
     1
290
     0
176
     1
290
     1
176
     1
290
     1
176
     1
290
     0
176
     1
290
     0
176
     1
290
     0
176
     1
290
     0
176
     1
290
     0
176
     1
290
     0
176
     1
 90
       50
176
     1
 40
0.0
176
     1
 40
1.0
176
     1
 90
        0
176
     1
 62
    18
420
        0
176
     1
 90
       50
176
     1
 90
        3
176
     1
 62
     5
420
      255
176
     1
290
     0
176
     1
 90
       50
176
     1
 90
       50
176
     1
 90
       50
176
     1
290
     0
176
     1
 90
       50
176
     1
 62
   256
176
     0
 40
1.0
176
     0
 90
        2
176
     1
  1
strokes_ogs.tif
176
     1
290
     0
176
     1
 40
1.0
176
     1
 40
1.0
176
     1
  0
VISUALSTYLE
  5
BCA
102
{ACAD_REACTORS
330
2F
102
}
330
2F
100
AcDbVisualStyle
  2
Conceptual
 70
     9
177
     3
291
     0
 70
    58
 90
        3
176
     1
 90
        2
176
     1
 90
        0
176
     1
 90
        0
176
     1
 40
0.6
176
     1
 40
30.0
176
     1
 62
     7
176
     1
 90
        2
176
     1
 90
        2
176
     1
 62
     7
176
     1
 62
   257
176
     1
 90
        1
176
     1
 90
        1
176
     1
 40
179.0
176
     1
 90
        8
176
     1
 62
     7
176
     1
 40
1.0
176
     1
 90
        1
176
     1
 90
        6
176
     1
 90
        2
176
     1
 62
     7
176
     1
 90
        3
176
     1
 90
        0
176
     1
 90
        0
176
     1
290
     0
176
     1
 90
        1
176
     1
 40
0.0
176
     1
 90
        0
176
     1
290
     0
176
     1
290
     1
176
     1
290
     1
176
     1
290
     0
176
     1
290
     0
176
     1
290
     0
176
     1
290
     0
176
     1
290
     0
176
     1
290
     0
176
     1
 90
       50
176
     1
 40
0.0
176
     1
 40
1.0
176
     1
 90
        0
176
     1
 62
    18
420
        0
176
     1
 90
       50
176
     1
 90
        3
176
     1
 62
     5
420
      255
176
     1
290
     0
176
     1
 90
       50
176
     1
 90
       50
176
     1
 90
       50
176
     1
290
     0
176
     1
 90
       50
176
     1
 62
   256
176
     0
 40
1.0
176
     0
 90
        2
176
     1
  1
strokes_ogs.tif
176
     1
290
     0
176
     1
 40
1.0
176
     1
 40
1.0
176
     1
  0
VISUALSTYLE
  5
BCB
102
{ACAD_REACTORS
330
2F
102
}
330
2F
100
AcDbVisualStyle
  2
Dim
 70
    11
177
     3
291
     1
 70
    58
 90
        2
176
     1
 90
        2
176
     1
 90
        0
176
     1
 90
        0
176
     1
 40
0.6
176
     1
 40
30.0
176
     1
 62
     7
176
     1
 90
        1
176
     1
 90
        4
176
     1
 62
     7
176
     1
 62
   257
176
     1
 90
        1
176
     1
 90
        1
176
     1
 40
1.0
176
     1
 90
        8
176
     1
 62
     7
176
     1
 40
1.0
176
     1
 90
        1
176
     1
 90
        6
176
     1
 90
        2
176
     1
 62
     7
176
     1
 90
        5
176
     1
 90
        0
176
     1
 90
        0
176
     1
290
     0
176
     1
 90
        1
176
     1
 40
-50.0
176
     1
 90
        0
176
     1
290
     0
176
     1
290
     1
176
     1
290
     1
176
     1
290
     0
176
     1
290
     0
176
     1
290
     0
176
     1
290
     0
176
     1
290
     0
176
     1
290
     0
176
     1
 90
       50
176
     1
 40
0.0
176
     1
 40
1.0
176
     1
 90
        0
176
     1
 62
    18
420
        0
176
     1
 90
       50
176
     1
 90
        3
176
     1
 62
     5
420
      255
176
     1
290
     0
176
     1
 90
       50
176
     1
 90
       50
176
     1
 90
       50
176
     1
290
     0
176
     1
 90
       50
176
     1
 62
   256
176
     0
 40
1.0
176
     0
 90
        2
176
     1
  1
strokes_ogs.tif
176
     1
290
     0
176
     1
 40
1.0
176
     1
 40
1.0
176
     1
  0
VISUALSTYLE
  5
BD8
102
{ACAD_REACTORS
330
2F
102
}
330
2F
100
AcDbVisualStyle
  2
EdgeColorOff
 70
    22
177
     3
291
     1
 70
    58
 90
        2
176
     0
 90
        2
176
     0
 90
        0
176
     0
 90
        0
176
     0
 40
0.6
176
     0
 40
30.0
176
     0
 62
     7
176
     0
 90
        1
176
     0
 90
        4
176
     0
 62
     7
176
     0
 62
   257
176
     0
 90
        1
176
     0
 90
        1
176
     0
 40
1.0
176
     0
 90
        8
176
     2
 62
     7
176
     0
 40
1.0
176
     0
 90
        1
176
     0
 90
        6
176
     0
 90
        2
176
     0
 62
     7
176
     0
 90
        5
176
     0
 90
        0
176
     0
 90
        0
176
     0
290
     0
176
     0
 90
        1
176
     0
 40
0.0
176
     0
 90
        0
176
     0
290
     0
176
     0
290
     1
176
     0
290
     1
176
     0
290
     0
176
     0
290
     0
176
     0
290
     0
176
     0
290
     0
176
     0
290
     0
176
     0
290
     0
176
     0
 90
       50
176
     0
 40
0.0
176
     0
 40
1.0
176
     0
 90
        0
176
     0
 62
    18
420
        0
176
     0
 90
       50
176
     0
 90
        3
176
     0
 62
     5
420
      255
176
     0
290
     0
176
     0
 90
       50
176
     0
 90
       50
176
     0
 90
       50
176
     0
290
     0
176
     0
 90
       50
176
     0
 62
   256
176
     0
 40
1.0
176
     0
 90
        2
176
     0
  1
strokes_ogs.tif
176
     0
290
     0
176
     0
 40
1.0
176
     0
 40
1.0
176
     0
  0
VISUALSTYLE
  5
BCF
102
{ACAD_REACTORS
330
2F
102
}
330
2F
100
AcDbVisualStyle
  2
Facepattern
 70
    15
177
     3
291
     1
 70
    58
 90
        2
176
     1
 90
        2
176
     1
 90
        0
176
     1
 90
        0
176
     1
 40
0.6
176
     1
 40
30.0
176
     1
 62
     7
176
     1
 90
        1
176
     1
 90
        4
176
     1
 62
     7
176
     1
 62
   257
176
     1
 90
        1
176
     1
 90
        1
176
     1
 40
1.0
176
     1
 90
        8
176
     1
 62
     7
176
     1
 40
1.0
176
     1
 90
        1
176
     1
 90
        6
176
     1
 90
        2
176
     1
 62
     7
176
     1
 90
        5
176
     1
 90
        0
176
     1
 90
        0
176
     1
290
     0
176
     1
 90
        1
176
     1
 40
0.0
176
     1
 90
        0
176
     1
290
     0
176
     1
290
     1
176
     1
290
     1
176
     1
290
     0
176
     1
290
     0
176
     1
290
     0
176
     1
290
     0
176
     1
290
     0
176
     1
290
     0
176
     1
 90
       50
176
     1
 40
0.0
176
     1
 40
1.0
176
     1
 90
        0
176
     1
 62
    18
420
        0
176
     1
 90
       50
176
     1
 90
        3
176
     1
 62
     5
420
      255
176
     1
290
     0
176
     1
 90
       50
176
     1
 90
       50
176
     1
 90
       50
176
     1
290
     0
176
     1
 90
       50
176
     1
 62
   256
176
     0
 40
1.0
176
     0
 90
        2
176
     1
  1
strokes_ogs.tif
176
     1
290
     0
176
     1
 40
1.0
176
     1
 40
1.0
176
     1
  0
VISUALSTYLE
  5
BC3
102
{ACAD_REACTORS
330
2F
102
}
330
2F
100
AcDbVisualStyle
  2
Flat
 70
     0
177
     3
291
     1
 70
    58
 90
        2
176
     1
 90
        1
176
     1
 90
        1
176
     1
 90
        2
176
     1
 40
0.6
176
     1
 40
30.0
176
     1
 62
     7
176
     1
 90
        0
176
     1
 90
        0
176
     1
 62
     7
176
     1
 62
   257
176
     1
 90
        1
176
     1
 90
        1
176
     1
 40
1.0
176
     1
 90
        8
176
     1
 62
     7
176
     1
 40
1.0
176
     1
 90
        1
176
     1
 90
        6
176
     1
 90
        2
176
     1
 62
     7
176
     1
 90
        5
176
     1
 90
        0
176
     1
 90
        0
176
     1
290
     0
176
     1
 90
       13
176
     1
 40
0.0
176
     1
 90
        0
176
     1
290
     0
176
     1
290
     1
176
     1
290
     1
176
     1
290
     0
176
     1
290
     0
176
     1
290
     0
176
     1
290
     0
176
     1
290
     0
176
     1
290
     0
176
     1
 90
       50
176
     1
 40
0.0
176
     1
 40
1.0
176
     1
 90
        0
176
     1
 62
    18
420
        0
176
     1
 90
       50
176
     1
 90
        3
176
     1
 62
     5
420
      255
176
     1
290
     0
176
     1
 90
       50
176
     1
 90
       50
176
     1
 90
       50
176
     1
290
     0
176
     1
 90
       50
176
     1
 62
   256
176
     0
 40
1.0
176
     0
 90
        2
176
     1
  1
strokes_ogs.tif
176
     1
290
     0
176
     1
 40
1.0
176
     1
 40
1.0
176
     1
  0
VISUALSTYLE
  5
BC4
102
{ACAD_REACTORS
330
2F
102
}
330
2F
100
AcDbVisualStyle
  2
FlatWithEdges
 70
     1
177
     3
291
     1
 70
    58
 90
        2
176
     1
 90
        1
176
     1
 90
        1
176
     1
 90
        2
176
     1
 40
0.6
176
     1
 40
30.0
176
     1
 62
     7
176
     1
 90
        1
176
     1
 90
        0
176
     1
 62
     7
176
     1
 62
   257
176
     1
 90
        1
176
     1
 90
        1
176
     1
 40
1.0
176
     1
 90
        0
176
     1
 62
   257
176
     1
 40
1.0
176
     1
 90
        1
176
     1
 90
        6
176
     1
 90
        2
176
     1
 62
     7
176
     1
 90
        5
176
     1
 90
        0
176
     1
 90
        0
176
     1
290
     0
176
     1
 90
       13
176
     1
 40
0.0
176
     1
 90
        0
176
     1
290
     0
176
     1
290
     1
176
     1
290
     1
176
     1
290
     0
176
     1
290
     0
176
     1
290
     0
176
     1
290
     0
176
     1
290
     0
176
     1
290
     0
176
     1
 90
       50
176
     1
 40
0.0
176
     1
 40
1.0
176
     1
 90
        0
176
     1
 62
    18
420
        0
176
     1
 90
       50
176
     1
 90
        3
176
     1
 62
     5
420
      255
176
     1
290
     0
176
     1
 90
       50
176
     1
 90
       50
176
     1
 90
       50
176
     1
290
     0
176
     1
 90
       50
176
     1
 62
   256
176
     0
 40
1.0
176
     0
 90
        2
176
     1
  1
strokes_ogs.tif
176
     1
290
     0
176
     1
 40
1.0
176
     1
 40
1.0
176
     1
  0
VISUALSTYLE
  5
BC5
102
{ACAD_REACTORS
330
2F
102
}
330
2F
100
AcDbVisualStyle
  2
Gouraud
 70
     2
177
     3
291
     1
 70
    58
 90
        2
176
     1
 90
        2
176
     1
 90
        1
176
     1
 90
        2
176
     1
 40
0.6
176
     1
 40
30.0
176
     1
 62
     7
176
     1
 90
        0
176
     1
 90
        0
176
     1
 62
     7
176
     1
 62
   257
176
     1
 90
        1
176
     1
 90
        1
176
     1
 40
1.0
176
     1
 90
        0
176
     1
 62
     7
176
     1
 40
1.0
176
     1
 90
        1
176
     1
 90
        6
176
     1
 90
        2
176
     1
 62
     7
176
     1
 90
        5
176
     1
 90
        0
176
     1
 90
        0
176
     1
290
     0
176
     1
 90
       13
176
     1
 40
0.0
176
     1
 90
        0
176
     1
290
     0
176
     1
290
     1
176
     1
290
     1
176
     1
290
     0
176
     1
290
     0
176
     1
290
     0
176
     1
290
     0
176
     1
290
     0
176
     1
290
     0
176
     1
 90
       50
176
     1
 40
0.0
176
     1
 40
1.0
176
     1
 90
        0
176
     1
 62
    18
420
        0
176
     1
 90
       50
176
     1
 90
        3
176
     1
 62
     5
420
      255
176
     1
290
     0
176
     1
 90
       50
176
     1
 90
       50
176
     1
 90
       50
176
     1
290
     0
176
     1
 90
       50
176
     1
 62
   256
176
     0
 40
1.0
176
     0
 90
        2
176
     1
  1
strokes_ogs.tif
176
     1
290
     0
176
     1
 40
1.0
176
     1
 40
1.0
176
     1
  0
VISUALSTYLE
  5
BC6
102
{ACAD_REACTORS
330
2F
102
}
330
2F
100
AcDbVisualStyle
  2
GouraudWithEdges
 70
     3
177
     3
291
     1
 70
    58
 90
        2
176
     1
 90
        2
176
     1
 90
        1
176
     1
 90
        2
176
     1
 40
0.6
176
     1
 40
30.0
176
     1
 62
     7
176
     1
 90
        1
176
     1
 90
        0
176
     1
 62
     7
176
     1
 62
   257
176
     1
 90
        1
176
     1
 90
        1
176
     1
 40
1.0
176
     1
 90
        0
176
     1
 62
   257
176
     1
 40
1.0
176
     1
 90
        1
176
     1
 90
        6
176
     1
 90
        2
176
     1
 62
     7
176
     1
 90
        5
176
     1
 90
        0
176
     1
 90
        0
176
     1
290
     0
176
     1
 90
       13
176
     1
 40
0.0
176
     1
 90
        0
176
     1
290
     0
176
     1
290
     1
176
     1
290
     1
176
     1
290
     0
176
     1
290
     0
176
     1
290
     0
176
     1
290
     0
176
     1
290
     0
176
     1
290
     0
176
     1
 90
       50
176
     1
 40
0.0
176
     1
 40
1.0
176
     1
 90
        0
176
     1
 62
    18
420
        0
176
     1
 90
       50
176
     1
 90
        3
176
     1
 62
     5
420
      255
176
     1
290
     0
176
     1
 90
       50
176
     1
 90
       50
176
     1
 90
       50
176
     1
290
     0
176
     1
 90
       50
176
     1
 62
   256
176
     0
 40
1.0
176
     0
 90
        2
176
     1
  1
strokes_ogs.tif
176
     1
290
     0
176
     1
 40
1.0
176
     1
 40
1.0
176
     1
  0
VISUALSTYLE
  5
BC9
102
{ACAD_REACTORS
330
2F
102
}
330
2F
100
AcDbVisualStyle
  2
Hidden
 70
     6
177
     3
291
     0
 70
    58
 90
        1
176
     1
 90
        2
176
     1
 90
        2
176
     1
 90
        0
176
     1
 40
0.6
176
     1
 40
30.0
176
     1
 62
     7
176
     1
 90
        2
176
     1
 90
        2
176
     1
 62
     7
176
     1
 62
   257
176
     1
 90
        2
176
     1
 90
        1
176
     1
 40
40.0
176
     1
 90
        0
176
     1
 62
   257
176
     1
 40
1.0
176
     1
 90
        1
176
     1
 90
        6
176
     1
 90
        2
176
     1
 62
     7
176
     1
 90
        3
176
     1
 90
        0
176
     1
 90
        0
176
     1
290
     0
176
     1
 90
        1
176
     1
 40
0.0
176
     1
 90
        0
176
     1
290
     0
176
     1
290
     1
176
     1
290
     1
176
     1
290
     0
176
     1
290
     0
176
     1
290
     0
176
     1
290
     0
176
     1
290
     0
176
     1
290
     0
176
     1
 90
       50
176
     1
 40
0.0
176
     1
 40
1.0
176
     1
 90
        0
176
     1
 62
    18
420
        0
176
     1
 90
       50
176
     1
 90
        3
176
     1
 62
     5
420
      255
176
     1
290
     0
176
     1
 90
       50
176
     1
 90
       50
176
     1
 90
       50
176
     1
290
     0
176
     1
 90
       50
176
     1
 62
   256
176
     0
 40
1.0
176
     0
 90
        2
176
     1
  1
strokes_ogs.tif
176
     1
290
     0
176
     1
 40
1.0
176
     1
 40
1.0
176
     1
  0
VISUALSTYLE
  5
BD6
102
{ACAD_REACTORS
330
2F
102
}
330
2F
100
AcDbVisualStyle
  2
JitterOff
 70
    20
177
     3
291
     1
 70
    58
 90
        2
176
     0
 90
        2
176
     0
 90
        0
176
     0
 90
        0
176
     0
 40
0.6
176
     0
 40
30.0
176
     0
 62
     7
176
     0
 90
        1
176
     0
 90
        4
176
     0
 62
     7
176
     0
 62
   257
176
     0
 90
        1
176
     0
 90
        1
176
     0
 40
1.0
176
     0
 90
       10
176
     2
 62
     7
176
     0
 40
1.0
176
     0
 90
        1
176
     0
 90
        6
176
     0
 90
        2
176
     0
 62
     7
176
     0
 90
        5
176
     0
 90
        0
176
     0
 90
        0
176
     0
290
     0
176
     0
 90
        1
176
     0
 40
0.0
176
     0
 90
        0
176
     0
290
     0
176
     0
290
     1
176
     0
290
     1
176
     0
290
     0
176
     0
290
     0
176
     0
290
     0
176
     0
290
     0
176
     0
290
     0
176
     0
290
     0
176
     0
 90
       50
176
     0
 40
0.0
176
     0
 40
1.0
176
     0
 90
        0
176
     0
 62
    18
420
        0
176
     0
 90
       50
176
     0
 90
        3
176
     0
 62
     5
420
      255
176
     0
290
     0
176
     0
 90
       50
176
     0
 90
       50
176
     0
 90
       50
176
     0
290
     0
176
     0
 90
       50
176
     0
 62
   256
176
     0
 40
1.0
176
     0
 90
        2
176
     0
  1
strokes_ogs.tif
176
     0
290
     0
176
     0
 40
1.0
176
     0
 40
1.0
176
     0
  0
VISUALSTYLE
  5
BCE
102
{ACAD_REACTORS
330
2F
102
}
330
2F
100
AcDbVisualStyle
  2
Linepattern
 70
    14
177
     3
291
     1
 70
    58
 90
        2
176
     1
 90
        2
176
     1
 90
        0
176
     1
 90
        0
176
     1
 40
0.6
176
     1
 40
30.0
176
     1
 62
     7
176
     1
 90
        1
176
     1
 90
        4
176
     1
 62
     7
176
     1
 62
   257
176
     1
 90
        7
176
     1
 90
        7
176
     1
 40
1.0
176
     1
 90
        8
176
     1
 62
     7
176
     1
 40
1.0
176
     1
 90
        1
176
     1
 90
        6
176
     1
 90
        2
176
     1
 62
     7
176
     1
 90
        5
176
     1
 90
        0
176
     1
 90
        0
176
     1
290
     0
176
     1
 90
        1
176
     1
 40
0.0
176
     1
 90
        0
176
     1
290
     0
176
     1
290
     1
176
     1
290
     1
176
     1
290
     0
176
     1
290
     0
176
     1
290
     0
176
     1
290
     0
176
     1
290
     0
176
     1
290
     0
176
     1
 90
       50
176
     1
 40
0.0
176
     1
 40
1.0
176
     1
 90
        0
176
     1
 62
    18
420
        0
176
     1
 90
       50
176
     1
 90
        3
176
     1
 62
     5
420
      255
176
     1
290
     0
176
     1
 90
       50
176
     1
 90
       50
176
     1
 90
       50
176
     1
290
     0
176
     1
 90
       50
176
     1
 62
   256
176
     0
 40
1.0
176
     0
 90
        2
176
     1
  1
strokes_ogs.tif
176
     1
290
     0
176
     1
 40
1.0
176
     1
 40
1.0
176
     1
  0
VISUALSTYLE
  5
BD7
102
{ACAD_REACTORS
330
2F
102
}
330
2F
100
AcDbVisualStyle
  2
OverhangOff
 70
    21
177
     3
291
     1
 70
    58
 90
        2
176
     0
 90
        2
176
     0
 90
        0
176
     0
 90
        0
176
     0
 40
0.6
176
     0
 40
30.0
176
     0
 62
     7
176
     0
 90
        1
176
     0
 90
        4
176
     0
 62
     7
176
     0
 62
   257
176
     0
 90
        1
176
     0
 90
        1
176
     0
 40
1.0
176
     0
 90
        9
176
     2
 62
     7
176
     0
 40
1.0
176
     0
 90
        1
176
     0
 90
        6
176
     0
 90
        2
176
     0
 62
     7
176
     0
 90
        5
176
     0
 90
        0
176
     0
 90
        0
176
     0
290
     0
176
     0
 90
        1
176
     0
 40
0.0
176
     0
 90
        0
176
     0
290
     0
176
     0
290
     1
176
     0
290
     1
176
     0
290
     0
176
     0
290
     0
176
     0
290
     0
176
     0
290
     0
176
     0
290
     0
176
     0
290
     0
176
     0
 90
       50
176
     0
 40
0.0
176
     0
 40
1.0
176
     0
 90
        0
176
     0
 62
    18
420
        0
176
     0
 90
       50
176
     0
 90
        3
176
     0
 62
     5
420
      255
176
     0
290
     0
176
     0
 90
       50
176
     0
 90
       50
176
     0
 90
       50
176
     0
290
     0
176
     0
 90
       50
176
     0
 62
   256
176
     0
 40
1.0
176
     0
 90
        2
176
     0
  1
strokes_ogs.tif
176
     0
290
     0
176
     0
 40
1.0
176
     0
 40
1.0
176
     0
  0
VISUALSTYLE
  5
46
102
{ACAD_REACTORS
330
2F
102
}
330
2F
100
AcDbVisualStyle
  2
Realistic
 70
     8
177
     3
291
     0
 70
    58
 90
        2
176
     1
 90
        2
176
     1
 90
        1
176
     1
 90
        0
176
     1
 40
0.6
176
     1
 40
30.0
176
     1
 62
     7
176
     1
 90
        1
176
     1
 90
        0
176
     1
 62
     7
176
     1
 62
   257
176
     1
 90
        1
176
     1
 90
        1
176
     1
 40
1.0
176
     1
 90
        8
176
     1
 62
     8
176
     1
 40
1.0
176
     1
 90
        1
176
     1
 90
        6
176
     1
 90
        2
176
     1
 62
     7
176
     1
 90
        5
176
     1
 90
        0
176
     1
 90
        0
176
     1
290
     0
176
     1
 90
       13
176
     1
 40
0.0
176
     1
 90
        0
176
     1
290
     0
176
     1
290
     1
176
     1
290
     1
176
     1
290
     0
176
     1
290
     0
176
     1
290
     0
176
     1
290
     0
176
     1
290
     0
176
     1
290
     0
176
     1
 90
       50
176
     1
 40
0.0
176
     1
 40
1.0
176
     1
 90
        0
176
     1
 62
    18
420
        0
176
     1
 90
       50
176
     1
 90
        3
176
     1
 62
     5
420
      255
176
     1
290
     0
176
     1
 90
       50
176
     1
 90
       50
176
     1
 90
       50
176
     1
290
     0
176
     1
 90
       50
176
     1
 62
   256
176
     0
 40
1.0
176
     0
 90
        2
176
     1
  1
strokes_ogs.tif
176
     1
290
     0
176
     1
 40
1.0
176
     1
 40
1.0
176
     1
  0
VISUALSTYLE
  5
BD5
102
{ACAD_REACTORS
330
2F
102
}
330
2F
100
AcDbVisualStyle
  2
Shaded
 70
    27
177
     3
291
     0
 70
    58
 90
        2
176
     1
 90
        2
176
     1
 90
        1
176
     1
 90
        2
176
     1
 40
0.6
176
     1
 40
30.0
176
     1
 62
     7
176
     1
 90
        0
176
     1
 90
        4
176
     1
 62
     7
176
     1
 62
   257
176
     1
 90
        1
176
     1
 90
        1
176
     1
 40
1.0
176
     1
 90
        8
176
     1
 62
   257
176
     1
 40
1.0
176
     1
 90
        1
176
     1
 90
        6
176
     1
 90
        2
176
     1
 62
     8
176
     1
 90
        3
176
     1
 90
        0
176
     1
 90
        0
176
     1
290
     0
176
     1
 90
        5
176
     1
 40
0.0
176
     1
 90
        0
176
     1
290
     0
176
     1
290
     1
176
     1
290
     1
176
     1
290
     0
176
     1
290
     0
176
     1
290
     0
176
     1
290
     0
176
     1
290
     0
176
     1
290
     0
176
     1
 90
       50
176
     1
 40
0.0
176
     1
 40
1.0
176
     1
 90
        0
176
     1
 62
    18
420
        0
176
     1
 90
       50
176
     1
 90
        3
176
     1
 62
     5
420
      255
176
     1
290
     0
176
     1
 90
       50
176
     1
 90
       50
176
     1
 90
       50
176
     1
290
     0
176
     1
 90
       50
176
     1
 62
   256
176
     0
 40
1.0
176
     0
 90
        2
176
     1
  1
strokes_ogs.tif
176
     1
290
     0
176
     1
 40
1.0
176
     1
 40
1.0
176
     1
  0
VISUALSTYLE
  5
BD4
102
{ACAD_REACTORS
330
2F
102
}
330
2F
100
AcDbVisualStyle
  2
Shaded with edges
 70
    26
177
     3
291
     0
 70
    58
 90
        2
176
     1
 90
        2
176
     1
 90
        1
176
     1
 90
        2
176
     1
 40
0.6
176
     1
 40
30.0
176
     1
 62
     7
176
     1
 90
        1
176
     1
 90
       10
176
     1
 62
     7
176
     1
 62
   257
176
     1
 90
        2
176
     1
 90
        1
176
     1
 40
1.0
176
     1
 90
        8
176
     1
 62
   257
176
     1
 40
1.0
176
     1
 90
        1
176
     1
 90
        6
176
     1
 90
        2
176
     1
 62
     7
176
     1
 90
        3
176
     1
 90
        0
176
     1
 90
        0
176
     1
290
     0
176
     1
 90
        5
176
     1
 40
0.0
176
     1
 90
        0
176
     1
290
     0
176
     1
290
     1
176
     1
290
     1
176
     1
290
     0
176
     1
290
     0
176
     1
290
     0
176
     1
290
     0
176
     1
290
     0
176
     1
290
     0
176
     1
 90
       50
176
     1
 40
0.0
176
     1
 40
1.0
176
     1
 90
        0
176
     1
 62
    18
420
        0
176
     1
 90
       50
176
     1
 90
        3
176
     1
 62
     5
420
      255
176
     1
290
     0
176
     1
 90
       50
176
     1
 90
       50
176
     1
 90
       50
176
     1
290
     0
176
     1
 90
       50
176
     1
 62
   256
176
     0
 40
1.0
176
     0
 90
        2
176
     1
  1
strokes_ogs.tif
176
     1
290
     0
176
     1
 40
1.0
176
     1
 40
1.0
176
     1
  0
VISUALSTYLE
  5
BD1
102
{ACAD_REACTORS
330
2F
102
}
330
2F
100
AcDbVisualStyle
  2
Shades of Gray
 70
    23
177
     3
291
     0
 70
    58
 90
        2
176
     1
 90
        2
176
     1
 90
        3
176
     1
 90
        0
176
     1
 40
0.6
176
     1
 40
30.0
176
     1
 62
     7
176
     1
 90
        2
176
     1
 90
        2
176
     1
 62
     7
176
     1
 62
     7
176
     1
 90
        1
176
     1
 90
        1
176
     1
 40
40.0
176
     1
 90
        8
176
     1
 62
     7
176
     1
 40
1.0
176
     1
 90
        1
176
     1
 90
        6
176
     1
 90
        2
176
     1
 62
     7
176
     1
 90
        3
176
     1
 90
        0
176
     1
 90
        0
176
     1
290
     0
176
     1
 90
        1
176
     1
 40
0.0
176
     1
 90
        0
176
     1
290
     0
176
     1
290
     1
176
     1
290
     1
176
     1
290
     0
176
     1
290
     0
176
     1
290
     0
176
     1
290
     0
176
     1
290
     0
176
     1
290
     0
176
     1
 90
       50
176
     1
 40
0.0
176
     1
 40
1.0
176
     1
 90
        0
176
     1
 62
    18
420
        0
176
     1
 90
       50
176
     1
 90
        3
176
     1
 62
     5
420
      255
176
     1
290
     0
176
     1
 90
       50
176
     1
 90
       50
176
     1
 90
       50
176
     1
290
     0
176
     1
 90
       50
176
     1
 62
   256
176
     0
 40
1.0
176
     0
 90
        2
176
     1
  1
strokes_ogs.tif
176
     1
290
     0
176
     1
 40
1.0
176
     1
 40
1.0
176
     1
  0
VISUALSTYLE
  5
BD2
102
{ACAD_REACTORS
330
2F
102
}
330
2F
100
AcDbVisualStyle
  2
Sketchy
 70
    24
177
     3
291
     0
 70
    58
 90
        1
176
     1
 90
        2
176
     1
 90
        2
176
     1
 90
        0
176
     1
 40
0.6
176
     1
 40
30.0
176
     1
 62
     7
176
     1
 90
        2
176
     1
 90
        2
176
     1
 62
     7
176
     1
 62
     7
176
     1
 90
        1
176
     1
 90
        1
176
     1
 40
40.0
176
     1
 90
       11
176
     1
 62
     7
176
     1
 40
1.0
176
     1
 90
        1
176
     1
 90
        6
176
     1
 90
        2
176
     1
 62
     7
176
     1
 90
        6
176
     1
 90
        0
176
     1
 90
        0
176
     1
290
     0
176
     1
 90
        1
176
     1
 40
0.0
176
     1
 90
        0
176
     1
290
     0
176
     1
290
     1
176
     1
290
     1
176
     1
290
     0
176
     1
290
     0
176
     1
290
     0
176
     1
290
     0
176
     1
290
     0
176
     1
290
     0
176
     1
 90
       50
176
     1
 40
0.0
176
     1
 40
1.0
176
     1
 90
        0
176
     1
 62
    18
420
        0
176
     1
 90
       50
176
     1
 90
        3
176
     1
 62
     5
420
      255
176
     1
290
     0
176
     1
 90
       50
176
     1
 90
       50
176
     1
 90
       50
176
     1
290
     0
176
     1
 90
       50
176
     1
 62
   256
176
     0
 40
1.0
176
     0
 90
        2
176
     1
  1
strokes_ogs.tif
176
     1
290
     0
176
     1
 40
1.0
176
     1
 40
1.0
176
     1
  0
VISUALSTYLE
  5
BCD
102
{ACAD_REACTORS
330
2F
102
}
330
2F
100
AcDbVisualStyle
  2
Thicken
 70
    13
177
     3
291
     1
 70
    58
 90
        2
176
     1
 90
        2
176
     1
 90
        0
176
     1
 90
        0
176
     1
 40
0.6
176
     1
 40
30.0
176
     1
 62
     7
176
     1
 90
        1
176
     1
 90
        4
176
     1
 62
     7
176
     1
 62
   257
176
     1
 90
        1
176
     1
 90
        1
176
     1
 40
1.0
176
     1
 90
       12
176
     1
 62
     7
176
     1
 40
1.0
176
     1
 90
        1
176
     1
 90
        6
176
     1
 90
        2
176
     1
 62
     7
176
     1
 90
        5
176
     1
 90
        0
176
     1
 90
        0
176
     1
290
     0
176
     1
 90
        1
176
     1
 40
0.0
176
     1
 90
        0
176
     1
290
     0
176
     1
290
     1
176
     1
290
     1
176
     1
290
     0
176
     1
290
     0
176
     1
290
     0
176
     1
290
     0
176
     1
290
     0
176
     1
290
     0
176
     1
 90
       50
176
     1
 40
0.0
176
     1
 40
1.0
176
     1
 90
        0
176
     1
 62
    18
420
        0
176
     1
 90
       50
176
     1
 90
        3
176
     1
 62
     5
420
      255
176
     1
290
     0
176
     1
 90
       50
176
     1
 90
       50
176
     1
 90
       50
176
     1
290
     0
176
     1
 90
       50
176
     1
 62
   256
176
     0
 40
1.0
176
     0
 90
        2
176
     1
  1
strokes_ogs.tif
176
     1
290
     0
176
     1
 40
1.0
176
     1
 40
1.0
176
     1
  0
VISUALSTYLE
  5
BC8
102
{ACAD_REACTORS
330
2F
102
}
330
2F
100
AcDbVisualStyle
  2
Wireframe
 70
     5
177
     3
291
     0
 70
    58
 90
        0
176
     1
 90
        2
176
     1
 90
        0
176
     1
 90
        0
176
     1
 40
0.6
176
     1
 40
30.0
176
     1
 62
     7
176
     1
 90
        1
176
     1
 90
        4
176
     1
 62
     7
176
     1
 62
   257
176
     1
 90
        1
176
     1
 90
        1
176
     1
 40
1.0
176
     1
 90
        0
176
     1
 62
   257
176
     1
 40
1.0
176
     1
 90
        1
176
     1
 90
        6
176
     1
 90
        2
176
     1
 62
     7
176
     1
 90
        3
176
     1
 90
        0
176
     1
 90
        0
176
     1
290
     0
176
     1
 90
        1
176
     1
 40
0.0
176
     1
 90
        0
176
     1
290
     0
176
     1
290
     1
176
     1
290
     1
176
     1
290
     0
176
     1
290
     0
176
     1
290
     0
176
     1
290
     0
176
     1
290
     0
176
     1
290
     0
176
     1
 90
       50
176
     1
 40
0.0
176
     1
 40
1.0
176
     1
 90
        0
176
     1
 62
    18
420
        0
176
     1
 90
       50
176
     1
 90
        3
176
     1
 62
     5
420
      255
176
     1
290
     0
176
     1
 90
       50
176
     1
 90
       50
176
     1
 90
       50
176
     1
290
     0
176
     1
 90
       50
176
     1
 62
   256
176
     0
 40
1.0
176
     0
 90
        2
176
     1
  1
strokes_ogs.tif
176
     1
290
     0
176
     1
 40
1.0
176
     1
 40
1.0
176
     1
  0
VISUALSTYLE
  5
BD3
102
{ACAD_REACTORS
330
2F
102
}
330
2F
100
AcDbVisualStyle
  2
X-Ray
 70
    25
177
     3
291
     0
 70
    58
 90
        2
176
     1
 90
        2
176
     1
 90
        1
176
     1
 90
        1
176
     1
 40
0.5
176
     1
 40
30.0
176
     1
 62
     7
176
     1
 90
        1
176
     1
 90
        0
176
     1
 62
     7
176
     1
 62
   257
176
     1
 90
        1
176
     1
 90
        1
176
     1
 40
1.0
176
     1
 90
        8
176
     1
 62
     7
176
     1
 40
1.0
176
     1
 90
        1
176
     1
 90
        6
176
     1
 90
        2
176
     1
 62
     7
176
     1
 90
        3
176
     1
 90
        0
176
     1
 90
        0
176
     1
290
     0
176
     1
 90
       13
176
     1
 40
0.0
176
     1
 90
        0
176
     1
290
     0
176
     1
290
     1
176
     1
290
     1
176
     1
290
     0
176
     1
290
     0
176
     1
290
     0
176
     1
290
     0
176
     1
290
     0
176
     1
290
     0
176
     1
 90
       50
176
     1
 40
0.0
176
     1
 40
1.0
176
     1
 90
        0
176
     1
 62
    18
420
        0
176
     1
 90
       50
176
     1
 90
        3
176
     1
 62
     5
420
      255
176
     1
290
     0
176
     1
 90
       50
176
     1
 90
       50
176
     1
 90
       50
176
     1
290
     0
176
     1
 90
       50
176
     1
 62
   256
176
     0
 40
1.0
176
     0
 90
        2
176
     1
  1
strokes_ogs.tif
176
     1
290
     0
176
     1
 40
1.0
176
     1
 40
1.0
176
     1
  0
DICTIONARYVAR
  5
BBE
102
{ACAD_REACTORS
330
BB8
102
}
330
BB8
100
DictionaryVariables
280
     0
  1
1:1
  0
DICTIONARYVAR
  5
BBA
102
{ACAD_REACTORS
330
BB8
102
}
330
BB8
100
DictionaryVariables
280
     0
  1
STANDARD
  0
DICTIONARYVAR
  5
BB9
102
{ACAD_REACTORS
330
BB8
102
}
330
BB8
100
DictionaryVariables
280
     0
  1
STANDARD
  0
DICTIONARYVAR
  5
BBB
102
{ACAD_REACTORS
330
BB8
102
}
330
BB8
100
DictionaryVariables
280
     0
  1
Metric50
  0
DICTIONARYVAR
  5
BBC
102
{ACAD_REACTORS
330
BB8
102
}
330
BB8
100
DictionaryVariables
280
     0
  1
Metric50
  0
DICTIONARYVAR
  5
C3B
102
{ACAD_REACTORS
330
BB8
102
}
330
BB8
100
DictionaryVariables
280
     0
  1
1
  0
DICTIONARYVAR
  5
C39
102
{ACAD_REACTORS
330
BB8
102
}
330
BB8
100
DictionaryVariables
280
     0
  1
1
  0
DICTIONARYVAR
  5
FF3
102
{ACAD_REACTORS
330
BB8
102
}
330
BB8
100
DictionaryVariables
280
     0
  1
4
  0
DICTIONARYVAR
  5
C38
102
{ACAD_REACTORS
330
BB8
102
}
330
BB8
100
DictionaryVariables
280
     0
  1
0
  0
DICTIONARYVAR
  5
BC0
102
{ACAD_REACTORS
330
BB8
102
}
330
BB8
100
DictionaryVariables
280
     0
  1
1
  0
DICTIONARYVAR
  5
BC1
102
{ACAD_REACTORS
330
BB8
102
}
330
BB8
100
DictionaryVariables
280
     0
  1
15
  0
DICTIONARYVAR
  5
BBF
102
{ACAD_REACTORS
330
BB8
102
}
330
BB8
100
DictionaryVariables
280
     0
  1
0
  0
DICTIONARYVAR
  5
BBD
102
{ACAD_REACTORS
330
BB8
102
}
330
BB8
100
DictionaryVariables
280
     0
  1
0
  0
DICTIONARYVAR
  5
C3C
102
{ACAD_REACTORS
330
BB8
102
}
330
BB8
100
DictionaryVariables
280
     0
  1
1
  0
DICTIONARYVAR
  5
C37
102
{ACAD_REACTORS
330
BB8
102
}
330
BB8
100
DictionaryVariables
280
     0
  1
127
  0
DICTIONARY
  5
23C09
330
BDD
100
AcDbDictionary
280
     1
281
     1
  3
ACAD_XREC_ROUNDTRIP
360
23C0A
  0
DICTIONARY
  5
18
330
16
100
AcDbDictionary
280
     1
281
     1
  0
DICTIONARY
  5
1F
330
1E
100
AcDbDictionary
280
     1
281
     1
  0
DICTIONARY
  5
E
330
C
100
AcDbDictionary
280
     1
281
     1
  3
BUMPTILE
360
F
  3
DIFFUSETILE
360
10
  3
OPACITYTILE
360
11
  3
REFLECTIONTILE
360
12
  0
DICTIONARY
  5
23C07
330
BDB
100
AcDbDictionary
280
     1
281
     1
  3
ACAD_XREC_ROUNDTRIP
360
23C08
  0
DICTIONARY
  5
45
330
44
100
AcDbDictionary
280
     1
281
     1
  3
ACAD_ROUNDTRIP_2008_TABLESTYLE_CELLSTYLEMAP
360
23C06
  0
XRECORD
  5
23C0A
102
{ACAD_REACTORS
330
23C09
102
}
330
23C09
100
AcDbXrecord
280
     1
102
DISPLAYNAME
  1
Metric50
102
FLAGS
 90
        0
  0
XRECORD
  5
F
102
{ACAD_REACTORS
330
E
102
}
330
E
100
AcDbXrecord
280
     1
270
     1
271
     1
  0
XRECORD
  5
10
102
{ACAD_REACTORS
330
E
102
}
330
E
100
AcDbXrecord
280
     1
270
     1
271
     1
  0
XRECORD
  5
11
102
{ACAD_REACTORS
330
E
102
}
330
E
100
AcDbXrecord
280
     1
270
     1
271
     1
  0
XRECORD
  5
12
102
{ACAD_REACTORS
330
E
102
}
330
E
100
AcDbXrecord
280
     1
270
     1
271
     1
  0
XRECORD
  5
23C08
102
{ACAD_REACTORS
330
23C07
102
}
330
23C07
100
AcDbXrecord
280
     1
102
DISPLAYNAME
  1
Metric50
102
FLAGS
 90
        0
  0
CELLSTYLEMAP
  5
23C06
102
{ACAD_REACTORS
330
45
102
}
330
45
100
AcDbCellStyleMap
 90
        3
300
CELLSTYLE
  1
TABLEFORMAT_BEGIN
 90
        5
170
     1
 91
        0
 92
    32768
 62
   257
 93
        1
300
CONTENTFORMAT
  1
CONTENTFORMAT_BEGIN
 90
        0
 91
        0
 92
      512
 93
        0
300

 40
0.0
140
1.0
 94
        5
 62
     0
340
25
144
6.0
309
CONTENTFORMAT_END
171
     1
301
MARGIN
  1
CELLMARGIN_BEGIN
 40
1.5
 40
1.5
 40
1.5
 40
1.5
 40
0.18
 40
0.18
309
CELLMARGIN_END
 94
        6
 95
        1
302
GRIDFORMAT
  1
GRIDFORMAT_BEGIN
 90
        0
 91
        1
 62
     0
 92
       -2
340
28
 93
        0
 40
1.125
309
GRIDFORMAT_END
 95
        2
302
GRIDFORMAT
  1
GRIDFORMAT_BEGIN
 90
        0
 91
        1
 62
     0
 92
       -2
340
28
 93
        0
 40
1.125
309
GRIDFORMAT_END
 95
        4
302
GRIDFORMAT
  1
GRIDFORMAT_BEGIN
 90
        0
 91
        1
 62
     0
 92
       -2
340
28
 93
        0
 40
1.125
309
GRIDFORMAT_END
 95
        8
302
GRIDFORMAT
  1
GRIDFORMAT_BEGIN
 90
        0
 91
        1
 62
     0
 92
       -2
340
28
 93
        0
 40
1.125
309
GRIDFORMAT_END
 95
       16
302
GRIDFORMAT
  1
GRIDFORMAT_BEGIN
 90
        0
 91
        1
 62
     0
 92
       -2
340
28
 93
        0
 40
1.125
309
GRIDFORMAT_END
 95
       32
302
GRIDFORMAT
  1
GRIDFORMAT_BEGIN
 90
        0
 91
        1
 62
     0
 92
       -2
340
28
 93
        0
 40
1.125
309
GRIDFORMAT_END
309
TABLEFORMAT_END
  1
CELLSTYLE_BEGIN
 90
        1
 91
        1
300
_TITLE
309
CELLSTYLE_END
300
CELLSTYLE
  1
TABLEFORMAT_BEGIN
 90
        5
170
     1
 91
        0
 92
        0
 62
   257
 93
        1
300
CONTENTFORMAT
  1
CONTENTFORMAT_BEGIN
 90
        0
 91
        0
 92
      512
 93
        0
300

 40
0.0
140
1.0
 94
        5
 62
     0
340
25
144
4.5
309
CONTENTFORMAT_END
171
     1
301
MARGIN
  1
CELLMARGIN_BEGIN
 40
1.5
 40
1.5
 40
1.5
 40
1.5
 40
0.18
 40
0.18
309
CELLMARGIN_END
 94
        6
 95
        1
302
GRIDFORMAT
  1
GRIDFORMAT_BEGIN
 90
        0
 91
        1
 62
     0
 92
       -2
340
28
 93
        0
 40
1.125
309
GRIDFORMAT_END
 95
        2
302
GRIDFORMAT
  1
GRIDFORMAT_BEGIN
 90
        0
 91
        1
 62
     0
 92
       -2
340
28
 93
        0
 40
1.125
309
GRIDFORMAT_END
 95
        4
302
GRIDFORMAT
  1
GRIDFORMAT_BEGIN
 90
        0
 91
        1
 62
     0
 92
       -2
340
28
 93
        0
 40
1.125
309
GRIDFORMAT_END
 95
        8
302
GRIDFORMAT
  1
GRIDFORMAT_BEGIN
 90
        0
 91
        1
 62
     0
 92
       -2
340
28
 93
        0
 40
1.125
309
GRIDFORMAT_END
 95
       16
302
GRIDFORMAT
  1
GRIDFORMAT_BEGIN
 90
        0
 91
        1
 62
     0
 92
       -2
340
28
 93
        0
 40
1.125
309
GRIDFORMAT_END
 95
       32
302
GRIDFORMAT
  1
GRIDFORMAT_BEGIN
 90
        0
 91
        1
 62
     0
 92
       -2
340
28
 93
        0
 40
1.125
309
GRIDFORMAT_END
309
TABLEFORMAT_END
  1
CELLSTYLE_BEGIN
 90
        2
 91
        1
300
_HEADER
309
CELLSTYLE_END
300
CELLSTYLE
  1
TABLEFORMAT_BEGIN
 90
        5
170
     1
 91
        0
 92
        0
 62
   257
 93
        1
300
CONTENTFORMAT
  1
CONTENTFORMAT_BEGIN
 90
        0
 91
        0
 92
      512
 93
        0
300

 40
0.0
140
1.0
 94
        2
 62
     0
340
25
144
4.5
309
CONTENTFORMAT_END
171
     1
301
MARGIN
  1
CELLMARGIN_BEGIN
 40
1.5
 40
1.5
 40
1.5
 40
1.5
 40
0.18
 40
0.18
309
CELLMARGIN_END
 94
        6
 95
        1
302
GRIDFORMAT
  1
GRIDFORMAT_BEGIN
 90
        0
 91
        1
 62
     0
 92
       -2
340
28
 93
        0
 40
1.125
309
GRIDFORMAT_END
 95
        2
302
GRIDFORMAT
  1
GRIDFORMAT_BEGIN
 90
        0
 91
        1
 62
     0
 92
       -2
340
28
 93
        0
 40
1.125
309
GRIDFORMAT_END
 95
        4
302
GRIDFORMAT
  1
GRIDFORMAT_BEGIN
 90
        0
 91
        1
 62
     0
 92
       -2
340
28
 93
        0
 40
1.125
309
GRIDFORMAT_END
 95
        8
302
GRIDFORMAT
  1
GRIDFORMAT_BEGIN
 90
        0
 91
        1
 62
     0
 92
       -2
340
28
 93
        0
 40
1.125
309
GRIDFORMAT_END
 95
       16
302
GRIDFORMAT
  1
GRIDFORMAT_BEGIN
 90
        0
 91
        1
 62
     0
 92
       -2
340
28
 93
        0
 40
1.125
309
GRIDFORMAT_END
 95
       32
302
GRIDFORMAT
  1
GRIDFORMAT_BEGIN
 90
        0
 91
        1
 62
     0
 92
       -2
340
28
 93
        0
 40
1.125
309
GRIDFORMAT_END
309
TABLEFORMAT_END
  1
CELLSTYLE_BEGIN
 90
        3
 91
        2
300
_DATA
309
CELLSTYLE_END
  0
ENDSEC
  0
SECTION
  2
ACDSDATA
 70
     2
 71
     6
  0
ACDSSCHEMA
 90
        0
  1
AcDb_Thumbnail_Schema
  2
AcDbDs::ID
280
    10
 91
        8
  2
Thumbnail_Data
280
    15
 91
        0
101
ACDSRECORD
 95
        0
 90
        1
  2
AcDbDs::TreatedAsObjectData
280
     1
291
     1
101
ACDSRECORD
 95
        0
 90
        2
  2
AcDbDs::Legacy
280
     1
291
     1
101
ACDSRECORD
  1
AcDbDs::ID
 90
        3
  2
AcDs:Indexable
280
     1
291
     1
101
ACDSRECORD
  1
AcDbDs::ID
 90
        4
  2
AcDbDs::HandleAttribute
280
     7
282
     1
  0
ACDSSCHEMA
 90
        1
  1
AcDbDs::TreatedAsObjectDataSchema
  2
AcDbDs::TreatedAsObjectData
280
     1
 91
        0
  0
ACDSSCHEMA
 90
        2
  1
AcDbDs::LegacySchema
  2
AcDbDs::Legacy
280
     1
 91
        0
  0
ACDSSCHEMA
 90
        3
  1
AcDbDs::IndexedPropertySchema
  2
AcDs:Indexable
280
     1
 91
        0
  0
ACDSSCHEMA
 90
        4
  1
AcDbDs::HandleAttributeSchema
  2
AcDbDs::HandleAttribute
280
     7
 91
        1
284
     1
  0
ACDSRECORD
 90
        0
  2
AcDbDs::ID
280
    10
320
16
  2
Thumbnail_Data
280
    15
 94
     1894
310
89504E470D0A1A0A0000000D4948445200000100000000730803000000406D2C8F00000300504C5445000000000000C8C8C80000000000000000000000000000000000000000000000000000330000660000990000CC0000FF0033000033330033660033990033CC0033FF0066000066330066660066990066CC0066FF0099
310
000099330099660099990099CC0099FF00CC0000CC3300CC6600CC9900CCCC00CCFF00FF0000FF3300FF6600FF9900FFCC00FFFF3300003300333300663300993300CC3300FF3333003333333333663333993333CC3333FF3366003366333366663366993366CC3366FF3399003399333399663399993399CC3399FF33CC00
310
33CC3333CC6633CC9933CCCC33CCFF33FF0033FF3333FF6633FF9933FFCC33FFFF6600006600336600666600996600CC6600FF6633006633336633666633996633CC6633FF6666006666336666666666996666CC6666FF6699006699336699666699996699CC6699FF66CC0066CC3366CC6666CC9966CCCC66CCFF66FF0066
310
FF3366FF6666FF9966FFCC66FFFF9900009900339900669900999900CC9900FF9933009933339933669933999933CC9933FF9966009966339966669966999966CC9966FF9999009999339999669999999999CC9999FF99CC0099CC3399CC6699CC9999CCCC99CCFF99FF0099FF3399FF6699FF9999FFCC99FFFFCC0000CC00
310
33CC0066CC0099CC00CCCC00FFCC3300CC3333CC3366CC3399CC33CCCC33FFCC6600CC6633CC6666CC6699CC66CCCC66FFCC9900CC9933CC9966CC9999CC99CCCC99FFCCCC00CCCC33CCCC66CCCC99CCCCCCCCCCFFCCFF00CCFF33CCFF66CCFF99CCFFCCCCFFFFFF0000FF0033FF0066FF0099FF00CCFF00FFFF3300FF3333
310
FF3366FF3399FF33CCFF33FFFF6600FF6633FF6666FF6699FF66CCFF66FFFF9900FF9933FF9966FF9999FF99CCFF99FFFFCC00FFCC33FFCC66FFCC99FFCCCCFFCCFFFFFF00FFFF33FFFF66FFFF99FFFFCCFFFFFF0000000D0D0D1A1A1A2828283535354343435050505D5D5D6B6B6B787878868686939393A1A1A1AEAEAEBB
310
BBBBC9C9C9D6D6D6E4E4E4F1F1F1FFFFFF00000000000000000000000000000000000000000000000000000000000008F1915C000004214944415478DAED9D5B9683200C86B39CBCB8B32E996DE47DBC80DC318CAD5C0CA7A73DE3414B3EFE8420D801F851A1EFD62318AD700D1B0E00258A52C429CC6AFC7AA9834D7A5629
310
D6A9CC6AFC7A4D944253789E0010000240000800012000048000100002A0B270272AADCACFDBF77A00120304800010000240000800EEA88CEF05A056E3557D5AA26E32130002607000D03900FEE21B0340AAB76F2BE0E7AB83BD0318C9052601A0B602C72BB4A41E00C0880040690C9E21846ED1CEE9FA281780AA08A60D00
310
B8564696D823B4ECA7D2C202E05DCB03107E4B5731007D303E00D808680C25B96348352C340880580187FEED6E96DD2FA2710BAF02010E0A0056092C70BCCC276E6F01815100A422531940C27EDC3F07061084BE1800D93120B67F25B07F0E0940DBE501C0A8A1A487BF25A5FF050E1708080C1503FCC6A29792D36ABB1179
310
C6FE058FCF9900D8ED8A0BEE5D5CB27F73812808740EC08F7C6E63F72E27639C0EF158B4FFE4435F03F0F0DAE0EEC37A343FFB737F5B0E7D63C67EFD97E14378AFD073000217D87D7DB5642D91BFA38690B7FF44060E3AD4F123BB0738560062AB18B00FEE685A8EB1BEB168BF1905BC37B4D171714E253783743B3FCAB71E
310
05103548593BD1B33065FFC9CEE766A4B124F6A65FE54D8F0380A091CA8A173D29A7EC8F5CC0080AB0B44D3EEEFCC600BC2069EB79DAD4E343661488B2432A1843F63EC45000927D993AB4E5975C00FABED31000B28954707D3C6BF50F00777FF483A075D0E086983EA25D58B971DCAD4CF63D931D1C883A51005C646C683D
310
C0F42A394A31BD7D7597A85F17A802401680822C00E81B00FD1F001CE33803005502704701FAB5FD37009CE79C09FB1D05B82320E61AD89302EC538176C2720F403213A47E63001C71200A783C00B9B900369D0B20FD00403A67F2E77EAA93D920969E56AD0250F1F02B0246CB704D6F8941A6E535002A6F806C7104936B72
310
4D0084DAAD0640B1AAAF5C2BB75EDA144000A2060090AA02B011E817801320CCB2F825808AFD44E8CFBA3A06007695B708E09838B20974B72EC06928C22500E412980800EAA594B25B4F07C0CDE8F4A881BC89F058003001800217B0994D450BBA5B1AAB5100A400F0DDFFFA4B9F5F1A2B280013DBC4883079D5610054C480
310
40E5A573AA24304C10AC015043604A003561704E00153B6447056086C5DBFB8307057066062F06000240000880A90028EE930CA622A6CF51354F44A872B6FBEC5363FF029030A01680E236B01705EC667F4B01AAA902EE7C837AE21758BA06A004C0BB013C5204800010000240000880E90010BF4C0A203AF209CA63CD6BF3
310
838A94D6C227EEF7497F51320D005A0068EC02BE003EB1EBF71B0314BF7083A00BA0FF20780FC004C3A000F8168072FD17E401AF0720A9B0A4C26F5480593BB88C9A02405CA0A378D4A434B90DC34CDED259FEBF2F07FDFCAB831B00A035803F489B9330D54803A10000000049454E44AE426082
  0
ACDSRECORD
 90
        0
  2
AcDbDs::ID
280
    10
320
1E
  2
Thumbnail_Data
280
    15
 94
     1014
310
89504E470D0A1A0A0000000D49484452000000B80000007F08030000006B00F8F900000300504C5445FFFFFF000000FFFFFF0000000000000000000000000000000000000000000000000000330000660000990000CC0000FF0033000033330033660033990033CC0033FF0066000066330066660066990066CC0066FF0099
310
000099330099660099990099CC0099FF00CC0000CC3300CC6600CC9900CCCC00CCFF00FF0000FF3300FF6600FF9900FFCC00FFFF3300003300333300663300993300CC3300FF3333003333333333663333993333CC3333FF3366003366333366663366993366CC3366FF3399003399333399663399993399CC3399FF33CC00
310
33CC3333CC6633CC9933CCCC33CCFF33FF0033FF3333FF6633FF9933FFCC33FFFF6600006600336600666600996600CC6600FF6633006633336633666633996633CC6633FF6666006666336666666666996666CC6666FF6699006699336699666699996699CC6699FF66CC0066CC3366CC6666CC9966CCCC66CCFF66FF0066
310
FF3366FF6666FF9966FFCC66FFFF9900009900339900669900999900CC9900FF9933009933339933669933999933CC9933FF9966009966339966669966999966CC9966FF9999009999339999669999999999CC9999FF99CC0099CC3399CC6699CC9999CCCC99CCFF99FF0099FF3399FF6699FF9999FFCC99FFFFCC0000CC00
310
33CC0066CC0099CC00CCCC00FFCC3300CC3333CC3366CC3399CC33CCCC33FFCC6600CC6633CC6666CC6699CC66CCCC66FFCC9900CC9933CC9966CC9999CC99CCCC99FFCCCC00CCCC33CCCC66CCCC99CCCCCCCCCCFFCCFF00CCFF33CCFF66CCFF99CCFFCCCCFFFFFF0000FF0033FF0066FF0099FF00CCFF00FFFF3300FF3333
310
FF3366FF3399FF33CCFF33FFFF6600FF6633FF6666FF6699FF66CCFF66FFFF9900FF9933FF9966FF9999FF99CCFF99FFFFCC00FFCC33FFCC66FFCC99FFCCCCFFCCFFFFFF00FFFF33FFFF66FFFF99FFFFCCFFFFFF0000000D0D0D1A1A1A2828283535354343435050505D5D5D6B6B6B787878868686939393A1A1A1AEAEAEBB
310
BBBBC9C9C9D6D6D6E4E4E4F1F1F1FFFFFF000000000000000000000000000000000000000000000000000000000000790CAC0F000000B14944415478DAEDDC3B0A80301004D0DCFF987B81ADEC258D4D8A547E46DE968AF01061B25338BAE2A6C79CAE236C72E105FE3EFCFAFED72BBB1B373FB2837FF62D838383833F0A97
310
9CE0E0E0E0E1E771C9090E0E0E0E0E0E0E0EAE9EB04880838383AB27443E3838383838383838B87A021C1C1C1C5CAF22F2C1C1C1C1C1C1C1C1C1F52A362070707070F5043838383838383838B87AC222010E0E0EAE9E909CE0E0E099F0D47F7A4A4EF05FC2F366BA4F0386279D40CB09810000000049454E44AE426082
  0
ENDSEC
  0
EOF
