  0
SECTION
  2
HEADER
  9
$ACADVER
  1
AC1027
  9
$ACADMAINTVER
 70
    55
  9
$DWGCODEPAGE
  3
ANSI_949
  9
$LASTSAVEDBY
  1
DESKTOP
  9
$REQUIREDVERSIONS
160
                 0
  9
$INSBASE
 10
0.0
 20
0.0
 30
0.0
  9
$EXTMIN
 10
-2.892150268161003
 20
-2.872016267574849
 30
-0.0015258207003583
  9
$EXTMAX
 10
278.7509482283408
 20
195.6565800002605
 30
0.0000000349246037
  9
$LIMMIN
 10
0.0
 20
0.0
  9
$LIMMAX
 10
420.0
 20
297.0
  9
$ORTHOMODE
 70
     0
  9
$REGENMODE
 70
     1
  9
$FILLMODE
 70
     1
  9
$QTEXTMODE
 70
     0
  9
$MIRRTEXT
 70
     0
  9
$LTSCALE
 40
5.0
  9
$ATTMODE
 70
     1
  9
$TEXTSIZE
 40
3.0
  9
$TRACEWID
 40
1.0
  9
$TEXTSTYLE
  7
Standard
  9
$CLAYER
  8
0
  9
$CELTYPE
  6
Continuous
  9
$CECOLOR
 62
     7
  9
$CELTSCALE
 40
1.0
  9
$DISPSILH
 70
     0
  9
$DIMSCALE
 40
1.0
  9
$DIMASZ
 40
2.5
  9
$DIMEXO
 40
0.625
  9
$DIMDLI
 40
3.75
  9
$DIMRND
 40
0.0
  9
$DIMDLE
 40
0.0
  9
$DIMEXE
 40
1.25
  9
$DIMTP
 40
0.0
  9
$DIMTM
 40
0.000000001
  9
$DIMTXT
 40
3.0
  9
$DIMCEN
 40
-0.5
  9
$DIMTSZ
 40
0.0
  9
$DIMTOL
 70
     0
  9
$DIMLIM
 70
     0
  9
$DIMTIH
 70
     0
  9
$DIMTOH
 70
     0
  9
$DIMSE1
 70
     0
  9
$DIMSE2
 70
     0
  9
$DIMTAD
 70
     1
  9
$DIMZIN
 70
     8
  9
$DIMBLK
  1

  9
$DIMASO
 70
     1
  9
$DIMSHO
 70
     1
  9
$DIMPOST
  1

  9
$DIMAPOST
  1

  9
$DIMALT
 70
     0
  9
$DIMALTD
 70
     3
  9
$DIMALTF
 40
0.03937007874016
  9
$DIMLFAC
 40
1.0
  9
$DIMTOFL
 70
     1
  9
$DIMTVP
 40
0.0
  9
$DIMTIX
 70
     0
  9
$DIMSOXD
 70
     0
  9
$DIMSAH
 70
     0
  9
$DIMBLK1
  1

  9
$DIMBLK2
  1

  9
$DIMSTYLE
  2
Standard
  9
$DIMCLRD
 70
     3
  9
$DIMCLRE
 70
     3
  9
$DIMCLRT
 70
     2
  9
$DIMTFAC
 40
0.7
  9
$DIMGAP
 40
0.625
  9
$DIMJUST
 70
     0
  9
$DIMSD1
 70
     0
  9
$DIMSD2
 70
     0
  9
$DIMTOLJ
 70
     0
  9
$DIMTZIN
 70
     8
  9
$DIMALTZ
 70
     0
  9
$DIMALTTZ
 70
     0
  9
$DIMUPT
 70
     0
  9
$DIMDEC
 70
     8
  9
$DIMTDEC
 70
     8
  9
$DIMALTU
 70
     2
  9
$DIMALTTD
 70
     3
  9
$DIMTXSTY
  7
Standard
  9
$DIMAUNIT
 70
     1
  9
$DIMADEC
 70
     0
  9
$DIMALTRND
 40
0.0
  9
$DIMAZIN
 70
     0
  9
$DIMDSEP
 70
    46
  9
$DIMATFIT
 70
     3
  9
$DIMFRAC
 70
     0
  9
$DIMLDRBLK
  1

  9
$DIMLUNIT
 70
     2
  9
$DIMLWD
 70
    -1
  9
$DIMLWE
 70
    -1
  9
$DIMTMOVE
 70
     0
  9
$DIMFXL
 40
1.0
  9
$DIMFXLON
 70
     0
  9
$DIMJOGANG
 40
0.7853981633974483
  9
$DIMTFILL
 70
     0
  9
$DIMTFILLCLR
 70
     0
  9
$DIMARCSYM
 70
     1
  9
$DIMLTYPE
  6

  9
$DIMLTEX1
  6

  9
$DIMLTEX2
  6

  9
$DIMTXTDIRECTION
 70
     0
  9
$LUNITS
 70
     2
  9
$LUPREC
 70
     4
  9
$SKETCHINC
 40
0.0
  9
$FILLETRAD
 40
0.0
  9
$AUNITS
 70
     0
  9
$AUPREC
 70
     0
  9
$MENU
  1
.
  9
$ELEVATION
 40
0.0
  9
$PELEVATION
 40
0.0
  9
$THICKNESS
 40
0.0
  9
$LIMCHECK
 70
     0
  9
$CHAMFERA
 40
1.5
  9
$CHAMFERB
 40
1.5
  9
$CHAMFERC
 40
0.0
  9
$CHAMFERD
 40
0.0087266462599716
  9
$SKPOLY
 70
     0
  9
$TDCREATE
 40
2455072.745932974
  9
$TDUCREATE
 40
2455072.370932974
  9
$TDUPDATE
 40
2460966.487534884
  9
$TDUUPDATE
 40
2460966.112534884
  9
$TDINDWG
 40
132.0778943519
  9
$TDUSRTIMER
 40
132.0778941667
  9
$USRTIMER
 70
     1
  9
$ANGBASE
 50
0.0
  9
$ANGDIR
 70
     0
  9
$PDMODE
 70
     0
  9
$PDSIZE
 40
0.0
  9
$PLINEWID
 40
0.0
  9
$SPLFRAME
 70
     0
  9
$SPLINETYPE
 70
     6
  9
$SPLINESEGS
 70
     8
  9
$HANDSEED
  5
3A9A0
  9
$SURFTAB1
 70
     6
  9
$SURFTAB2
 70
     6
  9
$SURFTYPE
 70
     6
  9
$SURFU
 70
     6
  9
$SURFV
 70
     6
  9
$UCSBASE
  2

  9
$UCSNAME
  2

  9
$UCSORG
 10
0.0
 20
0.0
 30
0.0
  9
$UCSXDIR
 10
1.0
 20
0.0
 30
0.0
  9
$UCSYDIR
 10
0.0
 20
1.0
 30
0.0
  9
$UCSORTHOREF
  2

  9
$UCSORTHOVIEW
 70
     0
  9
$UCSORGTOP
 10
0.0
 20
0.0
 30
0.0
  9
$UCSORGBOTTOM
 10
0.0
 20
0.0
 30
0.0
  9
$UCSORGLEFT
 10
0.0
 20
0.0
 30
0.0
  9
$UCSORGRIGHT
 10
0.0
 20
0.0
 30
0.0
  9
$UCSORGFRONT
 10
0.0
 20
0.0
 30
0.0
  9
$UCSORGBACK
 10
0.0
 20
0.0
 30
0.0
  9
$PUCSBASE
  2

  9
$PUCSNAME
  2

  9
$PUCSORG
 10
0.0
 20
0.0
 30
0.0
  9
$PUCSXDIR
 10
1.0
 20
0.0
 30
0.0
  9
$PUCSYDIR
 10
0.0
 20
1.0
 30
0.0
  9
$PUCSORTHOREF
  2

  9
$PUCSORTHOVIEW
 70
     0
  9
$PUCSORGTOP
 10
0.0
 20
0.0
 30
0.0
  9
$PUCSORGBOTTOM
 10
0.0
 20
0.0
 30
0.0
  9
$PUCSORGLEFT
 10
0.0
 20
0.0
 30
0.0
  9
$PUCSORGRIGHT
 10
0.0
 20
0.0
 30
0.0
  9
$PUCSORGFRONT
 10
0.0
 20
0.0
 30
0.0
  9
$PUCSORGBACK
 10
0.0
 20
0.0
 30
0.0
  9
$USERI1
 70
     0
  9
$USERI2
 70
     0
  9
$USERI3
 70
     0
  9
$USERI4
 70
     0
  9
$USERI5
 70
     0
  9
$USERR1
 40
0.0
  9
$USERR2
 40
0.0
  9
$USERR3
 40
0.0
  9
$USERR4
 40
0.0
  9
$USERR5
 40
0.0
  9
$WORLDVIEW
 70
     1
  9
$SHADEDGE
 70
     3
  9
$SHADEDIF
 70
    70
  9
$TILEMODE
 70
     1
  9
$MAXACTVP
 70
    64
  9
$PINSBASE
 10
0.0
 20
0.0
 30
0.0
  9
$PLIMCHECK
 70
     0
  9
$PEXTMIN
 10
1.000000000000000E+20
 20
1.000000000000000E+20
 30
1.000000000000000E+20
  9
$PEXTMAX
 10
-1.000000000000000E+20
 20
-1.000000000000000E+20
 30
-1.000000000000000E+20
  9
$PLIMMIN
 10
-20.0
 20
-7.5
  9
$PLIMMAX
 10
277.0
 20
202.5
  9
$UNITMODE
 70
     0
  9
$VISRETAIN
 70
     1
  9
$PLINEGEN
 70
     0
  9
$PSLTSCALE
 70
     1
  9
$TREEDEPTH
 70
  3020
  9
$CMLSTYLE
  2
Standard
  9
$CMLJUST
 70
     0
  9
$CMLSCALE
 40
20.0
  9
$PROXYGRAPHICS
 70
     1
  9
$MEASUREMENT
 70
     1
  9
$CELWEIGHT
370
    -1
  9
$ENDCAPS
280
     0
  9
$JOINSTYLE
280
     0
  9
$LWDISPLAY
290
     0
  9
$INSUNITS
 70
     4
  9
$HYPERLINKBASE
  1

  9
$STYLESHEET
  1
ksm0910.ctb
  9
$XEDIT
290
     1
  9
$CEPSNTYPE
380
     0
  9
$PSTYLEMODE
290
     1
  9
$FINGERPRINTGUID
  2
{D2C70C36-9B4F-4E20-9CCB-531AA1EE4AC8}
  9
$VERSIONGUID
  2
{DF3C3C6D-2079-4049-B93F-E23DA9C748F2}
  9
$EXTNAMES
290
     1
  9
$PSVPSCALE
 40
0.0
  9
$OLESTARTUP
290
     0
  9
$SORTENTS
280
   127
  9
$INDEXCTL
280
     0
  9
$HIDETEXT
280
     1
  9
$XCLIPFRAME
280
     2
  9
$HALOGAP
280
     0
  9
$OBSCOLOR
 70
   257
  9
$OBSLTYPE
280
     0
  9
$INTERSECTIONDISPLAY
280
     0
  9
$INTERSECTIONCOLOR
 70
   257
  9
$DIMASSOC
280
     1
  9
$PROJECTNAME
  1

  9
$CAMERADISPLAY
290
     0
  9
$LENSLENGTH
 40
50.0
  9
$CAMERAHEIGHT
 40
0.0
  9
$STEPSPERSEC
 40
2.0
  9
$STEPSIZE
 40
6.0
  9
$3DDWFPREC
 40
2.0
  9
$PSOLWIDTH
 40
5.0
  9
$PSOLHEIGHT
 40
80.0
  9
$LOFTANG1
 40
1.570796326794896
  9
$LOFTANG2
 40
1.570796326794896
  9
$LOFTMAG1
 40
0.0
  9
$LOFTMAG2
 40
0.0
  9
$LOFTPARAM
 70
     7
  9
$LOFTNORMALS
280
     1
  9
$LATITUDE
 40
37.795
  9
$LONGITUDE
 40
-122.394
  9
$NORTHDIRECTION
 40
0.0
  9
$TIMEZONE
 70
 -8000
  9
$LIGHTGLYPHDISPLAY
280
     1
  9
$TILEMODELIGHTSYNCH
280
     1
  9
$CMATERIAL
347
3D
  9
$SOLIDHIST
280
     1
  9
$SHOWHIST
280
     1
  9
$DWFFRAME
280
     2
  9
$DGNFRAME
280
     0
  9
$REALWORLDSCALE
290
     1
  9
$INTERFERECOLOR
 62
     1
  9
$INTERFEREOBJVS
345
46
  9
$INTERFEREVPVS
346
47
  9
$CSHADOW
280
     0
  9
$SHADOWPLANELOCATION
 40
0.0
  0
ENDSEC
  0
SECTION
  2
CLASSES
  0
CLASS
  1
ACDBDICTIONARYWDFLT
  2
AcDbDictionaryWithDefault
  3
ObjectDBX Classes
 90
        0
 91
        1
280
     0
281
     0
  0
CLASS
  1
DICTIONARYVAR
  2
AcDbDictionaryVar
  3
ObjectDBX Classes
 90
        0
 91
       24
280
     0
281
     0
  0
CLASS
  1
TABLESTYLE
  2
AcDbTableStyle
  3
ObjectDBX Classes
 90
     4095
 91
        1
280
     0
281
     0
  0
CLASS
  1
MATERIAL
  2
AcDbMaterial
  3
ObjectDBX Classes
 90
     1153
 91
        3
280
     0
281
     0
  0
CLASS
  1
VISUALSTYLE
  2
AcDbVisualStyle
  3
ObjectDBX Classes
 90
     4095
 91
       26
280
     0
281
     0
  0
CLASS
  1
SCALE
  2
AcDbScale
  3
ObjectDBX Classes
 90
     1153
 91
       17
280
     0
281
     0
  0
CLASS
  1
MLEADERSTYLE
  2
AcDbMLeaderStyle
  3
ACDB_MLEADERSTYLE_CLASS
 90
     4095
 91
        1
280
     0
281
     0
  0
CLASS
  1
CELLSTYLEMAP
  2
AcDbCellStyleMap
  3
ObjectDBX Classes
 90
     1152
 91
        4
280
     0
281
     0
  0
CLASS
  1
SORTENTSTABLE
  2
AcDbSortentsTable
  3
ObjectDBX Classes
 90
        0
 91
        3
280
     0
281
     0
  0
CLASS
  1
DIMASSOC
  2
AcDbDimAssoc
  3
"AcDbDimAssoc|Product Desc:     AcDim ARX App For Dimension|Company:          Autodesk, Inc.|WEB Address:      www.autodesk.com"
 90
        0
 91
        0
280
     0
281
     0
  0
CLASS
  1
SOLID_BACKGROUND
  2
AcDbSolidBackground
  3
SCENEOE
 90
     4095
 91
        0
280
     0
281
     0
  0
CLASS
  1
NPOCOLLECTION
  2
AcDbImpNonPersistentObjectsCollection
  3
ObjectDBX Classes
 90
     1153
 91
        0
280
     0
281
     0
  0
CLASS
  1
ACAD_EVALUATION_GRAPH
  2
AcDbEvalGraph
  3
ObjectDBX Classes
 90
     1153
 91
        0
280
     0
281
     0
  0
CLASS
  1
ACAECUSTOBJ
  2
AcAeEditorObj
  3
AcAeEditorObj
 90
     1024
 91
        0
280
     1
281
     0
  0
CLASS
  1
ACDB_DYNAMICBLOCKPURGEPREVENTER_VERSION
  2
AcDbDynamicBlockPurgePreventer
  3
ObjectDBX Classes
 90
     1153
 91
        0
280
     0
281
     0
  0
CLASS
  1
HELIX
  2
AcDbHelix
  3
ObjectDBX Classes
 90
     4095
 91
        0
280
     0
281
     1
  0
CLASS
  1
MULTILEADER
  2
AcDbMLeader
  3
ACDB_MLEADER_CLASS
 90
     1025
 91
       25
280
     0
281
     1
  0
CLASS
  1
ACMDIMBREAKPERSREACTOR
  2
AcmDimBreakPersReactor
  3
amgDimApp().moduleName()
 90
     1023
 91
        0
280
     1
281
     0
  0
CLASS
  1
ACDB_MTEXTOBJECTCONTEXTDATA_CLASS
  2
AcDbMTextObjectContextData
  3
ObjectDBX Classes
 90
     1153
 91
        0
280
     0
281
     0
  0
CLASS
  1
BREAKDATA
  2
AcDbBreakData
  3
ObjectDBX Classes
 90
     1024
 91
        0
280
     0
281
     0
  0
CLASS
  1
EXACXREFPANELOBJECT
  2
ExAcXREFPanelObject
  3
EXAC_ESW
 90
     1025
 91
        0
280
     1
281
     0
  0
CLASS
  1
ACDBSECTIONVIEWSTYLE
  2
AcDbSectionViewStyle
  3
ObjectDBX Classes
 90
     1025
 91
        2
280
     0
281
     0
  0
CLASS
  1
ACDBDETAILVIEWSTYLE
  2
AcDbDetailViewStyle
  3
ObjectDBX Classes
 90
     1025
 91
        2
280
     0
281
     0
  0
CLASS
  1
ACDBASSOCACTION
  2
AcDbAssocAction
  3
ObjectDBX Classes
 90
     1025
 91
        0
280
     0
281
     0
  0
CLASS
  1
ACDBASSOCARRAYACTIONBODY
  2
AcDbAssocArrayActionBody
  3
ObjectDBX Classes
 90
     1025
 91
        0
280
     0
281
     0
  0
CLASS
  1
ACDBASSOCDEPENDENCY
  2
AcDbAssocDependency
  3
ObjectDBX Classes
 90
     1025
 91
        0
280
     0
281
     0
  0
CLASS
  1
ACDBASSOCVERTEXACTIONPARAM
  2
AcDbAssocVertexActionParam
  3
ObjectDBX Classes
 90
     1025
 91
        0
280
     0
281
     0
  0
CLASS
  1
ACDBASSOCARRAYPOLARPARAMETERS
  2
AcDbAssocArrayPolarParameters
  3
ObjectDBX Classes
 90
     1025
 91
        0
280
     0
281
     0
  0
CLASS
  1
ACDBASSOCNETWORK
  2
AcDbAssocNetwork
  3
ObjectDBX Classes
 90
     1025
 91
        0
280
     0
281
     0
  0
CLASS
  1
ACARRAYJIGENTITY
  2
AcArrayJigEntity
  3
ACAD_ARRAY
 90
      129
 91
        0
280
     0
281
     1
  0
ENDSEC
  0
SECTION
  2
TABLES
  0
TABLE
  2
VPORT
  5
2C
102
{ACAD_XDICTIONARY
360
31
102
}
330
0
100
AcDbSymbolTable
 70
     1
  0
VPORT
  5
2D
330
2C
100
AcDbSymbolTableRecord
100
AcDbViewportTableRecord
  2
*Active
 70
     0
 10
0.0
 20
0.0
 11
1.0
 21
1.0
 12
137.9293989800899
 22
96.39228186634284
 13
0.0
 23
0.0
 14
2.0
 24
2.0
 15
2.0
 25
2.0
 16
0.0
 26
0.0
 36
1.0
 17
0.0
 27
0.0
 37
0.0
 40
199.9483478502036
 41
2.15871121718377
 42
50.0
 43
0.0
 44
0.0
 50
0.0
 51
0.0
 71
     0
 72
  1000
 73
     1
 74
     3
 75
     0
 76
     0
 77
     0
 78
     1
281
     0
 65
     1
110
0.0
120
0.0
130
0.0
111
1.0
121
0.0
131
0.0
112
0.0
122
1.0
132
0.0
 79
     0
146
0.0
348
2E
 60
     3
 61
     5
292
     1
282
     1
141
0.0
142
0.0
 63
   250
421
  3355443
1001
ACAD_NAV_VCDISPLAY
1070
     3
  0
ENDTAB
  0
TABLE
  2
LTYPE
  5
27
330
0
100
AcDbSymbolTable
 70
     6
  0
LTYPE
  5
28
330
27
100
AcDbSymbolTableRecord
100
AcDbLinetypeTableRecord
  2
ByBlock
 70
     0
  3

 72
    65
 73
     0
 40
0.0
  0
LTYPE
  5
29
330
27
100
AcDbSymbolTableRecord
100
AcDbLinetypeTableRecord
  2
ByLayer
 70
     0
  3

 72
    65
 73
     0
 40
0.0
  0
LTYPE
  5
14
330
27
100
AcDbSymbolTableRecord
100
AcDbLinetypeTableRecord
  2
Continuous
 70
     0
  3
Solid line
 72
    65
 73
     0
 40
0.0
  0
LTYPE
  5
36DF9
330
27
100
AcDbSymbolTableRecord
100
AcDbLinetypeTableRecord
  2
CENTER2
 70
     0
  3
Center (.5x) ___ _ ___ _ ___ _ ___ _ ___ _ ___
 72
    65
 73
     4
 40
1.125
 49
0.75
 74
     0
 49
-0.125
 74
     0
 49
0.125
 74
     0
 49
-0.125
 74
     0
  0
LTYPE
  5
39E15
330
27
100
AcDbSymbolTableRecord
100
AcDbLinetypeTableRecord
  2
CENTER
 70
     0
  3
____ _ ____ _ ____ _ ____ _ ____ _ ____ _ ____ 
 72
    65
 73
     4
 40
2.0
 49
1.25
 74
     0
 49
-0.25
 74
     0
 49
0.25
 74
     0
 49
-0.25
 74
     0
  0
LTYPE
  5
3A233
330
27
100
AcDbSymbolTableRecord
100
AcDbLinetypeTableRecord
  2
HIDDEN
 70
     0
  3
Hidden __ __ __ __ __ __ __ __ __ __ __ __ __ _
 72
    65
 73
     2
 40
9.524999999999998
 49
6.349999999999999
 74
     0
 49
-3.174999999999999
 74
     0
  0
ENDTAB
  0
TABLE
  2
LAYER
  5
21
102
{ACAD_XDICTIONARY
360
22
102
}
330
0
100
AcDbSymbolTable
 70
    19
  0
LAYER
  5
6
102
{ACAD_XDICTIONARY
360
7
102
}
330
21
100
AcDbSymbolTableRecord
100
AcDbLayerTableRecord
  2
0
 70
     0
 62
     7
  6
Continuous
370
    -3
390
9
347
C
348
0
  0
LAYER
  5
1A4
330
21
100
AcDbSymbolTableRecord
100
AcDbLayerTableRecord
  2
DEFPOINTS
 70
     0
 62
     7
  6
Continuous
290
     0
370
    -3
390
9
347
C
348
0
  0
LAYER
  5
283CB
330
21
100
AcDbSymbolTableRecord
100
AcDbLayerTableRecord
  2
Layer 1
 70
     0
 62
     7
  6
Continuous
370
     0
390
9
347
C
348
0
  0
LAYER
  5
36DFC
330
21
100
AcDbSymbolTableRecord
100
AcDbLayerTableRecord
  2
06-D06-75
 70
     0
 62
     7
  6
Continuous
370
    -3
390
9
347
C
348
0
1001
AcAecLayerStandard
1000

1000

  0
LAYER
  5
36DFD
330
21
100
AcDbSymbolTableRecord
100
AcDbLayerTableRecord
  2
26-D06-105
 70
     0
 62
     7
  6
Continuous
370
    -3
390
9
347
C
348
0
1001
AcAecLayerStandard
1000

1000

  0
LAYER
  5
36DFE
330
21
100
AcDbSymbolTableRecord
100
AcDbLayerTableRecord
  2
32-D12-105
 70
     0
 62
     7
  6
Continuous
370
    -3
390
9
347
C
348
0
1001
AcAecLayerStandard
1000

1000

  0
LAYER
  5
36DFF
330
21
100
AcDbSymbolTableRecord
100
AcDbLayerTableRecord
  2
28-D08-105
 70
     0
 62
     7
  6
Continuous
370
    -3
390
9
347
C
348
0
1001
AcAecLayerStandard
1000

1000

  0
LAYER
  5
36E00
330
21
100
AcDbSymbolTableRecord
100
AcDbLayerTableRecord
  2
30-D10-105
 70
     0
 62
     7
  6
Continuous
370
    -3
390
9
347
C
348
0
1001
AcAecLayerStandard
1000

1000

  0
LAYER
  5
36E01
330
21
100
AcDbSymbolTableRecord
100
AcDbLayerTableRecord
  2
36-D16-105
 70
     0
 62
     7
  6
Continuous
370
    -3
390
9
347
C
348
0
1001
AcAecLayerStandard
1000

1000

  0
LAYER
  5
39E17
330
21
100
AcDbSymbolTableRecord
100
AcDbLayerTableRecord
  2
63-BT50-165
 70
     0
 62
     7
  6
Continuous
370
    -3
390
9
347
C
348
0
1001
AcAecLayerStandard
1000

1000

  0
LAYER
  5
39E18
330
21
100
AcDbSymbolTableRecord
100
AcDbLayerTableRecord
  2
51-BT40-45
 70
     0
 62
     7
  6
Continuous
370
    -3
390
9
347
C
348
0
1001
AcAecLayerStandard
1000

1000

  0
LAYER
  5
39E19
330
21
100
AcDbSymbolTableRecord
100
AcDbLayerTableRecord
  2
61-BT50-60
 70
     0
 62
     7
  6
Continuous
370
    -3
390
9
347
C
348
0
1001
AcAecLayerStandard
1000

1000

  0
ENDTAB
  0
TABLE
  2
STYLE
  5
24
330
0
100
AcDbSymbolTable
 70
     5
  0
STYLE
  5
25
330
24
100
AcDbSymbolTableRecord
100
AcDbTextStyleTableRecord
  2
Standard
 70
     0
 40
3.0
 41
1.0
 50
0.0
 71
     0
 42
3.0
  3
isocp.shx
  4
whgtxt.shx
  0
STYLE
  5
35
330
24
100
AcDbSymbolTableRecord
100
AcDbTextStyleTableRecord
  2
ROMANS
 70
     0
 40
2.5
 41
1.0
 50
0.0
 71
     0
 42
2.5
  3
romans.shx
  4

  0
STYLE
  5
5C
330
24
100
AcDbSymbolTableRecord
100
AcDbTextStyleTableRecord
  2
굴림
 70
     0
 40
3.0
 41
1.0
 50
0.0
 71
     0
 42
3.0
  3

  4

1001
ACAD
1000
Gulim
1071
    33074
  0
ENDTAB
  0
TABLE
  2
VIEW
  5
2A
330
0
100
AcDbSymbolTable
 70
     2
  0
ENDTAB
  0
TABLE
  2
UCS
  5
2B
330
0
100
AcDbSymbolTable
 70
     0
  0
ENDTAB
  0
TABLE
  2
APPID
  5
32
330
0
100
AcDbSymbolTable
 70
    45
  0
APPID
  5
13
330
32
100
AcDbSymbolTableRecord
100
AcDbRegAppTableRecord
  2
ACAD
 70
     0
  0
APPID
  5
1A
330
32
100
AcDbSymbolTableRecord
100
AcDbRegAppTableRecord
  2
ACAD_PSEXT
 70
     0
  0
APPID
  5
37
330
32
100
AcDbSymbolTableRecord
100
AcDbRegAppTableRecord
  2
ACAD_DSTYLE_DIMJAG
 70
     0
  0
APPID
  5
38
330
32
100
AcDbSymbolTableRecord
100
AcDbRegAppTableRecord
  2
ACAD_DSTYLE_DIMTALN
 70
     0
  0
APPID
  5
36
330
32
100
AcDbSymbolTableRecord
100
AcDbRegAppTableRecord
  2
ACAD_DSTYLE_DIMJOGGED_JOGANGLE_SYMBOL
 70
     0
  0
APPID
  5
183
330
32
100
AcDbSymbolTableRecord
100
AcDbRegAppTableRecord
  2
AcAecLayerStandard
 70
     0
  0
APPID
  5
3DE
330
32
100
AcDbSymbolTableRecord
100
AcDbRegAppTableRecord
  2
ACAD_DSTYLE_DIMRADIAL_EXTENSION
 70
     0
  0
APPID
  5
530
330
32
100
AcDbSymbolTableRecord
100
AcDbRegAppTableRecord
  2
GRADIENTCOLOR1ACI
 70
     0
  0
APPID
  5
531
330
32
100
AcDbSymbolTableRecord
100
AcDbRegAppTableRecord
  2
GRADIENTCOLOR2ACI
 70
     0
  0
APPID
  5
30
330
32
100
AcDbSymbolTableRecord
100
AcDbRegAppTableRecord
  2
ACAD_NAV_VCDISPLAY
 70
     0
  0
APPID
  5
C34
330
32
100
AcDbSymbolTableRecord
100
AcDbRegAppTableRecord
  2
ACAD_MLEADERVER
 70
     0
  0
APPID
  5
C97
330
32
100
AcDbSymbolTableRecord
100
AcDbRegAppTableRecord
  2
ACAD_EXEMPT_FROM_CAD_STANDARDS
 70
     0
  0
APPID
  5
D79
330
32
100
AcDbSymbolTableRecord
100
AcDbRegAppTableRecord
  2
AcadAnnoMonitorAlertIconDisabled
 70
     0
  0
APPID
  5
1A45
330
32
100
AcDbSymbolTableRecord
100
AcDbRegAppTableRecord
  2
GENIUS_GENODEF_13
 70
     0
  0
APPID
  5
1A46
330
32
100
AcDbSymbolTableRecord
100
AcDbRegAppTableRecord
  2
GENIUS_GENOBJ-N-FIL_13
 70
     0
  0
APPID
  5
1A47
330
32
100
AcDbSymbolTableRecord
100
AcDbRegAppTableRecord
  2
ACAD_DSTYLE_DIMBREAK
 70
     0
  0
APPID
  5
1A48
330
32
100
AcDbSymbolTableRecord
100
AcDbRegAppTableRecord
  2
GENIUS_GENOBJ-N-HTC_13
 70
     0
  0
APPID
  5
1A49
330
32
100
AcDbSymbolTableRecord
100
AcDbRegAppTableRecord
  2
GENIUS_GENHATCH_13
 70
     0
  0
APPID
  5
1A4A
330
32
100
AcDbSymbolTableRecord
100
AcDbRegAppTableRecord
  2
GENIUS_GENREC_14
 70
     0
  0
APPID
  5
1A4B
330
32
100
AcDbSymbolTableRecord
100
AcDbRegAppTableRecord
  2
GENIUS_GENOBJ-N-REC_13
 70
     0
  0
APPID
  5
1A4C
330
32
100
AcDbSymbolTableRecord
100
AcDbRegAppTableRecord
  2
ACAUTHENVIRON
 70
     0
  0
APPID
  5
1A4D
330
32
100
AcDbSymbolTableRecord
100
AcDbRegAppTableRecord
  2
AcDbDynamicBlockTrueName
 70
     0
  0
APPID
  5
1A4E
330
32
100
AcDbSymbolTableRecord
100
AcDbRegAppTableRecord
  2
AcDbDynamicBlockGUID
 70
     0
  0
APPID
  5
1A4F
330
32
100
AcDbSymbolTableRecord
100
AcDbRegAppTableRecord
  2
AcDbBlockRepETag
 70
     0
  0
APPID
  5
1A50
330
32
100
AcDbSymbolTableRecord
100
AcDbRegAppTableRecord
  2
DCO15
 70
     0
  0
APPID
  5
1A51
330
32
100
AcDbSymbolTableRecord
100
AcDbRegAppTableRecord
  2
ACAD_DSTYLE_DIMTEXT_FILL
 70
     0
  0
APPID
  5
1A52
330
32
100
AcDbSymbolTableRecord
100
AcDbRegAppTableRecord
  2
ACAD_DSTYLE_DIM_LINETYPE
 70
     0
  0
APPID
  5
1A53
330
32
100
AcDbSymbolTableRecord
100
AcDbRegAppTableRecord
  2
ACAD_DSTYLE_DIM_EXT1_LINETYPE
 70
     0
  0
APPID
  5
1A54
330
32
100
AcDbSymbolTableRecord
100
AcDbRegAppTableRecord
  2
ACAD_DSTYLE_DIM_EXT2_LINETYPE
 70
     0
  0
APPID
  5
1A55
330
32
100
AcDbSymbolTableRecord
100
AcDbRegAppTableRecord
  2
ACAD_DSTYLE_DIMINSPECT
 70
     0
  0
APPID
  5
1A56
330
32
100
AcDbSymbolTableRecord
100
AcDbRegAppTableRecord
  2
AcadAnnotative
 70
     0
  0
APPID
  5
1A57
330
32
100
AcDbSymbolTableRecord
100
AcDbRegAppTableRecord
  2
GENIUS_GENDTOL_13
 70
     0
  0
APPID
  5
1A58
330
32
100
AcDbSymbolTableRecord
100
AcDbRegAppTableRecord
  2
GENIUS_GENFIL_13
 70
     0
  0
APPID
  5
1A59
330
32
100
AcDbSymbolTableRecord
100
AcDbRegAppTableRecord
  2
GENIUS_GENOBJ-N-CHA_13
 70
     0
  0
APPID
  5
1A5A
330
32
100
AcDbSymbolTableRecord
100
AcDbRegAppTableRecord
  2
AcadAnnotativeDecomposition
 70
     0
  0
APPID
  5
1A5B
330
32
100
AcDbSymbolTableRecord
100
AcDbRegAppTableRecord
  2
MCAD_NO_VIS
 70
     0
  0
APPID
  5
1A5C
330
32
100
AcDbSymbolTableRecord
100
AcDbRegAppTableRecord
  2
ACAD_TEMP_GRAPHIC
 70
     0
  0
APPID
  5
1A5D
330
32
100
AcDbSymbolTableRecord
100
AcDbRegAppTableRecord
  2
ACATTRIBSERVICES
 70
     0
  0
APPID
  5
1A5E
330
32
100
AcDbSymbolTableRecord
100
AcDbRegAppTableRecord
  2
DESIGNERASSEMBLIES
 70
     0
  0
APPID
  5
1A5F
330
32
100
AcDbSymbolTableRecord
100
AcDbRegAppTableRecord
  2
GENIUS_GENDIMSH_14
 70
     0
  0
APPID
  5
1A60
330
32
100
AcDbSymbolTableRecord
100
AcDbRegAppTableRecord
  2
ACAD_DSTYLE_DIMARC_LENGTH_SYMBOL
 70
     0
  0
APPID
  5
1A61
330
32
100
AcDbSymbolTableRecord
100
AcDbRegAppTableRecord
  2
ACAD_SPLINE_DATA
 70
     0
  0
APPID
  5
1A62
330
32
100
AcDbSymbolTableRecord
100
AcDbRegAppTableRecord
  2
GENIUS_GENOREF_13
 70
     0
  0
APPID
  5
1A63
330
32
100
AcDbSymbolTableRecord
100
AcDbRegAppTableRecord
  2
ACAD_DSTYLE_DIMANGULAR_EXTENSION
 70
     0
  0
APPID
  5
318CC
330
32
100
AcDbSymbolTableRecord
100
AcDbRegAppTableRecord
  2
HATCHBACKGROUNDCOLOR
 70
     0
  0
ENDTAB
  0
TABLE
  2
DIMSTYLE
  5
33
330
0
100
AcDbSymbolTable
 70
     4
100
AcDbDimStyleTable
 71
     1
340
34
  0
DIMSTYLE
105
34
330
33
100
AcDbSymbolTableRecord
100
AcDbDimStyleTableRecord
  2
Standard
 70
     0
 41
2.5
 73
     0
 77
     3
 78
     8
140
2.5
141
-1.0
147
1.0
175
     1
176
     3
177
     3
178
     2
179
     8
271
     8
272
     8
275
     1
340
35
1001
ACAD_DSTYLE_DIMJOGGED_JOGANGLE_SYMBOL
1070
   384
1040
0.7853981633974483
1001
ACAD_DSTYLE_DIMJAG
1070
   388
1040
1.5
1001
ACAD_DSTYLE_DIMTALN
1070
   392
1070
     0
  0
DIMSTYLE
105
1A8
102
{ACAD_REACTORS
330
3A045
330
3A046
330
3A047
102
}
330
33
100
AcDbSymbolTableRecord
100
AcDbDimStyleTableRecord
  2
Standard$0
 70
     0
 41
2.5
 73
     0
 77
     3
 78
     8
140
2.5
141
-1.0
147
1.0
175
     1
176
     3
177
     3
178
     2
179
     8
271
     8
272
     8
275
     1
340
35
  0
DIMSTYLE
105
39E1C
102
{ACAD_REACTORS
330
39EE6
330
39EFA
330
3A013
102
}
330
33
100
AcDbSymbolTableRecord
100
AcDbDimStyleTableRecord
  2
사본 ISO-25
 70
     0
 41
2.5
 42
0.625
 43
3.75
 44
1.25
 48
0.000000001
 73
     0
 74
     0
 77
     1
 78
     8
140
3.0
141
-0.5
143
0.03937007874016
146
0.7
147
0.625
171
     3
172
     1
176
     3
177
     3
178
     2
179
     8
271
     8
272
     8
274
     3
275
     1
283
     0
284
     8
340
25
371
    -1
372
    -1
1001
ACAD_DSTYLE_DIMBREAK
1070
   391
1040
3.75
1001
ACAD_DSTYLE_DIMJAG
1070
   388
1040
1.5
1001
ACAD_DSTYLE_DIMTALN
1070
   392
1070
     0
  0
ENDTAB
  0
TABLE
  2
BLOCK_RECORD
  5
1
330
0
100
AcDbSymbolTable
 70
    75
  0
BLOCK_RECORD
  5
2
102
{ACAD_XDICTIONARY
360
3
102
}
330
1
100
AcDbSymbolTableRecord
100
AcDbBlockTableRecord
  2
*Model_Space
340
16
 70
     0
280
     1
281
     0
  0
BLOCK_RECORD
  5
1B
330
1
100
AcDbSymbolTableRecord
100
AcDbBlockTableRecord
  2
*Paper_Space
340
1E
 70
     0
280
     1
281
     0
  0
BLOCK_RECORD
  5
3A07D
330
1
100
AcDbSymbolTableRecord
100
AcDbBlockTableRecord
  2
*D23
340
0
 70
     0
280
     1
281
     0
  0
BLOCK_RECORD
  5
3A089
330
1
100
AcDbSymbolTableRecord
100
AcDbBlockTableRecord
  2
*D24
340
0
 70
     0
280
     1
281
     0
  0
BLOCK_RECORD
  5
3A095
330
1
100
AcDbSymbolTableRecord
100
AcDbBlockTableRecord
  2
*D25
340
0
 70
     0
280
     1
281
     0
  0
BLOCK_RECORD
  5
3A0DF
330
1
100
AcDbSymbolTableRecord
100
AcDbBlockTableRecord
  2
*D28
340
0
 70
     0
280
     1
281
     0
  0
ENDTAB
  0
ENDSEC
  0
SECTION
  2
BLOCKS
  0
BLOCK
  5
5
330
2
100
AcDbEntity
  8
0
100
AcDbBlockBegin
  2
*Model_Space
 70
     0
 10
0.0
 20
0.0
 30
0.0
  3
*Model_Space
  1

  0
ENDBLK
  5
15
330
2
100
AcDbEntity
  8
0
100
AcDbBlockEnd
  0
BLOCK
  5
1C
330
1B
100
AcDbEntity
 67
     1
  8
0
100
AcDbBlockBegin
  2
*Paper_Space
 70
     0
 10
0.0
 20
0.0
 30
0.0
  3
*Paper_Space
  1

  0
ENDBLK
  5
1D
330
1B
100
AcDbEntity
 67
     1
  8
0
100
AcDbBlockEnd
  0
BLOCK
  5
3A07E
330
3A07D
100
AcDbEntity
  8
0
 62
     7
100
AcDbBlockBegin
  2
*D23
 70
     1
 10
0.0
 20
0.0
 30
0.0
  3
*D23
  1

  0
LINE
  5
3A8BF
330
3A07D
100
AcDbEntity
  8
0
  6
Continuous
 62
     3
440
 16777216
100
AcDbLine
 10
218.0991702778706
 20
88.20815314275137
 30
0.0
 11
218.0991702778706
 21
66.05414346900875
 31
0.0
  0
LINE
  5
3A8C0
330
3A07D
100
AcDbEntity
  8
0
  6
Continuous
 62
     3
440
 16777216
100
AcDbLine
 10
236.1331702778711
 20
76.01031707552579
 30
0.0
 11
236.1331702778711
 21
66.05414346900875
 31
0.0
  0
LINE
  5
3A8C1
330
3A07D
100
AcDbEntity
  8
0
  6
Continuous
 62
     3
440
 16777216
100
AcDbLine
 10
220.5991702778706
 20
67.30414346900875
 30
0.0
 11
233.6331702778712
 21
67.30414346900875
 31
0.0
  0
SOLID
  5
3A8C2
330
3A07D
100
AcDbEntity
  8
0
  6
Continuous
 62
     3
440
 16777216
100
AcDbTrace
 10
220.5991702778706
 20
67.72081013567542
 30
0.0
 11
220.5991702778706
 21
66.88747680234207
 31
0.0
 12
218.0991702778706
 22
67.30414346900875
 32
0.0
 13
218.0991702778706
 23
67.30414346900875
 33
0.0
  0
SOLID
  5
3A8C3
330
3A07D
100
AcDbEntity
  8
0
  6
Continuous
 62
     3
440
 16777216
100
AcDbTrace
 10
233.6331702778712
 20
67.72081013567542
 30
0.0
 11
233.6331702778712
 21
66.88747680234207
 31
0.0
 12
236.1331702778711
 22
67.30414346900875
 32
0.0
 13
236.1331702778711
 23
67.30414346900875
 33
0.0
  0
MTEXT
  5
3A8C4
330
3A07D
100
AcDbEntity
  8
0
  6
Continuous
 62
     2
440
 16777216
100
AcDbMText
 10
227.1161702778709
 20
69.42914346900875
 30
0.0
 40
3.0
 41
0.0
 46
0.0
 71
     5
 72
     1
  1
.71
 73
     1
 44
1.0
  0
POINT
  5
3A8C5
330
3A07D
100
AcDbEntity
  8
DEFPOINTS
  6
Continuous
 62
     0
440
 16777216
100
AcDbPoint
 10
218.0991702778706
 20
88.83315314275137
 30
0.0
  0
POINT
  5
3A8C6
330
3A07D
100
AcDbEntity
  8
DEFPOINTS
  6
Continuous
 62
     0
440
 16777216
100
AcDbPoint
 10
236.1331702778711
 20
76.63531707552579
 30
0.0
  0
POINT
  5
3A8C7
330
3A07D
100
AcDbEntity
  8
DEFPOINTS
  6
Continuous
 62
     0
440
 16777216
100
AcDbPoint
 10
236.1331702778711
 20
67.30414346900875
 30
0.0
  0
ENDBLK
  5
3A07F
330
3A07D
100
AcDbEntity
  8
0
 62
     7
100
AcDbBlockEnd
  0
BLOCK
  5
3A08A
330
3A089
100
AcDbEntity
  8
0
 62
     7
100
AcDbBlockBegin
  2
*D24
 70
     1
 10
0.0
 20
0.0
 30
0.0
  3
*D24
  1

  0
LINE
  5
3A8C8
330
3A089
100
AcDbEntity
  8
0
  6
Continuous
 62
     3
440
 16777216
100
AcDbLine
 10
218.0991702778706
 20
88.20815314275137
 30
0.0
 11
218.0991702778706
 21
58.05414346900874
 31
0.0
  0
LINE
  5
3A8C9
330
3A089
100
AcDbEntity
  8
0
  6
Continuous
 62
     3
440
 16777216
100
AcDbLine
 10
254.1671702778717
 20
88.20815314275137
 30
0.0
 11
254.1671702778717
 21
58.05414346900874
 31
0.0
  0
LINE
  5
3A8CA
330
3A089
100
AcDbEntity
  8
0
  6
Continuous
 62
     3
440
 16777216
100
AcDbLine
 10
220.5991702778706
 20
59.30414346900874
 30
0.0
 11
251.6671702778717
 21
59.30414346900874
 31
0.0
  0
SOLID
  5
3A8CB
330
3A089
100
AcDbEntity
  8
0
  6
Continuous
 62
     3
440
 16777216
100
AcDbTrace
 10
220.5991702778706
 20
59.72081013567541
 30
0.0
 11
220.5991702778706
 21
58.88747680234208
 31
0.0
 12
218.0991702778706
 22
59.30414346900874
 32
0.0
 13
218.0991702778706
 23
59.30414346900874
 33
0.0
  0
SOLID
  5
3A8CC
330
3A089
100
AcDbEntity
  8
0
  6
Continuous
 62
     3
440
 16777216
100
AcDbTrace
 10
251.6671702778717
 20
59.72081013567541
 30
0.0
 11
251.6671702778717
 21
58.88747680234208
 31
0.0
 12
254.1671702778717
 22
59.30414346900874
 32
0.0
 13
254.1671702778717
 23
59.30414346900874
 33
0.0
  0
MTEXT
  5
3A8CD
330
3A089
100
AcDbEntity
  8
0
  6
Continuous
 62
     2
440
 16777216
100
AcDbMText
 10
236.1331702778711
 20
61.4294387445993
 30
0.0
 40
3.0
 41
0.0
 46
0.0
 71
     5
 72
     1
  1
1.42
 73
     1
 44
1.0
  0
POINT
  5
3A8CE
330
3A089
100
AcDbEntity
  8
DEFPOINTS
  6
Continuous
 62
     0
440
 16777216
100
AcDbPoint
 10
218.0991702778706
 20
88.83315314275137
 30
0.0
  0
POINT
  5
3A8CF
330
3A089
100
AcDbEntity
  8
DEFPOINTS
  6
Continuous
 62
     0
440
 16777216
100
AcDbPoint
 10
254.1671702778717
 20
88.83315314275137
 30
0.0
  0
POINT
  5
3A8D0
330
3A089
100
AcDbEntity
  8
DEFPOINTS
  6
Continuous
 62
     0
440
 16777216
100
AcDbPoint
 10
254.1671702778717
 20
59.30414346900874
 30
0.0
  0
ENDBLK
  5
3A08B
330
3A089
100
AcDbEntity
  8
0
 62
     7
100
AcDbBlockEnd
  0
BLOCK
  5
3A096
330
3A095
100
AcDbEntity
  8
0
 62
     7
100
AcDbBlockBegin
  2
*D25
 70
     1
 10
0.0
 20
0.0
 30
0.0
  3
*D25
  1

  0
LINE
  5
3A8D1
330
3A095
100
AcDbEntity
  8
0
  6
Continuous
 62
     3
440
 16777216
100
AcDbLine
 10
254.1671702778717
 20
88.20815314275137
 30
0.0
 11
254.1671702778717
 21
66.05414346900875
 31
0.0
  0
LINE
  5
3A8D2
330
3A095
100
AcDbEntity
  8
0
  6
Continuous
 62
     3
440
 16777216
100
AcDbLine
 10
236.1331702778711
 20
76.01031707552579
 30
0.0
 11
236.1331702778711
 21
66.05414346900875
 31
0.0
  0
LINE
  5
3A8D3
330
3A095
100
AcDbEntity
  8
0
  6
Continuous
 62
     3
440
 16777216
100
AcDbLine
 10
251.6671702778717
 20
67.30414346900875
 30
0.0
 11
238.6331702778711
 21
67.30414346900875
 31
0.0
  0
SOLID
  5
3A8D4
330
3A095
100
AcDbEntity
  8
0
  6
Continuous
 62
     3
440
 16777216
100
AcDbTrace
 10
251.6671702778717
 20
67.72081013567542
 30
0.0
 11
251.6671702778717
 21
66.88747680234207
 31
0.0
 12
254.1671702778717
 22
67.30414346900875
 32
0.0
 13
254.1671702778717
 23
67.30414346900875
 33
0.0
  0
SOLID
  5
3A8D5
330
3A095
100
AcDbEntity
  8
0
  6
Continuous
 62
     3
440
 16777216
100
AcDbTrace
 10
238.6331702778711
 20
67.72081013567542
 30
0.0
 11
238.6331702778711
 21
66.88747680234207
 31
0.0
 12
236.1331702778711
 22
67.30414346900875
 32
0.0
 13
236.1331702778711
 23
67.30414346900875
 33
0.0
  0
MTEXT
  5
3A8D6
330
3A095
100
AcDbEntity
  8
0
  6
Continuous
 62
     2
440
 16777216
100
AcDbMText
 10
245.1501702778714
 20
69.42914346900875
 30
0.0
 40
3.0
 41
0.0
 46
0.0
 71
     5
 72
     1
  1
.71
 73
     1
 44
1.0
  0
POINT
  5
3A8D7
330
3A095
100
AcDbEntity
  8
DEFPOINTS
  6
Continuous
 62
     0
440
 16777216
100
AcDbPoint
 10
254.1671702778717
 20
88.83315314275137
 30
0.0
  0
POINT
  5
3A8D8
330
3A095
100
AcDbEntity
  8
DEFPOINTS
  6
Continuous
 62
     0
440
 16777216
100
AcDbPoint
 10
236.1331702778711
 20
76.63531707552579
 30
0.0
  0
POINT
  5
3A8D9
330
3A095
100
AcDbEntity
  8
DEFPOINTS
  6
Continuous
 62
     0
440
 16777216
100
AcDbPoint
 10
236.1331702778711
 20
67.30414346900875
 30
0.0
  0
ENDBLK
  5
3A097
330
3A095
100
AcDbEntity
  8
0
 62
     7
100
AcDbBlockEnd
  0
BLOCK
  5
3A0E0
330
3A0DF
100
AcDbEntity
  8
0
 62
     7
100
AcDbBlockBegin
  2
*D28
 70
     1
 10
0.0
 20
0.0
 30
0.0
  3
*D28
  1

  0
LINE
  5
3A8B6
330
3A0DF
100
AcDbEntity
  8
0
  6
Continuous
 62
     3
440
 16777216
100
AcDbLine
 10
177.5649406032339
 20
116.5853170755247
 30
0.0
 11
194.9412183188256
 21
116.5853170755247
 31
0.0
  0
LINE
  5
3A8B7
330
3A0DF
100
AcDbEntity
  8
0
  6
Continuous
 62
     3
440
 16777216
100
AcDbLine
 10
177.5709406032351
 20
77.18531707552415
 30
0.0
 11
194.9412183188256
 21
77.18531707552415
 31
0.0
  0
LINE
  5
3A8B8
330
3A0DF
100
AcDbEntity
  8
0
  6
Continuous
 62
     3
440
 16777216
100
AcDbLine
 10
193.6912183188256
 20
114.0853170755247
 30
0.0
 11
193.6912183188256
 21
79.68531707552415
 31
0.0
  0
SOLID
  5
3A8B9
330
3A0DF
100
AcDbEntity
  8
0
  6
Continuous
 62
     3
440
 16777216
100
AcDbTrace
 10
193.2745516521589
 20
114.0853170755247
 30
0.0
 11
194.1078849854922
 21
114.0853170755247
 31
0.0
 12
193.6912183188256
 22
116.5853170755247
 32
0.0
 13
193.6912183188256
 23
116.5853170755247
 33
0.0
  0
SOLID
  5
3A8BA
330
3A0DF
100
AcDbEntity
  8
0
  6
Continuous
 62
     3
440
 16777216
100
AcDbTrace
 10
193.2745516521589
 20
79.68531707552415
 30
0.0
 11
194.1078849854922
 21
79.68531707552415
 31
0.0
 12
193.6912183188256
 22
77.18531707552415
 32
0.0
 13
193.6912183188256
 23
77.18531707552415
 33
0.0
  0
MTEXT
  5
3A8BB
330
3A0DF
100
AcDbEntity
  8
0
  6
Continuous
 62
     2
440
 16777216
100
AcDbMText
 10
191.5662183188255
 20
96.88531707552446
 30
0.0
 40
3.0
 41
0.0
 46
0.0
 71
     5
 72
     1
  1
%%c1.551
 11
0.0000000000000001
 21
1.0
 31
0.0
 73
     1
 44
1.0
  0
POINT
  5
3A8BC
330
3A0DF
100
AcDbEntity
  8
DEFPOINTS
  6
Continuous
 62
     0
440
 16777216
100
AcDbPoint
 10
176.9399406032339
 20
116.5853170755247
 30
0.0
  0
POINT
  5
3A8BD
330
3A0DF
100
AcDbEntity
  8
DEFPOINTS
  6
Continuous
 62
     0
440
 16777216
100
AcDbPoint
 10
176.9459406032351
 20
77.18531707552415
 30
0.0
  0
POINT
  5
3A8BE
330
3A0DF
100
AcDbEntity
  8
DEFPOINTS
  6
Continuous
 62
     0
440
 16777216
100
AcDbPoint
 10
193.6912183188256
 20
77.18531707552415
 30
0.0
  0
ENDBLK
  5
3A0E1
330
3A0DF
100
AcDbEntity
  8
0
 62
     7
100
AcDbBlockEnd
  0
ENDSEC
  0
SECTION
  2
ENTITIES
  0
LWPOLYLINE
  5
1DEB1
330
2
100
AcDbEntity
  8
0
 62
     0
100
AcDbPolyline
 90
        4
 70
     1
 43
0.0
 10
0.5
 20
0.5
 10
0.5
 20
192.2869634307123
 10
275.3311999999998
 20
192.2869634307123
 10
275.3311999999998
 20
0.5
  0
LINE
  5
28352
330
2
100
AcDbEntity
  8
0
  6
Continuous
 62
     7
100
AcDbLine
 10
206.6234
 20
-2.851599999999999
 30
0.0
 11
206.6234
 21
0.5
 31
0.0
  0
LINE
  5
28355
330
2
100
AcDbEntity
  8
0
  6
Continuous
 62
     7
100
AcDbLine
 10
69.20779999999999
 20
-2.851599999999999
 30
0.0
 11
69.20779999999999
 21
0.5
 31
0.0
  0
LINE
  5
28356
330
2
100
AcDbEntity
  8
0
  6
Continuous
 62
     7
100
AcDbLine
 10
206.6234
 20
195.6385634307123
 30
0.0
 11
206.6234
 21
192.2869634307123
 31
0.0
  0
LINE
  5
28357
330
2
100
AcDbEntity
  8
0
  6
Continuous
 62
     7
100
AcDbLine
 10
69.20779999999999
 20
195.6385634307123
 30
0.0
 11
69.20779999999999
 21
192.2869634307123
 31
0.0
  0
LINE
  5
2835B
330
2
100
AcDbEntity
  8
0
  6
Continuous
 62
     7
100
AcDbLine
 10
-2.851599999999999
 20
48.44674085767808
 30
0.0
 11
0.5
 21
48.44674085767808
 31
0.0
  0
LINE
  5
2835C
330
2
100
AcDbEntity
  8
0
  6
Continuous
 62
     7
100
AcDbLine
 10
-2.851599999999999
 20
144.3402225730342
 30
0.0
 11
0.5
 21
144.3402225730342
 31
0.0
  0
LINE
  5
2835D
330
2
100
AcDbEntity
  8
0
  6
Continuous
 62
     7
100
AcDbLine
 10
278.6827999999999
 20
48.44674085767808
 30
0.0
 11
275.3311999999998
 21
48.44674085767808
 31
0.0
  0
LINE
  5
2835E
330
2
100
AcDbEntity
  8
0
  6
Continuous
 62
     7
100
AcDbLine
 10
278.6827999999999
 20
144.3402225730342
 30
0.0
 11
275.3311999999998
 21
144.3402225730342
 31
0.0
  0
LINE
  5
28361
330
2
100
AcDbEntity
  8
0
  6
Continuous
 62
     7
100
AcDbLine
 10
203.2718
 20
0.4999999999999993
 30
0.0
 11
203.2718
 21
27.47004173244392
 31
0.0
  0
LINE
  5
28365
330
2
100
AcDbEntity
  8
0
  6
Continuous
 62
     7
100
AcDbLine
 10
275.3311999999998
 20
27.47004173244392
 30
0.0
 11
203.2718
 21
27.47004173244392
 31
0.0
  0
LINE
  5
28366
330
2
100
AcDbEntity
  8
0
  6
Continuous
 62
     7
100
AcDbLine
 10
203.2718
 20
9.490013910814644
 30
0.0
 11
275.3311999999998
 21
9.490013910814644
 31
0.0
  0
LINE
  5
28368
330
2
100
AcDbEntity
  8
0
  6
Continuous
 62
     7
100
AcDbLine
 10
203.2718
 20
18.48002782162928
 30
0.0
 11
275.3311999999998
 21
18.48002782162928
 31
0.0
  0
LINE
  5
28369
330
2
100
AcDbEntity
  8
0
  6
Continuous
 62
     7
100
AcDbLine
 10
203.2718
 20
0.4999999999999988
 30
0.0
 11
275.3311999999998
 21
0.5000000000000036
 31
0.0
  0
LINE
  5
2836B
330
2
100
AcDbEntity
  8
0
  6
Continuous
 62
     7
100
AcDbLine
 10
275.3311999999998
 20
96.39348171535619
 30
0.0
 11
278.6827999999999
 21
96.39348171535619
 31
0.0
  0
LINE
  5
2836C
330
2
100
AcDbEntity
  8
0
  6
Continuous
 62
     7
100
AcDbLine
 10
277.0069999999999
 20
95.25393771535616
 30
0.0
 11
277.0069999999999
 21
97.5330257153562
 31
0.0
  0
LINE
  5
2836F
330
2
100
AcDbEntity
  8
0
  6
Continuous
 62
     7
100
AcDbLine
 10
277.0069999999999
 20
95.25393771535616
 30
0.0
 11
275.3311999999998
 21
96.39348171535619
 31
0.0
  0
LINE
  5
28370
330
2
100
AcDbEntity
  8
0
  6
Continuous
 62
     7
100
AcDbLine
 10
275.3311999999998
 20
96.39348171535619
 30
0.0
 11
277.0069999999999
 21
97.5330257153562
 31
0.0
  0
LINE
  5
28371
330
2
100
AcDbEntity
  8
0
  6
Continuous
 62
     7
100
AcDbLine
 10
0.5
 20
96.39348171535619
 30
0.0
 11
-2.851599999999999
 21
96.39348171535619
 31
0.0
  0
LINE
  5
28372
330
2
100
AcDbEntity
  8
0
  6
Continuous
 62
     7
100
AcDbLine
 10
-1.175799999999999
 20
95.25393771535616
 30
0.0
 11
-1.175799999999999
 21
97.5330257153562
 31
0.0
  0
LINE
  5
28373
330
2
100
AcDbEntity
  8
0
  6
Continuous
 62
     7
100
AcDbLine
 10
-1.175799999999999
 20
95.25393771535616
 30
0.0
 11
0.5
 21
96.39348171535619
 31
0.0
  0
LINE
  5
28374
330
2
100
AcDbEntity
  8
0
  6
Continuous
 62
     7
100
AcDbLine
 10
0.5
 20
96.39348171535619
 30
0.0
 11
-1.175799999999999
 21
97.5330257153562
 31
0.0
  0
LINE
  5
28375
330
2
100
AcDbEntity
  8
0
  6
Continuous
 62
     7
100
AcDbLine
 10
137.9156
 20
192.2869634307123
 30
0.0
 11
137.9156
 21
195.6385634307123
 31
0.0
  0
LINE
  5
28376
330
2
100
AcDbEntity
  8
0
  6
Continuous
 62
     7
100
AcDbLine
 10
136.7760559999999
 20
193.9627634307123
 30
0.0
 11
139.055144
 21
193.9627634307123
 31
0.0
  0
LINE
  5
28377
330
2
100
AcDbEntity
  8
0
  6
Continuous
 62
     7
100
AcDbLine
 10
136.7760559999999
 20
193.9627634307123
 30
0.0
 11
137.9156
 21
192.2869634307123
 31
0.0
  0
LINE
  5
28378
330
2
100
AcDbEntity
  8
0
  6
Continuous
 62
     7
100
AcDbLine
 10
137.9156
 20
192.2869634307123
 30
0.0
 11
139.055144
 21
193.9627634307123
 31
0.0
  0
LINE
  5
28379
330
2
100
AcDbEntity
  8
0
  6
Continuous
 62
     7
100
AcDbLine
 10
137.9156
 20
0.5
 30
0.0
 11
137.9156
 21
-2.851599999999999
 31
0.0
  0
LINE
  5
2837A
330
2
100
AcDbEntity
  8
0
  6
Continuous
 62
     7
100
AcDbLine
 10
136.7760559999999
 20
-1.175799999999999
 30
0.0
 11
139.055144
 21
-1.175799999999999
 31
0.0
  0
LINE
  5
2837B
330
2
100
AcDbEntity
  8
0
  6
Continuous
 62
     7
100
AcDbLine
 10
136.7760559999999
 20
-1.175799999999999
 30
0.0
 11
137.9156
 21
0.5
 31
0.0
  0
LINE
  5
2837C
330
2
100
AcDbEntity
  8
0
  6
Continuous
 62
     7
100
AcDbLine
 10
137.9156
 20
0.5
 30
0.0
 11
139.055144
 21
-1.175799999999999
 31
0.0
  0
TEXT
  5
2837D
330
2
100
AcDbEntity
  8
0
 62
     2
100
AcDbText
 10
34.1520456690476
 20
-2.215594408868794
 30
0.0
 40
1.876895999999999
  1
4
  7
굴림
100
AcDbText
  0
TEXT
  5
2837E
330
2
100
AcDbEntity
  8
0
 62
     2
100
AcDbText
 10
102.9235469072265
 20
-2.215594408868794
 30
0.0
 40
1.876895999999999
  1
3
  7
굴림
100
AcDbText
  0
TEXT
  5
2837F
330
2
100
AcDbEntity
  8
0
 62
     2
100
AcDbText
 10
171.5424706990155
 20
-2.215594408868794
 30
0.0
 40
1.876895999999999
  1
2
  7
굴림
100
AcDbText
  0
TEXT
  5
28380
330
2
100
AcDbEntity
  8
0
 62
     2
100
AcDbText
 10
240.4598218923343
 20
-2.215594408868794
 30
0.0
 40
1.876895999999999
  1
1
  7
굴림
100
AcDbText
  0
TEXT
  5
28392
330
2
100
AcDbEntity
  8
0
 62
     2
100
AcDbText
 10
34.1520456690476
 20
193.3555764790025
 30
0.0
 40
1.876895999999999
  1
4
  7
굴림
100
AcDbText
  0
TEXT
  5
28393
330
2
100
AcDbEntity
  8
0
 62
     2
100
AcDbText
 10
102.9235469072265
 20
193.3555764790025
 30
0.0
 40
1.876895999999999
  1
3
  7
굴림
100
AcDbText
  0
TEXT
  5
28394
330
2
100
AcDbEntity
  8
0
 62
     2
100
AcDbText
 10
171.5424706990155
 20
193.3555764790025
 30
0.0
 40
1.876895999999999
  1
2
  7
굴림
100
AcDbText
  0
TEXT
  5
28395
330
2
100
AcDbEntity
  8
0
 62
     2
100
AcDbText
 10
240.4598218923343
 20
193.3555764790025
 30
0.0
 40
1.876895999999999
  1
1
  7
굴림
100
AcDbText
  0
TEXT
  5
28396
330
2
100
AcDbEntity
  8
0
 62
     2
100
AcDbText
 10
-2.209557947343677
 20
23.84841253728
 30
0.0
 40
1.876895999999999
  1
A
  7
굴림
100
AcDbText
  0
TEXT
  5
283A7
330
2
100
AcDbEntity
  8
0
 62
     2
100
AcDbText
 10
-2.209557947343677
 20
71.39738603855146
 30
0.0
 40
1.876895999999999
  1
B
  7
굴림
100
AcDbText
  0
TEXT
  5
283A9
330
2
100
AcDbEntity
  8
0
 62
     2
100
AcDbText
 10
-2.209557947343677
 20
119.4000867432917
 30
0.0
 40
1.876895999999999
  1
C
  7
굴림
100
AcDbText
  0
TEXT
  5
283AA
330
2
100
AcDbEntity
  8
0
 62
     2
100
AcDbText
 10
-2.209557947343677
 20
167.6983781703912
 30
0.0
 40
1.876895999999999
  1
D
  7
굴림
100
AcDbText
  0
TEXT
  5
283AB
330
2
100
AcDbEntity
  8
0
 62
     2
100
AcDbText
 10
276.3352207099705
 20
23.84841253728
 30
0.0
 40
1.876895999999999
  1
A
  7
굴림
100
AcDbText
  0
TEXT
  5
283AC
330
2
100
AcDbEntity
  8
0
 62
     2
100
AcDbText
 10
276.3352207099705
 20
71.39738603855146
 30
0.0
 40
1.876895999999999
  1
B
  7
굴림
100
AcDbText
  0
TEXT
  5
283AD
330
2
100
AcDbEntity
  8
0
 62
     2
100
AcDbText
 10
276.3352207099705
 20
119.4000867432917
 30
0.0
 40
1.876895999999999
  1
C
  7
굴림
100
AcDbText
  0
TEXT
  5
283AE
330
2
100
AcDbEntity
  8
0
 62
     2
100
AcDbText
 10
276.3352207099705
 20
167.6983781703912
 30
0.0
 40
1.876895999999999
  1
D
  7
굴림
100
AcDbText
  0
SPLINE
  5
283D6
330
2
100
AcDbEntity
  8
Layer 1
100
AcDbSpline
210
0.0
220
0.0
230
1.0
 70
    11
 71
     3
 72
    41
 73
    37
 74
     0
 42
0.000000001
 43
0.0000000001
 40
0.0
 40
0.0
 40
0.0
 40
0.0
 40
1.0
 40
1.0
 40
1.0
 40
2.0
 40
2.0
 40
2.0
 40
3.0
 40
3.0
 40
3.0
 40
4.0
 40
4.0
 40
4.0
 40
5.0
 40
5.0
 40
5.0
 40
6.0
 40
6.0
 40
6.0
 40
7.0
 40
7.0
 40
7.0
 40
8.0
 40
8.0
 40
8.0
 40
9.0
 40
9.0
 40
9.0
 40
10.0
 40
10.0
 40
10.0
 40
11.0
 40
11.0
 40
11.0
 40
12.0
 40
12.0
 40
12.0
 40
12.0
 10
227.5923346505039
 20
19.29998155526998
 30
0.0
 10
227.5923346505039
 20
19.29998155526998
 30
0.0
 10
225.8380287348576
 20
19.29998155526998
 30
0.0
 10
225.8380287348576
 20
19.29998155526998
 30
0.0
 10
225.8380287348576
 20
19.29998155526998
 30
0.0
 10
229.3467603710779
 20
24.71622163900658
 30
0.0
 10
229.3467603710779
 20
24.71622163900658
 30
0.0
 10
229.3467603710779
 20
24.71622163900658
 30
0.0
 10
231.1548881490208
 20
24.71622163900658
 30
0.0
 10
231.1548881490208
 20
24.71622163900658
 30
0.0
 10
231.1548881490208
 20
24.71622163900658
 30
0.0
 10
231.5610620891428
 20
19.29998155526998
 30
0.0
 10
231.5610620891428
 20
19.29998155526998
 30
0.0
 10
231.5610620891428
 20
19.29998155526998
 30
0.0
 10
229.9291109051489
 20
19.29998155526998
 30
0.0
 10
229.9291109051489
 20
19.29998155526998
 30
0.0
 10
229.9291109051489
 20
19.29998155526998
 30
0.0
 10
229.8754079660923
 20
20.17343444894676
 30
0.0
 10
229.8754079660923
 20
20.17343444894676
 30
0.0
 10
229.8754079660923
 20
20.17343444894676
 30
0.0
 10
228.6924276179193
 20
20.17343444894676
 30
0.0
 10
228.6924276179193
 20
20.17343444894676
 30
0.0
 10
228.6924276179193
 20
20.17343444894676
 30
0.0
 10
229.2797124982168
 20
21.29935356691016
 30
0.0
 10
229.2797124982168
 20
21.29935356691016
 30
0.0
 10
229.2797124982168
 20
21.29935356691016
 30
0.0
 10
229.8218536239894
 20
21.29935356691016
 30
0.0
 10
229.8218536239894
 20
21.29935356691016
 30
0.0
 10
229.8218536239894
 20
21.29935356691016
 30
0.0
 10
229.7527857599232
 20
22.8853288534383
 30
0.0
 10
229.7527857599232
 20
22.8853288534383
 30
0.0
 10
229.7527857599232
 20
22.8853288534383
 30
0.0
 10
227.6010433152532
 20
19.31216650547106
 30
0.0
 10
227.6010433152532
 20
19.31216650547106
 30
0.0
 10
227.6010433152532
 20
19.31216650547106
 30
0.0
 10
227.5923346505039
 20
19.29998155526998
 30
0.0
 10
227.5923346505039
 20
19.29998155526998
 30
0.0
  0
SPLINE
  5
283D7
102
{ACAD_REACTORS
330
2923A
102
}
330
2
100
AcDbEntity
  8
Layer 1
100
AcDbSpline
210
0.0
220
0.0
230
1.0
 70
    11
 71
     3
 72
    17
 73
    13
 74
     0
 42
0.000000001
 43
0.0000000001
 40
0.0
 40
0.0
 40
0.0
 40
0.0
 40
1.0
 40
1.0
 40
1.0
 40
2.0
 40
2.0
 40
2.0
 40
3.0
 40
3.0
 40
3.0
 40
4.0
 40
4.0
 40
4.0
 40
4.0
 10
239.0302296986123
 20
19.29998155526998
 30
0.0
 10
239.0302296986123
 20
19.29998155526998
 30
0.0
 10
237.360117644926
 20
19.29998155526998
 30
0.0
 10
237.360117644926
 20
19.29998155526998
 30
0.0
 10
237.360117644926
 20
19.29998155526998
 30
0.0
 10
238.8081949584476
 20
24.70867624437805
 30
0.0
 10
238.8081949584476
 20
24.70867624437805
 30
0.0
 10
238.8081949584476
 20
24.70867624437805
 30
0.0
 10
240.478186962581
 20
24.70867624437805
 30
0.0
 10
240.478186962581
 20
24.70867624437805
 30
0.0
 10
240.478186962581
 20
24.70867624437805
 30
0.0
 10
239.0302296986123
 20
19.29998155526998
 30
0.0
 10
239.0302296986123
 20
19.29998155526998
 30
0.0
  0
LWPOLYLINE
  5
283DB
102
{ACAD_REACTORS
330
28498
102
}
330
2
100
AcDbEntity
  8
Layer 1
 62
   103
100
AcDbPolyline
 90
        8
 70
     1
 43
0.0
 10
259.6059731911617
 20
26.47109222307688
 10
233.9049412781733
 20
26.47210268236184
 10
233.5215611377028
 20
25.21107921412096
 10
242.4282247856024
 20
25.21063676655853
 10
240.7236988494358
 20
19.29998155527
 10
242.3939880474768
 20
19.29998155527
 10
244.0981870703452
 20
25.21063676655853
 10
259.2206926917282
 20
25.20989043849159
  0
SPLINE
  5
283DD
102
{ACAD_REACTORS
330
2924F
102
}
330
2
100
AcDbEntity
  8
Layer 1
100
AcDbSpline
210
0.0
220
0.0
230
1.0
 70
     9
 71
     3
 72
    17
 73
    13
 74
     0
 42
0.000000001
 43
0.0000000001
 40
0.0
 40
0.0
 40
0.0
 40
0.0
 40
1.0
 40
1.0
 40
1.0
 40
2.0
 40
2.0
 40
2.0
 40
3.0
 40
3.0
 40
3.0
 40
4.0
 40
4.0
 40
4.0
 40
4.0
 10
248.5061968234257
 20
22.32357292978132
 30
0.0
 10
248.5061968234257
 20
23.10837288089808
 30
0.0
 10
248.0338368270969
 20
23.48158898973764
 30
0.0
 10
247.4853060323167
 20
23.48158898973764
 30
0.0
 10
246.4416515471238
 20
23.48158898973764
 30
0.0
 10
245.8700571459155
 20
22.30081114626944
 30
0.0
 10
245.8700571459155
 20
21.47799682461318
 30
0.0
 10
245.8700571459155
 20
20.68567786764069
 30
0.0
 10
246.3577820672537
 20
20.31231316184737
 30
0.0
 10
246.9215291900898
 20
20.31231316184737
 30
0.0
 10
248.0492314714974
 20
20.31231316184737
 30
0.0
 10
248.5061968234257
 20
21.53895129500892
 30
0.0
 10
248.5061968234257
 20
22.32357292978132
 30
0.0
  0
SPLINE
  5
283DE
102
{ACAD_REACTORS
330
2924F
102
}
330
2
100
AcDbEntity
  8
Layer 1
100
AcDbSpline
210
0.0
220
0.0
230
1.0
 70
     9
 71
     3
 72
    17
 73
    13
 74
     0
 42
0.000000001
 43
0.0000000001
 40
0.0
 40
0.0
 40
0.0
 40
0.0
 40
1.0
 40
1.0
 40
1.0
 40
2.0
 40
2.0
 40
2.0
 40
3.0
 40
3.0
 40
3.0
 40
4.0
 40
4.0
 40
4.0
 40
4.0
 10
246.8222961444286
 20
19.01714211365301
 30
0.0
 10
245.1616063095947
 20
19.01714211365301
 30
0.0
 10
244.2016699888815
 20
20.09143864991123
 30
0.0
 10
244.2016699888815
 20
21.49309427510605
 30
0.0
 10
244.2016699888815
 20
23.02432644390192
 30
0.0
 10
245.3444400013912
 20
24.7157758481455
 30
0.0
 10
247.47005998487
 20
24.7157758481455
 30
0.0
 10
249.1994016122998
 20
24.7157758481455
 30
0.0
 10
250.1591893360593
 20
23.58825518539628
 30
0.0
 10
250.1591893360593
 20
22.22445876168296
 30
0.0
 10
250.1591893360593
 20
20.70077531813356
 30
0.0
 10
249.0240869263591
 20
19.01714211365301
 30
0.0
 10
246.8222961444286
 20
19.01714211365301
 30
0.0
  0
SPLINE
  5
283E0
102
{ACAD_REACTORS
330
29296
102
}
330
2
100
AcDbEntity
  8
Layer 1
100
AcDbSpline
210
0.0
220
0.0
230
1.0
 70
     9
 71
     3
 72
    17
 73
    13
 74
     0
 42
0.000000001
 43
0.0000000001
 40
0.0
 40
0.0
 40
0.0
 40
0.0
 40
1.0
 40
1.0
 40
1.0
 40
2.0
 40
2.0
 40
2.0
 40
3.0
 40
3.0
 40
3.0
 40
4.0
 40
4.0
 40
4.0
 40
4.0
 10
254.6496109596456
 20
22.32357292978132
 30
0.0
 10
254.6496109596456
 20
23.10837288089808
 30
0.0
 10
254.1772509633169
 20
23.48158898973764
 30
0.0
 10
253.6284229746292
 20
23.48158898973764
 30
0.0
 10
252.5850643241252
 20
23.48158898973764
 30
0.0
 10
252.0137402566331
 20
22.30081114626944
 30
0.0
 10
252.0137402566331
 20
21.47799682461318
 30
0.0
 10
252.0137402566331
 20
20.68567786764069
 30
0.0
 10
252.5010476065198
 20
20.31231316184737
 30
0.0
 10
253.0647947293561
 20
20.31231316184737
 30
0.0
 10
254.1923484138098
 20
20.31231316184737
 30
0.0
 10
254.6496109596456
 20
21.53895129500892
 30
0.0
 10
254.6496109596456
 20
22.32357292978132
 30
0.0
  0
SPLINE
  5
283E1
102
{ACAD_REACTORS
330
29296
102
}
330
2
100
AcDbEntity
  8
Layer 1
100
AcDbSpline
210
0.0
220
0.0
230
1.0
 70
     9
 71
     3
 72
    17
 73
    13
 74
     0
 42
0.000000001
 43
0.0000000001
 40
0.0
 40
0.0
 40
0.0
 40
0.0
 40
1.0
 40
1.0
 40
1.0
 40
2.0
 40
2.0
 40
2.0
 40
3.0
 40
3.0
 40
3.0
 40
4.0
 40
4.0
 40
4.0
 40
4.0
 10
252.9658291582113
 20
19.01714211365301
 30
0.0
 10
251.3052879203311
 20
19.01714211365301
 30
0.0
 10
250.3452327220549
 20
20.09143864991123
 30
0.0
 10
250.3452327220549
 20
21.49309427510605
 30
0.0
 10
250.3452327220549
 20
23.02432644390192
 30
0.0
 10
251.487854137611
 20
24.7157758481455
 30
0.0
 10
253.6136227180437
 20
24.7157758481455
 30
0.0
 10
255.3428157485197
 20
24.7157758481455
 30
0.0
 10
256.3027520692327
 20
23.58825518539628
 30
0.0
 10
256.3027520692327
 20
22.22445876168296
 30
0.0
 10
256.3027520692327
 20
20.70077531813356
 30
0.0
 10
255.1676496595326
 20
19.01714211365301
 30
0.0
 10
252.9658291582113
 20
19.01714211365301
 30
0.0
  0
TEXT
  5
2844E
330
2
100
AcDbEntity
  8
0
 62
     2
100
AcDbText
 10
223.9425025859367
 20
12.85347561407977
 30
0.0
 40
2.627654399999999
  1
www.maritool.com
  7
굴림
100
AcDbText
  0
TEXT
  5
28454
330
2
100
AcDbEntity
  8
0
 62
     2
100
AcDbText
 10
205.9775128786343
 20
4.051806774398166
 30
0.0
 40
2.102123519999999
  1
ITEM#
  7
굴림
100
AcDbText
  0
TEXT
  5
28455
330
2
100
AcDbEntity
  8
0
 62
     2
100
AcDbText
 10
223.0295816888257
 20
3.552348089474925
 30
0.0
 40
3.153185279999998
  1
DSF16-DSF16-4.0
  7
굴림
100
AcDbText
  0
HATCH
  5
28498
330
2
100
AcDbEntity
  8
0
  6
Continuous
 62
    93
100
AcDbHatch
 10
0.0
 20
0.0
 30
0.0
210
0.0
220
0.0
230
0.9999999999999998
  2
SOLID
 70
     1
 71
     1
 91
        1
 92
        7
 72
     0
 73
     1
 93
        8
 10
233.9049412781733
 20
26.47210268236184
 10
233.5215611377028
 20
25.21107921412096
 10
242.4282247856024
 20
25.21063676655853
 10
240.7236988494358
 20
19.29998155527
 10
242.3939880474768
 20
19.29998155527
 10
244.0981870703452
 20
25.21063676655853
 10
259.2206926917282
 20
25.20989043849159
 10
259.6059731911617
 20
26.47109222307688
 97
        1
330
283DB
 75
     1
 76
     1
 47
0.0428322549537331
 98
        1
 10
245.2145526953313
 20
25.84900527075732
450
        0
451
        0
460
0.0
461
0.0
452
        0
462
1.0
453
        2
463
0.0
 63
     5
421
      255
463
1.0
 63
     2
421
 16776960
470
LINEAR
1001
GRADIENTCOLOR1ACI
1070
     5
1001
GRADIENTCOLOR2ACI
1070
     2
1001
ACAD
1010
0.0
1020
0.0
1030
0.0
  0
SPLINE
  5
2910D
102
{ACAD_REACTORS
330
29214
102
}
330
2
100
AcDbEntity
  8
Layer 1
100
AcDbSpline
210
0.0
220
0.0
230
1.0
 70
    24
 71
     3
 72
     8
 73
     4
 74
     0
 42
0.000000001
 43
0.0000000001
 40
0.0
 40
0.0
 40
0.0
 40
0.0
 40
1.0
 40
1.0
 40
1.0
 40
1.0
 10
259.8197150493218
 20
20.42649506104808
 30
0.0
 10
259.8197150493218
 20
20.42649506104808
 30
0.0
 10
259.406438888509
 20
19.1772107521471
 30
0.0
 10
259.406438888509
 20
19.1772107521471
 30
0.0
  0
SPLINE
  5
2910E
102
{ACAD_REACTORS
330
29214
102
}
330
2
100
AcDbEntity
  8
Layer 1
100
AcDbSpline
210
0.0
220
0.0
230
1.0
 70
    24
 71
     3
 72
     8
 73
     4
 74
     0
 42
0.000000001
 43
0.0000000001
 40
1.0
 40
1.0
 40
1.0
 40
1.0
 40
2.0
 40
2.0
 40
2.0
 40
2.0
 10
259.406438888509
 20
19.1772107521471
 30
0.0
 10
259.406438888509
 20
19.1772107521471
 30
0.0
 10
255.9245728221407
 20
19.1772107521471
 30
0.0
 10
255.9245728221407
 20
19.1772107521471
 30
0.0
  0
SPLINE
  5
2910F
102
{ACAD_REACTORS
330
29214
102
}
330
2
100
AcDbEntity
  8
Layer 1
100
AcDbSpline
210
0.0
220
0.0
230
1.0
 70
    24
 71
     3
 72
     8
 73
     4
 74
     0
 42
0.000000001
 43
0.0000000001
 40
2.0
 40
2.0
 40
2.0
 40
2.0
 40
3.0
 40
3.0
 40
3.0
 40
3.0
 10
255.9245728221407
 20
19.1772107521471
 30
0.0
 10
255.9245728221407
 20
19.1772107521471
 30
0.0
 10
257.3642395480845
 20
24.55588552599577
 30
0.0
 10
257.3642395480845
 20
24.55588552599577
 30
0.0
  0
SPLINE
  5
29110
102
{ACAD_REACTORS
330
29214
102
}
330
2
100
AcDbEntity
  8
Layer 1
100
AcDbSpline
210
0.0
220
0.0
230
1.0
 70
    24
 71
     3
 72
     8
 73
     4
 74
     0
 42
0.000000001
 43
0.0000000001
 40
3.0
 40
3.0
 40
3.0
 40
3.0
 40
4.0
 40
4.0
 40
4.0
 40
4.0
 10
257.3642395480845
 20
24.55588552599577
 30
0.0
 10
257.3642395480845
 20
24.55588552599577
 30
0.0
 10
259.0558375492818
 20
24.55588552599577
 30
0.0
 10
259.0558375492818
 20
24.55588552599577
 30
0.0
  0
SPLINE
  5
29111
102
{ACAD_REACTORS
330
29214
102
}
330
2
100
AcDbEntity
  8
Layer 1
100
AcDbSpline
210
0.0
220
0.0
230
1.0
 70
    24
 71
     3
 72
     8
 73
     4
 74
     0
 42
0.000000001
 43
0.0000000001
 40
4.0
 40
4.0
 40
4.0
 40
4.0
 40
5.0
 40
5.0
 40
5.0
 40
5.0
 10
259.0558375492818
 20
24.55588552599577
 30
0.0
 10
259.0558375492818
 20
24.55588552599577
 30
0.0
 10
257.9510802874918
 20
20.42649506104808
 30
0.0
 10
257.9510802874918
 20
20.42649506104808
 30
0.0
  0
SPLINE
  5
29112
102
{ACAD_REACTORS
330
29214
102
}
330
2
100
AcDbEntity
  8
Layer 1
100
AcDbSpline
210
0.0
220
0.0
230
1.0
 70
    24
 71
     3
 72
     8
 73
     4
 74
     0
 42
0.000000001
 43
0.0000000001
 40
5.0
 40
5.0
 40
5.0
 40
5.0
 40
6.0
 40
6.0
 40
6.0
 40
6.0
 10
257.9510802874918
 20
20.42649506104808
 30
0.0
 10
257.9510802874918
 20
20.42649506104808
 30
0.0
 10
259.8197150493218
 20
20.42649506104808
 30
0.0
 10
259.8197150493218
 20
20.42649506104808
 30
0.0
  0
HATCH
  5
29214
330
2
100
AcDbEntity
  8
0
  6
Continuous
 62
     0
100
AcDbHatch
 10
0.0
 20
0.0
 30
0.0
210
0.0
220
0.0
230
0.9999999999999998
  2
SOLID
 70
     1
 71
     1
 91
        1
 92
        5
 93
        6
 72
     4
 94
        3
 73
     0
 74
     0
 95
        8
 96
        4
 40
4.0
 40
4.0
 40
4.0
 40
4.0
 40
5.0
 40
5.0
 40
5.0
 40
5.0
 10
257.9510802874918
 20
20.42649506104808
 10
257.9510802874918
 20
20.42649506104808
 10
259.0558375492818
 20
24.55588552599577
 10
259.0558375492818
 20
24.55588552599577
 97
        0
 72
     4
 94
        3
 73
     0
 74
     0
 95
        8
 96
        4
 40
3.0
 40
3.0
 40
3.0
 40
3.0
 40
4.0
 40
4.0
 40
4.0
 40
4.0
 10
259.0558375492818
 20
24.55588552599577
 10
259.0558375492818
 20
24.55588552599577
 10
257.3642395480845
 20
24.55588552599577
 10
257.3642395480845
 20
24.55588552599577
 97
        0
 72
     4
 94
        3
 73
     0
 74
     0
 95
        8
 96
        4
 40
2.0
 40
2.0
 40
2.0
 40
2.0
 40
3.0
 40
3.0
 40
3.0
 40
3.0
 10
257.3642395480845
 20
24.55588552599577
 10
257.3642395480845
 20
24.55588552599577
 10
255.9245728221407
 20
19.1772107521471
 10
255.9245728221407
 20
19.1772107521471
 97
        0
 72
     4
 94
        3
 73
     0
 74
     0
 95
        8
 96
        4
 40
1.0
 40
1.0
 40
1.0
 40
1.0
 40
2.0
 40
2.0
 40
2.0
 40
2.0
 10
255.9245728221407
 20
19.1772107521471
 10
255.9245728221407
 20
19.1772107521471
 10
259.406438888509
 20
19.1772107521471
 10
259.406438888509
 20
19.1772107521471
 97
        0
 72
     4
 94
        3
 73
     0
 74
     0
 95
        8
 96
        4
 40
0.0
 40
0.0
 40
0.0
 40
0.0
 40
1.0
 40
1.0
 40
1.0
 40
1.0
 10
259.406438888509
 20
19.1772107521471
 10
259.406438888509
 20
19.1772107521471
 10
259.8197150493218
 20
20.42649506104808
 10
259.8197150493218
 20
20.42649506104808
 97
        0
 72
     4
 94
        3
 73
     0
 74
     0
 95
        8
 96
        4
 40
5.0
 40
5.0
 40
5.0
 40
5.0
 40
6.0
 40
6.0
 40
6.0
 40
6.0
 10
259.8197150493218
 20
20.42649506104808
 10
259.8197150493218
 20
20.42649506104808
 10
257.9510802874918
 20
20.42649506104808
 10
257.9510802874918
 20
20.42649506104808
 97
        0
 97
        6
330
29111
330
29110
330
2910F
330
2910E
330
2910D
330
29112
 75
     1
 76
     1
 47
0.0168242271866721
 98
        1
 10
257.4330670291712
 20
20.77735750736971
450
        0
451
        0
460
0.0
461
0.0
452
        0
462
1.0
453
        2
463
0.0
 63
     5
421
      255
463
1.0
 63
     2
421
 16776960
470
LINEAR
1001
GRADIENTCOLOR1ACI
1070
     5
1001
GRADIENTCOLOR2ACI
1070
     2
1001
ACAD
1010
0.0
1020
0.0
1030
0.0
  0
SPLINE
  5
29215
102
{ACAD_REACTORS
330
29234
102
}
330
2
100
AcDbEntity
  8
Layer 1
100
AcDbSpline
210
0.0
220
0.0
230
1.0
 70
     8
 71
     3
 72
     8
 73
     4
 74
     0
 42
0.000000001
 43
0.0000000001
 40
0.0
 40
0.0
 40
0.0
 40
0.0
 40
1.0
 40
1.0
 40
1.0
 40
1.0
 10
237.4978373015881
 20
23.24838093064673
 30
0.0
 10
237.4978373015881
 20
24.33617007029818
 30
0.0
 10
236.5402190933521
 20
24.71928273625215
 30
0.0
 10
235.7052241792785
 20
24.71928273625215
 30
0.0
  0
SPLINE
  5
29216
102
{ACAD_REACTORS
330
29234
102
}
330
2
100
AcDbEntity
  8
Layer 1
100
AcDbSpline
210
0.0
220
0.0
230
1.0
 70
    24
 71
     3
 72
     8
 73
     4
 74
     0
 42
0.000000001
 43
0.0000000001
 40
1.0
 40
1.0
 40
1.0
 40
1.0
 40
2.0
 40
2.0
 40
2.0
 40
2.0
 10
235.7052241792785
 20
24.71928273625215
 30
0.0
 10
235.7052241792785
 20
24.71928273625215
 30
0.0
 10
233.3148935221454
 20
24.71928273625215
 30
0.0
 10
233.3148935221454
 20
24.71928273625215
 30
0.0
  0
SPLINE
  5
29217
102
{ACAD_REACTORS
330
29234
102
}
330
2
100
AcDbEntity
  8
Layer 1
100
AcDbSpline
210
0.0
220
0.0
230
1.0
 70
    24
 71
     3
 72
     8
 73
     4
 74
     0
 42
0.000000001
 43
0.0000000001
 40
2.0
 40
2.0
 40
2.0
 40
2.0
 40
3.0
 40
3.0
 40
3.0
 40
3.0
 10
233.3148935221454
 20
24.71928273625215
 30
0.0
 10
233.3148935221454
 20
24.71928273625215
 30
0.0
 10
231.8592664557693
 20
19.31044597505541
 30
0.0
 10
231.8592664557693
 20
19.31044597505541
 30
0.0
  0
SPLINE
  5
29218
102
{ACAD_REACTORS
330
29234
102
}
330
2
100
AcDbEntity
  8
Layer 1
100
AcDbSpline
210
0.0
220
0.0
230
1.0
 70
    24
 71
     3
 72
     8
 73
     4
 74
     0
 42
0.000000001
 43
0.0000000001
 40
3.0
 40
3.0
 40
3.0
 40
3.0
 40
4.0
 40
4.0
 40
4.0
 40
4.0
 10
231.8592664557693
 20
19.31044597505541
 30
0.0
 10
231.8592664557693
 20
19.31044597505541
 30
0.0
 10
233.5756801482296
 20
19.31044597505541
 30
0.0
 10
233.5756801482296
 20
19.31044597505541
 30
0.0
  0
SPLINE
  5
29219
102
{ACAD_REACTORS
330
29234
102
}
330
2
100
AcDbEntity
  8
Layer 1
100
AcDbSpline
210
0.0
220
0.0
230
1.0
 70
    24
 71
     3
 72
     8
 73
     4
 74
     0
 42
0.000000001
 43
0.0000000001
 40
4.0
 40
4.0
 40
4.0
 40
4.0
 40
5.0
 40
5.0
 40
5.0
 40
5.0
 10
233.5756801482296
 20
19.31044597505541
 30
0.0
 10
233.5756801482296
 20
19.31044597505541
 30
0.0
 10
234.7014803886299
 20
23.50872279347789
 30
0.0
 10
234.7014803886299
 20
23.50872279347789
 30
0.0
  0
SPLINE
  5
2921A
102
{ACAD_REACTORS
330
29234
102
}
330
2
100
AcDbEntity
  8
Layer 1
100
AcDbSpline
210
0.0
220
0.0
230
1.0
 70
    24
 71
     3
 72
     8
 73
     4
 74
     0
 42
0.000000001
 43
0.0000000001
 40
5.0
 40
5.0
 40
5.0
 40
5.0
 40
6.0
 40
6.0
 40
6.0
 40
6.0
 10
234.7014803886299
 20
23.50872279347789
 30
0.0
 10
234.7014803886299
 20
23.50872279347789
 30
0.0
 10
235.2071855413623
 20
23.50872279347789
 30
0.0
 10
235.2071855413623
 20
23.50872279347789
 30
0.0
  0
SPLINE
  5
2921B
102
{ACAD_REACTORS
330
29234
102
}
330
2
100
AcDbEntity
  8
Layer 1
100
AcDbSpline
210
0.0
220
0.0
230
1.0
 70
     8
 71
     3
 72
    11
 73
     7
 74
     0
 42
0.000000001
 43
0.0000000001
 40
6.0
 40
6.0
 40
6.0
 40
6.0
 40
7.0
 40
7.0
 40
7.0
 40
8.0
 40
8.0
 40
8.0
 40
8.0
 10
235.2071855413623
 20
23.50872279347789
 30
0.0
 10
235.5058356988499
 20
23.50872279347789
 30
0.0
 10
235.812480372445
 20
23.43980352636535
 30
0.0
 10
235.812480372445
 20
23.07223410176534
 30
0.0
 10
235.812480372445
 20
22.8731439032373
 30
0.0
 10
235.6593660713825
 20
22.55113430463269
 30
0.0
 10
235.1536609186504
 20
22.56664782659588
 30
0.0
  0
SPLINE
  5
2921C
102
{ACAD_REACTORS
330
29234
102
}
330
2
100
AcDbEntity
  8
Layer 1
100
AcDbSpline
210
0.0
220
0.0
230
1.0
 70
    24
 71
     3
 72
     8
 73
     4
 74
     0
 42
0.000000001
 43
0.0000000001
 40
8.0
 40
8.0
 40
8.0
 40
8.0
 40
9.0
 40
9.0
 40
9.0
 40
9.0
 10
235.1536609186504
 20
22.56664782659588
 30
0.0
 10
235.1536609186504
 20
22.56664782659588
 30
0.0
 10
234.8297492790387
 20
21.38093329447545
 30
0.0
 10
234.8297492790387
 20
21.38093329447545
 30
0.0
  0
SPLINE
  5
2921D
102
{ACAD_REACTORS
330
29234
102
}
330
2
100
AcDbEntity
  8
Layer 1
100
AcDbSpline
210
0.0
220
0.0
230
1.0
 70
    24
 71
     3
 72
     8
 73
     4
 74
     0
 42
0.000000001
 43
0.0000000001
 40
9.0
 40
9.0
 40
9.0
 40
9.0
 40
10.0
 40
10.0
 40
10.0
 40
10.0
 10
234.8297492790387
 20
21.38093329447545
 30
0.0
 10
234.8297492790387
 20
21.38093329447545
 30
0.0
 10
235.4483881165608
 20
19.22713932858048
 30
0.0
 10
235.4483881165608
 20
19.22713932858048
 30
0.0
  0
SPLINE
  5
2921E
102
{ACAD_REACTORS
330
29234
102
}
330
2
100
AcDbEntity
  8
Layer 1
100
AcDbSpline
210
0.0
220
0.0
230
1.0
 70
    24
 71
     3
 72
     8
 73
     4
 74
     0
 42
0.000000001
 43
0.0000000001
 40
10.0
 40
10.0
 40
10.0
 40
10.0
 40
11.0
 40
11.0
 40
11.0
 40
11.0
 10
235.4483881165608
 20
19.22713932858048
 30
0.0
 10
235.4483881165608
 20
19.22713932858048
 30
0.0
 10
236.8636860593611
 20
19.22713932858048
 30
0.0
 10
236.8636860593611
 20
19.22713932858048
 30
0.0
  0
SPLINE
  5
2921F
102
{ACAD_REACTORS
330
29234
102
}
330
2
100
AcDbEntity
  8
Layer 1
100
AcDbSpline
210
0.0
220
0.0
230
1.0
 70
    24
 71
     3
 72
     8
 73
     4
 74
     0
 42
0.000000001
 43
0.0000000001
 40
11.0
 40
11.0
 40
11.0
 40
11.0
 40
12.0
 40
12.0
 40
12.0
 40
12.0
 10
236.8636860593611
 20
19.22713932858048
 30
0.0
 10
236.8636860593611
 20
19.22713932858048
 30
0.0
 10
236.0934177730549
 20
21.52676634480784
 30
0.0
 10
236.0934177730549
 20
21.52676634480784
 30
0.0
  0
SPLINE
  5
29220
102
{ACAD_REACTORS
330
29234
102
}
330
2
100
AcDbEntity
  8
Layer 1
100
AcDbSpline
210
0.0
220
0.0
230
1.0
 70
     8
 71
     3
 72
     8
 73
     4
 74
     0
 42
0.000000001
 43
0.0000000001
 40
12.0
 40
12.0
 40
12.0
 40
12.0
 40
13.0
 40
13.0
 40
13.0
 40
13.0
 10
236.0934177730549
 20
21.52676634480784
 30
0.0
 10
236.3344420319088
 20
21.60005436235835
 30
0.0
 10
236.5735939691466
 20
21.70772771498819
 30
0.0
 10
236.785166311783
 20
21.86937148119124
 30
0.0
  0
SPLINE
  5
29221
102
{ACAD_REACTORS
330
29234
102
}
330
2
100
AcDbEntity
  8
Layer 1
100
AcDbSpline
210
0.0
220
0.0
230
1.0
 70
     8
 71
     3
 72
     8
 73
     4
 74
     0
 42
0.000000001
 43
0.0000000001
 40
13.0
 40
13.0
 40
13.0
 40
13.0
 40
14.0
 40
14.0
 40
14.0
 40
14.0
 10
236.785166311783
 20
21.86937148119124
 30
0.0
 10
237.2525928892498
 20
22.2295407774984
 30
0.0
 10
237.4978373015881
 20
22.74297297182171
 30
0.0
 10
237.4978373015881
 20
23.24838093064673
 30
0.0
  0
HATCH
  5
29234
330
2
100
AcDbEntity
  8
0
  6
Continuous
 62
     0
100
AcDbHatch
 10
0.0
 20
0.0
 30
0.0
210
0.0
220
0.0
230
0.9999999999999998
  2
SOLID
 70
     1
 71
     1
 91
        1
 92
        5
 93
       14
 72
     4
 94
        3
 73
     0
 74
     0
 95
        8
 96
        4
 40
11.0
 40
11.0
 40
11.0
 40
11.0
 40
12.0
 40
12.0
 40
12.0
 40
12.0
 10
236.8636860593611
 20
19.22713932858048
 10
236.8636860593611
 20
19.22713932858048
 10
236.0934177730549
 20
21.52676634480784
 10
236.0934177730549
 20
21.52676634480784
 97
        0
 72
     4
 94
        3
 73
     0
 74
     0
 95
        8
 96
        4
 40
12.0
 40
12.0
 40
12.0
 40
12.0
 40
13.0
 40
13.0
 40
13.0
 40
13.0
 10
236.0934177730549
 20
21.52676634480784
 10
236.3344420319088
 20
21.60005436235835
 10
236.5735939691466
 20
21.70772771498819
 10
236.785166311783
 20
21.86937148119124
 97
        0
 72
     4
 94
        3
 73
     0
 74
     0
 95
        8
 96
        4
 40
13.0
 40
13.0
 40
13.0
 40
13.0
 40
14.0
 40
14.0
 40
14.0
 40
14.0
 10
236.785166311783
 20
21.86937148119124
 10
237.2525928892498
 20
22.2295407774984
 10
237.4978373015881
 20
22.74297297182171
 10
237.4978373015881
 20
23.24838093064673
 97
        0
 72
     4
 94
        3
 73
     0
 74
     0
 95
        8
 96
        4
 40
0.0
 40
0.0
 40
0.0
 40
0.0
 40
1.0
 40
1.0
 40
1.0
 40
1.0
 10
237.4978373015881
 20
23.24838093064673
 10
237.4978373015881
 20
24.33617007029818
 10
236.5402190933521
 20
24.71928273625215
 10
235.7052241792785
 20
24.71928273625215
 97
        0
 72
     4
 94
        3
 73
     0
 74
     0
 95
        8
 96
        4
 40
1.0
 40
1.0
 40
1.0
 40
1.0
 40
2.0
 40
2.0
 40
2.0
 40
2.0
 10
235.7052241792785
 20
24.71928273625215
 10
235.7052241792785
 20
24.71928273625215
 10
233.3148935221454
 20
24.71928273625215
 10
233.3148935221454
 20
24.71928273625215
 97
        0
 72
     4
 94
        3
 73
     0
 74
     0
 95
        8
 96
        4
 40
2.0
 40
2.0
 40
2.0
 40
2.0
 40
3.0
 40
3.0
 40
3.0
 40
3.0
 10
233.3148935221454
 20
24.71928273625215
 10
233.3148935221454
 20
24.71928273625215
 10
231.8592664557693
 20
19.31044597505541
 10
231.8592664557693
 20
19.31044597505541
 97
        0
 72
     4
 94
        3
 73
     0
 74
     0
 95
        8
 96
        4
 40
3.0
 40
3.0
 40
3.0
 40
3.0
 40
4.0
 40
4.0
 40
4.0
 40
4.0
 10
231.8592664557693
 20
19.31044597505541
 10
231.8592664557693
 20
19.31044597505541
 10
233.5756801482296
 20
19.31044597505541
 10
233.5756801482296
 20
19.31044597505541
 97
        0
 72
     4
 94
        3
 73
     0
 74
     0
 95
        8
 96
        4
 40
4.0
 40
4.0
 40
4.0
 40
4.0
 40
5.0
 40
5.0
 40
5.0
 40
5.0
 10
233.5756801482296
 20
19.31044597505541
 10
233.5756801482296
 20
19.31044597505541
 10
234.7014803886299
 20
23.50872279347789
 10
234.7014803886299
 20
23.50872279347789
 97
        0
 72
     4
 94
        3
 73
     0
 74
     0
 95
        8
 96
        4
 40
5.0
 40
5.0
 40
5.0
 40
5.0
 40
6.0
 40
6.0
 40
6.0
 40
6.0
 10
234.7014803886299
 20
23.50872279347789
 10
234.7014803886299
 20
23.50872279347789
 10
235.2071855413623
 20
23.50872279347789
 10
235.2071855413623
 20
23.50872279347789
 97
        0
 72
     4
 94
        3
 73
     0
 74
     0
 95
        8
 96
        4
 40
6.0
 40
6.0
 40
6.0
 40
6.0
 40
7.0
 40
7.0
 40
7.0
 40
7.0
 10
235.812480372445
 20
23.07223410176534
 10
235.812480372445
 20
23.43980352636535
 10
235.5058356988499
 20
23.50872279347789
 10
235.2071855413623
 20
23.50872279347789
 97
        0
 72
     4
 94
        3
 73
     0
 74
     0
 95
        8
 96
        4
 40
7.0
 40
7.0
 40
7.0
 40
7.0
 40
8.0
 40
8.0
 40
8.0
 40
8.0
 10
235.812480372445
 20
23.07223410176534
 10
235.812480372445
 20
22.8731439032373
 10
235.6593660713825
 20
22.55113430463269
 10
235.1536609186504
 20
22.56664782659588
 97
        0
 72
     4
 94
        3
 73
     0
 74
     0
 95
        8
 96
        4
 40
8.0
 40
8.0
 40
8.0
 40
8.0
 40
9.0
 40
9.0
 40
9.0
 40
9.0
 10
235.1536609186504
 20
22.56664782659588
 10
235.1536609186504
 20
22.56664782659588
 10
234.8297492790387
 20
21.38093329447545
 10
234.8297492790387
 20
21.38093329447545
 97
        0
 72
     4
 94
        3
 73
     0
 74
     0
 95
        8
 96
        4
 40
9.0
 40
9.0
 40
9.0
 40
9.0
 40
10.0
 40
10.0
 40
10.0
 40
10.0
 10
234.8297492790387
 20
21.38093329447545
 10
234.8297492790387
 20
21.38093329447545
 10
235.4483881165608
 20
19.22713932858048
 10
235.4483881165608
 20
19.22713932858048
 97
        0
 72
     4
 94
        3
 73
     0
 74
     0
 95
        8
 96
        4
 40
10.0
 40
10.0
 40
10.0
 40
10.0
 40
11.0
 40
11.0
 40
11.0
 40
11.0
 10
235.4483881165608
 20
19.22713932858048
 10
235.4483881165608
 20
19.22713932858048
 10
236.8636860593611
 20
19.22713932858048
 10
236.8636860593611
 20
19.22713932858048
 97
        0
 97
       13
330
2921F
330
29220
330
29221
330
29215
330
29216
330
29217
330
29218
330
29219
330
2921A
330
2921B
330
2921C
330
2921D
330
2921E
 75
     1
 76
     1
 47
0.0269459378258844
 98
        1
 10
235.7150328296965
 20
21.24708010342791
450
        0
451
        0
460
0.0
461
0.0
452
        0
462
1.0
453
        2
463
0.0
 63
     5
421
      255
463
1.0
 63
     2
421
 16776960
470
LINEAR
1001
GRADIENTCOLOR1ACI
1070
     5
1001
GRADIENTCOLOR2ACI
1070
     2
1001
ACAD
1010
0.0
1020
0.0
1030
0.0
  0
HATCH
  5
2923A
330
2
100
AcDbEntity
  8
0
  6
Continuous
 62
     0
100
AcDbHatch
 10
0.0
 20
0.0
 30
0.0
210
0.0
220
0.0
230
0.9999999999999998
  2
SOLID
 70
     1
 71
     1
 91
        1
 92
        5
 93
        1
 72
     4
 94
        3
 73
     0
 74
     0
 95
       17
 96
       13
 40
0.0
 40
0.0
 40
0.0
 40
0.0
 40
1.0
 40
1.0
 40
1.0
 40
2.0
 40
2.0
 40
2.0
 40
3.0
 40
3.0
 40
3.0
 40
4.0
 40
4.0
 40
4.0
 40
4.0
 10
239.0302296986123
 20
19.29998155526998
 10
239.0302296986123
 20
19.29998155526998
 10
237.360117644926
 20
19.29998155526998
 10
237.360117644926
 20
19.29998155526998
 10
237.360117644926
 20
19.29998155526998
 10
238.8081949584476
 20
24.70867624437805
 10
238.8081949584476
 20
24.70867624437805
 10
238.8081949584476
 20
24.70867624437805
 10
240.478186962581
 20
24.70867624437805
 10
240.478186962581
 20
24.70867624437805
 10
240.478186962581
 20
24.70867624437805
 10
239.0302296986123
 20
19.29998155526998
 10
239.0302296986123
 20
19.29998155526998
 97
        0
 97
        1
330
283D7
 75
     1
 76
     1
 47
0.0269459378258844
 98
        1
 10
238.335837961352
 20
20.77745769381764
450
        0
451
        0
460
0.0
461
0.0
452
        0
462
1.0
453
        2
463
0.0
 63
     5
421
      255
463
1.0
 63
     2
421
 16776960
470
LINEAR
1001
GRADIENTCOLOR1ACI
1070
     5
1001
GRADIENTCOLOR2ACI
1070
     2
1001
ACAD
1010
0.0
1020
0.0
1030
0.0
  0
HATCH
  5
2924F
330
2
100
AcDbEntity
  8
0
  6
Continuous
 62
     0
100
AcDbHatch
 10
0.0
 20
0.0
 30
0.0
210
0.0
220
0.0
230
0.9999999999999998
  2
SOLID
 70
     1
 71
     1
 91
        2
 92
        5
 93
        4
 72
     4
 94
        3
 73
     0
 74
     0
 95
        8
 96
        4
 40
0.0
 40
0.0
 40
0.0
 40
0.0
 40
1.0
 40
1.0
 40
1.0
 40
1.0
 10
244.2016699888815
 20
21.49309427510605
 10
244.2016699888815
 20
20.09143864991123
 10
245.1616063095947
 20
19.01714211365301
 10
246.8222961444286
 20
19.01714211365301
 97
        0
 72
     4
 94
        3
 73
     0
 74
     0
 95
        8
 96
        4
 40
3.0
 40
3.0
 40
3.0
 40
3.0
 40
4.0
 40
4.0
 40
4.0
 40
4.0
 10
246.8222961444286
 20
19.01714211365301
 10
249.0240869263591
 20
19.01714211365301
 10
250.1591893360593
 20
20.70077531813356
 10
250.1591893360593
 20
22.22445876168296
 97
        0
 72
     4
 94
        3
 73
     0
 74
     0
 95
        8
 96
        4
 40
2.0
 40
2.0
 40
2.0
 40
2.0
 40
3.0
 40
3.0
 40
3.0
 40
3.0
 10
250.1591893360593
 20
22.22445876168296
 10
250.1591893360593
 20
23.58825518539628
 10
249.1994016122998
 20
24.7157758481455
 10
247.47005998487
 20
24.7157758481455
 97
        0
 72
     4
 94
        3
 73
     0
 74
     0
 95
        8
 96
        4
 40
1.0
 40
1.0
 40
1.0
 40
1.0
 40
2.0
 40
2.0
 40
2.0
 40
2.0
 10
247.47005998487
 20
24.7157758481455
 10
245.3444400013912
 20
24.7157758481455
 10
244.2016699888815
 20
23.02432644390192
 10
244.2016699888815
 20
21.49309427510605
 97
        0
 97
        1
330
283DE
 92
       20
 93
        4
 72
     4
 94
        3
 73
     0
 74
     0
 95
        8
 96
        4
 40
2.0
 40
2.0
 40
2.0
 40
2.0
 40
3.0
 40
3.0
 40
3.0
 40
3.0
 10
246.9215291900898
 20
20.31231316184737
 10
246.3577820672537
 20
20.31231316184737
 10
245.8700571459155
 20
20.68567786764069
 10
245.8700571459155
 20
21.47799682461318
 97
        0
 72
     4
 94
        3
 73
     0
 74
     0
 95
        8
 96
        4
 40
1.0
 40
1.0
 40
1.0
 40
1.0
 40
2.0
 40
2.0
 40
2.0
 40
2.0
 10
245.8700571459155
 20
21.47799682461318
 10
245.8700571459155
 20
22.30081114626944
 10
246.4416515471238
 20
23.48158898973764
 10
247.4853060323167
 20
23.48158898973764
 97
        0
 72
     4
 94
        3
 73
     0
 74
     0
 95
        8
 96
        4
 40
0.0
 40
0.0
 40
0.0
 40
0.0
 40
1.0
 40
1.0
 40
1.0
 40
1.0
 10
247.4853060323167
 20
23.48158898973764
 10
248.0338368270969
 20
23.48158898973764
 10
248.5061968234257
 20
23.10837288089808
 10
248.5061968234257
 20
22.32357292978132
 97
        0
 72
     4
 94
        3
 73
     0
 74
     0
 95
        8
 96
        4
 40
3.0
 40
3.0
 40
3.0
 40
3.0
 40
4.0
 40
4.0
 40
4.0
 40
4.0
 10
248.5061968234257
 20
22.32357292978132
 10
248.5061968234257
 20
21.53895129500892
 10
248.0492314714974
 20
20.31231316184737
 10
246.9215291900898
 20
20.31231316184737
 97
        0
 97
        1
330
283DD
 75
     1
 76
     1
 47
0.0269459378258844
 98
        2
 10
245.3487519412343
 20
20.66908413451475
 10
245.3487519412343
 20
20.66908413451475
450
        0
451
        0
460
0.0
461
0.0
452
        0
462
1.0
453
        2
463
0.0
 63
     5
421
      255
463
1.0
 63
     2
421
 16776960
470
LINEAR
1001
GRADIENTCOLOR1ACI
1070
     5
1001
GRADIENTCOLOR2ACI
1070
     2
1001
ACAD
1010
0.0
1020
0.0
1030
0.0
  0
HATCH
  5
29296
330
2
100
AcDbEntity
  8
0
  6
Continuous
 62
     0
100
AcDbHatch
 10
0.0
 20
0.0
 30
0.0
210
0.0
220
0.0
230
0.9999999999999998
  2
SOLID
 70
     1
 71
     1
 91
        2
 92
        5
 93
        4
 72
     4
 94
        3
 73
     0
 74
     0
 95
        8
 96
        4
 40
0.0
 40
0.0
 40
0.0
 40
0.0
 40
1.0
 40
1.0
 40
1.0
 40
1.0
 10
250.3452327220549
 20
21.49309427510605
 10
250.3452327220549
 20
20.09143864991123
 10
251.3052879203311
 20
19.01714211365301
 10
252.9658291582113
 20
19.01714211365301
 97
        0
 72
     4
 94
        3
 73
     0
 74
     0
 95
        8
 96
        4
 40
3.0
 40
3.0
 40
3.0
 40
3.0
 40
4.0
 40
4.0
 40
4.0
 40
4.0
 10
252.9658291582113
 20
19.01714211365301
 10
255.1676496595326
 20
19.01714211365301
 10
256.3027520692327
 20
20.70077531813356
 10
256.3027520692327
 20
22.22445876168296
 97
        0
 72
     4
 94
        3
 73
     0
 74
     0
 95
        8
 96
        4
 40
2.0
 40
2.0
 40
2.0
 40
2.0
 40
3.0
 40
3.0
 40
3.0
 40
3.0
 10
256.3027520692327
 20
22.22445876168296
 10
256.3027520692327
 20
23.58825518539628
 10
255.3428157485197
 20
24.7157758481455
 10
253.6136227180437
 20
24.7157758481455
 97
        0
 72
     4
 94
        3
 73
     0
 74
     0
 95
        8
 96
        4
 40
1.0
 40
1.0
 40
1.0
 40
1.0
 40
2.0
 40
2.0
 40
2.0
 40
2.0
 10
253.6136227180437
 20
24.7157758481455
 10
251.487854137611
 20
24.7157758481455
 10
250.3452327220549
 20
23.02432644390192
 10
250.3452327220549
 20
21.49309427510605
 97
        0
 97
        1
330
283E1
 92
       20
 93
        4
 72
     4
 94
        3
 73
     0
 74
     0
 95
        8
 96
        4
 40
2.0
 40
2.0
 40
2.0
 40
2.0
 40
3.0
 40
3.0
 40
3.0
 40
3.0
 10
253.0647947293561
 20
20.31231316184737
 10
252.5010476065198
 20
20.31231316184737
 10
252.0137402566331
 20
20.68567786764069
 10
252.0137402566331
 20
21.47799682461318
 97
        0
 72
     4
 94
        3
 73
     0
 74
     0
 95
        8
 96
        4
 40
1.0
 40
1.0
 40
1.0
 40
1.0
 40
2.0
 40
2.0
 40
2.0
 40
2.0
 10
252.0137402566331
 20
21.47799682461318
 10
252.0137402566331
 20
22.30081114626944
 10
252.5850643241252
 20
23.48158898973764
 10
253.6284229746292
 20
23.48158898973764
 97
        0
 72
     4
 94
        3
 73
     0
 74
     0
 95
        8
 96
        4
 40
0.0
 40
0.0
 40
0.0
 40
0.0
 40
1.0
 40
1.0
 40
1.0
 40
1.0
 10
253.6284229746292
 20
23.48158898973764
 10
254.1772509633169
 20
23.48158898973764
 10
254.6496109596456
 20
23.10837288089808
 10
254.6496109596456
 20
22.32357292978132
 97
        0
 72
     4
 94
        3
 73
     0
 74
     0
 95
        8
 96
        4
 40
3.0
 40
3.0
 40
3.0
 40
3.0
 40
4.0
 40
4.0
 40
4.0
 40
4.0
 10
254.6496109596456
 20
22.32357292978132
 10
254.6496109596456
 20
21.53895129500892
 10
254.1923484138098
 20
20.31231316184737
 10
253.0647947293561
 20
20.31231316184737
 97
        0
 97
        1
330
283E0
 75
     1
 76
     1
 47
0.0269459378258844
 98
        2
 10
251.9098027589528
 20
21.10258150255277
 10
251.9098027589528
 20
21.10258150255277
450
        0
451
        0
460
0.0
461
0.0
452
        0
462
1.0
453
        2
463
0.0
 63
     5
421
      255
463
1.0
 63
     2
421
 16776960
470
LINEAR
1001
GRADIENTCOLOR1ACI
1070
     5
1001
GRADIENTCOLOR2ACI
1070
     2
1001
ACAD
1010
0.0
1020
0.0
1030
0.0
  0
HATCH
  5
2929D
330
2
100
AcDbEntity
  8
0
  6
Continuous
 62
     0
100
AcDbHatch
 10
0.0
 20
0.0
 30
0.0
210
0.0
220
0.0
230
0.9999999999999998
  2
SOLID
 70
     1
 71
     0
 91
        1
 92
        5
 93
        1
 72
     4
 94
        3
 73
     0
 74
     0
 95
       41
 96
       37
 40
0.0
 40
0.0
 40
0.0
 40
0.0
 40
1.0
 40
1.0
 40
1.0
 40
2.0
 40
2.0
 40
2.0
 40
3.0
 40
3.0
 40
3.0
 40
4.0
 40
4.0
 40
4.0
 40
5.0
 40
5.0
 40
5.0
 40
6.0
 40
6.0
 40
6.0
 40
7.0
 40
7.0
 40
7.0
 40
8.0
 40
8.0
 40
8.0
 40
9.0
 40
9.0
 40
9.0
 40
10.0
 40
10.0
 40
10.0
 40
11.0
 40
11.0
 40
11.0
 40
12.0
 40
12.0
 40
12.0
 40
12.0
 10
227.5923346505039
 20
19.29998155526998
 10
227.5923346505039
 20
19.29998155526998
 10
225.8380287348576
 20
19.29998155526998
 10
225.8380287348576
 20
19.29998155526998
 10
225.8380287348576
 20
19.29998155526998
 10
229.3467603710779
 20
24.71622163900658
 10
229.3467603710779
 20
24.71622163900658
 10
229.3467603710779
 20
24.71622163900658
 10
231.1548881490208
 20
24.71622163900658
 10
231.1548881490208
 20
24.71622163900658
 10
231.1548881490208
 20
24.71622163900658
 10
231.5610620891428
 20
19.29998155526998
 10
231.5610620891428
 20
19.29998155526998
 10
231.5610620891428
 20
19.29998155526998
 10
229.9291109051489
 20
19.29998155526998
 10
229.9291109051489
 20
19.29998155526998
 10
229.9291109051489
 20
19.29998155526998
 10
229.8754079660923
 20
20.17343444894676
 10
229.8754079660923
 20
20.17343444894676
 10
229.8754079660923
 20
20.17343444894676
 10
228.6924276179193
 20
20.17343444894676
 10
228.6924276179193
 20
20.17343444894676
 10
228.6924276179193
 20
20.17343444894676
 10
229.2797124982168
 20
21.29935356691016
 10
229.2797124982168
 20
21.29935356691016
 10
229.2797124982168
 20
21.29935356691016
 10
229.8218536239894
 20
21.29935356691016
 10
229.8218536239894
 20
21.29935356691016
 10
229.8218536239894
 20
21.29935356691016
 10
229.7527857599232
 20
22.88532885343829
 10
229.7527857599232
 20
22.88532885343829
 10
229.7527857599232
 20
22.88532885343829
 10
227.6010433152532
 20
19.31216650547105
 10
227.6010433152532
 20
19.31216650547105
 10
227.6010433152532
 20
19.31216650547105
 10
227.5923346505039
 20
19.29998155526998
 10
227.5923346505039
 20
19.29998155526998
 97
        0
 97
        0
 75
     1
 76
     1
 47
0.0269459378258844
 98
        1
 10
230.8891337742314
 20
21.5360788705908
450
        0
451
        0
460
0.0
461
0.0
452
        0
462
1.0
453
        2
463
0.0
 63
     5
421
      255
463
1.0
 63
     2
421
 16776960
470
LINEAR
1001
GRADIENTCOLOR1ACI
1070
     5
1001
GRADIENTCOLOR2ACI
1070
     2
1001
ACAD
1010
0.0
1020
0.0
1030
0.0
  0
SPLINE
  5
2942D
102
{ACAD_REACTORS
330
2944B
102
}
330
2
100
AcDbEntity
  8
Layer 1
100
AcDbSpline
210
0.0
220
0.0
230
1.0
 70
    24
 71
     3
 72
     8
 73
     4
 74
     0
 42
0.000000001
 43
0.0000000001
 40
0.0
 40
0.0
 40
0.0
 40
0.0
 40
1.0
 40
1.0
 40
1.0
 40
1.0
 10
225.6696981057393
 20
19.29998155526998
 30
0.0
 10
225.6696981057393
 20
19.29998155526998
 30
0.0
 10
223.9843411765961
 20
19.29998155526998
 30
0.0
 10
223.9843411765961
 20
19.29998155526998
 30
0.0
  0
SPLINE
  5
2942E
102
{ACAD_REACTORS
330
2944B
102
}
330
2
100
AcDbEntity
  8
Layer 1
100
AcDbSpline
210
0.0
220
0.0
230
1.0
 70
    24
 71
     3
 72
     8
 73
     4
 74
     0
 42
0.000000001
 43
0.0000000001
 40
1.0
 40
1.0
 40
1.0
 40
1.0
 40
2.0
 40
2.0
 40
2.0
 40
2.0
 10
223.9843411765961
 20
19.29998155526998
 30
0.0
 10
223.9843411765961
 20
19.29998155526998
 30
0.0
 10
224.7505665085042
 20
22.80883114168853
 30
0.0
 10
224.7505665085042
 20
22.80883114168853
 30
0.0
  0
SPLINE
  5
2942F
102
{ACAD_REACTORS
330
2944B
102
}
330
2
100
AcDbEntity
  8
Layer 1
100
AcDbSpline
210
0.0
220
0.0
230
1.0
 70
    24
 71
     3
 72
     8
 73
     4
 74
     0
 42
0.000000001
 43
0.0000000001
 40
2.0
 40
2.0
 40
2.0
 40
2.0
 40
3.0
 40
3.0
 40
3.0
 40
3.0
 10
224.7505665085042
 20
22.80883114168853
 30
0.0
 10
224.7505665085042
 20
22.80883114168853
 30
0.0
 10
222.4828581179253
 20
19.29998155526998
 30
0.0
 10
222.4828581179253
 20
19.29998155526998
 30
0.0
  0
SPLINE
  5
29430
102
{ACAD_REACTORS
330
2944B
102
}
330
2
100
AcDbEntity
  8
Layer 1
100
AcDbSpline
210
0.0
220
0.0
230
1.0
 70
    24
 71
     3
 72
     8
 73
     4
 74
     0
 42
0.000000001
 43
0.0000000001
 40
3.0
 40
3.0
 40
3.0
 40
3.0
 40
4.0
 40
4.0
 40
4.0
 40
4.0
 10
222.4828581179253
 20
19.29998155526998
 30
0.0
 10
222.4828581179253
 20
19.29998155526998
 30
0.0
 10
221.9465130137648
 20
19.29998155526998
 30
0.0
 10
221.9465130137648
 20
19.29998155526998
 30
0.0
  0
SPLINE
  5
29431
102
{ACAD_REACTORS
330
2944B
102
}
330
2
100
AcDbEntity
  8
Layer 1
100
AcDbSpline
210
0.0
220
0.0
230
1.0
 70
    24
 71
     3
 72
     8
 73
     4
 74
     0
 42
0.000000001
 43
0.0000000001
 40
4.0
 40
4.0
 40
4.0
 40
4.0
 40
5.0
 40
5.0
 40
5.0
 40
5.0
 10
221.9465130137648
 20
19.29998155526998
 30
0.0
 10
221.9465130137648
 20
19.29998155526998
 30
0.0
 10
221.5404866872975
 20
22.8853288534383
 30
0.0
 10
221.5404866872975
 20
22.8853288534383
 30
0.0
  0
SPLINE
  5
29432
102
{ACAD_REACTORS
330
2944B
102
}
330
2
100
AcDbEntity
  8
Layer 1
100
AcDbSpline
210
0.0
220
0.0
230
1.0
 70
    24
 71
     3
 72
     8
 73
     4
 74
     0
 42
0.000000001
 43
0.0000000001
 40
5.0
 40
5.0
 40
5.0
 40
5.0
 40
6.0
 40
6.0
 40
6.0
 40
6.0
 10
221.5404866872975
 20
22.8853288534383
 30
0.0
 10
221.5404866872975
 20
22.8853288534383
 30
0.0
 10
220.4294866754165
 20
19.29998155526998
 30
0.0
 10
220.4294866754165
 20
19.29998155526998
 30
0.0
  0
SPLINE
  5
29433
102
{ACAD_REACTORS
330
2944B
102
}
330
2
100
AcDbEntity
  8
Layer 1
100
AcDbSpline
210
0.0
220
0.0
230
1.0
 70
    24
 71
     3
 72
     8
 73
     4
 74
     0
 42
0.000000001
 43
0.0000000001
 40
6.0
 40
6.0
 40
6.0
 40
6.0
 40
7.0
 40
7.0
 40
7.0
 40
7.0
 10
220.4294866754165
 20
19.29998155526998
 30
0.0
 10
220.4294866754165
 20
19.29998155526998
 30
0.0
 10
218.7824379993219
 20
19.29998155526998
 30
0.0
 10
218.7824379993219
 20
19.29998155526998
 30
0.0
  0
SPLINE
  5
29434
102
{ACAD_REACTORS
330
2944B
102
}
330
2
100
AcDbEntity
  8
Layer 1
100
AcDbSpline
210
0.0
220
0.0
230
1.0
 70
    24
 71
     3
 72
     8
 73
     4
 74
     0
 42
0.000000001
 43
0.0000000001
 40
7.0
 40
7.0
 40
7.0
 40
7.0
 40
8.0
 40
8.0
 40
8.0
 40
8.0
 10
218.7824379993219
 20
19.29998155526998
 30
0.0
 10
218.7824379993219
 20
19.29998155526998
 30
0.0
 10
220.7511990882409
 20
24.70867624437805
 30
0.0
 10
220.7511990882409
 20
24.70867624437805
 30
0.0
  0
SPLINE
  5
29435
102
{ACAD_REACTORS
330
2944B
102
}
330
2
100
AcDbEntity
  8
Layer 1
100
AcDbSpline
210
0.0
220
0.0
230
1.0
 70
    24
 71
     3
 72
     8
 73
     4
 74
     0
 42
0.000000001
 43
0.0000000001
 40
8.0
 40
8.0
 40
8.0
 40
8.0
 40
9.0
 40
9.0
 40
9.0
 40
9.0
 10
220.7511990882409
 20
24.70867624437805
 30
0.0
 10
220.7511990882409
 20
24.70867624437805
 30
0.0
 10
222.5365618123065
 20
24.70867624437805
 30
0.0
 10
222.5365618123065
 20
24.70867624437805
 30
0.0
  0
SPLINE
  5
29436
102
{ACAD_REACTORS
330
2944B
102
}
330
2
100
AcDbEntity
  8
Layer 1
100
AcDbSpline
210
0.0
220
0.0
230
1.0
 70
    24
 71
     3
 72
     8
 73
     4
 74
     0
 42
0.000000001
 43
0.0000000001
 40
9.0
 40
9.0
 40
9.0
 40
9.0
 40
10.0
 40
10.0
 40
10.0
 40
10.0
 10
222.5365618123065
 20
24.70867624437805
 30
0.0
 10
222.5365618123065
 20
24.70867624437805
 30
0.0
 10
222.8656735899718
 20
21.73631776887439
 30
0.0
 10
222.8656735899718
 20
21.73631776887439
 30
0.0
  0
SPLINE
  5
29437
102
{ACAD_REACTORS
330
2944B
102
}
330
2
100
AcDbEntity
  8
Layer 1
100
AcDbSpline
210
0.0
220
0.0
230
1.0
 70
    24
 71
     3
 72
     8
 73
     4
 74
     0
 42
0.000000001
 43
0.0000000001
 40
10.0
 40
10.0
 40
10.0
 40
10.0
 40
11.0
 40
11.0
 40
11.0
 40
11.0
 10
222.8656735899718
 20
21.73631776887439
 30
0.0
 10
222.8656735899718
 20
21.73631776887439
 30
0.0
 10
224.7350232671501
 20
24.70867624437805
 30
0.0
 10
224.7350232671501
 20
24.70867624437805
 30
0.0
  0
SPLINE
  5
29438
102
{ACAD_REACTORS
330
2944B
102
}
330
2
100
AcDbEntity
  8
Layer 1
100
AcDbSpline
210
0.0
220
0.0
230
1.0
 70
    24
 71
     3
 72
     8
 73
     4
 74
     0
 42
0.000000001
 43
0.0000000001
 40
11.0
 40
11.0
 40
11.0
 40
11.0
 40
12.0
 40
12.0
 40
12.0
 40
12.0
 10
224.7350232671501
 20
24.70867624437805
 30
0.0
 10
224.7350232671501
 20
24.70867624437805
 30
0.0
 10
226.55099691857
 20
24.70867624437805
 30
0.0
 10
226.55099691857
 20
24.70867624437805
 30
0.0
  0
SPLINE
  5
29439
102
{ACAD_REACTORS
330
2944B
102
}
330
2
100
AcDbEntity
  8
Layer 1
100
AcDbSpline
210
0.0
220
0.0
230
1.0
 70
    24
 71
     3
 72
     8
 73
     4
 74
     0
 42
0.000000001
 43
0.0000000001
 40
12.0
 40
12.0
 40
12.0
 40
12.0
 40
13.0
 40
13.0
 40
13.0
 40
13.0
 10
226.55099691857
 20
24.70867624437805
 30
0.0
 10
226.55099691857
 20
24.70867624437805
 30
0.0
 10
225.6696981057393
 20
19.29998155526998
 30
0.0
 10
225.6696981057393
 20
19.29998155526998
 30
0.0
  0
HATCH
  5
2944B
330
2
100
AcDbEntity
  8
0
  6
Continuous
 62
     0
100
AcDbHatch
 10
0.0
 20
0.0
 30
0.0
210
0.0
220
0.0
230
0.9999999999999998
  2
SOLID
 70
     1
 71
     1
 91
        1
 92
        5
 93
       13
 72
     4
 94
        3
 73
     0
 74
     0
 95
        8
 96
        4
 40
1.0
 40
1.0
 40
1.0
 40
1.0
 40
2.0
 40
2.0
 40
2.0
 40
2.0
 10
224.7505665085042
 20
22.80883114168853
 10
224.7505665085042
 20
22.80883114168853
 10
223.9843411765961
 20
19.29998155526998
 10
223.9843411765961
 20
19.29998155526998
 97
        0
 72
     4
 94
        3
 73
     0
 74
     0
 95
        8
 96
        4
 40
0.0
 40
0.0
 40
0.0
 40
0.0
 40
1.0
 40
1.0
 40
1.0
 40
1.0
 10
223.9843411765961
 20
19.29998155526998
 10
223.9843411765961
 20
19.29998155526998
 10
225.6696981057393
 20
19.29998155526998
 10
225.6696981057393
 20
19.29998155526998
 97
        0
 72
     4
 94
        3
 73
     0
 74
     0
 95
        8
 96
        4
 40
12.0
 40
12.0
 40
12.0
 40
12.0
 40
13.0
 40
13.0
 40
13.0
 40
13.0
 10
225.6696981057393
 20
19.29998155526998
 10
225.6696981057393
 20
19.29998155526998
 10
226.55099691857
 20
24.70867624437805
 10
226.55099691857
 20
24.70867624437805
 97
        0
 72
     4
 94
        3
 73
     0
 74
     0
 95
        8
 96
        4
 40
11.0
 40
11.0
 40
11.0
 40
11.0
 40
12.0
 40
12.0
 40
12.0
 40
12.0
 10
226.55099691857
 20
24.70867624437805
 10
226.55099691857
 20
24.70867624437805
 10
224.7350232671501
 20
24.70867624437805
 10
224.7350232671501
 20
24.70867624437805
 97
        0
 72
     4
 94
        3
 73
     0
 74
     0
 95
        8
 96
        4
 40
10.0
 40
10.0
 40
10.0
 40
10.0
 40
11.0
 40
11.0
 40
11.0
 40
11.0
 10
224.7350232671501
 20
24.70867624437805
 10
224.7350232671501
 20
24.70867624437805
 10
222.8656735899718
 20
21.73631776887439
 10
222.8656735899718
 20
21.73631776887439
 97
        0
 72
     4
 94
        3
 73
     0
 74
     0
 95
        8
 96
        4
 40
9.0
 40
9.0
 40
9.0
 40
9.0
 40
10.0
 40
10.0
 40
10.0
 40
10.0
 10
222.8656735899718
 20
21.73631776887439
 10
222.8656735899718
 20
21.73631776887439
 10
222.5365618123065
 20
24.70867624437805
 10
222.5365618123065
 20
24.70867624437805
 97
        0
 72
     4
 94
        3
 73
     0
 74
     0
 95
        8
 96
        4
 40
8.0
 40
8.0
 40
8.0
 40
8.0
 40
9.0
 40
9.0
 40
9.0
 40
9.0
 10
222.5365618123065
 20
24.70867624437805
 10
222.5365618123065
 20
24.70867624437805
 10
220.7511990882409
 20
24.70867624437805
 10
220.7511990882409
 20
24.70867624437805
 97
        0
 72
     4
 94
        3
 73
     0
 74
     0
 95
        8
 96
        4
 40
7.0
 40
7.0
 40
7.0
 40
7.0
 40
8.0
 40
8.0
 40
8.0
 40
8.0
 10
220.7511990882409
 20
24.70867624437805
 10
220.7511990882409
 20
24.70867624437805
 10
218.7824379993219
 20
19.29998155526998
 10
218.7824379993219
 20
19.29998155526998
 97
        0
 72
     4
 94
        3
 73
     0
 74
     0
 95
        8
 96
        4
 40
6.0
 40
6.0
 40
6.0
 40
6.0
 40
7.0
 40
7.0
 40
7.0
 40
7.0
 10
218.7824379993219
 20
19.29998155526998
 10
218.7824379993219
 20
19.29998155526998
 10
220.4294866754165
 20
19.29998155526998
 10
220.4294866754165
 20
19.29998155526998
 97
        0
 72
     4
 94
        3
 73
     0
 74
     0
 95
        8
 96
        4
 40
5.0
 40
5.0
 40
5.0
 40
5.0
 40
6.0
 40
6.0
 40
6.0
 40
6.0
 10
220.4294866754165
 20
19.29998155526998
 10
220.4294866754165
 20
19.29998155526998
 10
221.5404866872975
 20
22.8853288534383
 10
221.5404866872975
 20
22.8853288534383
 97
        0
 72
     4
 94
        3
 73
     0
 74
     0
 95
        8
 96
        4
 40
4.0
 40
4.0
 40
4.0
 40
4.0
 40
5.0
 40
5.0
 40
5.0
 40
5.0
 10
221.5404866872975
 20
22.8853288534383
 10
221.5404866872975
 20
22.8853288534383
 10
221.9465130137648
 20
19.29998155526998
 10
221.9465130137648
 20
19.29998155526998
 97
        0
 72
     4
 94
        3
 73
     0
 74
     0
 95
        8
 96
        4
 40
3.0
 40
3.0
 40
3.0
 40
3.0
 40
4.0
 40
4.0
 40
4.0
 40
4.0
 10
221.9465130137648
 20
19.29998155526998
 10
221.9465130137648
 20
19.29998155526998
 10
222.4828581179253
 20
19.29998155526998
 10
222.4828581179253
 20
19.29998155526998
 97
        0
 72
     4
 94
        3
 73
     0
 74
     0
 95
        8
 96
        4
 40
2.0
 40
2.0
 40
2.0
 40
2.0
 40
3.0
 40
3.0
 40
3.0
 40
3.0
 10
222.4828581179253
 20
19.29998155526998
 10
222.4828581179253
 20
19.29998155526998
 10
224.7505665085042
 20
22.80883114168853
 10
224.7505665085042
 20
22.80883114168853
 97
        0
 97
       13
330
29439
330
29438
330
29437
330
29436
330
29435
330
29434
330
29433
330
29432
330
29431
330
29430
330
2942F
330
2942E
330
2942D
 75
     1
 76
     1
 47
0.0269459378258844
 98
        1
 10
224.8483211240657
 20
21.13885995462337
450
        0
451
        0
460
0.0
461
0.0
452
        0
462
1.0
453
        2
463
0.0
 63
     5
421
      255
463
1.0
 63
     2
421
 16776960
470
LINEAR
1001
GRADIENTCOLOR1ACI
1070
     5
1001
GRADIENTCOLOR2ACI
1070
     2
1001
ACAD
1010
0.0
1020
0.0
1030
0.0
  0
MULTILEADER
  5
3731F
330
2
100
AcDbEntity
  8
0
  6
Continuous
 62
     7
160
               688
310
B0020000180000000C00000016000000020000C30C00000033000000000000000C00000013000000993A00000C00000016000000020000C3D400000026000000F7CC2AD99BB54040C6F7168461A66040000000000000000000000000000000000000000000000000000000000000F03F000000000000F03F00000000000000
310
0000000000000000004400530046003100360020005400610070006500720000000B000000010000000000000000000440000000000000F03F0000000000000000000000000000F03F0000000000000000000000000000000000000000000000000000000001000000000000000000000072006F006D0061006E0073002E00
310
73006800780000002E00000077000C00000033000000000000000C00000010000000000000000C00000016000000030000C30C00000012000000000000000C00000013000000010000000C000000140000000100000054000000070000000300000020834E7F54BD4D4046E472AA223C5C40000000000000000000EE5461E0
310
394D4030FA2969D7A75B40000000000000000064D55DA608564D405119B3B26F495C4000000000000000000C0000001300000089130000540000000600000003000000422CD692AE894D40CBFE922EC9425C400000000000000000B0DE744CC81E504070A2C12E0CC160400000000000000000405F4F222E5A4D4070A2C12E
310
0CC1604000000000000000000C00000013000000122700003C0000000600000002000000405F4F222E5A4D4070A2C12E0CC160400000000000000000405F4F222E1A4D4070A2C12E0CC1604000000000000000000C00000016000000030000C30C00000012000000000000000C00000017000000000000000C000000130000
310
009A3A00000C00000016000000070000C30C00000012000000000000000C00000017000000FFFFFFFF0C0000003300000000000000
100
AcDbMLeader
270
     2
300
CONTEXT_DATA{
 40
1.0
 10
33.39500908914629
 20
134.0327371389317
 30
0.0
 41
2.5
140
2.5
145
0.5
174
     2
175
     2
176
     2
177
     1
290
     1
304
DSF16 Taper
 11
0.0
 21
0.0
 31
1.0
340
35
 12
57.7045328986701
 22
135.6994038055983
 32
0.0
 13
1.0
 23
0.0
 33
0.0
 42
0.0
 43
24.31071428571428
 44
0.0
 45
1.0
170
     1
 90
-1023410174
171
     3
172
     5
 91
-1073741824
141
0.0
 92
 14025060
291
     0
292
     0
173
     0
293
     0
142
0.0
143
0.0
294
     0
295
     0
296
     0
110
20.6087012830144
120
169.7963364915012
130
0.0
111
1.0
121
0.0
131
0.0
112
0.0
122
1.0
132
0.0
297
     0
302
LEADER{
290
     1
291
     1
 10
58.70453289867009
 20
134.0327371389317
 30
0.0
 11
-1.0
 21
0.0
 31
0.0
 90
        1
 40
0.5
304
LEADER_LINE{
 10
58.45216004034956
 20
110.6225226316389
 30
0.0
 10
64.48097525990556
 20
134.0327371389317
 30
0.0
 91
        0
305
}
271
     0
303
}
272
     9
273
     9
301
}
340
BD9
 90
   279552
170
     1
 91
-1023410173
341
28
171
    -1
290
     1
291
     1
 41
0.5
 42
2.5
172
     2
343
35
173
     2
 95
        2
174
     1
175
     0
 92
-1023410174
292
     0
 93
-1023410174
 10
1.0
 20
1.0
 30
1.0
 43
0.0
176
     1
293
     0
294
     0
178
     0
179
     1
 45
1.0
271
     0
272
     9
273
     9
295
     0
  0
MULTILEADER
  5
37321
330
2
100
AcDbEntity
  8
0
  6
Continuous
 62
     7
160
               680
310
A8020000180000000C00000016000000020000C30C00000033000000000000000C00000013000000993A00000C00000016000000020000C3CC00000026000000D2AAD4A16D45334018B2E110562F5E40000000000000000000000000000000000000000000000000000000000000F03F000000000000F03F00000000000000
310
0000000000000000004D0031003000780031002E003500000007000000010000000000000000000440000000000000F03F0000000000000000000000000000F03F0000000000000000000000000000000000000000000000000000000001000000000000000000000072006F006D0061006E0073002E007300680078000000
310
2D0000002E000C00000033000000000000000C00000010000000000000000C00000016000000030000C30C00000012000000000000000C00000013000000010000000C000000140000000100000054000000070000000300000004469FE2E8AC4440707630D1B7195A400000000000000000609DD28975D34440508AF308A9
310
7859400000000000000000F43BE9088646444060BCD8CDC20A5A4000000000000000000C0000001300000089130000540000000600000003000000FC40C475B77944406899844F3D125A400000000000000000F0149C4D9AE3414018B2E110567F5E40000000000000000050CF88B830C1414018B2E110567F5E4000000000
310
000000000C00000013000000112700003C000000060000000200000050CF88B830C1414018B2E110567F5E40000000000000000050CF88B83081414018B2E110567F5E4000000000000000000C00000016000000030000C30C00000012000000000000000C00000017000000000000000C000000130000009A3A00000C0000
310
0016000000070000C30C00000012000000000000000C00000017000000FFFFFFFF0C0000003300000000000000
100
AcDbMLeader
270
     2
300
CONTEXT_DATA{
 40
1.0
 10
19.24739458006155
 20
121.9896280483302
 30
0.0
 41
2.5
140
2.5
145
0.5
174
     2
175
     2
176
     2
177
     1
290
     1
304
M10x1.5
 11
0.0
 21
0.0
 31
1.0
340
35
 12
34.50929934196631
 22
123.2396280483302
 32
0.0
 13
1.0
 23
0.0
 33
0.0
 42
0.0
 43
16.19047619047619
 44
0.0
 45
1.0
170
     1
 90
-1023410174
171
     3
172
     5
 91
-939524096
141
1.5
 92
        0
291
     0
292
     0
173
     0
293
     0
142
0.0
143
0.0
294
     0
295
     0
296
     0
110
3.577133783773035
120
98.345370457753
130
0.0
111
1.0
121
0.0
131
0.0
112
0.0
122
1.0
132
0.0
297
     0
302
LEADER{
290
     1
291
     1
 10
35.50929934196631
 20
121.9896280483302
 30
0.0
 11
-1.0
 21
0.0
 31
0.0
 90
        0
 40
0.5
304
LEADER_LINE{
 10
41.65202448638843
 20
101.8853170755694
 30
0.0
 10
35.77814645882779
 20
121.9896280483302
 30
0.0
 91
        0
305
}
271
     0
303
}
272
     9
273
     9
301
}
340
BD9
 90
   314368
170
     1
 91
-1023410173
341
28
171
    -1
290
     1
291
     1
 41
0.5
 42
2.5
172
     2
343
35
173
     2
 95
        2
174
     1
175
     0
 92
-1023410174
292
     0
 93
-1023410174
 10
1.0
 20
1.0
 30
1.0
 43
0.0
176
     1
293
     0
294
     0
178
     0
179
     1
 45
1.0
271
     0
272
     9
273
     9
295
     0
  0
LINE
  5
37322
330
2
100
AcDbEntity
  8
0
  6
Continuous
 62
     3
100
AcDbLine
 10
75.7209406032241
 20
77.0103170755699
 30
0.0
 11
75.7209406032241
 21
57.518178581808
 31
0.0
  0
MTEXT
  5
37323
330
2
100
AcDbEntity
  8
0
  6
Continuous
 62
     2
100
AcDbMText
 10
75.72147477237172
 20
55.06936347801195
 30
0.0
 40
3.0
 41
0.0
 46
0.0
 71
     5
 72
     1
  1
0.00
 73
     1
 44
1.0
  0
LINE
  5
37324
330
2
100
AcDbEntity
  8
0
  6
Continuous
 62
     3
100
AcDbLine
 10
28.72094060322479
 20
84.43413067474342
 30
0.0
 11
28.72094060322479
 21
57.518178581808
 31
0.0
  0
MTEXT
  5
37327
330
2
100
AcDbEntity
  8
0
  6
Continuous
 62
     2
100
AcDbMText
 10
28.63270728071143
 20
55.00498627504725
 30
0.0
 40
3.0
 41
0.0
 46
0.0
 71
     5
 72
     1
  1
1.85
 73
     1
 44
1.0
  0
LINE
  5
374FF
330
2
100
AcDbEntity
  8
0
  6
Continuous
 62
     3
100
AcDbLine
 10
177.3209406032257
 20
81.54722882483696
 30
0.0
 11
177.3209406032257
 21
57.518178581808
 31
0.0
  0
MTEXT
  5
37500
330
2
100
AcDbEntity
  8
0
  6
Continuous
 62
     2
100
AcDbMText
 10
177.3214747723733
 20
55.06936347801195
 30
0.0
 40
3.0
 41
0.0
 46
0.0
 71
     5
 72
     1
  1
4.0
 73
     1
 44
1.0
  0
HATCH
  5
39F38
330
2
100
AcDbEntity
  8
0
  6
Continuous
 62
     4
100
AcDbHatch
 10
0.0
 20
0.0
 30
0.0
210
0.0
220
0.0
230
1.0
  2
ANSI31
 70
     0
 71
     0
 91
       10
 92
        7
 72
     1
 73
     1
 93
        5
 10
236.1331702778711
 20
116.6353170755512
 42
0.2959253461271587
 10
218.0991702778706
 20
104.9374810083256
 42
0.0
 10
218.0991702778706
 20
96.88531707553853
 42
0.0
 10
220.7331702778724
 20
96.88531707553853
 42
-0.4142135623730951
 10
236.1331702778711
 20
112.2853170755372
 42
0.0
 97
        0
 92
        7
 72
     1
 73
     1
 93
        5
 10
218.0991702778706
 20
88.83315314275137
 42
0.2959253461271587
 10
236.1331702778711
 20
77.13531707552579
 42
0.0
 10
236.1331702778711
 20
81.4853170755398
 42
-0.4142135623730992
 10
220.7331702778724
 20
96.88531707553853
 42
0.0
 10
218.0991702778706
 20
96.88531707553853
 42
0.0
 97
        0
 92
        7
 72
     1
 73
     1
 93
        5
 10
236.1331702778711
 20
77.13531707552579
 42
0.2959253461271587
 10
254.1671702778717
 20
88.83315314275137
 42
0.0
 10
254.1671702778717
 20
96.88531707553853
 42
0.0
 10
251.5331702778699
 20
96.88531707553853
 42
-0.4142135623730951
 10
236.1331702778711
 20
81.4853170755398
 42
0.0
 97
        0
 92
        7
 72
     1
 73
     1
 93
        5
 10
254.1671702778717
 20
104.9374810083256
 42
0.2959253461271587
 10
236.1331702778711
 20
116.6353170755512
 42
0.0
 10
236.1331702778711
 20
112.2853170755372
 42
-0.4142135623730951
 10
251.5331702778699
 20
96.88531707553853
 42
0.0
 10
254.1671702778717
 20
96.88531707553853
 42
0.0
 97
        0
 92
        9
 93
        4
 72
     1
 10
224.5661702778702
 20
71.67914346900875
 11
229.6661702778706
 21
71.67914346900875
 72
     1
 10
229.6661702778706
 20
71.67914346900875
 11
229.6661702778706
 21
67.17914346900875
 72
     1
 10
229.6661702778706
 20
67.17914346900875
 11
224.5661702778702
 21
67.17914346900875
 72
     1
 10
224.5661702778702
 20
67.17914346900875
 11
224.5661702778702
 21
71.67914346900875
 97
        0
 92
        9
 93
        4
 72
     1
 10
242.6001702778717
 20
71.67914346900875
 11
247.7001702778721
 21
71.67914346900875
 72
     1
 10
247.7001702778721
 20
71.67914346900875
 11
247.7001702778721
 21
67.17914346900875
 72
     1
 10
247.7001702778721
 20
67.17914346900875
 11
242.6001702778717
 21
67.17914346900875
 72
     1
 10
242.6001702778717
 20
67.17914346900875
 11
242.6001702778717
 21
71.67914346900875
 97
        0
 92
        9
 93
        4
 72
     1
 10
232.2930816951944
 20
63.67973402018947
 11
239.9732588605488
 21
63.67973402018947
 72
     1
 10
239.9732588605488
 20
63.67973402018947
 11
239.9732588605488
 21
59.17914346900875
 72
     1
 10
239.9732588605488
 20
59.17914346900875
 11
232.2930816951944
 21
59.17914346900875
 72
     1
 10
232.2930816951944
 20
59.17914346900875
 11
232.2930816951944
 21
63.67973402018947
 97
        0
 92
        9
 93
        4
 72
     1
 10
224.5661702778702
 20
71.67914346900875
 11
229.6661702778706
 21
71.67914346900875
 72
     1
 10
229.6661702778706
 20
71.67914346900875
 11
229.6661702778706
 21
67.17914346900875
 72
     1
 10
229.6661702778706
 20
67.17914346900875
 11
224.5661702778702
 21
67.17914346900875
 72
     1
 10
224.5661702778702
 20
67.17914346900875
 11
224.5661702778702
 21
71.67914346900875
 97
        0
 92
        9
 93
        4
 72
     1
 10
242.6001702778717
 20
71.67914346900875
 11
247.7001702778721
 21
71.67914346900875
 72
     1
 10
247.7001702778721
 20
71.67914346900875
 11
247.7001702778721
 21
67.17914346900875
 72
     1
 10
247.7001702778721
 20
67.17914346900875
 11
242.6001702778717
 21
67.17914346900875
 72
     1
 10
242.6001702778717
 20
67.17914346900875
 11
242.6001702778717
 21
71.67914346900875
 97
        0
 92
        9
 93
        4
 72
     1
 10
232.2930816951944
 20
63.67973402018947
 11
239.9732588605488
 21
63.67973402018947
 72
     1
 10
239.9732588605488
 20
63.67973402018947
 11
239.9732588605488
 21
59.17914346900875
 72
     1
 10
239.9732588605488
 20
59.17914346900875
 11
232.2930816951944
 21
59.17914346900875
 72
     1
 10
232.2930816951944
 20
59.17914346900875
 11
232.2930816951944
 21
63.67973402018947
 97
        0
 75
     1
 76
     1
 52
0.0
 41
1.0
 77
     0
 78
     1
 53
45.0
 43
-6293.60951986914
 44
6099.915613183444
 45
-2.245064030267288
 46
2.245064030267288
 79
     0
 47
0.0
 98
        4
 10
228.283155710044
 20
111.9842299579497
 10
222.3469339007893
 20
86.8789585563111
 10
243.9894092470299
 20
81.19007932244153
 10
249.1836033301274
 20
109.6344754917866
1001
ACAD
1010
0.0
1020
0.0
1030
0.0
1001
HATCHBACKGROUNDCOLOR
1071
-939524096
1000
없음
1000

  0
DIMENSION
  5
3A013
330
2
100
AcDbEntity
  8
0
  6
Continuous
 62
     4
100
AcDbDimension
280
     0
  2
*D28
 10
193.6912183188256
 20
77.18531707552415
 30
0.0
 11
191.5662183188255
 21
96.88531707552446
 31
0.0
 70
    32
  1
%%c1.551
 71
     5
 42
39.40000000000054
 73
     0
 74
     0
 75
     0
  3
사본 ISO-25
100
AcDbAlignedDimension
 13
176.9399406032339
 23
116.5853170755247
 33
0.0
 14
176.9459406032351
 24
77.18531707552415
 34
0.0
 50
90.0
100
AcDbRotatedDimension
1001
ACAD
1000
DSTYLE
1002
{
1070
     3
1000
%%c<>
1070
    90
1070
     1
1002
}
  0
MULTILEADER
  5
3A016
330
2
100
AcDbEntity
  8
0
  6
Continuous
 62
     7
160
               688
310
B0020000180000000C00000016000000020000C30C00000033000000000000000C00000013000000993A00000C00000016000000020000C3D4000000260000002C181A49FC6C6740A6C2D543F5324E40000000000000000000000000000000000000000000000000000000000000F03F000000000000F03F00000000000000
310
0000000000000000004400530046003100360020005400610070006500720000000B000000010000000000000000000440000000000000F03F0000000000000000000000000000F03F0000000000000000000000000000000000000000000000000000000001000000000000000000000072006F006D0061006E0073002E00
310
73006800780000002E00000077000C00000033000000000000000C00000010000000000000000C00000016000000030000C30C00000012000000000000000C00000013000000010000000C0000001400000001000000540000000700000003000000B0B9ADB3A6126540E531A9C3C8395B400000000000000000107D32D8C2
310
056540D045AAF1EDD95B40000000000000000013EAC285EC2B65401B15AD46CD4A5B4000000000000000000C0000001300000089130000540000000600000003000000E251B89C491F654080232B054B425B400000000000000000209D78DA51226740206D80EE9F9D4E4000000000000000002055E93C395C6740506D80EE
310
9F9D4E4000000000000000000C00000013000000112700003C00000006000000020000002055E93C395C6740506D80EE9F9D4E4000000000000000002055E93C396C6740506D80EE9F9D4E4000000000000000000C00000016000000030000C30C00000012000000000000000C00000017000000000000000C000000130000
310
009A3A00000C00000016000000070000C30C00000012000000000000000C00000017000000FFFFFFFF0C0000003300000000000000
100
AcDbMLeader
270
     2
300
CONTEXT_DATA{
 40
1.0
 10
187.3819870526576
 20
61.23144322653627
 30
0.0
 41
2.5
140
2.5
145
0.5
174
     2
175
     2
176
     0
177
     1
290
     1
304
DSF16 Taper
 11
0.0
 21
0.0
 31
1.0
340
35
 12
187.8819870526577
 22
62.89810989320294
 32
0.0
 13
1.0
 23
0.0
 33
0.0
 42
0.0
 43
24.31071428571428
 44
0.0
 45
1.0
170
     1
 90
-1023410174
171
     1
172
     5
 91
-939524096
141
1.5
 92
        0
291
     0
292
     0
173
     0
293
     0
142
0.0
143
0.0
294
     0
295
     0
296
     0
110
179.1005258878508
120
96.47893735959792
130
0.0
111
1.0
121
0.0
131
0.0
112
0.0
122
1.0
132
0.0
297
     0
302
LEADER{
290
     1
291
     1
 10
186.8819870526577
 20
61.23144322653627
 30
0.0
 11
1.0
 21
0.0
 31
0.0
 90
        0
 40
0.5
304
LEADER_LINE{
 10
168.1800347314934
 20
111.4051479494876
 30
0.0
 10
185.0724918704736
 20
61.23144322653593
 30
0.0
 91
        0
305
}
271
     0
303
}
272
     9
273
     9
301
}
340
BD9
 90
   314368
170
     1
 91
-1023410173
341
28
171
    -1
290
     1
291
     1
 41
0.5
 42
2.5
172
     2
343
35
173
     2
 95
        2
174
     1
175
     0
 92
-1023410174
292
     0
 93
-1023410174
 10
1.0
 20
1.0
 30
1.0
 43
0.0
176
     1
293
     0
294
     0
178
     0
179
     1
 45
1.0
271
     0
272
     9
273
     9
295
     0
  0
CIRCLE
  5
3A030
330
2
100
AcDbEntity
  8
0
  6
Continuous
 62
     7
100
AcDbCircle
 10
236.1331702778711
 20
96.88531707553853
 30
0.0
 40
19.75000000001273
  0
LINE
  5
3A031
330
2
100
AcDbEntity
  8
0
  6
Continuous
 62
     7
 48
0.05
100
AcDbLine
 10
218.0991702778706
 20
104.9374810083256
 30
0.0
 11
218.0991702778706
 21
88.83315314275137
 31
0.0
  0
LINE
  5
3A032
330
2
100
AcDbEntity
  8
0
  6
Continuous
 62
     7
100
AcDbLine
 10
148.7459406032362
 20
96.88531707553762
 30
0.0
 11
148.7459406032362
 21
88.83315314275137
 31
0.0
  0
LINE
  5
3A033
330
2
100
AcDbEntity
  8
0
  6
Continuous
 62
     7
 48
0.05
100
AcDbLine
 10
254.1671702778717
 20
104.9374810083256
 30
0.0
 11
254.1671702778717
 21
88.83315314275137
 31
0.0
  0
LINE
  5
3A034
330
2
100
AcDbEntity
  8
0
  6
Continuous
 62
     3
100
AcDbLine
 10
235.6331702778712
 20
96.88531707553853
 30
0.0
 11
236.6331702778712
 21
96.88531707553853
 31
0.0
  0
LINE
  5
3A035
330
2
100
AcDbEntity
  8
0
  6
Continuous
 62
     3
100
AcDbLine
 10
236.1331702778711
 20
96.38531707553852
 30
0.0
 11
236.1331702778711
 21
97.38531707553853
 31
0.0
  0
LINE
  5
3A036
330
2
100
AcDbEntity
  8
0
  6
Continuous
 62
     3
100
AcDbLine
 10
237.1331702778712
 20
96.88531707553853
 30
0.0
 11
256.3831702778839
 21
96.88531707553853
 31
0.0
  0
LINE
  5
3A037
330
2
100
AcDbEntity
  8
0
  6
Continuous
 62
     3
100
AcDbLine
 10
235.1331702778712
 20
96.88531707553853
 30
0.0
 11
215.8831702778584
 21
96.88531707553853
 31
0.0
  0
LINE
  5
3A038
330
2
100
AcDbEntity
  8
0
  6
Continuous
 62
     3
100
AcDbLine
 10
236.1331702778711
 20
97.88531707553852
 30
0.0
 11
236.1331702778711
 21
117.1353170755512
 31
0.0
  0
LINE
  5
3A039
330
2
100
AcDbEntity
  8
0
  6
Continuous
 62
     3
100
AcDbLine
 10
236.1331702778711
 20
95.88531707553853
 30
0.0
 11
236.1331702778711
 21
76.63531707552579
 31
0.0
  0
LINE
  5
3A03A
330
2
100
AcDbEntity
  8
0
  6
Continuous
 62
     7
100
AcDbLine
 10
158.270940603235
 20
88.83315314275137
 30
0.0
 11
148.7459406032362
 21
88.83315314275137
 31
0.0
  0
LINE
  5
3A03B
330
2
100
AcDbEntity
  8
0
  6
Continuous
 62
     7
100
AcDbLine
 10
167.7959406032337
 20
96.88531707553762
 30
0.0
 11
167.7959406032337
 21
88.83315314275137
 31
0.0
  0
LINE
  5
3A03C
330
2
100
AcDbEntity
  8
0
  6
Continuous
 62
     7
100
AcDbLine
 10
158.270940603235
 20
88.83315314275137
 30
0.0
 11
167.7959406032337
 21
88.83315314275137
 31
0.0
  0
ARC
  5
3A03D
330
2
100
AcDbEntity
  8
0
  6
Continuous
 62
     7
100
AcDbCircle
 10
166.7799406032104
 20
96.88531707553762
 30
0.0
 40
19.74999999998805
100
AcDbArc
 50
180.0
 51
204.0607166064439
  0
ARC
  5
3A03E
330
2
100
AcDbEntity
  8
0
  6
Continuous
 62
     7
100
AcDbCircle
 10
149.7619406032595
 20
96.88531707553762
 30
0.0
 40
19.74999999998805
100
AcDbArc
 50
335.9392833935561
 51
0.0
  0
LINE
  5
3A03F
330
2
100
AcDbEntity
  8
0
  6
Continuous
 62
     2
100
AcDbLine
 10
148.7459406032362
 20
88.83315314275137
 30
0.0
 11
158.2709406032341
 21
96.88531707553853
 31
0.0
  0
LINE
  5
3A040
330
2
100
AcDbEntity
  8
0
  6
Continuous
 62
     2
100
AcDbLine
 10
158.2709406032341
 20
96.88531707553853
 30
0.0
 11
167.7959406032337
 21
88.83315314275137
 31
0.0
  0
CIRCLE
  5
3A041
330
2
100
AcDbEntity
  8
0
  6
Continuous
 62
     7
100
AcDbCircle
 10
236.1331702778711
 20
96.88531707553853
 30
0.0
 40
15.39999999999873
  0
CIRCLE
  5
3A042
330
2
100
AcDbEntity
  8
0
  6
Continuous
 62
     7
100
AcDbCircle
 10
236.1331702778711
 20
96.88531707553853
 30
0.0
 40
12.50000000000364
  0
ARC
  5
3A043
330
2
100
AcDbEntity
  8
0
  6
Continuous
 62
     3
100
AcDbCircle
 10
236.1331702778711
 20
96.88531707553853
 30
0.0
 40
10.00000000003456
100
AcDbArc
 50
350.0875388958509
 51
282.5959310930548
  0
CIRCLE
  5
3A044
330
2
100
AcDbEntity
  8
0
  6
Continuous
 62
     7
100
AcDbCircle
 10
236.1331702778711
 20
96.88531707553853
 30
0.0
 40
9.300000000033833
  0
DIMENSION
  5
3A045
330
2
100
AcDbEntity
  8
0
  6
Continuous
 62
     7
100
AcDbDimension
280
     0
  2
*D23
 10
236.1331702778711
 20
67.30414346900875
 30
0.0
 11
227.1161702778709
 21
69.42914346900875
 31
0.0
 70
    32
  1
.71
 71
     5
 42
18.03400000000056
 73
     0
 74
     0
 75
     0
  3
Standard$0
100
AcDbAlignedDimension
 13
218.0991702778706
 23
88.83315314275137
 33
0.0
 14
236.1331702778711
 24
76.63531707552579
 34
0.0
100
AcDbRotatedDimension
1001
ACAD
1000
DSTYLE
1002
{
1070
   171
1070
     3
1070
   143
1040
0.03937007874016
1070
   274
1070
     3
1070
   141
1040
-0.5
1070
    43
1040
3.75
1070
    44
1040
1.25
1070
    42
1040
0.625
1070
   147
1040
0.625
1070
   371
1070
    -1
1070
   372
1070
    -1
1070
   175
1070
     0
1070
    77
1070
     1
1070
   146
1040
0.7
1070
    48
1040
0.000000001
1070
   172
1070
     1
1070
    74
1070
     0
1070
   283
1070
     0
1070
   340
1005
25
1070
   140
1040
3.0
1070
   284
1070
     8
1070
    90
1070
     1
1002
}
  0
DIMENSION
  5
3A046
330
2
100
AcDbEntity
  8
0
  6
Continuous
 62
     7
100
AcDbDimension
280
     0
  2
*D24
 10
254.1671702778717
 20
59.30414346900874
 30
0.0
 11
236.1331702778711
 21
61.4294387445993
 31
0.0
 70
    32
  1
1.42
 71
     5
 42
36.06800000000112
 73
     0
 74
     0
 75
     0
  3
Standard$0
100
AcDbAlignedDimension
 13
218.0991702778706
 23
88.83315314275137
 33
0.0
 14
254.1671702778717
 24
88.83315314275137
 34
0.0
100
AcDbRotatedDimension
1001
ACAD
1000
DSTYLE
1002
{
1070
   171
1070
     3
1070
   143
1040
0.03937007874016
1070
   274
1070
     3
1070
   141
1040
-0.5
1070
    43
1040
3.75
1070
    44
1040
1.25
1070
    42
1040
0.625
1070
   147
1040
0.625
1070
   371
1070
    -1
1070
   372
1070
    -1
1070
   175
1070
     0
1070
    77
1070
     1
1070
   146
1040
0.7
1070
    48
1040
0.000000001
1070
   172
1070
     1
1070
    74
1070
     0
1070
   283
1070
     0
1070
   340
1005
25
1070
   140
1040
3.0
1070
   284
1070
     8
1070
    90
1070
     1
1002
}
  0
DIMENSION
  5
3A047
330
2
100
AcDbEntity
  8
0
  6
Continuous
 62
     7
100
AcDbDimension
280
     0
  2
*D25
 10
236.1331702778711
 20
67.30414346900875
 30
0.0
 11
245.1501702778714
 21
69.42914346900875
 31
0.0
 70
    32
  1
.71
 71
     5
 42
18.03400000000056
 73
     0
 74
     0
 75
     0
  3
Standard$0
100
AcDbAlignedDimension
 13
254.1671702778717
 23
88.83315314275137
 33
0.0
 14
236.1331702778711
 24
76.63531707552579
 34
0.0
 50
180.0
100
AcDbRotatedDimension
1001
ACAD
1000
DSTYLE
1002
{
1070
   171
1070
     3
1070
   143
1040
0.03937007874016
1070
   274
1070
     3
1070
   141
1040
-0.5
1070
    43
1040
3.75
1070
    44
1040
1.25
1070
    42
1040
0.625
1070
   147
1040
0.625
1070
   371
1070
    -1
1070
   372
1070
    -1
1070
   175
1070
     0
1070
    77
1070
     1
1070
   146
1040
0.7
1070
    48
1040
0.000000001
1070
   172
1070
     1
1070
    74
1070
     0
1070
   283
1070
     0
1070
   340
1005
25
1070
   140
1040
3.0
1070
   284
1070
     8
1070
    90
1070
     1
1002
}
  0
CIRCLE
  5
3A048
330
2
100
AcDbEntity
  8
0
  6
Continuous
 62
     7
100
AcDbCircle
 10
236.1331702778711
 20
96.88531707553124
 30
0.0
 40
4.300000000005638
  0
HATCH
  5
3A451
330
2
100
AcDbEntity
  8
0
  6
Continuous
 62
     4
100
AcDbHatch
 10
0.0
 20
0.0
 30
0.0
210
0.0
220
0.0
230
1.0
  2
ANSI31
 70
     0
 71
     0
 91
        2
 92
        7
 72
     1
 73
     1
 93
       17
 10
150.3209406032342
 20
98.92399221012988
 42
0.0
 10
150.3209406032342
 20
100.8853170755358
 42
0.0
 10
150.0829406032349
 20
101.1233170755351
 42
0.0
 10
118.3209406032342
 20
101.1233170755351
 42
0.0
 10
117.0011178878644
 20
101.8853170755358
 42
0.0
 10
115.8209406032388
 20
101.8853170755358
 42
0.0
 10
115.7209406032339
 20
101.8853170755358
 42
-0.4142135623730951
 10
115.3209406032342
 20
102.2853170755354
 42
0.0
 10
115.3209406032342
 20
102.885317075574
 42
0.0
 10
115.3209406032342
 20
104.3853170755349
 42
0.4142135623730951
 10
114.8209406032342
 20
104.8853170755349
 42
0.0
 10
110.3209406032342
 20
104.8853170755349
 42
0.4142135623730951
 10
109.3209406032342
 20
103.8853170755348
 42
0.0
 10
109.3209406032342
 20
100.447817075534
 42
0.0
 10
113.8209406032342
 20
100.447817075534
 42
0.0
 10
114.8673879661396
 20
98.63531707553489
 42
0.0
 10
149.8209406032342
 20
98.63531707553489
 42
0.0
 97
        0
 92
        7
 72
     0
 73
     1
 93
       11
 10
150.0209406031986
 20
101.1853170755714
 10
149.3209406032342
 20
101.8853170755812
 10
135.8209406031278
 20
101.8853170755358
 10
134.3209406030842
 20
101.8853170755358
 10
130.8209406030842
 20
101.8853170755358
 10
130.3209406032351
 20
101.8853170755358
 10
127.3209406032388
 20
101.8853170755358
 10
126.8209406032388
 20
101.8853170755358
 10
117.0011178878662
 20
101.8853170755349
 10
118.3209406032342
 20
101.1233170755351
 10
150.0829406032349
 20
101.1233170755351
 97
        0
 75
     1
 76
     1
 52
15.0
 41
0.4999999999999999
 77
     0
 78
     1
 53
60.0
 43
-6321.040024764446
 44
6099.915613183444
 45
-1.374815328507796
 46
0.7937500000000002
 79
     0
 47
0.0
 98
        2
 10
114.8354728346953
 20
100.7156135680018
 10
121.5392908450071
 20
101.5847295280466
1001
ACAD
1010
0.0
1020
0.0
1030
0.0
1001
HATCHBACKGROUNDCOLOR
1071
-939524096
1000
없음
1000

  0
HATCH
  5
3A452
330
2
100
AcDbEntity
  8
0
  6
Continuous
 62
     4
100
AcDbHatch
 10
0.0
 20
0.0
 30
0.0
210
0.0
220
0.0
230
1.0
  2
ANSI31
 70
     0
 71
     0
 91
        2
 92
        7
 72
     1
 73
     1
 93
       31
 10
176.9399406031784
 20
116.6353170755521
 42
0.0
 10
126.4409415227678
 20
116.6353170755521
 42
0.0
 10
126.320941522767
 20
116.5153170755532
 42
0.0
 10
126.3209415227688
 20
113.0830309013638
 42
0.0
 10
126.320941522767
 20
107.4830309013653
 42
0.0
 10
126.3209406032406
 20
106.8853170755685
 42
0.0
 10
127.0209406032377
 20
106.8853170755685
 42
0.0
 10
127.3209406032369
 20
107.1853170755678
 42
0.0
 10
127.3209406032369
 20
109.4853170755671
 42
-0.4142135623730951
 10
127.7209406032366
 20
109.8853170755403
 42
0.0
 10
130.454915199451
 20
109.8853170755403
 42
0.0
 10
132.320940603237
 20
109.3853170755403
 42
0.0
 10
140.4472018935916
 20
109.3853170755403
 42
0.0
 10
147.2032890708092
 20
109.3853170755403
 42
0.0
 10
175.3183254654127
 20
112.0924871700128
 42
0.0
 10
176.4168630185845
 20
112.1974679669295
 42
0.0
 10
177.3209406032351
 20
112.28531707557
 42
0.0
 10
177.3209406032369
 20
113.1936531219937
 42
-0.386369269929464
 10
176.417731592202
 20
112.1975523661215
 42
0.0
 10
175.320940603236
 20
112.0909773194864
 42
0.0
 10
176.1101672966865
 20
111.6353170755703
 42
0.0
 10
177.2209406032357
 20
111.6353170755712
 42
0.0613213552364225
 10
177.3179548532493
 20
111.6472600755125
 42
0.0019254003832491
 10
177.3209406032351
 20
111.6480187409499
 42
0.0
 10
177.3209406032351
 20
112.28531707557
 42
0.0
 10
176.4167863557563
 20
112.1982569236263
 42
0.386369269929464
 10
177.3209406032351
 20
113.1936531219937
 42
0.0
 10
177.3209406032351
 20
113.3853170755703
 42
0.0
 10
177.3209406032351
 20
113.9049323178408
 42
0.0
 10
177.3209406032351
 20
116.1353170755703
 42
0.0
 10
177.3209406032351
 20
116.2543170754954
 42
0.0
 97
        0
 92
        9
 93
        4
 72
     1
 10
189.3162183188256
 20
91.18531707552506
 11
189.3162183188256
 21
102.5853170755247
 72
     1
 10
189.3162183188256
 20
102.5853170755247
 11
193.8162183188256
 21
102.5853170755247
 72
     1
 10
193.8162183188256
 20
102.5853170755247
 11
193.8162183188256
 21
91.18531707552506
 72
     1
 10
193.8162183188256
 20
91.18531707552506
 11
189.3162183188256
 21
91.18531707552506
 97
        0
 75
     1
 76
     1
 52
0.0
 41
1.0
 77
     0
 78
     1
 53
45.0
 43
-6321.040024764446
 44
6099.915613183444
 45
-2.245064030267288
 46
2.245064030267288
 79
     0
 47
0.0
 98
        1
 10
138.3476060084117
 20
113.8464610663134
1001
ACAD
1010
0.0
1020
0.0
1030
0.0
1001
HATCHBACKGROUNDCOLOR
1071
-939524096
1000
없음
1000

  0
HATCH
  5
3A454
330
2
100
AcDbEntity
  8
0
  6
Continuous
 62
     4
100
AcDbHatch
 10
0.0
 20
0.0
 30
0.0
210
0.0
220
0.0
230
1.0
  2
ANSI31
 70
     0
 71
     0
 91
        2
 92
        7
 72
     0
 73
     1
 93
        8
 10
115.3209406032342
 20
104.3853170755349
 10
115.3209406032388
 20
102.8853170755694
 10
115.8209406032388
 20
102.3853170755694
 10
120.3209406032388
 20
102.3853170755694
 10
120.3209406032388
 20
106.1853170755687
 10
116.0209406032359
 20
106.1853170755696
 10
115.620940603238
 20
106.1853170755696
 10
115.3209406032388
 20
105.8853170755703
 97
        0
 92
        7
 72
     0
 73
     1
 93
        6
 10
120.3209406032388
 20
106.8853170755703
 10
116.3209406032388
 20
106.8853170755703
 10
115.8209406032369
 20
106.3853170755685
 10
115.620940603238
 20
106.1853170755696
 10
116.0209406032359
 20
106.1853170755696
 10
120.3209406032388
 20
106.1853170755696
 97
        0
 75
     1
 76
     1
 52
90.0
 41
0.25
 77
     0
 78
     1
 53
135.0
 43
-6321.040024764446
 44
6099.915613183444
 45
-0.5612660075668221
 46
-0.5612660075668221
 79
     0
 47
0.0
 98
        2
 10
117.1487772833129
 20
103.9406039032813
 10
117.3777477290073
 20
106.6267610245061
1001
ACAD
1010
0.0
1020
0.0
1030
0.0
1001
HATCHBACKGROUNDCOLOR
1071
-939524096
1000
없음
1000

  0
HATCH
  5
3A455
330
2
100
AcDbEntity
  8
0
  6
Continuous
 62
     4
100
AcDbHatch
 10
0.0
 20
0.0
 30
0.0
210
0.0
220
0.0
230
1.0
  2
DOTS
 70
     0
 71
     0
 91
        6
 92
        7
 72
     0
 73
     1
 93
        5
 10
120.320941522767
 20
116.5153170755532
 10
120.3209415227688
 20
113.0830309013638
 10
120.8009415227684
 20
113.5630309013643
 10
120.8009415227684
 20
113.5830309013638
 10
120.8009415227684
 20
116.0353170755518
 97
        0
 92
        7
 72
     0
 73
     1
 93
        9
 10
120.8009415227684
 20
116.0353170755518
 10
120.8009415227684
 20
113.5830309013638
 10
120.8009415227684
 20
113.5630309013643
 10
120.8209415227688
 20
113.5830309013647
 10
121.0209415227686
 20
113.7830309013645
 10
121.5888907151943
 20
113.7830309013645
 10
122.4549161189811
 20
113.7830309013654
 10
123.3209415227679
 20
113.7830309013663
 10
123.320941522767
 20
116.0353170755518
 97
        0
 92
        7
 72
     0
 73
     1
 93
        5
 10
123.320941522767
 20
116.6353170755521
 10
120.200941522768
 20
116.6353170755521
 10
120.320941522767
 20
116.5153170755532
 10
120.8009415227684
 20
116.0353170755518
 10
123.320941522767
 20
116.0353170755518
 97
        0
 92
        7
 72
     0
 73
     1
 93
        5
 10
126.4409415227678
 20
116.6353170755521
 10
123.320941522767
 20
116.6353170755521
 10
123.320941522767
 20
116.0353170755518
 10
125.8409415227675
 20
116.0353170755518
 10
126.320941522767
 20
116.5153170755513
 97
        0
 92
        7
 72
     0
 73
     1
 93
        9
 10
125.8409415227675
 20
113.5830309013638
 10
125.8409415227675
 20
116.0353170755518
 10
123.320941522767
 20
116.0353170755518
 10
123.3209415227688
 20
113.7830309013663
 10
124.1869669265565
 20
113.7830309013654
 10
125.0529923303434
 20
113.7830309013645
 10
125.620941522769
 20
113.7830309013645
 10
125.8209415227688
 20
113.5830309013647
 10
125.8409415227675
 20
113.5630309013661
 97
        0
 92
        7
 72
     0
 73
     1
 93
        5
 10
126.320941522767
 20
113.0830309013638
 10
126.320941522767
 20
116.5153170755513
 10
125.8409415227675
 20
116.0353170755518
 10
125.8409415227675
 20
113.5830309013638
 10
125.8409415227675
 20
113.5630309013661
 97
        0
 75
     1
 76
     1
 52
90.0
 41
0.25
 77
     0
 78
     1
 53
90.0
 43
-6321.040024764446
 44
6099.915613183444
 45
-0.396875
 46
0.1984375
 79
     2
 49
0.0
 49
-0.396875
 47
0.0
 98
        6
 10
120.477274723768
 20
115.2022730779256
 10
121.5606387251332
 20
115.4950741593759
 10
121.5020785088432
 20
116.3441972955818
 10
124.0201678093158
 20
116.3149171874368
 10
124.4886495396363
 20
114.9680322127653
 10
126.040495271322
 20
115.2022730779256
1001
ACAD
1010
0.0
1020
0.0
1030
0.0
1001
HATCHBACKGROUNDCOLOR
1071
-939524096
1000
없음
1000

  0
HATCH
  5
3A456
330
2
100
AcDbEntity
  8
0
  6
Continuous
 62
     4
100
AcDbHatch
 10
0.0
 20
0.0
 30
0.0
210
0.0
220
0.0
230
1.0
  2
ANSI31
 70
     0
 71
     0
 91
        3
 92
        7
 72
     1
 73
     1
 93
       28
 10
73.72094060322297
 20
112.0927389791761
 42
0.0
 10
43.1833794774734
 20
109.1523062841027
 42
0.0
 10
42.72094060322297
 20
108.8853170755703
 42
0.0
 10
40.22094060322479
 20
108.8853170755703
 42
0.0
 10
38.84720189349673
 20
109.3853170755703
 42
0.0
 10
29.72094060322479
 20
109.3853170755703
 42
0.4142135623730951
 10
28.72094060322479
 20
108.3853170755703
 42
0.0
 10
28.72094060305381
 20
103.673992210088
 42
0.0
 10
29.22094060290465
 20
103.3853170755812
 42
0.0
 10
32.72094060290465
 20
103.3853170755794
 42
0.0
 10
34.22094060290283
 20
101.8853170755794
 42
0.0
 10
52.72094060290465
 20
101.8853170755794
 42
0.0
 10
53.93337616823146
 20
101.1853170755614
 42
0.0
 10
105.7620948764156
 20
101.1853170755232
 42
0.0
 10
107.3209406032351
 20
103.8853170755321
 42
0.0
 10
107.3209406032351
 20
107.3853170755694
 42
0.0
 10
115.320940603237
 20
107.3853170755685
 42
0.0
 10
115.320940603237
 20
106.8853170755685
 42
0.0
 10
120.3209415227688
 20
106.8853170755685
 42
0.0
 10
120.320941522767
 20
116.5153170755532
 42
0.0
 10
120.200941522768
 20
116.6353170755521
 42
0.0
 10
76.22094060322479
 20
116.6353170755703
 42
0.4142135623730951
 10
75.72094060322479
 20
116.1353170755703
 42
0.0
 10
75.72094060322479
 20
113.9049323178408
 42
0.0
 10
76.02094060322406
 20
113.3853170755703
 42
0.0
 10
76.02094060322406
 20
111.6353170755703
 42
0.0
 10
75.72094060322479
 20
111.6353170755703
 42
0.0
 10
74.17836250682876
 20
111.6353170755703
 42
0.0
 97
        0
 92
        9
 93
        4
 72
     1
 10
29.22094060297922
 20
123.1475148732227
 11
32.22094060297923
 21
123.1475148732227
 72
     1
 10
32.22094060297923
 20
123.1475148732227
 11
32.22094060297923
 21
118.6475148732227
 72
     1
 10
32.22094060297923
 20
118.6475148732227
 11
29.22094060297922
 21
118.6475148732227
 72
     1
 10
29.22094060297922
 20
118.6475148732227
 11
29.22094060297922
 21
123.1475148732227
 97
        0
 92
        9
 93
        4
 72
     1
 10
60.2893742189276
 20
85.01002179997909
 11
60.2893742189276
 21
96.41002179997872
 72
     1
 10
60.2893742189276
 20
96.41002179997872
 11
64.7893742189276
 21
96.41002179997872
 72
     1
 10
64.7893742189276
 20
96.41002179997872
 11
64.7893742189276
 21
85.01002179997909
 72
     1
 10
64.7893742189276
 20
85.01002179997909
 11
60.2893742189276
 21
85.01002179997909
 97
        0
 75
     1
 76
     1
 52
0.0
 41
1.0
 77
     0
 78
     1
 53
45.0
 43
-6321.040024764446
 44
6099.915613183444
 45
-2.245064030267288
 46
2.245064030267288
 79
     0
 47
0.0
 98
        1
 10
100.8683304474175
 20
110.6664650490659
1001
ACAD
1010
0.0
1020
0.0
1030
0.0
1001
HATCHBACKGROUNDCOLOR
1071
-939524096
1000
없음
1000

  0
LINE
  5
3A52A
330
2
100
AcDbEntity
  8
0
  6
Continuous
 62
     7
100
AcDbLine
 10
126.6709406032382
 20
106.5353170755691
 30
0.0
 11
127.3209406032369
 21
107.1853170755678
 31
0.0
  0
LINE
  5
3A52B
330
2
100
AcDbEntity
  8
0
  6
Continuous
 62
     7
100
AcDbLine
 10
115.320940603237
 20
102.2853170755354
 30
0.0
 11
115.320940603237
 21
107.3853170755685
 31
0.0
  0
LINE
  5
3A52C
330
2
100
AcDbEntity
  8
0
  6
Continuous
 62
     3
100
AcDbLine
 10
127.0209406032377
 20
106.8853170755685
 30
0.0
 11
115.320940603237
 21
106.8853170755685
 31
0.0
210
0.0
220
0.0
230
-1.0
  0
LINE
  5
3A52D
330
2
100
AcDbEntity
  8
0
  6
Continuous
 62
     7
100
AcDbLine
 10
107.3209406032351
 20
107.3853170755694
 30
0.0
 11
115.320940603237
 21
107.3853170755694
 31
0.0
  0
LINE
  5
3A52E
330
2
100
AcDbEntity
  8
0
  6
Continuous
 62
     7
100
AcDbLine
 10
116.0209406032359
 20
106.1853170755696
 30
0.0
 11
126.3209406032369
 21
106.1853170755678
 31
0.0
210
0.0
220
0.0
230
-1.0
  0
LINE
  5
3A52F
330
2
100
AcDbEntity
  8
0
  6
Continuous
 62
     7
100
AcDbLine
 10
115.320940603237
 20
106.8853170755685
 30
0.0
 11
115.8209406032369
 21
106.3853170755685
 31
0.0
  0
ARC
  5
3A530
330
2
100
AcDbEntity
  8
36-D16-105
  6
Continuous
 62
     7
100
AcDbCircle
 10
76.22094060322479
 20
116.1353170755703
 30
0.0
 40
0.5
100
AcDbArc
 50
90.0
 51
180.0
  0
ARC
  5
3A531
330
2
100
AcDbEntity
  8
06-D06-75
  6
Continuous
 62
     7
100
AcDbCircle
 10
29.72094060322479
 20
108.3853170755703
 30
0.0
 40
1.0
100
AcDbArc
 50
90.0
 51
180.0
  0
LINE
  5
3A532
330
2
100
AcDbEntity
  8
06-D06-75
  6
Continuous
 62
     7
100
AcDbLine
 10
28.72094060322479
 20
96.88531707557036
 30
0.0
 11
28.72094060322479
 21
108.3853170755703
 31
0.0
  0
LINE
  5
3A533
330
2
100
AcDbEntity
  8
32-D12-105
  6
Continuous
 62
     7
100
AcDbLine
 10
29.72094060322479
 20
109.3853170755703
 30
0.0
 11
38.84720189349673
 21
109.3853170755703
 31
0.0
  0
LINE
  5
3A534
330
2
100
AcDbEntity
  8
32-D12-105
  6
Continuous
 62
     7
100
AcDbLine
 10
40.22094060322479
 20
108.8853170755703
 30
0.0
 11
42.72094060322297
 21
108.8853170755703
 31
0.0
  0
LINE
  5
3A535
330
2
100
AcDbEntity
  8
32-D12-105
  6
Continuous
 62
     7
100
AcDbLine
 10
38.84720189349673
 20
109.3853170755703
 30
0.0
 11
40.22094060322479
 21
108.8853170755703
 31
0.0
  0
LINE
  5
3A536
330
2
100
AcDbEntity
  8
32-D12-105
  6
Continuous
 62
     7
100
AcDbLine
 10
43.1833794774734
 20
109.1523062841027
 30
0.0
 11
42.72094060322479
 21
108.8853170755703
 31
0.0
  0
LINE
  5
3A537
330
2
100
AcDbEntity
  8
36-D16-105
  6
Continuous
 62
     7
100
AcDbLine
 10
75.72094060322479
 20
111.6353170755703
 30
0.0
 11
75.72094060322479
 21
116.1353170755703
 31
0.0
  0
LINE
  5
3A538
330
2
100
AcDbEntity
  8
28-D08-105
  6
Continuous
 62
     7
100
AcDbLine
 10
74.17836250682876
 20
111.6353170755703
 30
0.0
 11
73.72094060322479
 21
112.0927389791761
 31
0.0
  0
LINE
  5
3A539
330
2
100
AcDbEntity
  8
30-D10-105
  6
Continuous
 62
     7
100
AcDbLine
 10
74.17836250682876
 20
111.6353170755703
 30
0.0
 11
76.02094060322406
 21
111.6353170755703
 31
0.0
  0
LINE
  5
3A53A
330
2
100
AcDbEntity
  8
30-D10-105
  6
Continuous
 62
     7
100
AcDbLine
 10
76.02094060322406
 20
111.6353170755703
 30
0.0
 11
76.02094060322406
 21
113.3853170755703
 31
0.0
  0
LINE
  5
3A53B
330
2
100
AcDbEntity
  8
30-D10-105
  6
Continuous
 62
     7
100
AcDbLine
 10
75.72094060322479
 20
113.9049323178408
 30
0.0
 11
76.02094060322406
 21
113.3853170755703
 31
0.0
  0
LINE
  5
3A53C
330
2
100
AcDbEntity
  8
06-D06-75
  6
Continuous
 62
     7
100
AcDbLine
 10
43.1833794774734
 20
109.1523062841027
 30
0.0
 11
73.72094060322297
 21
112.0927389791761
 31
0.0
  0
ARC
  5
3A53D
330
2
100
AcDbEntity
  8
36-D16-105
  6
Continuous
 62
     7
100
AcDbCircle
 10
76.22094060322479
 20
77.63531707557035
 30
0.0
 40
0.5
100
AcDbArc
 50
180.0
 51
270.0
  0
ARC
  5
3A53E
330
2
100
AcDbEntity
  8
06-D06-75
  6
Continuous
 62
     7
100
AcDbCircle
 10
29.72094060322479
 20
85.38531707557035
 30
0.0
 40
1.0
100
AcDbArc
 50
180.0
 51
270.0
  0
LINE
  5
3A53F
330
2
100
AcDbEntity
  8
06-D06-75
  6
Continuous
 62
     7
100
AcDbLine
 10
28.72094060322479
 20
96.88531707557036
 30
0.0
 11
28.72094060322479
 21
85.38531707557035
 31
0.0
  0
LINE
  5
3A540
330
2
100
AcDbEntity
  8
32-D12-105
  6
Continuous
 62
     7
100
AcDbLine
 10
29.72094060322479
 20
84.38531707557036
 30
0.0
 11
38.84720189349673
 21
84.38531707557036
 31
0.0
  0
LINE
  5
3A541
330
2
100
AcDbEntity
  8
32-D12-105
  6
Continuous
 62
     7
100
AcDbLine
 10
40.22094060322479
 20
84.88531707557035
 30
0.0
 11
42.72094060322297
 21
84.88531707557035
 31
0.0
  0
LINE
  5
3A542
330
2
100
AcDbEntity
  8
32-D12-105
  6
Continuous
 62
     7
100
AcDbLine
 10
38.84720189349673
 20
84.38531707557036
 30
0.0
 11
40.22094060322479
 21
84.88531707557035
 31
0.0
  0
LINE
  5
3A543
330
2
100
AcDbEntity
  8
32-D12-105
  6
Continuous
 62
     7
100
AcDbLine
 10
43.1833794774734
 20
84.61832786703803
 30
0.0
 11
42.72094060322479
 21
84.88531707557035
 31
0.0
  0
LINE
  5
3A544
330
2
100
AcDbEntity
  8
28-D08-105
  6
Continuous
 62
     7
100
AcDbLine
 10
74.17836250682876
 20
82.13531707557036
 30
0.0
 11
73.72094060322479
 21
81.67789517196638
 31
0.0
  0
LINE
  5
3A545
330
2
100
AcDbEntity
  8
30-D10-105
  6
Continuous
 62
     7
100
AcDbLine
 10
74.17836250682876
 20
82.13531707557036
 30
0.0
 11
75.72094060322479
 21
82.13531707557036
 31
0.0
  0
LINE
  5
3A546
330
2
100
AcDbEntity
  8
06-D06-75
  6
Continuous
 62
     7
100
AcDbLine
 10
43.1833794774734
 20
84.61832786703803
 30
0.0
 11
73.72094060322297
 21
81.67789517196638
 31
0.0
  0
LINE
  5
3A547
330
2
100
AcDbEntity
  8
36-D16-105
  6
Continuous
 62
     7
100
AcDbLine
 10
75.72094060322479
 20
96.88531707557036
 30
0.0
 11
75.72094060322479
 21
77.63531707557035
 31
0.0
  0
LINE
  5
3A548
330
2
100
AcDbEntity
  8
0
  6
Continuous
 62
     7
100
AcDbLine
 10
73.72094060322479
 20
81.67789517196547
 30
0.0
 11
73.72094060322479
 21
96.88531707557036
 31
0.0
  0
LINE
  5
3A549
330
2
100
AcDbEntity
  8
0
  6
Continuous
 62
     7
100
AcDbLine
 10
74.17836250682876
 20
82.13531707557036
 30
0.0
 11
74.17836250682876
 21
96.88531707557036
 31
0.0
  0
LINE
  5
3A54A
330
2
100
AcDbEntity
  8
0
  6
Continuous
 62
     7
100
AcDbLine
 10
38.84720189349673
 20
84.38531707557036
 30
0.0
 11
38.84720189349673
 21
96.88531707557036
 31
0.0
  0
LINE
  5
3A54B
330
2
100
AcDbEntity
  8
0
  6
Continuous
 62
     7
100
AcDbLine
 10
40.22094060322479
 20
84.88531707557035
 30
0.0
 11
40.22094060322479
 21
96.88531707557036
 31
0.0
  0
LINE
  5
3A54C
330
2
100
AcDbEntity
  8
0
  6
Continuous
 62
     7
100
AcDbLine
 10
42.72094060322479
 20
84.88531707557035
 30
0.0
 11
42.72094060322479
 21
96.88531707557036
 31
0.0
  0
LINE
  5
3A54D
330
2
100
AcDbEntity
  8
0
  6
Continuous
 62
     7
100
AcDbLine
 10
43.1833794774734
 20
84.61832786703803
 30
0.0
 11
43.1833794774734
 21
96.88531707557036
 31
0.0
  0
LINE
  5
3A551
330
2
100
AcDbEntity
  8
36-D16-105
  6
Continuous
 62
     7
100
AcDbLine
 10
76.22094060307109
 20
77.13531707558127
 30
0.0
 11
176.9399406032339
 21
77.13531707558127
 31
0.0
  0
LINE
  5
3A552
330
2
100
AcDbEntity
  8
36-D16-105
  6
Continuous
 62
     7
100
AcDbLine
 10
76.22094060307199
 20
116.6353170755521
 30
0.0
 11
176.9399406031784
 21
116.6353170755521
 31
0.0
  0
LINE
  5
3A553
330
2
100
AcDbEntity
  8
0
  6
Continuous
 62
     7
100
AcDbLine
 10
105.7620948764156
 20
101.1853170755232
 30
0.0
 11
34.92094060290447
 21
101.185317075576
 31
0.0
  0
LINE
  5
3A555
330
2
100
AcDbEntity
  8
36-D16-105
  6
Continuous
 62
     7
100
AcDbLine
 10
32.72094060290465
 20
103.3853170755794
 30
0.0
 11
29.22094060290465
 21
103.3853170755812
 31
0.0
  0
LINE
  5
3A556
330
2
100
AcDbEntity
  8
26-D06-105
  6
Continuous
 62
     7
100
AcDbLine
 10
29.22094060290465
 20
103.3853170755794
 30
0.0
 11
28.72094060305381
 21
103.673992210088
 31
0.0
  0
LINE
  5
3A557
330
2
100
AcDbEntity
  8
0
  6
Continuous
 62
     7
100
AcDbLine
 10
34.9209406029072
 20
101.185317075575
 30
0.0
 11
34.9209406029072
 21
96.88531707557945
 31
0.0
  0
LINE
  5
3A558
330
2
100
AcDbEntity
  8
0
  6
Continuous
 62
     7
100
AcDbLine
 10
32.72094060290465
 20
103.3853170755794
 30
0.0
 11
32.72094060290465
 21
96.88531707556855
 31
0.0
  0
LINE
  5
3A559
330
2
100
AcDbEntity
  8
0
  6
Continuous
 62
     7
100
AcDbLine
 10
32.72094060290465
 20
103.3853170755794
 30
0.0
 11
34.9209406029072
 21
101.185317075575
 31
0.0
  0
LINE
  5
3A55A
330
2
100
AcDbEntity
  8
36-D16-105
  6
Continuous
 62
     3
100
AcDbLine
 10
34.22094060290283
 20
101.8853170755794
 30
0.0
 11
52.72094060290465
 21
101.8853170755794
 31
0.0
  0
LINE
  5
3A55B
330
2
100
AcDbEntity
  8
0
  6
Continuous
 62
     2
100
AcDbLine
 10
52.72094060290465
 20
101.8853170755794
 30
0.0
 11
52.72094060290465
 21
96.88531707557945
 31
0.0
  0
LINE
  5
3A55C
330
2
100
AcDbEntity
  8
0
  6
Continuous
 62
     7
100
AcDbLine
 10
29.22094060290465
 20
103.3853170755794
 30
0.0
 11
29.22094060290465
 21
96.88531707557036
 31
0.0
  0
LINE
  5
3A55D
330
2
100
AcDbEntity
  8
0
  6
Continuous
 62
     3
100
AcDbLine
 10
52.72094060290465
 20
101.8853170755794
 30
0.0
 11
53.93337616821145
 21
101.1853170755733
 31
0.0
  0
LINE
  5
3A560
330
2
100
AcDbEntity
  8
0
  6
Continuous
 62
     7
100
AcDbLine
 10
130.454915199451
 20
109.8853170755403
 30
0.0
 11
132.320940603237
 21
109.3853170755403
 31
0.0
  0
LINE
  5
3A561
330
2
100
AcDbEntity
  8
06-D06-75
  6
Continuous
 62
     7
100
AcDbLine
 10
147.2032890708092
 20
109.3853170755403
 30
0.0
 11
176.4167863557581
 21
112.1982569236263
 31
0.0
  0
ARC
  5
3A562
330
2
100
AcDbEntity
  8
0
  6
Continuous
 62
     7
100
AcDbCircle
 10
176.320940603237
 20
113.1936531219937
 30
0.0
 40
1.0
100
AcDbArc
 50
275.4999999999513
 51
0.0
  0
ARC
  5
3A563
330
2
100
AcDbEntity
  8
63-BT50-165
  6
Continuous
 62
     7
100
AcDbCircle
 10
127.7209406032366
 20
109.4853170755398
 30
0.0
 40
0.4
100
AcDbArc
 50
90.0
 51
180.0
  0
LINE
  5
3A564
330
2
100
AcDbEntity
  8
63-BT50-165
  6
Continuous
 62
     7
100
AcDbLine
 10
127.7209406032366
 20
109.8853170755403
 30
0.0
 11
130.4549151994529
 21
109.8853170755403
 31
0.0
  0
LINE
  5
3A565
330
2
100
AcDbEntity
  8
51-BT40-45
  6
Continuous
 62
     7
100
AcDbLine
 10
132.320940603237
 20
109.3853170755403
 30
0.0
 11
147.2032890708092
 21
109.3853170755403
 31
0.0
  0
LINE
  5
3A566
330
2
100
AcDbEntity
  8
0
  6
Continuous
 62
     4
100
AcDbLine
 10
176.9459406032351
 20
77.18531707552415
 30
0.0
 11
176.9459406032351
 21
96.88531707552488
 31
0.0
  0
LINE
  5
3A567
330
2
100
AcDbEntity
  8
63-BT50-165
  6
Continuous
 62
     7
100
AcDbLine
 10
177.3209406032351
 20
96.88531707552488
 30
0.0
 11
177.3209406032351
 21
77.51631707558158
 31
0.0
  0
LINE
  5
3A569
330
2
100
AcDbEntity
  8
63-BT50-165
  6
Continuous
 62
     7
100
AcDbLine
 10
127.3209406032369
 20
101.8853170755358
 30
0.0
 11
127.3209406032369
 21
109.4853170755407
 31
0.0
  0
LINE
  5
3A56A
330
2
100
AcDbEntity
  8
61-BT50-60
  6
Continuous
 62
     7
100
AcDbLine
 10
130.4549151994508
 20
101.8853170755358
 30
0.0
 11
130.454915199451
 21
109.8853170755403
 31
0.0
  0
LINE
  5
3A56C
330
2
100
AcDbEntity
  8
0
  6
CENTER
 62
     3
100
AcDbLine
 10
26.72094060322479
 20
96.88531707552488
 30
0.0
 11
179.3209406032351
 21
96.88531707554059
 31
0.0
  0
LINE
  5
3A56D
330
2
100
AcDbEntity
  8
0
  6
Continuous
 62
     7
100
AcDbLine
 10
177.3209406032351
 20
77.51631707558158
 30
0.0
 11
176.9399406032348
 21
77.13531707558127
 31
0.0
  0
LINE
  5
3A56E
330
2
100
AcDbEntity
  8
63-BT50-165
  6
Continuous
 62
     7
100
AcDbLine
 10
177.3209406032351
 20
96.88531707554037
 30
0.0
 11
177.3209406032351
 21
116.2543170754954
 31
0.0
  0
LINE
  5
3A56F
330
2
100
AcDbEntity
  8
0
  6
Continuous
 62
     7
100
AcDbLine
 10
177.3209406032351
 20
116.2543170754954
 30
0.0
 11
176.9399406032348
 21
116.6353170754957
 31
0.0
  0
ARC
  5
3A570
330
2
100
AcDbEntity
  8
63-BT50-165
  6
Continuous
 62
     7
100
AcDbCircle
 10
127.7209406032366
 20
109.4853170755671
 30
0.0
 40
0.4
100
AcDbArc
 50
90.0
 51
180.0
  0
LINE
  5
3A571
330
2
100
AcDbEntity
  8
63-BT50-165
  6
Continuous
 62
     7
100
AcDbLine
 10
127.3209406032369
 20
101.8853170755358
 30
0.0
 11
127.3209406032369
 21
109.4853170755689
 31
0.0
  0
LINE
  5
3A572
330
2
100
AcDbEntity
  8
0
  6
Continuous
 62
     0
100
AcDbLine
 10
107.3209406032351
 20
107.3853170755694
 30
0.0
 11
107.3209406032351
 21
96.88531707553307
 31
0.0
  0
LINE
  5
3A573
330
2
100
AcDbEntity
  8
0
  6
Continuous
 62
     7
100
AcDbLine
 10
120.8009415227684
 20
116.0353170755518
 30
0.0
 11
123.320941522767
 21
116.0353170755518
 31
0.0
  0
LINE
  5
3A574
330
2
100
AcDbEntity
  8
0
  6
CENTER2
 62
     3
100
AcDbLine
 10
123.320941522767
 20
117.801659620098
 30
0.0
 11
123.3209415227698
 21
103.7830309013645
 31
0.0
  0
LINE
  5
3A575
330
2
100
AcDbEntity
  8
0
  6
Continuous
 62
     3
100
AcDbLine
 10
126.320941522767
 20
106.8853170755685
 30
0.0
 11
126.320941522767
 21
116.5153170755532
 31
0.0
  0
LINE
  5
3A576
330
2
100
AcDbEntity
  8
0
  6
Continuous
 62
     3
100
AcDbLine
 10
120.3209415227688
 20
106.8853170755685
 30
0.0
 11
120.320941522767
 21
116.5153170755532
 31
0.0
  0
LINE
  5
3A577
330
2
100
AcDbEntity
  8
0
  6
Continuous
 62
     7
100
AcDbLine
 10
125.8409415227675
 20
106.8853170755685
 30
0.0
 11
125.8409415227675
 21
116.0353170755518
 31
0.0
  0
LINE
  5
3A578
330
2
100
AcDbEntity
  8
0
  6
Continuous
 62
     7
100
AcDbLine
 10
120.8009415227684
 20
106.8853170755685
 30
0.0
 11
120.8009415227684
 21
116.0353170755518
 31
0.0
  0
LINE
  5
3A579
330
2
100
AcDbEntity
  8
0
  6
Continuous
 62
     7
100
AcDbLine
 10
120.8009415227684
 20
116.0353170755518
 30
0.0
 11
120.200941522768
 21
116.6353170755521
 31
0.0
  0
LINE
  5
3A57A
330
2
100
AcDbEntity
  8
0
  6
Continuous
 62
     7
100
AcDbLine
 10
125.8409415227675
 20
116.0353170755518
 30
0.0
 11
123.320941522767
 21
116.0353170755518
 31
0.0
  0
LINE
  5
3A57B
330
2
100
AcDbEntity
  8
0
  6
Continuous
 62
     7
100
AcDbLine
 10
125.8409415227675
 20
116.0353170755518
 30
0.0
 11
126.4409415227678
 21
116.6353170755521
 31
0.0
  0
LINE
  5
3A57D
330
2
100
AcDbEntity
  8
0
  6
Continuous
 62
     7
100
AcDbLine
 10
105.7620948764156
 20
101.1853170755232
 30
0.0
 11
107.320940603236
 21
103.8853170755339
 31
0.0
  0
LINE
  5
3A57E
330
2
100
AcDbEntity
  8
0
  6
Continuous
 62
     7
100
AcDbLine
 10
105.7620948764183
 20
101.1853170755232
 30
0.0
 11
105.7620948764183
 21
96.88531707553398
 31
0.0
  0
LINE
  5
3A5A1
330
2
100
AcDbEntity
  8
0
  6
Continuous
 62
     7
100
AcDbLine
 10
115.3209406032379
 20
102.2853170755354
 30
0.0
 11
115.3209406032388
 21
105.8853170755703
 31
0.0
  0
LINE
  5
3A5A2
330
2
100
AcDbEntity
  8
0
  6
Continuous
 62
     7
100
AcDbLine
 10
115.8209406032388
 20
102.3853170755694
 30
0.0
 11
115.3209406032388
 21
102.8853170755694
 31
0.0
210
0.0
220
0.0
230
-1.0
  0
LINE
  5
3A5A3
330
2
100
AcDbEntity
  8
0
  6
Continuous
 62
     7
100
AcDbLine
 10
116.3209406032388
 20
106.8853170755703
 30
0.0
 11
115.3209406032388
 21
105.8853170755703
 31
0.0
210
0.0
220
0.0
230
-1.0
  0
LINE
  5
3A5A4
330
2
100
AcDbEntity
  8
0
  6
Continuous
 62
     3
100
AcDbLine
 10
127.0209406032395
 20
106.1853170755696
 30
0.0
 11
115.620940603238
 21
106.1853170755696
 31
0.0
210
0.0
220
0.0
230
-1.0
  0
LINE
  5
3A5A5
330
2
100
AcDbEntity
  8
0
  6
Continuous
 62
     7
100
AcDbLine
 10
116.3209406032388
 20
106.8853170755703
 30
0.0
 11
126.3209406032388
 21
106.8853170755703
 31
0.0
210
0.0
220
0.0
230
-1.0
  0
LINE
  5
3A5A6
330
2
100
AcDbEntity
  8
0
  6
Continuous
 62
     7
100
AcDbLine
 10
127.3209406032388
 20
105.8853170755703
 30
0.0
 11
126.3209406032388
 21
106.8853170755703
 31
0.0
210
0.0
220
0.0
230
-1.0
  0
LINE
  5
3A5A7
330
2
100
AcDbEntity
  8
0
  6
Continuous
 62
     7
100
AcDbLine
 10
127.3209406032388
 20
105.8853170755703
 30
0.0
 11
127.3209406032388
 21
101.8853170755358
 31
0.0
  0
LINE
  5
3A5A8
330
2
100
AcDbEntity
  8
0
  6
Continuous
 62
     7
100
AcDbLine
 10
126.8209406032388
 20
102.3853170755694
 30
0.0
 11
127.3209406032388
 21
102.8853170755694
 31
0.0
210
0.0
220
0.0
230
-1.0
  0
LINE
  5
3A5A9
330
2
100
AcDbEntity
  8
0
  6
Continuous
 62
     7
100
AcDbLine
 10
115.8209406032388
 20
102.3853170755694
 30
0.0
 11
126.8209406032388
 21
102.3853170755694
 31
0.0
210
0.0
220
0.0
230
-1.0
  0
LINE
  5
3A5AA
330
2
100
AcDbEntity
  8
0
  6
Continuous
 62
     7
100
AcDbLine
 10
126.8209406032388
 20
102.3853170755694
 30
0.0
 11
126.8209406032388
 21
101.8853170755358
 31
0.0
  0
LINE
  5
3A5AB
330
2
100
AcDbEntity
  8
0
  6
Continuous
 62
     7
100
AcDbLine
 10
115.8209406032388
 20
102.3853170755694
 30
0.0
 11
115.8209406032388
 21
101.8853170755358
 31
0.0
  0
LINE
  5
3A5AC
330
2
100
AcDbEntity
  8
0
  6
Continuous
 62
     7
100
AcDbLine
 10
120.3209406032388
 20
102.3853170755694
 30
0.0
 11
120.3209406032388
 21
106.8853170755703
 31
0.0
  0
LINE
  5
3A5DB
330
2
100
AcDbEntity
  8
0
  6
Continuous
 62
     4
100
AcDbLine
 10
123.3209415227688
 20
113.7830309013663
 30
0.0
 11
121.0209415227686
 21
113.7830309013645
 31
0.0
  0
LINE
  5
3A5DC
330
2
100
AcDbEntity
  8
0
  6
HIDDEN
 62
     4
 48
0.5
100
AcDbLine
 10
123.3209415227734
 20
109.7830309013664
 30
0.0
 11
121.5888907151998
 21
109.7830309013645
 31
0.0
  0
LINE
  5
3A5DD
330
2
100
AcDbEntity
  8
0
  6
Continuous
 62
     4
100
AcDbLine
 10
120.8209415227679
 20
106.9830309013634
 30
0.0
 11
120.8209415227688
 21
113.5830309013638
 31
0.0
  0
LINE
  5
3A5DE
330
2
100
AcDbEntity
  8
0
  6
Continuous
 62
     4
100
AcDbLine
 10
120.3209415227688
 20
113.0830309013638
 30
0.0
 11
120.3209415227679
 21
107.4830309013653
 31
0.0
  0
LINE
  5
3A5DF
330
2
100
AcDbEntity
  8
0
  6
Continuous
 62
     4
100
AcDbLine
 10
121.0209415227686
 20
113.7830309013645
 30
0.0
 11
120.3209415227688
 21
113.0830309013638
 31
0.0
  0
LINE
  5
3A5E0
330
2
100
AcDbEntity
  8
0
  6
Continuous
 62
     4
100
AcDbLine
 10
121.0209415227677
 20
106.7830309013645
 30
0.0
 11
120.3209415227679
 21
107.4830309013653
 31
0.0
  0
ARC
  5
3A5E1
330
2
100
AcDbEntity
  8
0
  6
Continuous
 62
     4
100
AcDbCircle
 10
121.0209415227686
 20
106.3830309013649
 30
0.0
 40
0.4
100
AcDbArc
 50
0.0
 51
90.0
  0
LINE
  5
3A5E2
330
2
100
AcDbEntity
  8
0
  6
Continuous
 62
     4
100
AcDbLine
 10
121.4209415227683
 20
104.1830309013642
 30
0.0
 11
121.4209415227683
 21
106.3830309013649
 31
0.0
  0
LINE
  5
3A5E3
330
2
100
AcDbEntity
  8
0
  6
Continuous
 62
     4
100
AcDbLine
 10
121.8209415227688
 20
103.7830309013645
 30
0.0
 11
123.3209415227688
 21
103.7830309013645
 31
0.0
  0
ARC
  5
3A5E4
330
2
100
AcDbEntity
  8
0
  6
Continuous
 62
     4
100
AcDbCircle
 10
121.8209415227688
 20
104.1830309013642
 30
0.0
 40
0.4
100
AcDbArc
 50
180.0
 51
270.0
  0
LINE
  5
3A5E5
330
2
100
AcDbEntity
  8
0
  6
Continuous
 62
     4
100
AcDbLine
 10
123.3209415227688
 20
113.7830309013663
 30
0.0
 11
125.620941522769
 21
113.7830309013645
 31
0.0
  0
LINE
  5
3A5E6
330
2
100
AcDbEntity
  8
0
  6
Continuous
 62
     4
100
AcDbLine
 10
125.8209415227697
 20
106.9830309013634
 30
0.0
 11
125.8209415227688
 21
113.5830309013638
 31
0.0
  0
LINE
  5
3A5E7
330
2
100
AcDbEntity
  8
0
  6
Continuous
 62
     4
100
AcDbLine
 10
126.3209415227688
 20
113.0830309013638
 30
0.0
 11
126.3209415227698
 21
107.4830309013653
 31
0.0
  0
LINE
  5
3A5E8
330
2
100
AcDbEntity
  8
0
  6
Continuous
 62
     4
100
AcDbLine
 10
125.620941522769
 20
113.7830309013645
 30
0.0
 11
126.3209415227688
 21
113.0830309013638
 31
0.0
  0
LINE
  5
3A5E9
330
2
100
AcDbEntity
  8
0
  6
Continuous
 62
     4
100
AcDbLine
 10
125.6209415227699
 20
106.7830309013645
 30
0.0
 11
126.3209415227698
 21
107.4830309013653
 31
0.0
  0
ARC
  5
3A5EA
330
2
100
AcDbEntity
  8
0
  6
Continuous
 62
     4
100
AcDbCircle
 10
125.620941522769
 20
106.3830309013649
 30
0.0
 40
0.4
100
AcDbArc
 50
90.0
 51
180.0
  0
LINE
  5
3A5EB
330
2
100
AcDbEntity
  8
0
  6
Continuous
 62
     4
100
AcDbLine
 10
125.2209415227694
 20
104.1830309013642
 30
0.0
 11
125.2209415227694
 21
106.3830309013649
 31
0.0
  0
LINE
  5
3A5EC
330
2
100
AcDbEntity
  8
0
  6
Continuous
 62
     4
100
AcDbLine
 10
124.8209415227688
 20
103.7830309013645
 30
0.0
 11
123.3209415227688
 21
103.7830309013645
 31
0.0
  0
ARC
  5
3A5ED
330
2
100
AcDbEntity
  8
0
  6
Continuous
 62
     4
100
AcDbCircle
 10
124.8209415227688
 20
104.1830309013642
 30
0.0
 40
0.4
100
AcDbArc
 50
270.0
 51
0.0
  0
LINE
  5
3A5EE
330
2
100
AcDbEntity
  8
0
  6
Continuous
 62
     4
100
AcDbLine
 10
125.620941522769
 20
106.7830309013645
 30
0.0
 11
123.3209415227688
 21
106.7830309013645
 31
0.0
  0
LINE
  5
3A5EF
330
2
100
AcDbEntity
  8
0
  6
Continuous
 62
     4
100
AcDbLine
 10
126.3209415227698
 20
107.4830309013653
 30
0.0
 11
123.3209415227688
 21
107.4830309013653
 31
0.0
  0
LINE
  5
3A5F0
330
2
100
AcDbEntity
  8
0
  6
Continuous
 62
     4
100
AcDbLine
 10
126.3209415227698
 20
113.0830309013638
 30
0.0
 11
123.3209415227688
 21
113.0830309013638
 31
0.0
  0
LINE
  5
3A5F1
330
2
100
AcDbEntity
  8
0
  6
HIDDEN
 62
     4
 48
0.5
100
AcDbLine
 10
121.5888907151998
 20
109.7830309013645
 30
0.0
 11
121.5888907151943
 21
113.7830309013645
 31
0.0
  0
LINE
  5
3A5F2
330
2
100
AcDbEntity
  8
0
  6
HIDDEN
 62
     4
 48
0.5
100
AcDbLine
 10
122.4549161189857
 20
109.7830309013664
 30
0.0
 11
122.4549161189811
 21
113.7830309013663
 31
0.0
  0
LINE
  5
3A5F3
330
2
100
AcDbEntity
  8
0
  6
HIDDEN
 62
     4
 48
0.5
100
AcDbLine
 10
123.3209415227688
 20
108.7830309013682
 30
0.0
 11
121.5888907151998
 21
109.7830309013645
 31
0.0
  0
LINE
  5
3A5F4
330
2
100
AcDbEntity
  8
0
  6
Continuous
 62
     4
100
AcDbLine
 10
121.0209415227686
 20
106.7830309013645
 30
0.0
 11
123.3209415227688
 21
106.7830309013645
 31
0.0
  0
LINE
  5
3A5F5
330
2
100
AcDbEntity
  8
0
  6
Continuous
 62
     4
100
AcDbLine
 10
120.3209415227679
 20
107.4830309013653
 30
0.0
 11
123.3209415227688
 21
107.4830309013653
 31
0.0
  0
LINE
  5
3A5F6
330
2
100
AcDbEntity
  8
0
  6
HIDDEN
 62
     4
 48
0.5
100
AcDbLine
 10
123.3209415227643
 20
109.7830309013664
 30
0.0
 11
125.0529923303379
 21
109.7830309013645
 31
0.0
  0
LINE
  5
3A5F7
330
2
100
AcDbEntity
  8
0
  6
HIDDEN
 62
     4
 48
0.5
100
AcDbLine
 10
125.0529923303379
 20
109.7830309013645
 30
0.0
 11
125.0529923303434
 21
113.7830309013645
 31
0.0
  0
LINE
  5
3A5F8
330
2
100
AcDbEntity
  8
0
  6
HIDDEN
 62
     4
 48
0.5
100
AcDbLine
 10
124.186966926552
 20
109.7830309013664
 30
0.0
 11
124.1869669265565
 21
113.7830309013663
 31
0.0
  0
LINE
  5
3A5F9
330
2
100
AcDbEntity
  8
0
  6
HIDDEN
 62
     4
 48
0.5
100
AcDbLine
 10
123.3209415227688
 20
108.7830309013682
 30
0.0
 11
125.0529923303379
 21
109.7830309013645
 31
0.0
  0
LINE
  5
3A5FA
330
2
100
AcDbEntity
  8
0
  6
Continuous
 62
     4
100
AcDbLine
 10
120.3209415227679
 20
113.0830309013638
 30
0.0
 11
123.3209415227688
 21
113.0830309013638
 31
0.0
  0
LINE
  5
3A5FB
330
2
100
AcDbEntity
  8
0
  6
Continuous
 62
     4
100
AcDbLine
 10
149.3209406032342
 20
101.8853170755358
 30
0.0
 11
115.7209406032339
 21
101.8853170755358
 31
0.0
  0
LINE
  5
3A5FC
330
2
100
AcDbEntity
  8
0
  6
Continuous
 62
     4
100
AcDbLine
 10
150.3209406032342
 20
100.8853170755358
 30
0.0
 11
149.3209406032342
 21
101.8853170755358
 31
0.0
  0
LINE
  5
3A5FD
330
2
100
AcDbEntity
  8
0
  6
Continuous
 62
     4
100
AcDbLine
 10
150.3209406032342
 20
100.8853170755358
 30
0.0
 11
150.3209406032342
 21
96.88531707553488
 31
0.0
  0
LINE
  5
3A5FE
330
2
100
AcDbEntity
  8
0
  6
Continuous
 62
     4
100
AcDbLine
 10
149.8209406032342
 20
98.63531707553489
 30
0.0
 11
149.8209406032342
 21
96.88531707553488
 31
0.0
  0
LINE
  5
3A5FF
330
2
100
AcDbEntity
  8
0
  6
Continuous
 62
     4
100
AcDbLine
 10
109.3209406032342
 20
103.8853170755348
 30
0.0
 11
109.3209406032342
 21
96.88531707553488
 31
0.0
  0
LINE
  5
3A600
330
2
100
AcDbEntity
  8
0
  6
Continuous
 62
     4
100
AcDbLine
 10
113.8209406032342
 20
100.447817075534
 30
0.0
 11
113.8209406032342
 21
96.88531707553398
 31
0.0
  0
ARC
  5
3A601
330
2
100
AcDbEntity
  8
0
  6
Continuous
 62
     4
100
AcDbCircle
 10
110.3209406032342
 20
103.8853170755348
 30
0.0
 40
1.0
100
AcDbArc
 50
90.0
 51
180.0
  0
LINE
  5
3A602
330
2
100
AcDbEntity
  8
0
  6
Continuous
 62
     4
100
AcDbLine
 10
149.8209406032342
 20
98.6353170755358
 30
0.0
 11
114.8673879661396
 21
98.63531707553489
 31
0.0
  0
LINE
  5
3A603
330
2
100
AcDbEntity
  8
0
  6
Continuous
 62
     4
100
AcDbLine
 10
149.8209406032342
 20
98.63531707553489
 30
0.0
 11
150.3209406032342
 21
98.92399221012988
 31
0.0
  0
LINE
  5
3A604
330
2
100
AcDbEntity
  8
0
  6
Continuous
 62
     4
100
AcDbLine
 10
118.3209406032342
 20
101.1233170755351
 30
0.0
 11
150.0829406032349
 21
101.1233170755351
 31
0.0
  0
LINE
  5
3A605
330
2
100
AcDbEntity
  8
0
  6
Continuous
 62
     4
100
AcDbLine
 10
110.3209406032342
 20
104.8853170755349
 30
0.0
 11
114.8209406032342
 21
104.8853170755349
 31
0.0
  0
LINE
  5
3A606
330
2
100
AcDbEntity
  8
0
  6
Continuous
 62
     4
100
AcDbLine
 10
118.3209406032342
 20
101.1233170755351
 30
0.0
 11
117.0011178878662
 21
101.8853170755349
 31
0.0
  0
ARC
  5
3A607
330
2
100
AcDbEntity
  8
0
  6
Continuous
 62
     4
100
AcDbCircle
 10
114.8209406032342
 20
104.3853170755349
 30
0.0
 40
0.5
100
AcDbArc
 50
0.0
 51
90.0
  0
LINE
  5
3A608
330
2
100
AcDbEntity
  8
0
  6
Continuous
 62
     4
100
AcDbLine
 10
115.3209406032342
 20
104.3853170755349
 30
0.0
 11
115.3209406032342
 21
102.2853170755354
 31
0.0
  0
ARC
  5
3A609
330
2
100
AcDbEntity
  8
0
  6
Continuous
 62
     4
100
AcDbCircle
 10
115.7209406032339
 20
102.2853170755354
 30
0.0
 40
0.4
100
AcDbArc
 50
180.0
 51
270.0
  0
LINE
  5
3A60A
330
2
100
AcDbEntity
  8
0
  6
Continuous
 62
     4
100
AcDbLine
 10
113.8209406032342
 20
100.447817075534
 30
0.0
 11
114.8673879661396
 21
98.63531707553489
 31
0.0
  0
LINE
  5
3A60B
330
2
100
AcDbEntity
  8
0
  6
Continuous
 62
     4
100
AcDbLine
 10
114.8673879661396
 20
98.63531707553489
 30
0.0
 11
114.8673879661396
 21
96.88531707553488
 31
0.0
  0
LINE
  5
3A60C
330
2
100
AcDbEntity
  8
0
  6
Continuous
 62
     4
100
AcDbLine
 10
109.3209406032342
 20
100.447817075534
 30
0.0
 11
113.8209406032342
 21
100.447817075534
 31
0.0
  0
LINE
  5
3A60D
330
2
100
AcDbEntity
  8
0
  6
Continuous
 62
     4
100
AcDbLine
 10
109.3209406032342
 20
98.61736788310214
 30
0.0
 11
113.8209406032342
 21
98.61736788310214
 31
0.0
  0
LINE
  5
3A851
330
2
100
AcDbEntity
  8
0
  6
Continuous
 62
     7
100
AcDbLine
 10
132.320940603237
 20
109.3853170755403
 30
0.0
 11
132.320940603237
 21
101.8853170755358
 31
0.0
  0
LINE
  5
3A875
330
2
100
AcDbEntity
  8
0
  6
Continuous
 62
     7
100
AcDbLine
 10
147.2032890708092
 20
109.3853170755403
 30
0.0
 11
147.2032890708092
 21
101.8853170755358
 31
0.0
  0
VIEWPORT
  5
2C7EC
102
{ACAD_XDICTIONARY
360
2C7ED
102
}
330
1B
100
AcDbEntity
 67
     1
  8
0
  6
Continuous
 62
     7
100
AcDbViewport
 10
212.4908200734394
 20
97.5
 30
0.0
 40
464.9816401468789
 41
210.0
 68
     1
 69
     1
 12
212.4908200734394
 22
97.5
 13
0.0
 23
0.0
 14
2.0
 24
2.0
 15
2.0
 25
2.0
 16
0.0
 26
0.0
 36
1.0
 17
0.0
 27
0.0
 37
0.0
 42
50.0
 43
0.0
 44
0.0
 45
210.0
 50
0.0
 51
0.0
 72
  1000
 90
   823328
  1

281
     0
 71
     1
 74
     0
110
0.0
120
0.0
130
0.0
111
1.0
121
0.0
131
0.0
112
0.0
122
1.0
132
0.0
 79
     0
146
0.0
170
     0
 61
     5
348
2E
292
     1
282
     1
141
0.0
142
0.0
 63
   250
421
  3355443
  0
ENDSEC
  0
SECTION
  2
OBJECTS
  0
DICTIONARY
  5
B
330
0
100
AcDbDictionary
281
     1
  3
ACAD_CIP_PREVIOUS_PRODUCT_INFO
350
BE4
  3
ACAD_COLOR
350
3F
  3
ACAD_DETAILVIEWSTYLE
350
BDC
  3
ACAD_GROUP
350
3A
  3
ACAD_LAYOUT
350
17
  3
ACAD_MATERIAL
350
D
  3
ACAD_MLEADERSTYLE
350
42
  3
ACAD_MLINESTYLE
350
3B
  3
ACAD_PLOTSETTINGS
350
3C
  3
ACAD_PLOTSTYLENAME
350
A
  3
ACAD_SCALELIST
350
40
  3
ACAD_SECTIONVIEWSTYLE
350
BDA
  3
ACAD_TABLESTYLE
350
41
  3
ACAD_VISUALSTYLE
350
2F
  3
ACDB_RECOMPOSE_DATA
350
3A99F
  3
AcDbVariableDictionary
350
BB8
  3
AEC_PROPERTY_SET_DEFS
350
24C9
  0
DICTIONARY
  5
31
330
2C
100
AcDbDictionary
280
     1
281
     1
  0
DICTIONARY
  5
22
330
21
100
AcDbDictionary
280
     1
281
     1
  3
ACAD_LAYERSTATES
360
23
  0
DICTIONARY
  5
7
330
6
100
AcDbDictionary
280
     1
281
     1
  3
ADSK_XREC_LAYER_RECONCILED
360
8
  0
DICTIONARY
  5
3
330
2
100
AcDbDictionary
280
     1
281
     1
  3
ACAD_SORTENTS
360
BB0
  0
DICTIONARY
  5
2C7ED
330
2C7EC
100
AcDbDictionary
280
     1
281
     1
  3
ASDK_XREC_ANNOTATION_SCALE_INFO
360
2C7EE
  0
XRECORD
  5
BE4
102
{ACAD_REACTORS
330
B
102
}
330
B
100
AcDbXrecord
280
     1
300
ACD
300
2014
300
ACD_F_S
  0
DICTIONARY
  5
3F
102
{ACAD_REACTORS
330
B
102
}
330
B
100
AcDbDictionary
281
     1
  0
DICTIONARY
  5
BDC
102
{ACAD_REACTORS
330
B
102
}
330
B
100
AcDbDictionary
281
     1
  3
Imperial24
350
283CD
  3
Metric50
350
BDD
  0
DICTIONARY
  5
3A
102
{ACAD_REACTORS
330
B
102
}
330
B
100
AcDbDictionary
281
     1
  0
DICTIONARY
  5
17
102
{ACAD_REACTORS
330
B
102
}
330
B
100
AcDbDictionary
281
     1
  3
Model
350
16
  3
배치1
350
1E
  0
DICTIONARY
  5
D
102
{ACAD_REACTORS
330
B
102
}
330
B
100
AcDbDictionary
281
     1
  3
ByBlock
350
3E
  3
ByLayer
350
3D
  3
Global
350
C
  0
DICTIONARY
  5
42
102
{ACAD_REACTORS
330
B
102
}
330
B
100
AcDbDictionary
281
     1
  3
Standard
350
BD9
  0
DICTIONARY
  5
3B
102
{ACAD_REACTORS
330
B
102
}
330
B
100
AcDbDictionary
281
     1
  3
Standard
350
43
  0
DICTIONARY
  5
3C
102
{ACAD_REACTORS
330
B
102
}
330
B
100
AcDbDictionary
281
     1
  0
ACDBDICTIONARYWDFLT
  5
A
102
{ACAD_REACTORS
330
B
102
}
330
B
100
AcDbDictionary
281
     1
  3
Normal
350
9
100
AcDbDictionaryWithDefault
340
9
  0
DICTIONARY
  5
40
102
{ACAD_REACTORS
330
B
102
}
330
B
100
AcDbDictionary
281
     1
  3
A0
350
48
  3
A1
350
49
  3
A2
350
4A
  3
A3
350
4B
  3
A4
350
4C
  3
A5
350
4D
  3
A6
350
4E
  3
A7
350
4F
  3
A8
350
50
  3
A9
350
51
  3
B0
350
52
  3
B1
350
53
  3
B2
350
54
  3
B3
350
55
  3
B4
350
56
  3
B5
350
57
  3
B6
350
58
  0
DICTIONARY
  5
BDA
102
{ACAD_REACTORS
330
B
102
}
330
B
100
AcDbDictionary
281
     1
  3
Imperial24
350
283CC
  3
Metric50
350
BDB
  0
DICTIONARY
  5
41
102
{ACAD_REACTORS
330
B
102
}
330
B
100
AcDbDictionary
281
     1
  3
Standard
350
44
  0
DICTIONARY
  5
2F
102
{ACAD_REACTORS
330
B
102
}
330
B
100
AcDbDictionary
281
     1
  3
2dWireframe
350
2E
  3
3D Hidden
350
1A64
  3
3dWireframe
350
47
  3
Basic
350
BC7
  3
Brighten
350
BCC
  3
ColorChange
350
BD0
  3
Conceptual
350
BCA
  3
Dim
350
BCB
  3
EdgeColorOff
350
BD8
  3
Facepattern
350
BCF
  3
Flat
350
BC3
  3
FlatWithEdges
350
BC4
  3
Gouraud
350
BC5
  3
GouraudWithEdges
350
BC6
  3
Hidden
350
BC9
  3
JitterOff
350
BD6
  3
Linepattern
350
BCE
  3
OverhangOff
350
BD7
  3
Realistic
350
46
  3
Shaded
350
BD5
  3
Shaded with edges
350
BD4
  3
Shades of Gray
350
BD1
  3
Sketchy
350
BD2
  3
Thicken
350
BCD
  3
Wireframe
350
BC8
  3
X-Ray
350
BD3
  0
XRECORD
  5
3A99F
102
{ACAD_REACTORS
330
B
102
}
330
B
100
AcDbXrecord
280
     1
 90
        1
330
44
330
BDB
330
BDD
330
283CC
330
283CD
  0
DICTIONARY
  5
BB8
102
{ACAD_REACTORS
330
B
102
}
330
B
100
AcDbDictionary
281
     1
  3
CANNOSCALE
350
BBE
  3
CMLEADERSTYLE
350
BBA
  3
CTABLESTYLE
350
BB9
  3
CVIEWDETAILSTYLE
350
BBB
  3
CVIEWSECTIONSTYLE
350
BBC
  3
DIMASSOC
350
C3B
  3
HIDETEXT
350
C39
  3
HPCOLOR
350
FF3
  3
INDEXCTL
350
C38
  3
LAYEREVAL
350
BC0
  3
LAYERNOTIFY
350
BC1
  3
LIGHTINGUNITS
350
BBF
  3
MSLTSCALE
350
BBD
  3
SOLIDHIST
350
C3C
  3
SORTENTS
350
C37
  0
DICTIONARY
  5
24C9
102
{ACAD_REACTORS
330
B
102
}
330
B
100
AcDbDictionary
281
     1
  0
DICTIONARY
  5
23
102
{ACAD_REACTORS
330
22
102
}
330
22
100
AcDbDictionary
281
     1
  0
XRECORD
  5
8
102
{ACAD_REACTORS
330
7
102
}
330
7
100
AcDbXrecord
280
     1
290
     1
  0
SORTENTSTABLE
  5
BB0
102
{ACAD_REACTORS
330
3
102
}
330
3
100
AcDbSortentsTable
330
2
331
3A560
  5
3A560
331
3A5E8
  5
3A5E9
331
3A538
  5
3A538
331
29218
  5
29430
331
283E0
  5
29511
331
3A038
  5
3A038
331
37500
  5
37500
331
1DEB1
  5
28376
331
3A609
  5
3A60A
331
3A851
  5
3A852
331
3A559
  5
3A559
331
3A031
  5
3A031
331
283AA
  5
29116
331
3A572
  5
3A573
331
3A5A2
  5
3A5A3
331
3A5FA
  5
3A5FB
331
3A54A
  5
3A54A
331
2835B
  5
2837C
331
29432
  5
29223
331
3A563
  5
3A563
331
3A5EB
  5
3A5EC
331
3A53B
  5
3A53B
331
3A03B
  5
3A03B
331
3A013
  5
3A013
331
2921B
  5
29433
331
28393
  5
2910E
331
3A60C
  5
3A60D
331
3A5DC
  5
3A5DD
331
3A55C
  5
3A55C
331
3A52C
  5
3A52C
331
3A034
  5
3A034
331
2837C
  5
2845E
331
29111
  5
2A92C
331
28379
  5
283D9
331
29438
  5
2923C
331
283AD
  5
29217
331
3A575
  5
3A576
331
3A5A5
  5
3A5A6
331
3A5FD
  5
3A5FE
331
3A54D
  5
3A54D
331
28396
  5
29111
331
2844E
  5
31D66
331
2835E
  5
2837F
331
29435
  5
2943B
331
3A566
  5
3A566
331
3A5EE
  5
3A5EF
331
3A53E
  5
3A53E
331
3A03E
  5
3A03E
331
3A016
  5
3A016
331
2837F
  5
2848D
331
3A5DF
  5
3A5E0
331
3A52F
  5
3A52F
331
3A037
  5
3A037
331
2924F
  5
29299
331
283D7
  5
29253
331
3A578
  5
3A579
331
3A600
  5
3A601
331
3A5A8
  5
3A5A9
331
39F38
  5
39F38
331
28370
  5
283A9
331
28361
  5
28378
331
3A569
  5
3A569
331
3A5F1
  5
3A5F2
331
3A541
  5
3A541
331
3A041
  5
3A041
331
37321
  5
37321
331
29221
  5
29438
331
3A5E2
  5
3A5E3
331
3A532
  5
3A532
331
3A452
  5
3A452
331
3A57B
  5
3A57D
331
3A5AB
  5
3A5AC
331
3A603
  5
3A604
331
3A553
  5
3A553
331
28373
  5
283AC
331
3A56C
  5
3A56C
331
3A5F4
  5
3A5F5
331
3A544
  5
3A544
331
3A044
  5
3A044
331
37324
  5
37324
331
28454
  5
31D68
331
28355
  5
28379
331
28352
  5
28377
331
3A5E5
  5
3A5E6
331
3A535
  5
3A535
331
3A455
  5
3A455
331
29215
  5
2929A
331
283DD
  5
2943D
331
3A57E
  5
3A5A1
331
3A606
  5
3A607
331
3A556
  5
3A556
331
283A7
  5
29112
331
3A56F
  5
3A570
331
3A5F7
  5
3A5F8
331
3A547
  5
3A547
331
3A047
  5
3A047
331
37327
  5
37327
331
2942F
  5
2921F
331
2910E
  5
295E3
331
28376
  5
283D4
331
2921E
  5
29436
331
28498
  5
29114
331
28368
  5
28393
331
3A570
  5
3A571
331
3A5F8
  5
3A5F9
331
3A548
  5
3A548
331
3A048
  5
3A048
331
29430
  5
29220
331
3A561
  5
3A561
331
3A5E9
  5
3A5EA
331
3A539
  5
3A539
331
3A039
  5
3A039
331
29439
  5
2923D
331
29219
  5
29431
331
283E1
  5
29513
331
3A60A
  5
3A60B
331
3A55A
  5
3A55A
331
3A52A
  5
3A52A
331
3A032
  5
3A032
331
2836B
  5
28395
331
283AB
  5
29215
331
3A573
  5
3A574
331
3A5A3
  5
3A5A4
331
3A5FB
  5
3A5FC
331
3A54B
  5
3A54B
331
2835C
  5
2837D
331
29433
  5
29224
331
3A564
  5
3A564
331
3A5EC
  5
3A5ED
331
3A53C
  5
3A53C
331
3A03C
  5
3A03C
331
2921C
  5
29434
331
28394
  5
2910F
331
3A60D
  5
3A851
331
3A5DD
  5
3A5DE
331
3A55D
  5
3A55D
331
3A52D
  5
3A52D
331
3A035
  5
3A035
331
283AE
  5
29218
331
3A576
  5
3A577
331
3A5A6
  5
3A5A7
331
3A5FE
  5
3A5FF
331
3A567
  5
3A567
331
3A5EF
  5
3A5F0
331
3A53F
  5
3A53F
331
3A03F
  5
3A03F
331
3731F
  5
3731F
331
2921F
  5
29437
331
29436
  5
29236
331
3A5E0
  5
3A5E1
331
3A530
  5
3A530
331
28380
  5
28498
331
3A579
  5
3A57A
331
3A601
  5
3A602
331
3A5A9
  5
3A5AA
331
3A551
  5
3A551
331
3A56A
  5
3A56A
331
3A5F2
  5
3A5F3
331
3A542
  5
3A542
331
3A042
  5
3A042
331
37322
  5
37322
331
3A5E3
  5
3A5E4
331
3A533
  5
3A533
331
283DB
  5
2910D
331
3A604
  5
3A605
331
3A5AC
  5
3A5DB
331
28374
  5
283AD
331
28455
  5
31D8B
331
28365
  5
28380
331
28371
  5
283AA
331
2837D
  5
28481
331
29112
  5
31D64
331
3A56D
  5
3A56D
331
3A5F5
  5
3A5F6
331
3A545
  5
3A545
331
3A045
  5
3A045
331
283DE
  5
2943C
331
28356
  5
2837A
331
3A5E6
  5
3A5E7
331
3A536
  5
3A536
331
3A456
  5
3A456
331
29296
  5
2948D
331
3A607
  5
3A608
331
3A557
  5
3A557
331
2910F
  5
2A377
331
28377
  5
283D6
331
29216
  5
2929F
331
2942D
  5
2921C
331
2837A
  5
283DB
331
3A608
  5
3A609
331
3A558
  5
3A558
331
3A030
  5
3A030
331
29110
  5
2A8F1
331
28378
  5
283D7
331
28369
  5
28394
331
283A9
  5
29115
331
3A571
  5
3A572
331
3A5A1
  5
3A5A2
331
3A5F9
  5
3A5FA
331
3A549
  5
3A549
331
28392
  5
29004
331
3A562
  5
3A562
331
3A5EA
  5
3A5EB
331
3A53A
  5
3A53A
331
3A03A
  5
3A03A
331
3A60B
  5
3A60C
331
3A5DB
  5
3A5DC
331
3A55B
  5
3A55B
331
3A52B
  5
3A52B
331
3A033
  5
3A033
331
2837B
  5
2845A
331
2836C
  5
28396
331
29234
  5
29298
331
283AC
  5
29216
331
3A574
  5
3A575
331
3A5A4
  5
3A5A5
331
3A5FC
  5
3A5FD
331
3A54C
  5
3A54C
331
2835D
  5
2837E
331
29434
  5
29225
331
2921D
  5
29435
331
28395
  5
29110
331
3A565
  5
3A565
331
3A5ED
  5
3A5EE
331
3A53D
  5
3A53D
331
3A03D
  5
3A03D
331
2929D
  5
2923E
331
3A5DE
  5
3A5DF
331
3A52E
  5
3A52E
331
3A036
  5
3A036
331
283D6
  5
2924F
331
2836F
  5
283A7
331
3A577
  5
3A578
331
3A5FF
  5
3A600
331
3A5A7
  5
3A5A8
331
29437
  5
29237
331
3A5F0
  5
3A5F1
331
3A540
  5
3A540
331
3A040
  5
3A040
331
3A5E1
  5
3A5E2
331
3A531
  5
3A531
331
3A451
  5
3A451
331
29220
  5
29238
331
3A57A
  5
3A57B
331
3A5AA
  5
3A5AB
331
3A602
  5
3A603
331
3A552
  5
3A552
331
3A5F3
  5
3A5F4
331
3A543
  5
3A543
331
2923A
  5
29251
331
3A043
  5
3A043
331
37323
  5
37323
331
3A5E4
  5
3A5E5
331
3A534
  5
3A534
331
3A454
  5
3A454
331
29214
  5
2951B
331
2944B
  5
2921B
331
3A57D
  5
3A57E
331
3A605
  5
3A606
331
3A555
  5
3A555
331
2910D
  5
2951C
331
28375
  5
283AE
331
3A56E
  5
3A56E
331
3A5F6
  5
3A5F7
331
3A546
  5
3A546
331
3A046
  5
3A046
331
28357
  5
2837B
331
3A5E7
  5
3A5E8
331
3A537
  5
3A537
331
374FF
  5
374FF
331
29217
  5
292A0
331
2942E
  5
2921D
331
28366
  5
28392
331
28372
  5
283AB
331
2837E
  5
28482
331
2921A
  5
29432
331
29431
  5
29221
  0
XRECORD
  5
2C7EE
102
{ACAD_REACTORS
330
2C7ED
102
}
330
2C7ED
100
AcDbXrecord
280
     1
 90
        1
340
48
  0
ACDBDETAILVIEWSTYLE
  5
283CD
102
{ACAD_XDICTIONARY
360
3A99D
102
}
102
{ACAD_REACTORS
330
BDC
102
}
330
BDC
100
AcDbModelDocViewStyle
 70
     0
  3
Imperial24
290
     0
100
AcDbDetailViewStyle
 70
     0
 71
     0
 90
        3
 71
     1
340
25
 62
   256
 40
0.24
340
0
 62
   256
 40
0.24
300

 40
0.36
280
     3
 71
     2
340
14
 90
       25
 62
   256
 71
     3
340
25
 62
   256
 40
0.24
 90
        1
 40
0.75
 90
        1
300
%<\AcVar ViewType \f "%tc1">% %<\AcVar ViewDetailId>%\PSCALE %<\AcVar ViewScale \f "%sn">%
 71
     4
340
14
 90
       25
 62
   256
340
14
 90
       25
 62
   256
280
     0
  0
ACDBDETAILVIEWSTYLE
  5
BDD
102
{ACAD_XDICTIONARY
360
3A999
102
}
102
{ACAD_REACTORS
330
BDC
102
}
330
BDC
100
AcDbModelDocViewStyle
 70
     0
  3
Metric50
290
     0
100
AcDbDetailViewStyle
 70
     0
 71
     0
 90
        3
 71
     1
340
25
 62
   256
 40
5.0
340
0
 62
   256
 40
5.0
300

 40
0.0
280
     1
 71
     2
340
14
 90
       25
 62
   256
 71
     3
340
25
 62
   256
 40
5.0
 90
        0
 40
15.0
 90
        1
300
%<\AcVar ViewDetailId>% (%<\AcVar ViewScale \f "%sn">%)
 71
     4
340
14
 90
       25
 62
   256
340
14
 90
       25
 62
   256
280
     0
  0
LAYOUT
  5
16
102
{ACAD_XDICTIONARY
360
18
102
}
102
{ACAD_REACTORS
330
17
102
}
330
17
100
AcDbPlotSettings
  1

  2
DWG To PDF.pc3
  4
ISO_expand_A4_(297.00_x_210.00_MM)
  6

 40
5.793749809265136
 41
10.79374980926513
 42
5.79376220703125
 43
10.79374694824219
 44
297.0
 45
210.0
 46
10.74179700476176
 47
0.0
 48
214.2303289092835
 49
-5.650030662565313
140
426.8811481846322
141
146.1562857013982
142
1.0
143
0.8057125389846563
 70
 11956
 72
     1
 73
     0
 74
     4
  7
ksm0910.ctb
 75
     0
147
1.241137442468229
 76
     0
 77
     2
 78
   300
148
-214.2303289092835
149
5.650030662565313
100
AcDbLayout
  1
Model
 70
     1
 71
     0
 10
0.0
 20
0.0
 11
12.0
 21
9.0
 12
0.0
 22
0.0
 32
0.0
 14
0.0
 24
0.0
 34
0.0
 15
0.0
 25
0.0
 35
0.0
146
0.0
 13
0.0
 23
0.0
 33
0.0
 16
1.0
 26
0.0
 36
0.0
 17
0.0
 27
1.0
 37
0.0
 76
     0
330
2
331
2D
1001
ACAD_PSEXT
1000
DWG To PDF.pc3
1000
DWG To PDF
1000
파일
1000

1070
     0
  0
LAYOUT
  5
1E
102
{ACAD_XDICTIONARY
360
1F
102
}
102
{ACAD_REACTORS
330
17
102
}
330
17
100
AcDbPlotSettings
  1

  2
none_device
  4
ISO_A4_(210.00_x_297.00_MM)
  6

 40
7.5
 41
20.0
 42
7.5
 43
20.0
 44
210.0
 45
297.0
 46
0.0
 47
0.0
 48
0.0
 49
0.0
140
0.0
141
0.0
142
1.0
143
1.0
 70
   688
 72
     1
 73
     1
 74
     5
  7
ksm0910.ctb
 75
    16
147
1.0
 76
     0
 77
     2
 78
   300
148
0.0
149
0.0
100
AcDbLayout
  1
배치1
 70
     1
 71
     1
 10
-20.0
 20
-7.5
 11
277.0
 21
202.5
 12
0.0
 22
0.0
 32
0.0
 14
1.000000000000000E+20
 24
1.000000000000000E+20
 34
1.000000000000000E+20
 15
-1.000000000000000E+20
 25
-1.000000000000000E+20
 35
-1.000000000000000E+20
146
0.0
 13
0.0
 23
0.0
 33
0.0
 16
1.0
 26
0.0
 36
0.0
 17
0.0
 27
1.0
 37
0.0
 76
     0
330
1B
331
2C7EC
1001
ACAD_PSEXT
1000
없음
1000
없음
1000
해당 없음
1000
배치가 새로운 플로터 구성을 선택할 때까지 플롯되지 않습니다.
1070
     0
  0
MATERIAL
  5
3E
102
{ACAD_REACTORS
330
D
102
}
330
D
100
AcDbMaterial
  1
ByBlock
 94
       63
  0
MATERIAL
  5
3D
102
{ACAD_REACTORS
330
D
102
}
330
D
100
AcDbMaterial
  1
ByLayer
 94
       63
  0
MATERIAL
  5
C
102
{ACAD_XDICTIONARY
360
E
102
}
102
{ACAD_REACTORS
330
D
102
}
330
D
100
AcDbMaterial
  1
Global
 43
0.0007999999797903
 43
0.0
 43
0.0
 43
0.0
 43
0.0
 43
0.0007999999797903
 43
0.0
 43
0.0
 43
0.0
 43
0.0
 43
1.0
 43
0.0
 43
0.0
 43
0.0
 43
0.0
 43
1.0
 49
0.0007999999797903
 49
0.0
 49
0.0
 49
0.0
 49
0.0
 49
0.0007999999797903
 49
0.0
 49
0.0
 49
0.0
 49
0.0
 49
1.0
 49
0.0
 49
0.0
 49
0.0
 49
0.0
 49
1.0
142
0.0007999999797903
142
0.0
142
0.0
142
0.0
142
0.0
142
0.0007999999797903
142
0.0
142
0.0
142
0.0
142
0.0
142
1.0
142
0.0
142
0.0
142
0.0
142
0.0
142
1.0
144
0.0007999999797903
144
0.0
144
0.0
144
0.0
144
0.0
144
0.0007999999797903
144
0.0
144
0.0
144
0.0
144
0.0
144
1.0
144
0.0
144
0.0
144
0.0
144
0.0
144
1.0
 94
       63
1001
ACAD
1070
    -1
1070
     3
1070
     0
1000

1071
        0
1070
     0
  0
MLEADERSTYLE
  5
BD9
102
{ACAD_REACTORS
330
42
330
3731F
330
37321
330
39EF0
330
39EF1
330
39EFD
330
39F0D
330
3A016
330
3A386
330
3A387
330
3A349
330
3A34A
330
3A356
330
3A367
102
}
330
42
100
AcDbMLeaderStyle
179
     2
170
     2
171
     1
172
     0
 90
        2
 40
0.0
 41
0.0
173
     1
 91
-1023410173
340
28
 92
       -2
290
     1
 42
2.0
291
     1
 43
0.36
  3
Standard
 44
4.0
300

342
25
174
     1
178
     6
175
     1
176
     0
 93
-1023410174
 45
3.0
292
     0
297
     0
 46
4.0
 94
-1056964608
 47
1.0
 49
1.0
140
1.0
293
     1
141
0.0
294
     1
177
     0
142
1.0
295
     0
296
     0
143
0.125
271
     0
272
     9
273
     9
298
     1
  0
MLINESTYLE
  5
43
102
{ACAD_REACTORS
330
3B
102
}
330
3B
100
AcDbMlineStyle
  2
STANDARD
 70
     0
  3

 62
   256
 51
90.0
 52
90.0
 71
     2
 49
0.5
 62
   256
  6
BYLAYER
 49
-0.5
 62
   256
  6
BYLAYER
  0
ACDBPLACEHOLDER
  5
9
102
{ACAD_REACTORS
330
A
102
}
330
A
  0
SCALE
  5
48
102
{ACAD_REACTORS
330
40
102
}
330
40
100
AcDbScale
 70
     0
300
1:1
140
1.0
141
1.0
290
     1
  0
SCALE
  5
49
102
{ACAD_REACTORS
330
40
102
}
330
40
100
AcDbScale
 70
     0
300
1:2
140
1.0
141
2.0
290
     0
  0
SCALE
  5
4A
102
{ACAD_REACTORS
330
40
102
}
330
40
100
AcDbScale
 70
     0
300
1:4
140
1.0
141
4.0
290
     0
  0
SCALE
  5
4B
102
{ACAD_REACTORS
330
40
102
}
330
40
100
AcDbScale
 70
     0
300
1:5
140
1.0
141
5.0
290
     0
  0
SCALE
  5
4C
102
{ACAD_REACTORS
330
40
102
}
330
40
100
AcDbScale
 70
     0
300
1:8
140
1.0
141
8.0
290
     0
  0
SCALE
  5
4D
102
{ACAD_REACTORS
330
40
102
}
330
40
100
AcDbScale
 70
     0
300
1:10
140
1.0
141
10.0
290
     0
  0
SCALE
  5
4E
102
{ACAD_REACTORS
330
40
102
}
330
40
100
AcDbScale
 70
     0
300
1:16
140
1.0
141
16.0
290
     0
  0
SCALE
  5
4F
102
{ACAD_REACTORS
330
40
102
}
330
40
100
AcDbScale
 70
     0
300
1:20
140
1.0
141
20.0
290
     0
  0
SCALE
  5
50
102
{ACAD_REACTORS
330
40
102
}
330
40
100
AcDbScale
 70
     0
300
1:30
140
1.0
141
30.0
290
     0
  0
SCALE
  5
51
102
{ACAD_REACTORS
330
40
102
}
330
40
100
AcDbScale
 70
     0
300
1:40
140
1.0
141
40.0
290
     0
  0
SCALE
  5
52
102
{ACAD_REACTORS
330
40
102
}
330
40
100
AcDbScale
 70
     0
300
1:50
140
1.0
141
50.0
290
     0
  0
SCALE
  5
53
102
{ACAD_REACTORS
330
40
102
}
330
40
100
AcDbScale
 70
     0
300
1:100
140
1.0
141
100.0
290
     0
  0
SCALE
  5
54
102
{ACAD_REACTORS
330
40
102
}
330
40
100
AcDbScale
 70
     0
300
2:1
140
2.0
141
1.0
290
     0
  0
SCALE
  5
55
102
{ACAD_REACTORS
330
40
102
}
330
40
100
AcDbScale
 70
     0
300
4:1
140
4.0
141
1.0
290
     0
  0
SCALE
  5
56
102
{ACAD_REACTORS
330
40
102
}
330
40
100
AcDbScale
 70
     0
300
8:1
140
8.0
141
1.0
290
     0
  0
SCALE
  5
57
102
{ACAD_REACTORS
330
40
102
}
330
40
100
AcDbScale
 70
     0
300
10:1
140
10.0
141
1.0
290
     0
  0
SCALE
  5
58
102
{ACAD_REACTORS
330
40
102
}
330
40
100
AcDbScale
 70
     0
300
100:1
140
100.0
141
1.0
290
     0
  0
ACDBSECTIONVIEWSTYLE
  5
283CC
102
{ACAD_XDICTIONARY
360
3A99B
102
}
102
{ACAD_REACTORS
330
BDA
102
}
330
BDA
100
AcDbModelDocViewStyle
 70
     0
  3
Imperial24
290
     0
100
AcDbSectionViewStyle
 70
     0
 71
     0
 90
       78
 71
     1
340
25
 62
   256
 40
0.24
340
0
340
0
 62
   256
 40
0.24
300
I, O, Q, S, X, Z
 40
0.48
 90
        3
 40
0.18
 90
        1
 71
     2
340
14
 90
       25
 62
   256
340
14
 90
       50
 62
   256
 40
0.24
 40
0.0
 40
0.24
 71
     3
340
25
 62
   256
 40
0.24
 90
        1
 40
0.75
 90
        1
300
%<\AcVar ViewType \f "%tc1">% %<\AcVar ViewSectionStartId>%-%<\AcVar ViewSectionEndId>%\PSCALE %<\AcVar ViewScale \f "%sn">%
 71
     4
 62
   256
 62
   257
300
ANSI31
 40
1.0
 90
        0
290
     0
290
     0
 90
        6
 40
0.0
 40
1.570796326794896
 40
0.2617993877991494
 40
1.308996938995747
 40
-0.2617993877991494
 40
1.832595714594046
  0
ACDBSECTIONVIEWSTYLE
  5
BDB
102
{ACAD_XDICTIONARY
360
3A997
102
}
102
{ACAD_REACTORS
330
BDA
102
}
330
BDA
100
AcDbModelDocViewStyle
 70
     0
  3
Metric50
290
     0
100
AcDbSectionViewStyle
 70
     0
 71
     0
 90
      102
 71
     1
340
25
 62
   256
 40
5.0
340
0
340
0
 62
   256
 40
5.0
300
I, O, Q, S, X, Z
 40
10.0
 90
        0
 40
2.5
 90
        0
 71
     2
340
14
 90
       25
 62
   256
340
14
 90
       50
 62
   256
 40
5.0
 40
2.5
 40
5.0
 71
     3
340
25
 62
   256
 40
5.0
 90
        0
 40
15.0
 90
        1
300
%<\AcVar ViewSectionStartId>%-%<\AcVar ViewSectionEndId>% (%<\AcVar ViewScale \f "%sn">%)
 71
     4
 62
   256
 62
   257
300
ANSI31
 40
1.0
 90
        0
290
     0
290
     0
 90
        6
 40
0.0
 40
1.570796326794896
 40
0.2617993877991494
 40
1.308996938995747
 40
-0.2617993877991494
 40
1.832595714594046
  0
TABLESTYLE
  5
44
102
{ACAD_XDICTIONARY
360
45
102
}
102
{ACAD_REACTORS
330
41
102
}
330
41
100
AcDbTableStyle
280
     0
  3
Standard
 70
     0
 71
     0
 40
1.5
 41
1.5
280
     0
281
     0
  7
Standard
140
4.5
170
     2
 62
     0
 63
     7
283
     0
 90
      512
 91
        0
  1

274
    -2
284
     1
 64
     0
275
    -2
285
     1
 65
     0
276
    -2
286
     1
 66
     0
277
    -2
287
     1
 67
     0
278
    -2
288
     1
 68
     0
279
    -2
289
     1
 69
     0
  7
Standard
140
6.0
170
     5
 62
     0
 63
     7
283
     0
 90
      512
 91
        0
  1

274
    -2
284
     1
 64
     0
275
    -2
285
     1
 65
     0
276
    -2
286
     1
 66
     0
277
    -2
287
     1
 67
     0
278
    -2
288
     1
 68
     0
279
    -2
289
     1
 69
     0
  7
Standard
140
4.5
170
     5
 62
     0
 63
     7
283
     0
 90
      512
 91
        0
  1

274
    -2
284
     1
 64
     0
275
    -2
285
     1
 65
     0
276
    -2
286
     1
 66
     0
277
    -2
287
     1
 67
     0
278
    -2
288
     1
 68
     0
279
    -2
289
     1
 69
     0
  0
VISUALSTYLE
  5
2E
102
{ACAD_REACTORS
330
2F
102
}
330
2F
100
AcDbVisualStyle
  2
2dWireframe
 70
     4
177
     3
291
     0
 70
    58
 90
        0
176
     1
 90
        2
176
     1
 90
        1
176
     1
 90
        0
176
     1
 40
0.6
176
     1
 40
30.0
176
     1
 62
     7
176
     1
 90
        1
176
     1
 90
        4
176
     1
 62
     7
176
     1
 62
   257
176
     1
 90
        1
176
     1
 90
        1
176
     1
 40
1.0
176
     1
 90
        0
176
     1
 62
   257
176
     1
 40
1.0
176
     1
 90
        1
176
     1
 90
        6
176
     1
 90
        2
176
     1
 62
     7
176
     1
 90
        5
176
     1
 90
        0
176
     1
 90
        0
176
     1
290
     0
176
     1
 90
        1
176
     1
 40
0.0
176
     1
 90
        0
176
     1
290
     1
176
     1
290
     1
176
     1
290
     0
176
     1
290
     0
176
     1
290
     0
176
     1
290
     0
176
     1
290
     0
176
     1
290
     0
176
     1
290
     0
176
     1
 90
       50
176
     1
 40
0.0
176
     1
 40
1.0
176
     1
 90
        0
176
     1
 62
    18
420
        0
176
     1
 90
       50
176
     1
 90
        3
176
     1
 62
     5
420
      255
176
     1
290
     0
176
     1
 90
       50
176
     1
 90
       50
176
     1
 90
       50
176
     1
290
     0
176
     1
 90
       50
176
     1
 62
   256
176
     0
 40
1.0
176
     0
 90
        2
176
     1
  1
strokes_ogs.tif
176
     1
290
     0
176
     1
 40
1.0
176
     1
 40
1.0
176
     1
  0
VISUALSTYLE
  5
1A64
102
{ACAD_REACTORS
330
2F
102
}
330
2F
100
AcDbVisualStyle
  2
3D Hidden
 70
     6
177
     3
291
     0
 70
    58
 90
        1
176
     1
 90
        2
176
     1
 90
        2
176
     1
 90
        0
176
     1
 40
0.6
176
     1
 40
30.0
176
     1
 62
     7
176
     1
 90
        2
176
     1
 90
        2
176
     1
 62
     7
176
     1
 62
   257
176
     1
 90
        2
176
     1
 90
        1
176
     1
 40
40.0
176
     1
 90
        0
176
     1
 62
   257
176
     1
 40
1.0
176
     1
 90
        1
176
     1
 90
        6
176
     1
 90
        2
176
     1
 62
     7
176
     1
 90
        3
176
     1
 90
        0
176
     1
 90
        0
176
     1
290
     0
176
     1
 90
        1
176
     1
 40
0.0
176
     1
 90
        0
176
     1
290
     0
176
     1
290
     1
176
     1
290
     1
176
     1
290
     0
176
     1
290
     0
176
     1
290
     0
176
     1
290
     0
176
     1
290
     0
176
     1
290
     0
176
     1
 90
       50
176
     1
 40
0.0
176
     1
 40
1.0
176
     1
 90
        0
176
     1
 62
    18
420
        0
176
     1
 90
       50
176
     1
 90
        3
176
     1
 62
     5
420
      255
176
     1
290
     0
176
     1
 90
       50
176
     1
 90
       50
176
     1
 90
       50
176
     1
290
     0
176
     1
 90
       50
176
     1
 62
   256
176
     0
 40
1.0
176
     0
 90
        2
176
     1
  1
strokes_ogs.tif
176
     1
290
     0
176
     1
 40
1.0
176
     1
 40
1.0
176
     1
  0
VISUALSTYLE
  5
47
102
{ACAD_REACTORS
330
2F
102
}
330
2F
100
AcDbVisualStyle
  2
3dWireframe
 70
     5
177
     3
291
     0
 70
    58
 90
        0
176
     1
 90
        2
176
     1
 90
        1
176
     1
 90
        0
176
     1
 40
0.6
176
     1
 40
30.0
176
     1
 62
     7
176
     1
 90
        1
176
     1
 90
        4
176
     1
 62
     7
176
     1
 62
   257
176
     1
 90
        1
176
     1
 90
        1
176
     1
 40
1.0
176
     1
 90
        0
176
     1
 62
   257
176
     1
 40
1.0
176
     1
 90
        1
176
     1
 90
        6
176
     1
 90
        2
176
     1
 62
     7
176
     1
 90
        5
176
     1
 90
        0
176
     1
 90
        0
176
     1
290
     0
176
     1
 90
        1
176
     1
 40
0.0
176
     1
 90
        0
176
     1
290
     0
176
     1
290
     1
176
     1
290
     1
176
     1
290
     0
176
     1
290
     0
176
     1
290
     0
176
     1
290
     0
176
     1
290
     0
176
     1
290
     0
176
     1
 90
       50
176
     1
 40
0.0
176
     1
 40
1.0
176
     1
 90
        0
176
     1
 62
    18
420
        0
176
     1
 90
       50
176
     1
 90
        3
176
     1
 62
     5
420
      255
176
     1
290
     0
176
     1
 90
       50
176
     1
 90
       50
176
     1
 90
       50
176
     1
290
     0
176
     1
 90
       50
176
     1
 62
   256
176
     0
 40
1.0
176
     0
 90
        2
176
     1
  1
strokes_ogs.tif
176
     1
290
     0
176
     1
 40
1.0
176
     1
 40
1.0
176
     1
  0
VISUALSTYLE
  5
BC7
102
{ACAD_REACTORS
330
2F
102
}
330
2F
100
AcDbVisualStyle
  2
Basic
 70
     7
177
     3
291
     1
 70
    58
 90
        1
176
     1
 90
        0
176
     1
 90
        1
176
     1
 90
        0
176
     1
 40
0.6
176
     1
 40
30.0
176
     1
 62
     7
176
     1
 90
        0
176
     1
 90
        4
176
     1
 62
     7
176
     1
 62
   257
176
     1
 90
        1
176
     1
 90
        1
176
     1
 40
1.0
176
     1
 90
        8
176
     1
 62
     7
176
     1
 40
1.0
176
     1
 90
        1
176
     1
 90
        6
176
     1
 90
        2
176
     1
 62
     7
176
     1
 90
        5
176
     1
 90
        0
176
     1
 90
        0
176
     1
290
     0
176
     1
 90
        1
176
     1
 40
0.0
176
     1
 90
        0
176
     1
290
     0
176
     1
290
     1
176
     1
290
     1
176
     1
290
     0
176
     1
290
     0
176
     1
290
     0
176
     1
290
     0
176
     1
290
     0
176
     1
290
     0
176
     1
 90
       50
176
     1
 40
0.0
176
     1
 40
1.0
176
     1
 90
        0
176
     1
 62
    18
420
        0
176
     1
 90
       50
176
     1
 90
        3
176
     1
 62
     5
420
      255
176
     1
290
     0
176
     1
 90
       50
176
     1
 90
       50
176
     1
 90
       50
176
     1
290
     0
176
     1
 90
       50
176
     1
 62
   256
176
     0
 40
1.0
176
     0
 90
        2
176
     1
  1
strokes_ogs.tif
176
     1
290
     0
176
     1
 40
1.0
176
     1
 40
1.0
176
     1
  0
VISUALSTYLE
  5
BCC
102
{ACAD_REACTORS
330
2F
102
}
330
2F
100
AcDbVisualStyle
  2
Brighten
 70
    12
177
     3
291
     1
 70
    58
 90
        2
176
     1
 90
        2
176
     1
 90
        0
176
     1
 90
        0
176
     1
 40
0.6
176
     1
 40
30.0
176
     1
 62
     7
176
     1
 90
        1
176
     1
 90
        4
176
     1
 62
     7
176
     1
 62
   257
176
     1
 90
        1
176
     1
 90
        1
176
     1
 40
1.0
176
     1
 90
        8
176
     1
 62
     7
176
     1
 40
1.0
176
     1
 90
        1
176
     1
 90
        6
176
     1
 90
        2
176
     1
 62
     7
176
     1
 90
        5
176
     1
 90
        0
176
     1
 90
        0
176
     1
290
     0
176
     1
 90
        1
176
     1
 40
50.0
176
     1
 90
        0
176
     1
290
     0
176
     1
290
     1
176
     1
290
     1
176
     1
290
     0
176
     1
290
     0
176
     1
290
     0
176
     1
290
     0
176
     1
290
     0
176
     1
290
     0
176
     1
 90
       50
176
     1
 40
0.0
176
     1
 40
1.0
176
     1
 90
        0
176
     1
 62
    18
420
        0
176
     1
 90
       50
176
     1
 90
        3
176
     1
 62
     5
420
      255
176
     1
290
     0
176
     1
 90
       50
176
     1
 90
       50
176
     1
 90
       50
176
     1
290
     0
176
     1
 90
       50
176
     1
 62
   256
176
     0
 40
1.0
176
     0
 90
        2
176
     1
  1
strokes_ogs.tif
176
     1
290
     0
176
     1
 40
1.0
176
     1
 40
1.0
176
     1
  0
VISUALSTYLE
  5
BD0
102
{ACAD_REACTORS
330
2F
102
}
330
2F
100
AcDbVisualStyle
  2
ColorChange
 70
    16
177
     3
291
     1
 70
    58
 90
        2
176
     1
 90
        2
176
     1
 90
        3
176
     1
 90
        0
176
     1
 40
0.6
176
     1
 40
30.0
176
     1
 62
     8
176
     1
 90
        1
176
     1
 90
        4
176
     1
 62
     7
176
     1
 62
   257
176
     1
 90
        1
176
     1
 90
        1
176
     1
 40
1.0
176
     1
 90
        8
176
     1
 62
     8
176
     1
 40
1.0
176
     1
 90
        1
176
     1
 90
        6
176
     1
 90
        2
176
     1
 62
     7
176
     1
 90
        5
176
     1
 90
        0
176
     1
 90
        0
176
     1
290
     0
176
     1
 90
        1
176
     1
 40
0.0
176
     1
 90
        0
176
     1
290
     0
176
     1
290
     1
176
     1
290
     1
176
     1
290
     0
176
     1
290
     0
176
     1
290
     0
176
     1
290
     0
176
     1
290
     0
176
     1
290
     0
176
     1
 90
       50
176
     1
 40
0.0
176
     1
 40
1.0
176
     1
 90
        0
176
     1
 62
    18
420
        0
176
     1
 90
       50
176
     1
 90
        3
176
     1
 62
     5
420
      255
176
     1
290
     0
176
     1
 90
       50
176
     1
 90
       50
176
     1
 90
       50
176
     1
290
     0
176
     1
 90
       50
176
     1
 62
   256
176
     0
 40
1.0
176
     0
 90
        2
176
     1
  1
strokes_ogs.tif
176
     1
290
     0
176
     1
 40
1.0
176
     1
 40
1.0
176
     1
  0
VISUALSTYLE
  5
BCA
102
{ACAD_REACTORS
330
2F
102
}
330
2F
100
AcDbVisualStyle
  2
Conceptual
 70
     9
177
     3
291
     0
 70
    58
 90
        3
176
     1
 90
        2
176
     1
 90
        0
176
     1
 90
        0
176
     1
 40
0.6
176
     1
 40
30.0
176
     1
 62
     7
176
     1
 90
        2
176
     1
 90
        2
176
     1
 62
     7
176
     1
 62
   257
176
     1
 90
        1
176
     1
 90
        1
176
     1
 40
179.0
176
     1
 90
        8
176
     1
 62
     7
176
     1
 40
1.0
176
     1
 90
        1
176
     1
 90
        6
176
     1
 90
        2
176
     1
 62
     7
176
     1
 90
        3
176
     1
 90
        0
176
     1
 90
        0
176
     1
290
     0
176
     1
 90
        1
176
     1
 40
0.0
176
     1
 90
        0
176
     1
290
     0
176
     1
290
     1
176
     1
290
     1
176
     1
290
     0
176
     1
290
     0
176
     1
290
     0
176
     1
290
     0
176
     1
290
     0
176
     1
290
     0
176
     1
 90
       50
176
     1
 40
0.0
176
     1
 40
1.0
176
     1
 90
        0
176
     1
 62
    18
420
        0
176
     1
 90
       50
176
     1
 90
        3
176
     1
 62
     5
420
      255
176
     1
290
     0
176
     1
 90
       50
176
     1
 90
       50
176
     1
 90
       50
176
     1
290
     0
176
     1
 90
       50
176
     1
 62
   256
176
     0
 40
1.0
176
     0
 90
        2
176
     1
  1
strokes_ogs.tif
176
     1
290
     0
176
     1
 40
1.0
176
     1
 40
1.0
176
     1
  0
VISUALSTYLE
  5
BCB
102
{ACAD_REACTORS
330
2F
102
}
330
2F
100
AcDbVisualStyle
  2
Dim
 70
    11
177
     3
291
     1
 70
    58
 90
        2
176
     1
 90
        2
176
     1
 90
        0
176
     1
 90
        0
176
     1
 40
0.6
176
     1
 40
30.0
176
     1
 62
     7
176
     1
 90
        1
176
     1
 90
        4
176
     1
 62
     7
176
     1
 62
   257
176
     1
 90
        1
176
     1
 90
        1
176
     1
 40
1.0
176
     1
 90
        8
176
     1
 62
     7
176
     1
 40
1.0
176
     1
 90
        1
176
     1
 90
        6
176
     1
 90
        2
176
     1
 62
     7
176
     1
 90
        5
176
     1
 90
        0
176
     1
 90
        0
176
     1
290
     0
176
     1
 90
        1
176
     1
 40
-50.0
176
     1
 90
        0
176
     1
290
     0
176
     1
290
     1
176
     1
290
     1
176
     1
290
     0
176
     1
290
     0
176
     1
290
     0
176
     1
290
     0
176
     1
290
     0
176
     1
290
     0
176
     1
 90
       50
176
     1
 40
0.0
176
     1
 40
1.0
176
     1
 90
        0
176
     1
 62
    18
420
        0
176
     1
 90
       50
176
     1
 90
        3
176
     1
 62
     5
420
      255
176
     1
290
     0
176
     1
 90
       50
176
     1
 90
       50
176
     1
 90
       50
176
     1
290
     0
176
     1
 90
       50
176
     1
 62
   256
176
     0
 40
1.0
176
     0
 90
        2
176
     1
  1
strokes_ogs.tif
176
     1
290
     0
176
     1
 40
1.0
176
     1
 40
1.0
176
     1
  0
VISUALSTYLE
  5
BD8
102
{ACAD_REACTORS
330
2F
102
}
330
2F
100
AcDbVisualStyle
  2
EdgeColorOff
 70
    22
177
     3
291
     1
 70
    58
 90
        2
176
     0
 90
        2
176
     0
 90
        0
176
     0
 90
        0
176
     0
 40
0.6
176
     0
 40
30.0
176
     0
 62
     7
176
     0
 90
        1
176
     0
 90
        4
176
     0
 62
     7
176
     0
 62
   257
176
     0
 90
        1
176
     0
 90
        1
176
     0
 40
1.0
176
     0
 90
        8
176
     2
 62
     7
176
     0
 40
1.0
176
     0
 90
        1
176
     0
 90
        6
176
     0
 90
        2
176
     0
 62
     7
176
     0
 90
        5
176
     0
 90
        0
176
     0
 90
        0
176
     0
290
     0
176
     0
 90
        1
176
     0
 40
0.0
176
     0
 90
        0
176
     0
290
     0
176
     0
290
     1
176
     0
290
     1
176
     0
290
     0
176
     0
290
     0
176
     0
290
     0
176
     0
290
     0
176
     0
290
     0
176
     0
290
     0
176
     0
 90
       50
176
     0
 40
0.0
176
     0
 40
1.0
176
     0
 90
        0
176
     0
 62
    18
420
        0
176
     0
 90
       50
176
     0
 90
        3
176
     0
 62
     5
420
      255
176
     0
290
     0
176
     0
 90
       50
176
     0
 90
       50
176
     0
 90
       50
176
     0
290
     0
176
     0
 90
       50
176
     0
 62
   256
176
     0
 40
1.0
176
     0
 90
        2
176
     0
  1
strokes_ogs.tif
176
     0
290
     0
176
     0
 40
1.0
176
     0
 40
1.0
176
     0
  0
VISUALSTYLE
  5
BCF
102
{ACAD_REACTORS
330
2F
102
}
330
2F
100
AcDbVisualStyle
  2
Facepattern
 70
    15
177
     3
291
     1
 70
    58
 90
        2
176
     1
 90
        2
176
     1
 90
        0
176
     1
 90
        0
176
     1
 40
0.6
176
     1
 40
30.0
176
     1
 62
     7
176
     1
 90
        1
176
     1
 90
        4
176
     1
 62
     7
176
     1
 62
   257
176
     1
 90
        1
176
     1
 90
        1
176
     1
 40
1.0
176
     1
 90
        8
176
     1
 62
     7
176
     1
 40
1.0
176
     1
 90
        1
176
     1
 90
        6
176
     1
 90
        2
176
     1
 62
     7
176
     1
 90
        5
176
     1
 90
        0
176
     1
 90
        0
176
     1
290
     0
176
     1
 90
        1
176
     1
 40
0.0
176
     1
 90
        0
176
     1
290
     0
176
     1
290
     1
176
     1
290
     1
176
     1
290
     0
176
     1
290
     0
176
     1
290
     0
176
     1
290
     0
176
     1
290
     0
176
     1
290
     0
176
     1
 90
       50
176
     1
 40
0.0
176
     1
 40
1.0
176
     1
 90
        0
176
     1
 62
    18
420
        0
176
     1
 90
       50
176
     1
 90
        3
176
     1
 62
     5
420
      255
176
     1
290
     0
176
     1
 90
       50
176
     1
 90
       50
176
     1
 90
       50
176
     1
290
     0
176
     1
 90
       50
176
     1
 62
   256
176
     0
 40
1.0
176
     0
 90
        2
176
     1
  1
strokes_ogs.tif
176
     1
290
     0
176
     1
 40
1.0
176
     1
 40
1.0
176
     1
  0
VISUALSTYLE
  5
BC3
102
{ACAD_REACTORS
330
2F
102
}
330
2F
100
AcDbVisualStyle
  2
Flat
 70
     0
177
     3
291
     1
 70
    58
 90
        2
176
     1
 90
        1
176
     1
 90
        1
176
     1
 90
        2
176
     1
 40
0.6
176
     1
 40
30.0
176
     1
 62
     7
176
     1
 90
        0
176
     1
 90
        0
176
     1
 62
     7
176
     1
 62
   257
176
     1
 90
        1
176
     1
 90
        1
176
     1
 40
1.0
176
     1
 90
        8
176
     1
 62
     7
176
     1
 40
1.0
176
     1
 90
        1
176
     1
 90
        6
176
     1
 90
        2
176
     1
 62
     7
176
     1
 90
        5
176
     1
 90
        0
176
     1
 90
        0
176
     1
290
     0
176
     1
 90
       13
176
     1
 40
0.0
176
     1
 90
        0
176
     1
290
     0
176
     1
290
     1
176
     1
290
     1
176
     1
290
     0
176
     1
290
     0
176
     1
290
     0
176
     1
290
     0
176
     1
290
     0
176
     1
290
     0
176
     1
 90
       50
176
     1
 40
0.0
176
     1
 40
1.0
176
     1
 90
        0
176
     1
 62
    18
420
        0
176
     1
 90
       50
176
     1
 90
        3
176
     1
 62
     5
420
      255
176
     1
290
     0
176
     1
 90
       50
176
     1
 90
       50
176
     1
 90
       50
176
     1
290
     0
176
     1
 90
       50
176
     1
 62
   256
176
     0
 40
1.0
176
     0
 90
        2
176
     1
  1
strokes_ogs.tif
176
     1
290
     0
176
     1
 40
1.0
176
     1
 40
1.0
176
     1
  0
VISUALSTYLE
  5
BC4
102
{ACAD_REACTORS
330
2F
102
}
330
2F
100
AcDbVisualStyle
  2
FlatWithEdges
 70
     1
177
     3
291
     1
 70
    58
 90
        2
176
     1
 90
        1
176
     1
 90
        1
176
     1
 90
        2
176
     1
 40
0.6
176
     1
 40
30.0
176
     1
 62
     7
176
     1
 90
        1
176
     1
 90
        0
176
     1
 62
     7
176
     1
 62
   257
176
     1
 90
        1
176
     1
 90
        1
176
     1
 40
1.0
176
     1
 90
        0
176
     1
 62
   257
176
     1
 40
1.0
176
     1
 90
        1
176
     1
 90
        6
176
     1
 90
        2
176
     1
 62
     7
176
     1
 90
        5
176
     1
 90
        0
176
     1
 90
        0
176
     1
290
     0
176
     1
 90
       13
176
     1
 40
0.0
176
     1
 90
        0
176
     1
290
     0
176
     1
290
     1
176
     1
290
     1
176
     1
290
     0
176
     1
290
     0
176
     1
290
     0
176
     1
290
     0
176
     1
290
     0
176
     1
290
     0
176
     1
 90
       50
176
     1
 40
0.0
176
     1
 40
1.0
176
     1
 90
        0
176
     1
 62
    18
420
        0
176
     1
 90
       50
176
     1
 90
        3
176
     1
 62
     5
420
      255
176
     1
290
     0
176
     1
 90
       50
176
     1
 90
       50
176
     1
 90
       50
176
     1
290
     0
176
     1
 90
       50
176
     1
 62
   256
176
     0
 40
1.0
176
     0
 90
        2
176
     1
  1
strokes_ogs.tif
176
     1
290
     0
176
     1
 40
1.0
176
     1
 40
1.0
176
     1
  0
VISUALSTYLE
  5
BC5
102
{ACAD_REACTORS
330
2F
102
}
330
2F
100
AcDbVisualStyle
  2
Gouraud
 70
     2
177
     3
291
     1
 70
    58
 90
        2
176
     1
 90
        2
176
     1
 90
        1
176
     1
 90
        2
176
     1
 40
0.6
176
     1
 40
30.0
176
     1
 62
     7
176
     1
 90
        0
176
     1
 90
        0
176
     1
 62
     7
176
     1
 62
   257
176
     1
 90
        1
176
     1
 90
        1
176
     1
 40
1.0
176
     1
 90
        0
176
     1
 62
     7
176
     1
 40
1.0
176
     1
 90
        1
176
     1
 90
        6
176
     1
 90
        2
176
     1
 62
     7
176
     1
 90
        5
176
     1
 90
        0
176
     1
 90
        0
176
     1
290
     0
176
     1
 90
       13
176
     1
 40
0.0
176
     1
 90
        0
176
     1
290
     0
176
     1
290
     1
176
     1
290
     1
176
     1
290
     0
176
     1
290
     0
176
     1
290
     0
176
     1
290
     0
176
     1
290
     0
176
     1
290
     0
176
     1
 90
       50
176
     1
 40
0.0
176
     1
 40
1.0
176
     1
 90
        0
176
     1
 62
    18
420
        0
176
     1
 90
       50
176
     1
 90
        3
176
     1
 62
     5
420
      255
176
     1
290
     0
176
     1
 90
       50
176
     1
 90
       50
176
     1
 90
       50
176
     1
290
     0
176
     1
 90
       50
176
     1
 62
   256
176
     0
 40
1.0
176
     0
 90
        2
176
     1
  1
strokes_ogs.tif
176
     1
290
     0
176
     1
 40
1.0
176
     1
 40
1.0
176
     1
  0
VISUALSTYLE
  5
BC6
102
{ACAD_REACTORS
330
2F
102
}
330
2F
100
AcDbVisualStyle
  2
GouraudWithEdges
 70
     3
177
     3
291
     1
 70
    58
 90
        2
176
     1
 90
        2
176
     1
 90
        1
176
     1
 90
        2
176
     1
 40
0.6
176
     1
 40
30.0
176
     1
 62
     7
176
     1
 90
        1
176
     1
 90
        0
176
     1
 62
     7
176
     1
 62
   257
176
     1
 90
        1
176
     1
 90
        1
176
     1
 40
1.0
176
     1
 90
        0
176
     1
 62
   257
176
     1
 40
1.0
176
     1
 90
        1
176
     1
 90
        6
176
     1
 90
        2
176
     1
 62
     7
176
     1
 90
        5
176
     1
 90
        0
176
     1
 90
        0
176
     1
290
     0
176
     1
 90
       13
176
     1
 40
0.0
176
     1
 90
        0
176
     1
290
     0
176
     1
290
     1
176
     1
290
     1
176
     1
290
     0
176
     1
290
     0
176
     1
290
     0
176
     1
290
     0
176
     1
290
     0
176
     1
290
     0
176
     1
 90
       50
176
     1
 40
0.0
176
     1
 40
1.0
176
     1
 90
        0
176
     1
 62
    18
420
        0
176
     1
 90
       50
176
     1
 90
        3
176
     1
 62
     5
420
      255
176
     1
290
     0
176
     1
 90
       50
176
     1
 90
       50
176
     1
 90
       50
176
     1
290
     0
176
     1
 90
       50
176
     1
 62
   256
176
     0
 40
1.0
176
     0
 90
        2
176
     1
  1
strokes_ogs.tif
176
     1
290
     0
176
     1
 40
1.0
176
     1
 40
1.0
176
     1
  0
VISUALSTYLE
  5
BC9
102
{ACAD_REACTORS
330
2F
102
}
330
2F
100
AcDbVisualStyle
  2
Hidden
 70
     6
177
     3
291
     0
 70
    58
 90
        1
176
     1
 90
        2
176
     1
 90
        2
176
     1
 90
        0
176
     1
 40
0.6
176
     1
 40
30.0
176
     1
 62
     7
176
     1
 90
        2
176
     1
 90
        2
176
     1
 62
     7
176
     1
 62
   257
176
     1
 90
        2
176
     1
 90
        1
176
     1
 40
40.0
176
     1
 90
        0
176
     1
 62
   257
176
     1
 40
1.0
176
     1
 90
        1
176
     1
 90
        6
176
     1
 90
        2
176
     1
 62
     7
176
     1
 90
        3
176
     1
 90
        0
176
     1
 90
        0
176
     1
290
     0
176
     1
 90
        1
176
     1
 40
0.0
176
     1
 90
        0
176
     1
290
     0
176
     1
290
     1
176
     1
290
     1
176
     1
290
     0
176
     1
290
     0
176
     1
290
     0
176
     1
290
     0
176
     1
290
     0
176
     1
290
     0
176
     1
 90
       50
176
     1
 40
0.0
176
     1
 40
1.0
176
     1
 90
        0
176
     1
 62
    18
420
        0
176
     1
 90
       50
176
     1
 90
        3
176
     1
 62
     5
420
      255
176
     1
290
     0
176
     1
 90
       50
176
     1
 90
       50
176
     1
 90
       50
176
     1
290
     0
176
     1
 90
       50
176
     1
 62
   256
176
     0
 40
1.0
176
     0
 90
        2
176
     1
  1
strokes_ogs.tif
176
     1
290
     0
176
     1
 40
1.0
176
     1
 40
1.0
176
     1
  0
VISUALSTYLE
  5
BD6
102
{ACAD_REACTORS
330
2F
102
}
330
2F
100
AcDbVisualStyle
  2
JitterOff
 70
    20
177
     3
291
     1
 70
    58
 90
        2
176
     0
 90
        2
176
     0
 90
        0
176
     0
 90
        0
176
     0
 40
0.6
176
     0
 40
30.0
176
     0
 62
     7
176
     0
 90
        1
176
     0
 90
        4
176
     0
 62
     7
176
     0
 62
   257
176
     0
 90
        1
176
     0
 90
        1
176
     0
 40
1.0
176
     0
 90
       10
176
     2
 62
     7
176
     0
 40
1.0
176
     0
 90
        1
176
     0
 90
        6
176
     0
 90
        2
176
     0
 62
     7
176
     0
 90
        5
176
     0
 90
        0
176
     0
 90
        0
176
     0
290
     0
176
     0
 90
        1
176
     0
 40
0.0
176
     0
 90
        0
176
     0
290
     0
176
     0
290
     1
176
     0
290
     1
176
     0
290
     0
176
     0
290
     0
176
     0
290
     0
176
     0
290
     0
176
     0
290
     0
176
     0
290
     0
176
     0
 90
       50
176
     0
 40
0.0
176
     0
 40
1.0
176
     0
 90
        0
176
     0
 62
    18
420
        0
176
     0
 90
       50
176
     0
 90
        3
176
     0
 62
     5
420
      255
176
     0
290
     0
176
     0
 90
       50
176
     0
 90
       50
176
     0
 90
       50
176
     0
290
     0
176
     0
 90
       50
176
     0
 62
   256
176
     0
 40
1.0
176
     0
 90
        2
176
     0
  1
strokes_ogs.tif
176
     0
290
     0
176
     0
 40
1.0
176
     0
 40
1.0
176
     0
  0
VISUALSTYLE
  5
BCE
102
{ACAD_REACTORS
330
2F
102
}
330
2F
100
AcDbVisualStyle
  2
Linepattern
 70
    14
177
     3
291
     1
 70
    58
 90
        2
176
     1
 90
        2
176
     1
 90
        0
176
     1
 90
        0
176
     1
 40
0.6
176
     1
 40
30.0
176
     1
 62
     7
176
     1
 90
        1
176
     1
 90
        4
176
     1
 62
     7
176
     1
 62
   257
176
     1
 90
        7
176
     1
 90
        7
176
     1
 40
1.0
176
     1
 90
        8
176
     1
 62
     7
176
     1
 40
1.0
176
     1
 90
        1
176
     1
 90
        6
176
     1
 90
        2
176
     1
 62
     7
176
     1
 90
        5
176
     1
 90
        0
176
     1
 90
        0
176
     1
290
     0
176
     1
 90
        1
176
     1
 40
0.0
176
     1
 90
        0
176
     1
290
     0
176
     1
290
     1
176
     1
290
     1
176
     1
290
     0
176
     1
290
     0
176
     1
290
     0
176
     1
290
     0
176
     1
290
     0
176
     1
290
     0
176
     1
 90
       50
176
     1
 40
0.0
176
     1
 40
1.0
176
     1
 90
        0
176
     1
 62
    18
420
        0
176
     1
 90
       50
176
     1
 90
        3
176
     1
 62
     5
420
      255
176
     1
290
     0
176
     1
 90
       50
176
     1
 90
       50
176
     1
 90
       50
176
     1
290
     0
176
     1
 90
       50
176
     1
 62
   256
176
     0
 40
1.0
176
     0
 90
        2
176
     1
  1
strokes_ogs.tif
176
     1
290
     0
176
     1
 40
1.0
176
     1
 40
1.0
176
     1
  0
VISUALSTYLE
  5
BD7
102
{ACAD_REACTORS
330
2F
102
}
330
2F
100
AcDbVisualStyle
  2
OverhangOff
 70
    21
177
     3
291
     1
 70
    58
 90
        2
176
     0
 90
        2
176
     0
 90
        0
176
     0
 90
        0
176
     0
 40
0.6
176
     0
 40
30.0
176
     0
 62
     7
176
     0
 90
        1
176
     0
 90
        4
176
     0
 62
     7
176
     0
 62
   257
176
     0
 90
        1
176
     0
 90
        1
176
     0
 40
1.0
176
     0
 90
        9
176
     2
 62
     7
176
     0
 40
1.0
176
     0
 90
        1
176
     0
 90
        6
176
     0
 90
        2
176
     0
 62
     7
176
     0
 90
        5
176
     0
 90
        0
176
     0
 90
        0
176
     0
290
     0
176
     0
 90
        1
176
     0
 40
0.0
176
     0
 90
        0
176
     0
290
     0
176
     0
290
     1
176
     0
290
     1
176
     0
290
     0
176
     0
290
     0
176
     0
290
     0
176
     0
290
     0
176
     0
290
     0
176
     0
290
     0
176
     0
 90
       50
176
     0
 40
0.0
176
     0
 40
1.0
176
     0
 90
        0
176
     0
 62
    18
420
        0
176
     0
 90
       50
176
     0
 90
        3
176
     0
 62
     5
420
      255
176
     0
290
     0
176
     0
 90
       50
176
     0
 90
       50
176
     0
 90
       50
176
     0
290
     0
176
     0
 90
       50
176
     0
 62
   256
176
     0
 40
1.0
176
     0
 90
        2
176
     0
  1
strokes_ogs.tif
176
     0
290
     0
176
     0
 40
1.0
176
     0
 40
1.0
176
     0
  0
VISUALSTYLE
  5
46
102
{ACAD_REACTORS
330
2F
102
}
330
2F
100
AcDbVisualStyle
  2
Realistic
 70
     8
177
     3
291
     0
 70
    58
 90
        2
176
     1
 90
        2
176
     1
 90
        1
176
     1
 90
        0
176
     1
 40
0.6
176
     1
 40
30.0
176
     1
 62
     7
176
     1
 90
        1
176
     1
 90
        0
176
     1
 62
     7
176
     1
 62
   257
176
     1
 90
        1
176
     1
 90
        1
176
     1
 40
1.0
176
     1
 90
        8
176
     1
 62
     8
176
     1
 40
1.0
176
     1
 90
        1
176
     1
 90
        6
176
     1
 90
        2
176
     1
 62
     7
176
     1
 90
        5
176
     1
 90
        0
176
     1
 90
        0
176
     1
290
     0
176
     1
 90
       13
176
     1
 40
0.0
176
     1
 90
        0
176
     1
290
     0
176
     1
290
     1
176
     1
290
     1
176
     1
290
     0
176
     1
290
     0
176
     1
290
     0
176
     1
290
     0
176
     1
290
     0
176
     1
290
     0
176
     1
 90
       50
176
     1
 40
0.0
176
     1
 40
1.0
176
     1
 90
        0
176
     1
 62
    18
420
        0
176
     1
 90
       50
176
     1
 90
        3
176
     1
 62
     5
420
      255
176
     1
290
     0
176
     1
 90
       50
176
     1
 90
       50
176
     1
 90
       50
176
     1
290
     0
176
     1
 90
       50
176
     1
 62
   256
176
     0
 40
1.0
176
     0
 90
        2
176
     1
  1
strokes_ogs.tif
176
     1
290
     0
176
     1
 40
1.0
176
     1
 40
1.0
176
     1
  0
VISUALSTYLE
  5
BD5
102
{ACAD_REACTORS
330
2F
102
}
330
2F
100
AcDbVisualStyle
  2
Shaded
 70
    27
177
     3
291
     0
 70
    58
 90
        2
176
     1
 90
        2
176
     1
 90
        1
176
     1
 90
        2
176
     1
 40
0.6
176
     1
 40
30.0
176
     1
 62
     7
176
     1
 90
        0
176
     1
 90
        4
176
     1
 62
     7
176
     1
 62
   257
176
     1
 90
        1
176
     1
 90
        1
176
     1
 40
1.0
176
     1
 90
        8
176
     1
 62
   257
176
     1
 40
1.0
176
     1
 90
        1
176
     1
 90
        6
176
     1
 90
        2
176
     1
 62
     8
176
     1
 90
        3
176
     1
 90
        0
176
     1
 90
        0
176
     1
290
     0
176
     1
 90
        5
176
     1
 40
0.0
176
     1
 90
        0
176
     1
290
     0
176
     1
290
     1
176
     1
290
     1
176
     1
290
     0
176
     1
290
     0
176
     1
290
     0
176
     1
290
     0
176
     1
290
     0
176
     1
290
     0
176
     1
 90
       50
176
     1
 40
0.0
176
     1
 40
1.0
176
     1
 90
        0
176
     1
 62
    18
420
        0
176
     1
 90
       50
176
     1
 90
        3
176
     1
 62
     5
420
      255
176
     1
290
     0
176
     1
 90
       50
176
     1
 90
       50
176
     1
 90
       50
176
     1
290
     0
176
     1
 90
       50
176
     1
 62
   256
176
     0
 40
1.0
176
     0
 90
        2
176
     1
  1
strokes_ogs.tif
176
     1
290
     0
176
     1
 40
1.0
176
     1
 40
1.0
176
     1
  0
VISUALSTYLE
  5
BD4
102
{ACAD_REACTORS
330
2F
102
}
330
2F
100
AcDbVisualStyle
  2
Shaded with edges
 70
    26
177
     3
291
     0
 70
    58
 90
        2
176
     1
 90
        2
176
     1
 90
        1
176
     1
 90
        2
176
     1
 40
0.6
176
     1
 40
30.0
176
     1
 62
     7
176
     1
 90
        1
176
     1
 90
       10
176
     1
 62
     7
176
     1
 62
   257
176
     1
 90
        2
176
     1
 90
        1
176
     1
 40
1.0
176
     1
 90
        8
176
     1
 62
   257
176
     1
 40
1.0
176
     1
 90
        1
176
     1
 90
        6
176
     1
 90
        2
176
     1
 62
     7
176
     1
 90
        3
176
     1
 90
        0
176
     1
 90
        0
176
     1
290
     0
176
     1
 90
        5
176
     1
 40
0.0
176
     1
 90
        0
176
     1
290
     0
176
     1
290
     1
176
     1
290
     1
176
     1
290
     0
176
     1
290
     0
176
     1
290
     0
176
     1
290
     0
176
     1
290
     0
176
     1
290
     0
176
     1
 90
       50
176
     1
 40
0.0
176
     1
 40
1.0
176
     1
 90
        0
176
     1
 62
    18
420
        0
176
     1
 90
       50
176
     1
 90
        3
176
     1
 62
     5
420
      255
176
     1
290
     0
176
     1
 90
       50
176
     1
 90
       50
176
     1
 90
       50
176
     1
290
     0
176
     1
 90
       50
176
     1
 62
   256
176
     0
 40
1.0
176
     0
 90
        2
176
     1
  1
strokes_ogs.tif
176
     1
290
     0
176
     1
 40
1.0
176
     1
 40
1.0
176
     1
  0
VISUALSTYLE
  5
BD1
102
{ACAD_REACTORS
330
2F
102
}
330
2F
100
AcDbVisualStyle
  2
Shades of Gray
 70
    23
177
     3
291
     0
 70
    58
 90
        2
176
     1
 90
        2
176
     1
 90
        3
176
     1
 90
        0
176
     1
 40
0.6
176
     1
 40
30.0
176
     1
 62
     7
176
     1
 90
        2
176
     1
 90
        2
176
     1
 62
     7
176
     1
 62
     7
176
     1
 90
        1
176
     1
 90
        1
176
     1
 40
40.0
176
     1
 90
        8
176
     1
 62
     7
176
     1
 40
1.0
176
     1
 90
        1
176
     1
 90
        6
176
     1
 90
        2
176
     1
 62
     7
176
     1
 90
        3
176
     1
 90
        0
176
     1
 90
        0
176
     1
290
     0
176
     1
 90
        1
176
     1
 40
0.0
176
     1
 90
        0
176
     1
290
     0
176
     1
290
     1
176
     1
290
     1
176
     1
290
     0
176
     1
290
     0
176
     1
290
     0
176
     1
290
     0
176
     1
290
     0
176
     1
290
     0
176
     1
 90
       50
176
     1
 40
0.0
176
     1
 40
1.0
176
     1
 90
        0
176
     1
 62
    18
420
        0
176
     1
 90
       50
176
     1
 90
        3
176
     1
 62
     5
420
      255
176
     1
290
     0
176
     1
 90
       50
176
     1
 90
       50
176
     1
 90
       50
176
     1
290
     0
176
     1
 90
       50
176
     1
 62
   256
176
     0
 40
1.0
176
     0
 90
        2
176
     1
  1
strokes_ogs.tif
176
     1
290
     0
176
     1
 40
1.0
176
     1
 40
1.0
176
     1
  0
VISUALSTYLE
  5
BD2
102
{ACAD_REACTORS
330
2F
102
}
330
2F
100
AcDbVisualStyle
  2
Sketchy
 70
    24
177
     3
291
     0
 70
    58
 90
        1
176
     1
 90
        2
176
     1
 90
        2
176
     1
 90
        0
176
     1
 40
0.6
176
     1
 40
30.0
176
     1
 62
     7
176
     1
 90
        2
176
     1
 90
        2
176
     1
 62
     7
176
     1
 62
     7
176
     1
 90
        1
176
     1
 90
        1
176
     1
 40
40.0
176
     1
 90
       11
176
     1
 62
     7
176
     1
 40
1.0
176
     1
 90
        1
176
     1
 90
        6
176
     1
 90
        2
176
     1
 62
     7
176
     1
 90
        6
176
     1
 90
        0
176
     1
 90
        0
176
     1
290
     0
176
     1
 90
        1
176
     1
 40
0.0
176
     1
 90
        0
176
     1
290
     0
176
     1
290
     1
176
     1
290
     1
176
     1
290
     0
176
     1
290
     0
176
     1
290
     0
176
     1
290
     0
176
     1
290
     0
176
     1
290
     0
176
     1
 90
       50
176
     1
 40
0.0
176
     1
 40
1.0
176
     1
 90
        0
176
     1
 62
    18
420
        0
176
     1
 90
       50
176
     1
 90
        3
176
     1
 62
     5
420
      255
176
     1
290
     0
176
     1
 90
       50
176
     1
 90
       50
176
     1
 90
       50
176
     1
290
     0
176
     1
 90
       50
176
     1
 62
   256
176
     0
 40
1.0
176
     0
 90
        2
176
     1
  1
strokes_ogs.tif
176
     1
290
     0
176
     1
 40
1.0
176
     1
 40
1.0
176
     1
  0
VISUALSTYLE
  5
BCD
102
{ACAD_REACTORS
330
2F
102
}
330
2F
100
AcDbVisualStyle
  2
Thicken
 70
    13
177
     3
291
     1
 70
    58
 90
        2
176
     1
 90
        2
176
     1
 90
        0
176
     1
 90
        0
176
     1
 40
0.6
176
     1
 40
30.0
176
     1
 62
     7
176
     1
 90
        1
176
     1
 90
        4
176
     1
 62
     7
176
     1
 62
   257
176
     1
 90
        1
176
     1
 90
        1
176
     1
 40
1.0
176
     1
 90
       12
176
     1
 62
     7
176
     1
 40
1.0
176
     1
 90
        1
176
     1
 90
        6
176
     1
 90
        2
176
     1
 62
     7
176
     1
 90
        5
176
     1
 90
        0
176
     1
 90
        0
176
     1
290
     0
176
     1
 90
        1
176
     1
 40
0.0
176
     1
 90
        0
176
     1
290
     0
176
     1
290
     1
176
     1
290
     1
176
     1
290
     0
176
     1
290
     0
176
     1
290
     0
176
     1
290
     0
176
     1
290
     0
176
     1
290
     0
176
     1
 90
       50
176
     1
 40
0.0
176
     1
 40
1.0
176
     1
 90
        0
176
     1
 62
    18
420
        0
176
     1
 90
       50
176
     1
 90
        3
176
     1
 62
     5
420
      255
176
     1
290
     0
176
     1
 90
       50
176
     1
 90
       50
176
     1
 90
       50
176
     1
290
     0
176
     1
 90
       50
176
     1
 62
   256
176
     0
 40
1.0
176
     0
 90
        2
176
     1
  1
strokes_ogs.tif
176
     1
290
     0
176
     1
 40
1.0
176
     1
 40
1.0
176
     1
  0
VISUALSTYLE
  5
BC8
102
{ACAD_REACTORS
330
2F
102
}
330
2F
100
AcDbVisualStyle
  2
Wireframe
 70
     5
177
     3
291
     0
 70
    58
 90
        0
176
     1
 90
        2
176
     1
 90
        0
176
     1
 90
        0
176
     1
 40
0.6
176
     1
 40
30.0
176
     1
 62
     7
176
     1
 90
        1
176
     1
 90
        4
176
     1
 62
     7
176
     1
 62
   257
176
     1
 90
        1
176
     1
 90
        1
176
     1
 40
1.0
176
     1
 90
        0
176
     1
 62
   257
176
     1
 40
1.0
176
     1
 90
        1
176
     1
 90
        6
176
     1
 90
        2
176
     1
 62
     7
176
     1
 90
        3
176
     1
 90
        0
176
     1
 90
        0
176
     1
290
     0
176
     1
 90
        1
176
     1
 40
0.0
176
     1
 90
        0
176
     1
290
     0
176
     1
290
     1
176
     1
290
     1
176
     1
290
     0
176
     1
290
     0
176
     1
290
     0
176
     1
290
     0
176
     1
290
     0
176
     1
290
     0
176
     1
 90
       50
176
     1
 40
0.0
176
     1
 40
1.0
176
     1
 90
        0
176
     1
 62
    18
420
        0
176
     1
 90
       50
176
     1
 90
        3
176
     1
 62
     5
420
      255
176
     1
290
     0
176
     1
 90
       50
176
     1
 90
       50
176
     1
 90
       50
176
     1
290
     0
176
     1
 90
       50
176
     1
 62
   256
176
     0
 40
1.0
176
     0
 90
        2
176
     1
  1
strokes_ogs.tif
176
     1
290
     0
176
     1
 40
1.0
176
     1
 40
1.0
176
     1
  0
VISUALSTYLE
  5
BD3
102
{ACAD_REACTORS
330
2F
102
}
330
2F
100
AcDbVisualStyle
  2
X-Ray
 70
    25
177
     3
291
     0
 70
    58
 90
        2
176
     1
 90
        2
176
     1
 90
        1
176
     1
 90
        1
176
     1
 40
0.5
176
     1
 40
30.0
176
     1
 62
     7
176
     1
 90
        1
176
     1
 90
        0
176
     1
 62
     7
176
     1
 62
   257
176
     1
 90
        1
176
     1
 90
        1
176
     1
 40
1.0
176
     1
 90
        8
176
     1
 62
     7
176
     1
 40
1.0
176
     1
 90
        1
176
     1
 90
        6
176
     1
 90
        2
176
     1
 62
     7
176
     1
 90
        3
176
     1
 90
        0
176
     1
 90
        0
176
     1
290
     0
176
     1
 90
       13
176
     1
 40
0.0
176
     1
 90
        0
176
     1
290
     0
176
     1
290
     1
176
     1
290
     1
176
     1
290
     0
176
     1
290
     0
176
     1
290
     0
176
     1
290
     0
176
     1
290
     0
176
     1
290
     0
176
     1
 90
       50
176
     1
 40
0.0
176
     1
 40
1.0
176
     1
 90
        0
176
     1
 62
    18
420
        0
176
     1
 90
       50
176
     1
 90
        3
176
     1
 62
     5
420
      255
176
     1
290
     0
176
     1
 90
       50
176
     1
 90
       50
176
     1
 90
       50
176
     1
290
     0
176
     1
 90
       50
176
     1
 62
   256
176
     0
 40
1.0
176
     0
 90
        2
176
     1
  1
strokes_ogs.tif
176
     1
290
     0
176
     1
 40
1.0
176
     1
 40
1.0
176
     1
  0
DICTIONARYVAR
  5
BBE
102
{ACAD_REACTORS
330
BB8
102
}
330
BB8
100
DictionaryVariables
280
     0
  1
1:1
  0
DICTIONARYVAR
  5
BBA
102
{ACAD_REACTORS
330
BB8
102
}
330
BB8
100
DictionaryVariables
280
     0
  1
STANDARD
  0
DICTIONARYVAR
  5
BB9
102
{ACAD_REACTORS
330
BB8
102
}
330
BB8
100
DictionaryVariables
280
     0
  1
STANDARD
  0
DICTIONARYVAR
  5
BBB
102
{ACAD_REACTORS
330
BB8
102
}
330
BB8
100
DictionaryVariables
280
     0
  1
Metric50
  0
DICTIONARYVAR
  5
BBC
102
{ACAD_REACTORS
330
BB8
102
}
330
BB8
100
DictionaryVariables
280
     0
  1
Metric50
  0
DICTIONARYVAR
  5
C3B
102
{ACAD_REACTORS
330
BB8
102
}
330
BB8
100
DictionaryVariables
280
     0
  1
1
  0
DICTIONARYVAR
  5
C39
102
{ACAD_REACTORS
330
BB8
102
}
330
BB8
100
DictionaryVariables
280
     0
  1
1
  0
DICTIONARYVAR
  5
FF3
102
{ACAD_REACTORS
330
BB8
102
}
330
BB8
100
DictionaryVariables
280
     0
  1
4
  0
DICTIONARYVAR
  5
C38
102
{ACAD_REACTORS
330
BB8
102
}
330
BB8
100
DictionaryVariables
280
     0
  1
0
  0
DICTIONARYVAR
  5
BC0
102
{ACAD_REACTORS
330
BB8
102
}
330
BB8
100
DictionaryVariables
280
     0
  1
1
  0
DICTIONARYVAR
  5
BC1
102
{ACAD_REACTORS
330
BB8
102
}
330
BB8
100
DictionaryVariables
280
     0
  1
15
  0
DICTIONARYVAR
  5
BBF
102
{ACAD_REACTORS
330
BB8
102
}
330
BB8
100
DictionaryVariables
280
     0
  1
0
  0
DICTIONARYVAR
  5
BBD
102
{ACAD_REACTORS
330
BB8
102
}
330
BB8
100
DictionaryVariables
280
     0
  1
0
  0
DICTIONARYVAR
  5
C3C
102
{ACAD_REACTORS
330
BB8
102
}
330
BB8
100
DictionaryVariables
280
     0
  1
1
  0
DICTIONARYVAR
  5
C37
102
{ACAD_REACTORS
330
BB8
102
}
330
BB8
100
DictionaryVariables
280
     0
  1
127
  0
DICTIONARY
  5
3A99D
330
283CD
100
AcDbDictionary
280
     1
281
     1
  3
ACAD_XREC_ROUNDTRIP
360
3A99E
  0
DICTIONARY
  5
3A999
330
BDD
100
AcDbDictionary
280
     1
281
     1
  3
ACAD_XREC_ROUNDTRIP
360
3A99A
  0
DICTIONARY
  5
18
330
16
100
AcDbDictionary
280
     1
281
     1
  0
DICTIONARY
  5
1F
330
1E
100
AcDbDictionary
280
     1
281
     1
  0
DICTIONARY
  5
E
330
C
100
AcDbDictionary
280
     1
281
     1
  3
BUMPTILE
360
F
  3
DIFFUSETILE
360
10
  3
OPACITYTILE
360
11
  3
REFLECTIONTILE
360
12
  0
DICTIONARY
  5
3A99B
330
283CC
100
AcDbDictionary
280
     1
281
     1
  3
ACAD_XREC_ROUNDTRIP
360
3A99C
  0
DICTIONARY
  5
3A997
330
BDB
100
AcDbDictionary
280
     1
281
     1
  3
ACAD_XREC_ROUNDTRIP
360
3A998
  0
DICTIONARY
  5
45
330
44
100
AcDbDictionary
280
     1
281
     1
  3
ACAD_ROUNDTRIP_2008_TABLESTYLE_CELLSTYLEMAP
360
3A996
  0
XRECORD
  5
3A99E
102
{ACAD_REACTORS
330
3A99D
102
}
330
3A99D
100
AcDbXrecord
280
     1
102
DISPLAYNAME
  1
Imperial24
102
FLAGS
 90
        0
  0
XRECORD
  5
3A99A
102
{ACAD_REACTORS
330
3A999
102
}
330
3A999
100
AcDbXrecord
280
     1
102
DISPLAYNAME
  1
Metric50
102
FLAGS
 90
        0
  0
XRECORD
  5
F
102
{ACAD_REACTORS
330
E
102
}
330
E
100
AcDbXrecord
280
     1
270
     1
271
     1
  0
XRECORD
  5
10
102
{ACAD_REACTORS
330
E
102
}
330
E
100
AcDbXrecord
280
     1
270
     1
271
     1
  0
XRECORD
  5
11
102
{ACAD_REACTORS
330
E
102
}
330
E
100
AcDbXrecord
280
     1
270
     1
271
     1
  0
XRECORD
  5
12
102
{ACAD_REACTORS
330
E
102
}
330
E
100
AcDbXrecord
280
     1
270
     1
271
     1
  0
XRECORD
  5
3A99C
102
{ACAD_REACTORS
330
3A99B
102
}
330
3A99B
100
AcDbXrecord
280
     1
102
DISPLAYNAME
  1
Imperial24
102
FLAGS
 90
        0
  0
XRECORD
  5
3A998
102
{ACAD_REACTORS
330
3A997
102
}
330
3A997
100
AcDbXrecord
280
     1
102
DISPLAYNAME
  1
Metric50
102
FLAGS
 90
        0
  0
CELLSTYLEMAP
  5
3A996
102
{ACAD_REACTORS
330
45
102
}
330
45
100
AcDbCellStyleMap
 90
        3
300
CELLSTYLE
  1
TABLEFORMAT_BEGIN
 90
        5
170
     1
 91
        0
 92
    32768
 62
   257
 93
        1
300
CONTENTFORMAT
  1
CONTENTFORMAT_BEGIN
 90
        0
 91
        0
 92
      512
 93
        0
300

 40
0.0
140
1.0
 94
        5
 62
     0
340
25
144
6.0
309
CONTENTFORMAT_END
171
     1
301
MARGIN
  1
CELLMARGIN_BEGIN
 40
1.5
 40
1.5
 40
1.5
 40
1.5
 40
0.18
 40
0.18
309
CELLMARGIN_END
 94
        6
 95
        1
302
GRIDFORMAT
  1
GRIDFORMAT_BEGIN
 90
        0
 91
        1
 62
     0
 92
       -2
340
28
 93
        0
 40
1.125
309
GRIDFORMAT_END
 95
        2
302
GRIDFORMAT
  1
GRIDFORMAT_BEGIN
 90
        0
 91
        1
 62
     0
 92
       -2
340
28
 93
        0
 40
1.125
309
GRIDFORMAT_END
 95
        4
302
GRIDFORMAT
  1
GRIDFORMAT_BEGIN
 90
        0
 91
        1
 62
     0
 92
       -2
340
28
 93
        0
 40
1.125
309
GRIDFORMAT_END
 95
        8
302
GRIDFORMAT
  1
GRIDFORMAT_BEGIN
 90
        0
 91
        1
 62
     0
 92
       -2
340
28
 93
        0
 40
1.125
309
GRIDFORMAT_END
 95
       16
302
GRIDFORMAT
  1
GRIDFORMAT_BEGIN
 90
        0
 91
        1
 62
     0
 92
       -2
340
28
 93
        0
 40
1.125
309
GRIDFORMAT_END
 95
       32
302
GRIDFORMAT
  1
GRIDFORMAT_BEGIN
 90
        0
 91
        1
 62
     0
 92
       -2
340
28
 93
        0
 40
1.125
309
GRIDFORMAT_END
309
TABLEFORMAT_END
  1
CELLSTYLE_BEGIN
 90
        1
 91
        1
300
_TITLE
309
CELLSTYLE_END
300
CELLSTYLE
  1
TABLEFORMAT_BEGIN
 90
        5
170
     1
 91
        0
 92
        0
 62
   257
 93
        1
300
CONTENTFORMAT
  1
CONTENTFORMAT_BEGIN
 90
        0
 91
        0
 92
      512
 93
        0
300

 40
0.0
140
1.0
 94
        5
 62
     0
340
25
144
4.5
309
CONTENTFORMAT_END
171
     1
301
MARGIN
  1
CELLMARGIN_BEGIN
 40
1.5
 40
1.5
 40
1.5
 40
1.5
 40
0.18
 40
0.18
309
CELLMARGIN_END
 94
        6
 95
        1
302
GRIDFORMAT
  1
GRIDFORMAT_BEGIN
 90
        0
 91
        1
 62
     0
 92
       -2
340
28
 93
        0
 40
1.125
309
GRIDFORMAT_END
 95
        2
302
GRIDFORMAT
  1
GRIDFORMAT_BEGIN
 90
        0
 91
        1
 62
     0
 92
       -2
340
28
 93
        0
 40
1.125
309
GRIDFORMAT_END
 95
        4
302
GRIDFORMAT
  1
GRIDFORMAT_BEGIN
 90
        0
 91
        1
 62
     0
 92
       -2
340
28
 93
        0
 40
1.125
309
GRIDFORMAT_END
 95
        8
302
GRIDFORMAT
  1
GRIDFORMAT_BEGIN
 90
        0
 91
        1
 62
     0
 92
       -2
340
28
 93
        0
 40
1.125
309
GRIDFORMAT_END
 95
       16
302
GRIDFORMAT
  1
GRIDFORMAT_BEGIN
 90
        0
 91
        1
 62
     0
 92
       -2
340
28
 93
        0
 40
1.125
309
GRIDFORMAT_END
 95
       32
302
GRIDFORMAT
  1
GRIDFORMAT_BEGIN
 90
        0
 91
        1
 62
     0
 92
       -2
340
28
 93
        0
 40
1.125
309
GRIDFORMAT_END
309
TABLEFORMAT_END
  1
CELLSTYLE_BEGIN
 90
        2
 91
        1
300
_HEADER
309
CELLSTYLE_END
300
CELLSTYLE
  1
TABLEFORMAT_BEGIN
 90
        5
170
     1
 91
        0
 92
        0
 62
   257
 93
        1
300
CONTENTFORMAT
  1
CONTENTFORMAT_BEGIN
 90
        0
 91
        0
 92
      512
 93
        0
300

 40
0.0
140
1.0
 94
        2
 62
     0
340
25
144
4.5
309
CONTENTFORMAT_END
171
     1
301
MARGIN
  1
CELLMARGIN_BEGIN
 40
1.5
 40
1.5
 40
1.5
 40
1.5
 40
0.18
 40
0.18
309
CELLMARGIN_END
 94
        6
 95
        1
302
GRIDFORMAT
  1
GRIDFORMAT_BEGIN
 90
        0
 91
        1
 62
     0
 92
       -2
340
28
 93
        0
 40
1.125
309
GRIDFORMAT_END
 95
        2
302
GRIDFORMAT
  1
GRIDFORMAT_BEGIN
 90
        0
 91
        1
 62
     0
 92
       -2
340
28
 93
        0
 40
1.125
309
GRIDFORMAT_END
 95
        4
302
GRIDFORMAT
  1
GRIDFORMAT_BEGIN
 90
        0
 91
        1
 62
     0
 92
       -2
340
28
 93
        0
 40
1.125
309
GRIDFORMAT_END
 95
        8
302
GRIDFORMAT
  1
GRIDFORMAT_BEGIN
 90
        0
 91
        1
 62
     0
 92
       -2
340
28
 93
        0
 40
1.125
309
GRIDFORMAT_END
 95
       16
302
GRIDFORMAT
  1
GRIDFORMAT_BEGIN
 90
        0
 91
        1
 62
     0
 92
       -2
340
28
 93
        0
 40
1.125
309
GRIDFORMAT_END
 95
       32
302
GRIDFORMAT
  1
GRIDFORMAT_BEGIN
 90
        0
 91
        1
 62
     0
 92
       -2
340
28
 93
        0
 40
1.125
309
GRIDFORMAT_END
309
TABLEFORMAT_END
  1
CELLSTYLE_BEGIN
 90
        3
 91
        2
300
_DATA
309
CELLSTYLE_END
  0
ENDSEC
  0
SECTION
  2
ACDSDATA
 70
     2
 71
     6
  0
ACDSSCHEMA
 90
        0
  1
AcDb_Thumbnail_Schema
  2
AcDbDs::ID
280
    10
 91
        8
  2
Thumbnail_Data
280
    15
 91
        0
101
ACDSRECORD
 95
        0
 90
        1
  2
AcDbDs::TreatedAsObjectData
280
     1
291
     1
101
ACDSRECORD
 95
        0
 90
        2
  2
AcDbDs::Legacy
280
     1
291
     1
101
ACDSRECORD
  1
AcDbDs::ID
 90
        3
  2
AcDs:Indexable
280
     1
291
     1
101
ACDSRECORD
  1
AcDbDs::ID
 90
        4
  2
AcDbDs::HandleAttribute
280
     7
282
     1
  0
ACDSSCHEMA
 90
        1
  1
AcDbDs::TreatedAsObjectDataSchema
  2
AcDbDs::TreatedAsObjectData
280
     1
 91
        0
  0
ACDSSCHEMA
 90
        2
  1
AcDbDs::LegacySchema
  2
AcDbDs::Legacy
280
     1
 91
        0
  0
ACDSSCHEMA
 90
        3
  1
AcDbDs::IndexedPropertySchema
  2
AcDs:Indexable
280
     1
 91
        0
  0
ACDSSCHEMA
 90
        4
  1
AcDbDs::HandleAttributeSchema
  2
AcDbDs::HandleAttribute
280
     7
 91
        1
284
     1
  0
ACDSRECORD
 90
        0
  2
AcDbDs::ID
280
    10
320
16
  2
Thumbnail_Data
280
    15
 94
     1817
310
89504E470D0A1A0A0000000D494844520000010000000076080300000010A0BD3C00000300504C5445000000000000C8C8C80000000000000000000000000000000000000000000000000000330000660000990000CC0000FF0033000033330033660033990033CC0033FF0066000066330066660066990066CC0066FF0099
310
000099330099660099990099CC0099FF00CC0000CC3300CC6600CC9900CCCC00CCFF00FF0000FF3300FF6600FF9900FFCC00FFFF3300003300333300663300993300CC3300FF3333003333333333663333993333CC3333FF3366003366333366663366993366CC3366FF3399003399333399663399993399CC3399FF33CC00
310
33CC3333CC6633CC9933CCCC33CCFF33FF0033FF3333FF6633FF9933FFCC33FFFF6600006600336600666600996600CC6600FF6633006633336633666633996633CC6633FF6666006666336666666666996666CC6666FF6699006699336699666699996699CC6699FF66CC0066CC3366CC6666CC9966CCCC66CCFF66FF0066
310
FF3366FF6666FF9966FFCC66FFFF9900009900339900669900999900CC9900FF9933009933339933669933999933CC9933FF9966009966339966669966999966CC9966FF9999009999339999669999999999CC9999FF99CC0099CC3399CC6699CC9999CCCC99CCFF99FF0099FF3399FF6699FF9999FFCC99FFFFCC0000CC00
310
33CC0066CC0099CC00CCCC00FFCC3300CC3333CC3366CC3399CC33CCCC33FFCC6600CC6633CC6666CC6699CC66CCCC66FFCC9900CC9933CC9966CC9999CC99CCCC99FFCCCC00CCCC33CCCC66CCCC99CCCCCCCCCCFFCCFF00CCFF33CCFF66CCFF99CCFFCCCCFFFFFF0000FF0033FF0066FF0099FF00CCFF00FFFF3300FF3333
310
FF3366FF3399FF33CCFF33FFFF6600FF6633FF6666FF6699FF66CCFF66FFFF9900FF9933FF9966FF9999FF99CCFF99FFFFCC00FFCC33FFCC66FFCC99FFCCCCFFCCFFFFFF00FFFF33FFFF66FFFF99FFFFCCFFFFFF0000000D0D0D1A1A1A2828283535354343435050505D5D5D6B6B6B787878868686939393A1A1A1AEAEAEBB
310
BBBBC9C9C9D6D6D6E4E4E4F1F1F1FFFFFF00000000000000000000000000000000000000000000000000000000000008F1915C000003D44944415478DAED9D6B7AAC200C86594EFEB0B32E996DE4FF917019C4E038C70BA85FFAB4580587BC84706F8D3947F8E078DB230E229B01F0BD00B022CEF136D91A71E70B2F2F58E7
310
3626DE1A71DF0B7908CBBE41E5030000000000000000000000000000000000D82C9BC7691DE5D43CBE1E007C0000000000000000000000000000BC13C0D90B6F37C824AA0000000000D4E2828C325BD20D800B17E4E57D004C06E0CD80DEEE03DE0E800C00000000BC0080CBEDDF48FAF70040EF01A077F6C602D0636D907E
310
07700025EA00A0615FA4FFC27B84B234663D98F4A98F1EAD400B8035C61AF951855EA8F550C2FC411A009EDE3CBDC0AABBEDBB3483545FA78DEB9A8AD60602E9A6AD22CD37BD93A2BE10E2148E04E0B367DFA68C2EF58F1690F44E4F72623BFB20D2F4174014A6FF6A021703A8CE2ACC95B54A18AF26691D74A05500DEACA6
310
B831897C2477055014A155EC791EE6421603F8E8CC0B735A0160457DF18E1E41E12FBA00F814AE35158C65C8C1AD114F1E8C5B0044E71680A83F7D2C80ABE4D75701AF1C65258D6DEBEFB31FACDF7FFF0F80C978BCC2C4E1895CF0DC115E6E01458B4DB4AE7F06603F1CE24503403DD290120FFA87682437FA02281CA1A32F
310
DD1B635323584B4560054050985313C0DD2DA0B8F9A517CAAC2BFF0B008ED59E0D0901531F95BB766D907E92C9794DDECF6A8FEA9B4C2A00FFC07F118748E9D7D54C1E4A403709F5BCE20F1909519D5850ECE3342DC024C74F21E44AE57317704F0420AABAAF0062CB677C150855B0B7133C08804B5E6406C0B45B01E6E482
310
ECFD0118CE7A3A49466BFD8058E4A927F80800C529684141ED9E60AEF6141D82EDDB133C06C06278C9CDF936190A196952A20BB0340480058473007031188CC341EE0980669ACF86B6BBDAA3B605F8CE14A7283238365D0134BB4C7C1280382390E79CD88C086077565A7382144DCBCAA5CDEDC1F300501B401C8453EE020E
310
0BE0886971DB5874684E9C0E0460CFE2476B9B0D69978F04D048DD19C072D9A90B80900DCA83255ACF2300DCB30AE8C9BD6F10ADC30C64BC7CA40F680128268DD4F5D3A703F87AF33900A6EFE52E5C2AAABA7B3C00A2A4FD72136AB939E9A900F22E5C63B219E46A9FF7257B6FF05800C3FB006593DCECD97F37C93B925E6B
310
012B4AEE01E0EE04C00C263832030027BE1B07275105000000000000000000000000000000AEEEE057F25749C77FB0706DB172B9375914FF93F09A2C769BFE60DD16B4727FE6DF141D0540FF2A50F901E5C8D15B9CE002C05B9CE05B9B4100283DF14200E0853DC1958359F00100F044009FBAEE54010054816B00DC402E2F
310
9DCDFFF6508BA8E577D70B3BC83E00A633807FF056C5824E399F570000000049454E44AE426082
  0
ACDSRECORD
 90
        0
  2
AcDbDs::ID
280
    10
320
1E
  2
Thumbnail_Data
280
    15
 94
      882
310
89504E470D0A1A0A0000000D49484452000000B80000007F08030000006B00F8F900000300504C5445FFFFFF000000C8C8C80000000000000000000000000000000000000000000000000000330000660000990000CC0000FF0033000033330033660033990033CC0033FF0066000066330066660066990066CC0066FF0099
310
000099330099660099990099CC0099FF00CC0000CC3300CC6600CC9900CCCC00CCFF00FF0000FF3300FF6600FF9900FFCC00FFFF3300003300333300663300993300CC3300FF3333003333333333663333993333CC3333FF3366003366333366663366993366CC3366FF3399003399333399663399993399CC3399FF33CC00
310
33CC3333CC6633CC9933CCCC33CCFF33FF0033FF3333FF6633FF9933FFCC33FFFF6600006600336600666600996600CC6600FF6633006633336633666633996633CC6633FF6666006666336666666666996666CC6666FF6699006699336699666699996699CC6699FF66CC0066CC3366CC6666CC9966CCCC66CCFF66FF0066
310
FF3366FF6666FF9966FFCC66FFFF9900009900339900669900999900CC9900FF9933009933339933669933999933CC9933FF9966009966339966669966999966CC9966FF9999009999339999669999999999CC9999FF99CC0099CC3399CC6699CC9999CCCC99CCFF99FF0099FF3399FF6699FF9999FFCC99FFFFCC0000CC00
310
33CC0066CC0099CC00CCCC00FFCC3300CC3333CC3366CC3399CC33CCCC33FFCC6600CC6633CC6666CC6699CC66CCCC66FFCC9900CC9933CC9966CC9999CC99CCCC99FFCCCC00CCCC33CCCC66CCCC99CCCCCCCCCCFFCCFF00CCFF33CCFF66CCFF99CCFFCCCCFFFFFF0000FF0033FF0066FF0099FF00CCFF00FFFF3300FF3333
310
FF3366FF3399FF33CCFF33FFFF6600FF6633FF6666FF6699FF66CCFF66FFFF9900FF9933FF9966FF9999FF99CCFF99FFFFCC00FFCC33FFCC66FFCC99FFCCCCFFCCFFFFFF00FFFF33FFFF66FFFF99FFFFCCFFFFFF0000000D0D0D1A1A1A2828283535354343435050505D5D5D6B6B6B787878868686939393A1A1A1AEAEAEBB
310
BBBBC9C9C9D6D6D6E4E4E4F1F1F1FFFFFF000000000000000000000000000000000000000000000000000000000000B0E2D2350000002D4944415478DAEDC13101000000C2A0F54FED6F06A00000000000000000000000000000000000000000000080335BC70001E79522D80000000049454E44AE426082
  0
ENDSEC
  0
EOF
